osu file format v14

[General]
AudioFilename: audio.mp3
AudioLeadIn: 0
PreviewTime: 109466
Countdown: 0
SampleSet: Soft
StackLeniency: 0.7
Mode: 2
LetterboxInBreaks: 0
WidescreenStoryboard: 0

[Editor]
Bookmarks: 44724,88862
DistanceSpacing: 0.4
BeatDivisor: 8
GridSize: 16
TimelineZoom: 2.4

[Metadata]
Title:Nirvana(Camellia's "BinaryHeaven" Remix)
TitleUnicode:Nirvana(Camellia's "BinaryHeaven" Remix)
Artist:kors k feat.RIRE
ArtistUnicode:kors k feat.ЯIRE
Creator:Spectator
Version:Overdrive
Source:
Tags:exit tunes let's do it again!!
BeatmapID:1468430
BeatmapSetID:694025

[Difficulty]
HPDrainRate:6
CircleSize:4.4
OverallDifficulty:9.5
ApproachRate:9.5
SliderMultiplier:1.92
SliderTickRate:2

[Events]
//Background and Video events
0,0,"nirvana.jpg",0,0
//Break Periods
//Storyboard Layer 0 (Background)
//Storyboard Layer 1 (Fail)
//Storyboard Layer 2 (Pass)
//Storyboard Layer 3 (Foreground)
//Storyboard Sound Samples

[TimingPoints]
587,344.827586206897,4,2,1,25,1,0
587,-111.111111111111,4,2,1,25,0,0
3345,-111.111111111111,4,2,1,28,0,0
6104,-111.111111111111,4,2,1,30,0,0
8862,-111.111111111111,4,2,1,33,0,0
11621,-111.111111111111,4,2,1,35,0,0
14380,-111.111111111111,4,2,1,37,0,0
17138,-111.111111111111,4,2,1,39,0,0
22655,-111.111111111111,4,2,1,45,0,0
43345,-111.111111111111,4,2,1,30,0,0
44724,-111.111111111111,4,2,1,55,0,0
66793,-111.111111111111,4,2,3,50,0,0
69552,-111.111111111111,4,2,3,55,0,0
72311,-111.111111111111,4,2,3,57,0,0
77828,-111.111111111111,4,2,3,60,0,0
80587,-111.111111111111,4,2,3,63,0,0
83345,-111.111111111111,4,2,1,66,0,0
84724,-111.111111111111,4,2,1,68,0,0
86104,-100,4,2,1,63,0,0
88862,-100,4,2,1,65,0,0
89035,-100,4,2,1,55,0,0
91621,-100,4,2,1,68,0,0
91793,-100,4,2,1,55,0,0
93000,-100,4,2,1,60,0,0
94380,-100,4,2,1,63,0,0
95069,-100,4,2,1,58,0,0
97138,-100,4,2,1,63,0,0
99897,-90.9090909090909,4,2,1,68,0,0
106104,-90.9090909090909,4,2,1,71,0,0
106793,-90.9090909090909,4,2,1,73,0,0
107483,-90.9090909090909,4,2,1,76,0,0
108173,-90.9090909090909,4,2,1,78,0,0
108862,-90.9090909090909,4,2,1,80,0,0
110587,-90.9090909090909,4,2,2,70,0,0
110931,-90.9090909090909,4,2,1,75,0,1
123690,-90.9090909090909,4,2,1,80,0,1
124724,-90.9090909090909,4,2,1,75,0,1
132311,-90.9090909090909,4,2,1,80,0,0
132655,-83.3333333333333,4,2,2,80,0,0
133000,-90.9090909090909,4,2,1,80,0,1
153690,-90.9090909090909,4,2,1,60,0,1
154035,-90.9090909090909,4,2,1,68,0,1
154380,-90.9090909090909,4,2,1,75,0,1
155069,-90.9090909090909,4,2,1,80,0,0
155242,-100,4,2,1,50,0,0
155759,-100,4,2,1,40,0,0
156793,-100,4,2,1,30,0,0
157828,-100,4,2,1,20,0,0
158518,-100,4,2,1,13,0,0
160587,-111.111111111111,4,2,1,20,0,0
166104,-111.111111111111,4,2,1,25,0,0
171621,-111.111111111111,4,2,1,28,0,0
177138,-111.111111111111,4,2,2,35,0,0
177224,-111.111111111111,4,2,1,35,0,0
199207,-111.111111111111,4,2,1,40,0,0
199897,-111.111111111111,4,2,3,53,0,0
200069,-111.111111111111,4,2,3,40,0,0
200587,-111.111111111111,4,2,3,53,0,0
200759,-111.111111111111,4,2,3,40,0,0
201276,-111.111111111111,4,2,3,53,0,0
201449,-111.111111111111,4,2,3,40,0,0
201966,-111.111111111111,4,2,3,43,0,0
202655,-111.111111111111,4,2,3,55,0,0
202828,-111.111111111111,4,2,3,43,0,0
203345,-111.111111111111,4,2,3,55,0,0
203518,-111.111111111111,4,2,3,43,0,0
204035,-100,4,2,1,35,0,0
207483,-100,4,2,1,40,0,0
210242,-90.9090909090909,4,2,1,45,0,0
213000,-90.9090909090909,4,2,1,50,0,0
215759,-90.9090909090909,4,2,1,55,0,0
217138,-90.9090909090909,4,2,1,58,0,0
218518,-90.9090909090909,4,2,1,60,0,0
221621,-90.9090909090909,4,2,1,45,0,0
221966,-90.9090909090909,4,2,1,52,0,0
222311,-90.9090909090909,4,2,1,56,0,0
222655,-90.9090909090909,4,2,1,60,0,0
223345,-83.3333333333333,4,2,1,70,0,0
224035,-83.3333333333333,4,2,1,75,0,1
235069,-76.9230769230769,4,2,1,75,0,1
235414,-83.3333333333333,4,2,1,75,0,1
240587,-90.9090909090909,4,2,1,75,0,1
243345,-83.3333333333333,4,2,1,75,0,0
245587,-83.3333333333333,4,2,2,75,0,0
246104,-90.9090909090909,4,2,1,75,0,1
257138,-83.3333333333333,4,2,1,75,0,0
259897,-83.3333333333333,4,2,1,80,0,1
279897,-83.3333333333333,4,2,1,70,0,1
280587,-83.3333333333333,4,2,1,60,0,1
281276,-83.3333333333333,4,2,1,50,0,1
281966,-83.3333333333333,4,2,1,80,0,0
282311,-111.111111111111,4,2,1,40,0,0
287483,-111.111111111111,4,2,1,35,0,0
293000,-111.111111111111,4,2,1,30,0,0
295759,-111.111111111111,4,2,1,25,0,0
299035,-111.111111111111,4,2,1,23,0,0
299552,-111.111111111111,4,2,1,21,0,0
300069,-111.111111111111,4,2,1,20,0,0
300587,-111.111111111111,4,2,1,19,0,0
301276,-111.111111111111,4,2,1,20,0,0
301793,-111.111111111111,4,2,1,19,0,0
302311,-111.111111111111,4,2,1,18,0,0
303345,-111.111111111111,4,2,1,17,0,0
304035,-111.111111111111,4,2,1,20,0,0
304724,-111.111111111111,4,2,1,19,0,0
305759,-111.111111111111,4,2,1,18,0,0
307138,-111.111111111111,4,2,1,17,0,0
308518,-111.111111111111,4,2,1,16,0,0
309552,-111.111111111111,4,2,1,15,0,0
310931,-111.111111111111,4,2,1,14,0,0
311966,-111.111111111111,4,2,1,13,0,0
313000,-111.111111111111,4,2,1,12,0,0
314035,-111.111111111111,4,2,1,11,0,0
315069,-111.111111111111,4,2,1,10,0,0

[Colours]
Combo1 : 136,225,207
Combo2 : 242,117,149
Combo3 : 146,155,243
Combo4 : 189,237,109

[HitObjects]
111,320,587,6,0,P|77:273|152:202,1,172.799994726563,2|0,0:0|0:0,0:0:0:0:
244,222,1104,2,0,L|48:208,1,172.799994726563,2|0,0:0|0:0,0:0:0:0:
172,216,1621,2,0,P|206:169|131:98,1,172.799994726563,2|0,0:0|0:0,0:0:0:0:
39,118,2138,2,0,L|235:104,1,172.799994726563,2|0,0:0|0:0,0:0:0:0:
340,347,2655,2,0,P|399:290|311:165,1,259.199992089844,2|0,0:0|0:0,0:0:0:0:
401,320,3345,6,0,P|435:273|360:202,1,172.799994726563,2|0,0:0|0:0,0:0:0:0:
268,222,3862,2,0,L|464:208,1,172.799994726563,2|0,0:0|0:0,0:0:0:0:
340,216,4379,2,0,P|306:169|381:98,1,172.799994726563,2|0,0:0|0:0,0:0:0:0:
473,118,4897,2,0,L|275:105,1,172.799994726563,2|0,0:0|0:0,0:0:0:0:
172,347,5413,2,0,P|113:290|201:165,1,259.199992089844,2|0,0:0|0:0,0:0:0:0:
308,281,6104,6,0,P|329:214|259:153,1,172.799994726563,2|0,0:0|0:0,0:0:0:0:
151,146,6621,2,0,L|348:121,1,172.799994726563,2|0,0:0|0:0,0:0:0:0:
213,238,7138,2,0,P|192:171|262:110,1,172.799994726563,2|0,0:0|0:0,0:0:0:0:
370,103,7655,2,0,L|173:78,1,172.799994726563,2|0,0:0|0:0,0:0:0:0:
87,269,8173,2,0,P|90:181|250:93,1,259.199992089844,2|0,0:0|0:0,0:0:0:0:
112,277,8862,6,0,P|91:210|161:149,1,172.799994726563,2|0,0:0|0:0,0:0:0:0:
269,142,9379,2,0,L|72:117,1,172.799994726563,2|0,0:0|0:0,0:0:0:0:
207,234,9897,2,0,P|228:167|158:106,1,172.799994726563,2|0,0:0|0:0,0:0:0:0:
50,99,10414,2,0,L|247:74,1,172.799994726563,2|0,0:0|0:0,0:0:0:0:
331,271,10931,2,0,P|328:183|168:95,1,259.199992089844,2|0,0:0|0:0,0:0:0:0:
82,247,11621,6,0,L|264:231,1,172.799994726563,2|0,0:0|0:0,0:0:0:0:
141,241,12138,2,0,P|100:200|164:121,1,172.799994726563,2|0,0:0|0:0,0:0:0:0:
273,137,12655,2,0,L|91:121,1,172.799994726563,2|0,0:0|0:0,0:0:0:0:
214,131,13173,2,0,P|255:90|191:11,1,172.799994726563,2|0,0:0|0:0,0:0:0:0:
82,287,13690,2,0,P|35:221|156:106,1,259.199992089844,2|0,0:0|0:0,0:0:0:0:
249,298,14380,6,0,L|67:282,1,172.799994726563,2|0,0:0|0:0,0:0:0:0:
190,292,14897,2,0,P|231:251|167:172,1,172.799994726563,2|0,0:0|0:0,0:0:0:0:
58,188,15414,2,0,L|240:172,1,172.799994726563,2|0,0:0|0:0,0:0:0:0:
117,182,15931,2,0,P|76:141|140:62,1,172.799994726563,2|0,0:0|0:0,0:0:0:0:
249,338,16449,2,0,P|296:272|175:157,1,259.199992089844,2|0,0:0|0:0,0:0:0:0:
321,247,17138,6,0,L|500:229,1,172.799994726563,2|0,0:0|0:0,0:0:0:0:
371,340,17655,2,0,L|192:322,1,172.799994726563,2|0,0:0|0:0,0:0:0:0:
314,228,18173,2,0,L|493:210,1,172.799994726563,2|0,0:0|0:0,0:0:0:0:
364,321,18690,2,0,L|185:303,1,172.799994726563,2|0,0:0|0:0,0:0:0:0:
317,350,19207,2,0,P|369:259|254:194,1,259.199992089844,2|0,0:0|0:0,0:0:0:0:
129,285,19897,6,0,L|105:94,1,172.799994726563,2|0,0:0|0:0,0:0:0:0:
235,230,20414,2,0,L|259:39,1,172.799994726563,2|0,0:0|0:0,0:0:0:0:
379,307,20931,2,0,L|355:116,1,172.799994726563,2|0,0:0|0:0,0:0:0:0:
485,252,21448,2,0,L|509:61,1,172.799994726563,2|0,0:0|0:0,0:0:0:0:
366,84,21966,2,0,L|24:52,1,302.399990771485,2|0,0:0|0:0,0:0:0:0:
131,96,22655,5,2,0:0:0:0:
253,188,22828,2,0,P|277:143|251:77,1,86.3999973632813
110,96,23173,1,2,0:0:0:0:
400,112,23689,5,2,0:0:0:0:
280,207,23862,2,0,P|256:162|282:96,1,86.3999973632813
434,115,24207,1,2,0:0:0:0:
204,269,24552,1,0,0:0:0:0:
309,268,24724,2,0,P|330:217|233:125,1,172.799994726563
141,128,25242,1,2,0:0:0:0:
375,327,25414,5,2,0:0:0:0:
466,251,25587,2,0,P|464:203|436:166,1,86.3999973632813
314,170,25931,1,2,0:0:0:0:
137,327,26449,5,2,0:0:0:0:
46,251,26622,2,0,P|48:203|76:166,1,86.3999973632813
198,170,26966,1,2,0:0:0:0:
30,142,27311,1,0,0:0:0:0:
147,222,27483,2,0,P|211:191|124:75,1,259.199992089844,2|0,0:0|0:0,0:0:0:0:
375,262,28173,5,2,0:0:0:0:
483,228,28345,2,0,L|471:122,1,86.3999973632813
324,145,28690,1,2,0:0:0:0:
137,262,29207,5,2,0:0:0:0:
29,228,29379,2,0,L|41:122,1,86.3999973632813
188,145,29724,1,2,0:0:0:0:
296,234,30069,1,0,0:0:0:0:
183,283,30242,2,0,L|367:256,1,172.799994726563,2|0,0:0|0:0,0:0:0:0:
480,285,30759,1,2,0:0:0:0:
239,346,30931,6,0,P|207:310|231:250,1,86.3999973632813,2|0,0:0|0:0,0:0:0:0:
285,213,31276,1,0,0:0:0:0:
143,252,31449,2,0,P|111:216|135:156,1,86.3999973632813,2|0,0:0|0:0,0:0:0:0:
189,119,31794,1,0,0:0:0:0:
330,149,31966,1,0,0:0:0:0:
189,119,32138,2,0,P|157:83|181:23,1,86.3999973632813,2|0,0:0|0:0,0:0:0:0:
395,47,32483,5,2,0:0:0:0:
196,242,32828,2,0,P|231:119|269:95,1,172.799994726563,2|0,0:0|0:0,0:0:0:0:
376,94,33345,1,2,0:0:0:0:
64,368,33690,6,0,P|46:322|73:270,1,86.3999973632813,2|0,0:0|0:0,0:0:0:0:
214,232,34035,1,0,0:0:0:0:
114,229,34207,1,2,0:0:0:0:
448,368,34724,6,0,P|466:322|439:270,1,86.3999973632813,2|0,0:0|0:0,0:0:0:0:
291,222,35069,1,0,0:0:0:0:
396,218,35241,1,2,0:0:0:0:
160,189,35414,1,2,0:0:0:0:
338,302,35759,2,0,P|411:249|323:132,1,259.199992089844,2|0,0:0|0:0,0:0:0:0:
175,231,36449,6,0,P|225:211|271:206,1,86.3999973632813,2|0,0:0|0:0,0:0:0:0:
358,247,36793,1,0,0:0:0:0:
231,193,36966,1,2,0:0:0:0:
337,231,37483,6,0,P|287:211|241:206,1,86.3999973632813,2|0,0:0|0:0,0:0:0:0:
154,247,37827,1,0,0:0:0:0:
281,193,38000,1,2,0:0:0:0:
47,189,38173,1,0,0:0:0:0:
184,297,38518,2,0,P|271:264|176:165,1,259.199992089844,2|2,0:0|0:0,0:0:0:0:
436,261,39207,6,0,L|456:172,1,86.3999973632813,2|0,0:0|0:0,0:0:0:0:
341,179,39552,1,0,0:0:0:0:
471,177,39724,1,2,0:0:0:0:
76,261,40242,6,0,L|56:172,1,86.3999973632813,2|0,0:0|0:0,0:0:0:0:
171,179,40587,1,0,0:0:0:0:
41,177,40759,1,0,0:0:0:0:
288,176,40931,1,2,0:0:0:0:
90,239,41276,2,0,P|92:167|254:48,1,259.199992089844,2|0,0:0|0:0,0:0:0:0:
367,256,41966,6,0,P|408:221|335:142,1,172.799994726563,2|0,0:0|0:0,0:0:0:0:
192,253,42483,2,0,P|151:218|224:139,1,172.799994726563,2|0,0:0|0:0,0:0:0:0:
364,137,43000,1,2,0:0:0:0:
256,192,43345,12,0,44380,0:0:0:0:
272,347,44724,6,0,L|278:231,1,86.3999973632813,4|0,0:0|0:0,0:0:0:0:
157,254,45069,1,2,0:0:0:0:
256,188,45242,1,0,0:0:0:0:
124,184,45414,2,0,L|114:1,1,172.799994726563,2|2,0:0|0:0,0:0:0:0:
224,55,45931,1,0,0:0:0:0:
333,165,46104,1,0,0:0:0:0:
226,226,46276,2,0,L|233:322,1,86.3999973632813,2|0,0:0|0:0,0:0:0:0:
341,174,46621,1,0,0:0:0:0:
213,213,46793,2,0,L|207:127,1,86.3999973632813,2|0,0:0|0:0,0:0:0:0:
339,274,47138,2,0,L|345:187,1,86.3999973632813,2|0,0:0|0:0,0:0:0:0:
87,256,47483,6,0,L|81:170,1,86.3999973632813,2|0,0:0|0:0,0:0:0:0:
213,317,47828,2,0,L|219:230,1,86.3999973632813,2|0,0:0|0:0,0:0:0:0:
93,233,48173,2,0,L|82:51,1,172.799994726563,0|2,0:0|0:0,0:0:0:0:
188,61,48690,1,0,0:0:0:0:
74,170,48862,2,0,L|66:68,1,86.3999973632813,2|0,0:0|0:0,0:0:0:0:
194,260,49207,2,0,L|186:158,1,86.3999973632813,2|0,0:0|0:0,0:0:0:0:
310,351,49552,2,0,L|302:249,1,86.3999973632813,2|0,0:0|0:0,0:0:0:0:
188,263,49897,1,2,0:0:0:0:
303,264,50069,1,0,0:0:0:0:
47,345,50242,6,0,L|41:245,1,86.3999973632813,2|0,0:0|0:0,0:0:0:0:
151,267,50587,2,0,L|157:167,1,86.3999973632813,2|0,0:0|0:0,0:0:0:0:
34,189,50931,2,0,L|23:10,1,172.799994726563,0|2,0:0|0:0,0:0:0:0:
128,18,51449,1,0,0:0:0:0:
250,187,51621,2,0,L|260:81,1,86.3999973632813
132,127,51966,2,0,L|122:21,1,86.3999973632813,2|0,0:0|0:0,0:0:0:0:
265,67,52311,1,0,0:0:0:0:
143,47,52483,1,0,0:0:0:0:
284,150,52655,2,0,L|294:44,1,86.3999973632813,2|0,0:0|0:0,0:0:0:0:
62,332,53000,6,0,L|45:212,1,86.3999973632813
192,245,53345,1,2,0:0:0:0:
67,243,53518,1,0,0:0:0:0:
203,247,53690,2,0,L|220:62,1,172.799994726563,0|2,0:0|0:0,0:0:0:0:
103,74,54207,1,0,0:0:0:0:
231,76,54380,1,0,0:0:0:0:
359,81,54552,2,0,L|379:-13,1,86.3999973632813,2|0,0:0|0:0,0:0:0:0:
211,258,54897,2,0,L|185:68,1,172.799994726563,2|0,0:0|0:0,0:0:0:0:
427,88,55414,1,2,0:0:0:0:
253,134,55759,6,0,P|206:119|158:132,1,86.3999973632813,2|0,0:0|0:0,0:0:0:0:
67,245,56104,2,0,P|114:230|162:243,1,86.3999973632813,2|0,0:0|0:0,0:0:0:0:
274,341,56449,2,0,P|327:299|256:235,1,172.799994726563,0|2,0:0|0:0,0:0:0:0:
146,230,56966,1,0,0:0:0:0:
290,234,57138,2,0,L|385:225,1,86.3999973632813,2|0,0:0|0:0,0:0:0:0:
262,131,57483,2,0,L|368:122,1,86.3999973632813,2|0,0:0|0:0,0:0:0:0:
491,164,57828,2,0,P|478:91|394:48,1,172.799994726563,2|0,0:0|0:0,0:0:0:0:
280,48,58345,1,2,0:0:0:0:
41,324,58518,6,0,L|18:233,1,86.3999973632813,2|0,0:0|0:0,0:0:0:0:
135,238,58862,1,0,0:0:0:0:
257,245,59035,2,0,L|280:154,1,86.3999973632813,2|0,0:0|0:0,0:0:0:0:
174,159,59379,1,0,0:0:0:0:
58,205,59552,2,0,L|35:114,1,86.3999973632813,2|0,0:0|0:0,0:0:0:0:
308,305,59897,2,0,L|331:214,1,86.3999973632813,2|0,0:0|0:0,0:0:0:0:
196,207,60242,2,0,L|173:116,1,86.3999973632813,2|0,0:0|0:0,0:0:0:0:
322,199,60587,2,0,P|374:149|305:77,1,172.799994726563
169,78,61104,1,2,0:0:0:0:
412,333,61276,6,0,L|502:328,1,86.3999973632813,2|0,0:0|0:0,0:0:0:0:
368,235,61621,2,0,L|271:228,1,86.3999973632813,2|0,0:0|0:0,0:0:0:0:
144,224,61966,2,8,P|170:133|272:112,1,172.799994726563,0|2,0:0|0:0,0:0:0:0:
338,119,62483,1,2,0:0:0:0:
207,238,62655,2,0,L|188:132,1,86.3999973632813
326,159,63000,1,2,0:0:0:0:
201,157,63173,1,0,0:0:0:0:
343,245,63345,2,0,P|426:243|459:143,1,172.799994726563,2|0,0:0|0:0,0:0:0:0:
366,89,63862,1,2,0:0:0:0:
61,350,64035,6,0,L|45:231,1,86.3999973632813,2|0,0:0|0:0,0:0:0:0:
162,263,64380,1,0,0:0:0:0:
302,272,64552,2,0,L|318:153,1,86.3999973632813,2|0,0:0|0:0,0:0:0:0:
201,185,64897,1,0,0:0:0:0:
63,272,65069,2,0,L|47:153,1,86.3999973632813,2|0,0:0|0:0,0:0:0:0:
195,283,65414,6,0,L|210:175,1,86.3999973632813,0|2,0:0|0:0,0:0:0:0:
344,283,65759,2,0,L|359:175,1,86.3999973632813,0|2,0:0|0:0,0:0:0:0:
202,292,66104,5,2,0:0:0:0:
182,274,66147,1,0,0:0:0:0:
166,254,66190,1,0,0:0:0:0:
158,229,66233,1,0,0:0:0:0:
160,202,66276,1,0,0:0:0:0:
172,179,66319,1,0,0:0:0:0:
191,160,66362,1,0,0:0:0:0:
216,153,66405,1,0,0:0:0:0:
242,149,66449,1,0,0:0:0:0:
264,137,66492,1,0,0:0:0:0:
281,115,66535,1,0,0:0:0:0:
290,91,66578,1,0,0:0:0:0:
290,64,66621,1,0,0:0:0:0:
278,41,66664,1,0,0:0:0:0:
259,22,66707,1,0,0:0:0:0:
38,106,66793,5,0,1:0:0:0:
224,111,67138,1,0,1:2:0:0:
207,206,67655,1,0,3:0:0:0:
59,203,67828,1,0,1:2:0:0:
65,121,68345,1,0,3:0:0:0:
201,120,68518,1,0,1:2:0:0:
198,43,69035,1,0,3:0:0:0:
71,43,69208,1,0,1:2:0:0:
474,106,69552,5,0,3:0:0:0:
288,111,69897,1,0,1:2:0:0:
305,206,70414,1,0,3:0:0:0:
453,203,70587,1,0,1:2:0:0:
447,121,71104,1,0,3:0:0:0:
311,120,71277,1,0,1:2:0:0:
281,192,71621,1,0,3:0:0:0:
314,43,71794,1,0,3:0:0:0:
441,43,71967,1,0,1:2:0:0:
38,106,72311,5,0,3:0:0:0:
224,111,72656,1,0,1:2:0:0:
207,206,73173,1,0,3:0:0:0:
59,203,73346,1,0,1:2:0:0:
65,121,73863,1,0,3:0:0:0:
201,120,74036,1,0,1:2:0:0:
198,43,74553,1,0,3:0:0:0:
71,43,74724,1,0,1:2:0:0:
474,106,75069,5,0,3:0:0:0:
288,111,75414,1,0,1:2:0:0:
305,206,75931,1,0,3:0:0:0:
453,203,76104,1,0,1:2:0:0:
451,25,76449,1,0,3:0:0:0:
466,120,76621,1,0,3:0:0:0:
289,121,76794,1,0,1:2:0:0:
273,148,77138,1,0,3:0:0:0:
314,43,77311,1,0,3:0:0:0:
485,46,77484,1,0,1:2:0:0:
19,238,77828,5,0,3:0:0:0:
258,239,78173,1,0,1:0:0:0:
53,345,78518,1,0,0:0:0:0:
19,238,78690,1,0,3:0:0:0:
201,231,78862,1,0,1:0:0:0:
230,268,79207,1,0,0:0:0:0:
264,161,79379,1,0,3:0:0:0:
82,158,79551,1,0,1:0:0:0:
32,160,79897,1,0,2:0:0:0:
66,267,80069,1,0,3:0:0:0:
227,159,80241,1,0,1:0:0:0:
493,238,80587,5,0,1:0:0:0:
254,239,80932,1,0,1:0:0:0:
459,345,81277,1,0,0:0:0:0:
493,238,81449,1,0,3:0:0:0:
311,235,81621,1,0,1:0:0:0:
282,268,81966,1,0,0:0:0:0:
248,161,82138,1,0,3:0:0:0:
447,159,82310,1,0,1:0:0:0:
480,160,82656,1,0,1:0:0:0:
355,164,82828,1,0,1:0:0:0:
100,164,83000,1,0,1:0:0:0:
357,344,83345,5,0,1:0:0:0:
485,345,83518,1,0,1:0:0:0:
258,275,83690,2,0,L|242:141,1,129.599996044922,8|0,0:0|0:0,0:0:0:0:
151,339,84035,5,0,1:0:0:0:
23,340,84208,1,0,1:0:0:0:
258,275,84380,2,0,L|274:141,1,129.599996044922,8|0,0:0|0:0,0:0:0:0:
353,338,84724,5,0,1:0:0:0:
481,339,84897,1,0,1:0:0:0:
159,338,85069,1,8,1:2:0:0:
31,339,85242,1,0,1:0:0:0:
302,283,85414,2,0,L|360:276,1,43.1999986816407,8|0,1:2|1:0,1:0:0:0:
162,227,85587,2,0,L|127:172,1,43.1999986816407,0|0,1:0|1:0,1:0:0:0:
290,170,85759,2,0,L|311:108,1,43.1999986816407,8|0,1:2|1:0,1:0:0:0:
230,83,85932,2,0,L|220:34,1,43.1999986816407,0|0,1:0|1:0,1:0:0:0:
401,323,86104,6,0,P|423:270|321:175,1,192,2|0,0:0|0:0,0:0:0:0:
241,174,86621,2,0,L|446:158,1,192,2|0,0:0|0:0,0:0:0:0:
296,246,87138,2,0,P|274:193|376:98,1,192,2|0,0:0|0:0,0:0:0:0:
456,97,87655,2,0,L|251:81,1,192,2|0,0:0|0:0,0:0:0:0:
79,159,88862,6,0,P|61:114|92:64,1,96,4|0,1:0|0:0,0:0:0:0:
210,261,89207,2,0,L|323:254,1,96
381,189,89466,2,0,L|266:181,1,96
205,191,89724,1,0,0:0:0:0:
364,327,89897,2,0,L|376:255,1,48
458,267,90069,2,0,L|469:203,1,48
382,164,90242,6,0,L|281:157,1,96,0|0,1:0|0:0,0:0:0:0:
158,335,90587,2,0,P|124:293|146:248,1,96
221,254,90845,2,0,P|255:212|233:167,1,96
151,172,91104,1,0,0:0:0:0:
288,304,91276,2,0,L|276:232,1,48
194,244,91448,2,0,L|183:180,1,48
278,139,91621,6,0,L|379:132,1,96,0|0,1:0|0:0,0:0:0:0:
210,261,91966,2,0,L|323:254,1,96
381,189,92225,2,0,L|266:181,1,96
205,191,92483,1,0,0:0:0:0:
118,271,92655,2,0,L|109:318,1,48
199,213,92827,2,0,L|191:260,1,48
271,157,93000,6,0,L|155:140,1,96,0|0,1:0|0:0,0:0:0:0:
327,354,93345,2,0,L|356:235,1,96
257,228,93604,2,0,L|240:114,1,96
335,128,93862,1,0,0:0:0:0:
194,319,94035,2,0,L|177:248,1,48
266,227,94207,2,0,L|283:156,1,48
80,160,94380,5,0,0:0:0:0:
240,144,94552,2,0,L|230:79,1,48,2|0,0:0|0:0,0:0:0:0:
70,193,94724,1,2,0:0:0:0:
223,189,94897,1,2,0:0:0:0:
70,321,95069,2,0,L|41:251,1,48
147,219,95242,2,0,L|203:211,1,48
280,165,95414,2,0,L|302:95,1,48
203,63,95587,2,0,L|147:55,1,48
236,311,95759,6,0,L|376:295,1,96,0|0,1:0|0:0,0:0:0:0:
456,232,96104,2,0,P|444:182|386:149,1,96
331,149,96362,2,0,P|343:99|401:66,1,96
446,74,96621,1,0,0:0:0:0:
346,331,96793,2,0,L|327:264,1,48,2|0,0:0|0:0,0:0:0:0:
256,270,96966,2,0,L|235:200,1,48
336,203,97138,6,0,P|384:178|399:60,1,144
373,32,97483,2,0,L|275:24,1,96,2|0,0:0|0:0,0:0:0:0:
156,333,97828,2,0,L|145:253,1,48
227,274,98000,2,0,L|216:194,1,48,0|0,3:0|0:0,0:0:0:0:
310,331,98173,2,0,L|299:251,1,48,2|0,0:0|0:0,0:0:0:0:
377,270,98345,2,0,L|366:190,1,48,0|0,3:0|0:0,0:0:0:0:
288,199,98518,5,0,1:0:0:0:
442,200,98690,1,0,1:0:0:0:
206,300,98862,1,0,1:0:0:0:
360,301,99034,1,0,1:0:0:0:
120,195,99207,1,0,1:0:0:0:
274,196,99379,1,0,1:0:0:0:
34,276,99552,2,0,L|17:253,6,24,0|0|0|0|0|0|0,1:0|0:0|0:0|0:0|0:0|0:0|0:0,0:0:0:0:
267,346,99897,6,0,P|305:310|280:228,1,105.600003222656,4|0,0:0|0:0,0:0:0:0:
223,219,100155,1,0,0:0:0:0:
133,244,100242,2,0,P|95:208|120:126,1,105.600003222656,0|0,1:0|0:0,0:0:0:0:
180,119,100500,1,0,0:0:0:0:
404,275,100587,2,0,L|511:266,1,105.600003222656,0|2,1:0|0:0,0:0:0:0:
230,148,100931,2,0,L|337:139,1,105.600003222656,0|2,1:0|0:0,0:0:0:0:
100,323,101276,6,0,L|220:307,1,105.600003222656,0|0,1:0|0:0,0:0:0:0:
296,333,101535,1,0,0:0:0:0:
387,321,101621,2,0,L|402:179,1,105.600003222656,0|0,1:0|0:0,0:0:0:0:
306,209,101880,1,0,0:0:0:0:
21,237,101966,6,0,L|1:111,1,105.600003222656,0|2,1:0|0:0,0:0:0:0:
277,159,102311,2,0,L|297:33,1,105.600003222656,0|2,1:0|0:0,0:0:0:0:
480,237,102655,6,0,L|367:217,1,105.600003222656,0|0,1:0|0:0,0:0:0:0:
297,227,102914,1,0,0:0:0:0:
215,248,103000,2,0,P|186:191|230:134,1,105.600003222656,0|0,1:0|0:0,0:0:0:0:
286,145,103259,1,0,0:0:0:0:
494,128,103345,2,0,L|358:114,1,105.600003222656,0|2,1:0|0:0,0:0:0:0:
109,335,103690,2,0,L|245:321,1,105.600003222656,0|2,1:0|0:0,0:0:0:0:
453,353,104035,6,0,P|459:292|413:223,1,105.600003222656,0|0,1:0|0:0,0:0:0:0:
359,235,104293,1,0,0:0:0:0:
172,258,104380,2,0,P|127:224|125:149,1,105.600003222656,0|0,1:0|0:0,0:0:0:0:
196,132,104638,1,0,0:0:0:0:
377,205,104724,2,0,L|515:205,1,105.600003222656,0|2,1:0|0:0,0:0:0:0:
135,205,105069,2,0,L|-3:205,1,105.600003222656,0|2,1:0|0:0,0:0:0:0:
339,289,105414,5,0,1:0:0:0:
435,196,105587,2,0,L|452:119,1,52.8000016113282,0|0,1:0|0:0,0:0:0:0:
186,248,105759,5,0,1:0:0:0:
68,181,105931,2,0,L|77:112,1,52.8000016113282,0|0,1:0|0:0,0:0:0:0:
326,248,106104,5,0,1:0:0:0:
432,162,106276,2,0,L|358:137,1,52.8000016113282,0|0,1:0|0:0,0:0:0:0:
196,220,106449,5,0,1:0:0:0:
49,99,106621,2,0,L|127:96,1,52.8000016113282,0|0,1:0|0:0,0:0:0:0:
336,224,106793,5,0,1:0:0:0:
483,103,106965,2,0,L|413:114,1,52.8000016113282,0|0,1:0|0:0,0:0:0:0:
186,248,107138,5,0,1:0:0:0:
80,162,107310,2,0,L|154:137,1,52.8000016113282,0|0,1:0|0:0,0:0:0:0:
326,248,107483,5,0,1:0:0:0:
444,181,107655,2,0,L|467:116,1,52.8000016113282,0|0,1:0|0:0,0:0:0:0:
173,289,107828,5,0,1:0:0:0:
77,196,108001,2,0,L|60:119,1,52.8000016113282,0|0,1:0|0:0,0:0:0:0:
384,354,108173,6,0,L|399:281,1,52.8000016113282,0|0,1:0|1:0,1:0:0:0:
186,273,108345,2,0,L|171:200,1,52.8000016113282,0|0,1:0|1:0,1:0:0:0:
272,183,108518,2,0,L|287:110,1,52.8000016113282,0|0,1:0|1:0,1:0:0:0:
74,102,108690,2,0,L|59:29,1,52.8000016113282,0|0,1:0|1:0,1:0:0:0:
271,221,108862,6,0,L|353:222,1,52.8000016113282,0|0,1:0|1:0,1:0:0:0:
481,229,109035,2,0,L|499:162,1,52.8000016113282,0|0,1:0|1:0,1:0:0:0:
301,95,109207,2,0,L|223:96,1,52.8000016113282,0|0,1:0|1:0,1:0:0:0:
66,224,109380,2,0,L|147:222,1,52.8000016113282,0|0,1:0|1:0,1:0:0:0:
376,356,109552,6,0,P|357:245|216:181,1,264.000008056641
303,182,110069,1,2,0:0:0:0:
478,189,110242,1,0,3:0:0:0:
178,264,110414,1,0,1:0:0:0:
414,150,110587,2,2,L|356:149,1,52.8000016113282,2|2,3:2|3:2,3:2:0:0:
150,136,110759,2,2,L|76:135,1,52.8000016113282,2|2,3:2|3:2,3:2:0:0:
359,332,110931,6,0,P|414:316|443:215,1,158.400004833985,6|0,0:3|0:0,0:0:0:0:
360,201,111276,1,8,0:0:0:0:
193,242,111449,2,0,P|180:185|265:123,1,158.400004833985,2|0,0:0|0:0,0:0:0:0:
421,125,111793,1,0,1:0:0:0:
289,240,111966,2,0,P|238:204|243:161,1,105.600003222656,8|0,0:0|0:0,0:0:0:0:
491,176,112311,5,2,0:0:0:0:
246,172,112483,1,0,1:0:0:0:
368,176,112655,2,0,L|384:115,1,52.8000016113282,8|0,0:0|0:0,0:0:0:0:
330,55,112828,1,2,2:0:0:0:
87,263,113000,2,0,L|75:187,1,52.8000016113282,2|0,0:0|0:0,0:0:0:0:
250,198,113173,2,0,L|323:187,1,52.8000016113282,0|0,1:0|0:0,0:0:0:0:
396,194,113345,2,0,L|409:122,1,52.8000016113282,10|0,0:0|0:0,0:0:0:0:
206,104,113518,2,0,L|193:32,1,52.8000016113282,2|0,0:0|0:0,0:0:0:0:
403,344,113690,6,0,P|396:280|291:218,1,158.400004833985,0|0,1:0|0:0,0:0:0:0:
141,333,114035,2,0,L|112:332,1,26.4000008056641,8|0,0:0|0:0,0:0:0:0:
343,65,114207,2,0,L|375:60,1,26.4000008056641
38,260,114380,2,0,L|49:153,1,105.600003222656,2|0,0:0|1:0,0:0:0:0:
342,166,114724,1,8,0:0:0:0:
31,183,114897,1,2,0:0:0:0:
296,273,115069,6,0,L|419:264,1,105.600003222656,2|0,0:0|1:0,0:0:0:0:
168,197,115414,1,8,0:0:0:0:
296,188,115587,1,2,0:0:0:0:
39,170,115759,1,0,1:0:0:0:
331,168,115931,1,0,1:0:0:0:
170,278,116104,1,8,0:0:0:0:
144,258,116147,1,0,0:0:0:0:
128,230,116190,1,0,0:0:0:0:
123,198,116233,1,0,0:0:0:0:
133,167,116276,1,0,0:0:0:0:
151,141,116319,1,0,0:0:0:0:
184,130,116362,1,0,0:0:0:0:
387,287,116449,6,0,P|361:226|280:172,1,158.400004833985,0|0,1:0|0:0,0:0:0:0:
362,149,116793,1,8,0:0:0:0:
195,167,116966,2,0,P|204:102|308:51,1,158.400004833985,2|0,0:0|0:0,0:0:0:0:
444,54,117311,1,0,1:0:0:0:
322,190,117483,2,0,L|208:179,1,105.600003222656,8|0,0:0|0:0,0:0:0:0:
357,263,117828,5,2,0:0:0:0:
81,333,118000,1,0,1:0:0:0:
213,319,118173,2,0,L|223:200,1,105.600003222656,8|0,0:0|0:0,0:0:0:0:
81,211,118518,2,0,L|142:205,1,52.8000016113282,2|0,0:0|0:0,0:0:0:0:
310,273,118690,2,0,L|391:263,1,52.8000016113282,0|0,1:0|0:0,0:0:0:0:
122,101,118862,2,0,L|183:95,1,52.8000016113282,8|0,0:0|0:0,0:0:0:0:
351,163,119035,2,0,L|432:153,1,52.8000016113282,2|0,0:0|0:0,0:0:0:0:
198,315,119207,6,0,P|184:251|249:186,1,158.400004833985,0|0,1:0|0:0,0:0:0:0:
331,121,119552,2,0,L|271:113,1,52.8000016113282,0|0,1:0|0:0,0:0:0:0:
192,114,119724,2,0,L|367:98,1,158.400004833985,0|0,1:0|0:0,0:0:0:0:
429,177,120069,2,0,L|435:98,1,52.8000016113282,0|0,1:0|0:0,0:0:0:0:
247,218,120242,2,0,L|351:236,1,105.600003222656,2|0,0:0|0:0,0:0:0:0:
81,340,120587,6,0,P|69:283|153:219,1,158.400004833985,0|0,1:0|0:0,0:0:0:0:
313,203,120931,2,0,L|186:201,1,105.600003222656,8|0,1:0|1:0,0:0:0:0:
384,295,121276,1,0,1:0:0:0:
450,299,121362,1,2,2:0:0:0:
204,147,121535,1,2,0:0:0:0:
133,96,121621,2,0,L|130:234,1,105.600003222656,2|0,0:0|0:0,0:0:0:0:
421,291,121966,6,0,L|231:283,1,158.400004833985,0|0,1:0|0:0,0:0:0:0:
331,208,122311,2,0,L|461:214,1,105.600003222656,8|0,0:0|0:0,0:0:0:0:
162,338,122655,5,0,1:0:0:0:
308,300,122828,1,0,1:0:0:0:
152,310,123000,1,0,1:0:0:0:
315,249,123173,2,0,L|328:178,1,52.8000016113282,0|0,1:0|1:0,1:0:0:0:
253,140,123345,1,0,1:0:0:0:
404,141,123518,1,0,1:0:0:0:
112,338,123690,6,0,L|91:256,1,52.8000016113282,0|0,1:0|1:0,1:0:0:0:
301,273,123862,2,0,L|322:191,1,52.8000016113282,0|0,1:0|1:0,1:0:0:0:
230,179,124035,2,0,L|209:97,1,52.8000016113282,0|0,1:0|1:0,1:0:0:0:
419,114,124207,2,0,L|440:32,1,52.8000016113282,0|0,1:0|1:0,1:0:0:0:
171,75,124380,1,4,1:2:0:0:
321,73,124552,1,2,0:0:0:0:
46,278,124724,6,0,P|57:218|147:171,1,158.400004833985,4|0,0:0|0:0,0:0:0:0:
346,171,125069,1,8,0:0:0:0:
193,120,125242,2,0,L|181:81,1,26.4000008056641,2|0,0:0|0:0,0:0:0:0:
464,208,125414,2,0,L|336:192,1,105.600003222656,2|0,0:0|1:0,0:0:0:0:
226,250,125759,1,8,0:0:0:0:
485,263,125931,1,2,0:0:0:0:
128,336,126104,6,0,L|112:224,1,105.600003222656,2|0,2:0|1:0,1:0:0:0:
269,229,126449,1,8,0:0:0:0:
31,229,126621,1,2,0:0:0:0:
289,166,126793,2,0,L|302:119,1,26.4000008056641,0|0,1:0|0:0,0:0:0:0:
164,60,126966,2,0,L|151:13,1,26.4000008056641,0|0,1:0|0:0,0:0:0:0:
448,93,127138,2,0,L|283:76,1,158.400004833985,8|0,0:0|0:0,0:0:0:0:
69,290,127483,6,0,P|75:230|172:187,1,158.400004833985,0|0,1:0|0:0,0:0:0:0:
229,179,127828,1,8,0:0:0:0:
364,98,128000,2,0,L|114:78,1,211.200006445313,2|0,0:0|1:0,0:0:0:0:
387,290,128518,2,0,L|506:273,1,105.600003222656,8|0,0:0|0:0,0:0:0:0:
143,331,128862,6,0,P|101:287|119:213,1,105.600003222656,2|0,0:0|1:0,0:0:0:0:
365,237,129207,1,8,0:0:0:0:
103,193,129380,1,0,0:0:0:0:
249,159,129552,2,0,L|259:86,1,52.8000016113282,2|0,0:0|0:0,0:0:0:0:
182,57,129724,1,0,1:0:0:0:
411,261,129897,1,8,0:0:0:0:
439,247,129940,1,0,0:0:0:0:
462,224,129983,1,0,0:0:0:0:
472,194,130026,1,0,0:0:0:0:
469,161,130069,1,0,0:0:0:0:
448,136,130112,1,0,0:0:0:0:
419,121,130155,1,0,0:0:0:0:
111,281,130242,6,0,P|107:229|197:175,1,158.400004833985,4|0,1:2|0:0,0:0:0:0:
262,118,130587,2,0,L|190:108,1,52.8000016113282,0|0,1:0|0:0,0:0:0:0:
123,214,130759,2,0,L|109:139,1,52.8000016113282,0|0,1:0|0:0,0:0:0:0:
297,210,130931,6,0,L|369:200,1,52.8000016113282,0|0,1:0|0:0,0:0:0:0:
436,306,131103,2,0,L|450:231,1,52.8000016113282,0|0,1:0|0:0,0:0:0:0:
215,210,131276,2,0,L|143:200,1,52.8000016113282,0|0,1:0|0:0,0:0:0:0:
76,306,131448,2,0,L|62:231,1,52.8000016113282,0|0,1:0|0:0,0:0:0:0:
273,308,131621,6,0,L|287:232,1,52.8000016113282,0|0,1:0|1:0,1:0:0:0:
195,194,131793,2,0,L|131:191,1,52.8000016113282,0|0,1:0|1:0,1:0:0:0:
361,169,131966,2,0,L|375:93,1,52.8000016113282,0|0,1:0|1:0,1:0:0:0:
284,56,132138,2,0,L|220:53,1,52.8000016113282,0|0,1:0|1:0,1:0:0:0:
443,259,132311,6,0,P|480:213|440:148,1,105.600003222656,0|0,1:0|1:0,1:0:0:0:
393,170,132569,1,0,0:0:0:0:
181,246,132655,2,2,L|115:243,1,57.5999982421876,2|2,1:2|1:2,1:2:0:0:
342,60,132828,2,2,L|414:62,1,57.5999982421876,2|2,1:2|1:2,1:2:0:0:
41,337,133000,6,0,L|21:214,1,105.600003222656,6|0,0:3|0:0,0:0:0:0:
364,220,133345,1,12,1:0:0:0:
65,212,133518,1,0,0:0:0:0:
409,187,133690,2,0,L|429:64,1,105.600003222656,0|4,2:0|1:0,0:0:0:0:
225,212,134035,1,8,2:0:0:0:
365,213,134207,1,4,2:1:0:0:
28,302,134380,6,0,L|150:293,1,105.600003222656,2|4,0:0|2:1,0:0:0:0:
368,323,134724,1,8,0:0:0:0:
106,232,134897,1,4,1:0:0:0:
484,302,135069,6,0,L|362:293,1,105.600003222656,4|0,1:1|1:0,0:0:0:0:
247,275,135413,1,12,1:0:0:0:
406,232,135586,1,0,2:0:0:0:
56,294,135759,6,0,L|36:163,1,105.600003222656,4|0,0:0|0:0,0:0:0:0:
217,105,136104,2,0,L|331:116,1,105.600003222656,8|0,0:0|0:0,0:0:0:0:
401,173,136362,2,0,P|406:103|307:49,1,158.400004833985,0|0,1:0|1:0,1:0:0:0:
188,279,136793,1,8,0:0:0:0:
325,355,136966,1,2,0:0:0:0:
69,284,137138,6,0,P|67:227|162:171,1,158.400004833985,0|0,1:0|0:0,0:0:0:0:
211,105,137483,2,0,L|78:93,1,105.600003222656,8|0,0:0|0:0,0:0:0:0:
386,244,137828,2,0,L|391:210,1,26.4000008056641,2|0,0:0|0:0,0:0:0:0:
125,211,138000,1,0,1:0:0:0:
364,102,138173,2,0,L|491:109,1,105.600003222656,8|2,0:0|0:0,0:0:0:0:
68,136,138518,6,0,P|51:80|118:97,1,105.600003222656,4|0,1:2|0:0,0:0:0:0:
343,138,138862,1,12,0:1:0:0:
84,220,139035,1,0,0:0:0:0:
446,315,139207,6,0,L|470:190,1,105.600003222656,2|4,0:0|1:0,0:0:0:0:
303,259,139552,1,8,0:0:0:0:
435,294,139724,1,4,0:1:0:0:
66,315,139897,6,0,L|42:190,1,105.600003222656,2|4,0:0|1:1,0:0:0:0:
209,259,140242,1,8,0:0:0:0:
77,294,140414,1,4,0:1:0:0:
458,149,140587,6,0,P|401:125|341:135,1,105.600003222656,4|0,2:1|1:0,1:0:0:0:
59,258,140931,1,12,0:1:0:0:
211,234,141104,1,0,0:0:0:0:
461,328,141276,6,0,L|482:206,1,105.600003222656,0|2,1:0|0:0,0:0:0:0:
248,231,141621,2,0,P|214:179|249:127,1,105.600003222656,0|0,1:0|0:0,0:0:0:0:
370,184,141880,2,0,P|404:132|369:80,1,105.600003222656,0|0,1:0|0:0,0:0:0:0:
213,90,142138,1,0,1:0:0:0:
74,196,142311,1,2,0:0:0:0:
56,170,142354,1,0,0:0:0:0:
48,138,142397,1,0,0:0:0:0:
55,107,142440,1,0,0:0:0:0:
75,81,142483,1,0,0:0:0:0:
102,64,142526,1,0,0:0:0:0:
135,62,142569,1,0,0:0:0:0:
314,62,142655,6,0,L|433:62,1,105.600003222656,0|2,1:0|0:0,0:0:0:0:
262,160,143000,2,0,L|143:160,1,105.600003222656,0|0,1:0|1:0,0:0:0:0:
229,240,143259,1,0,0:0:0:0:
309,239,143345,2,0,L|318:167,1,52.8000016113282,2|0,0:0|0:0,0:0:0:0:
399,125,143518,2,0,L|390:200,1,52.8000016113282,2|0,0:0|0:0,0:0:0:0:
150,170,143690,2,0,L|17:155,1,105.600003222656,8|0,0:0|0:0,0:0:0:0:
339,299,144035,6,0,L|505:291,1,158.400004833985,4|0,0:0|0:0,0:0:0:0:
266,240,144380,1,12,0:1:0:0:
95,270,144552,1,0,0:0:0:0:
404,212,144724,6,0,P|434:162|420:103,1,105.600003222656,2|4,0:0|1:1,0:0:0:0:
134,183,145069,1,8,0:0:0:0:
426,283,145242,1,4,0:1:0:0:
79,265,145414,6,0,P|49:215|63:156,1,105.600003222656,2|4,0:0|1:0,0:0:0:0:
349,236,145759,1,8,0:0:0:0:
57,336,145932,1,4,0:1:0:0:
307,227,146104,2,0,L|416:213,1,105.600003222656,4|0,0:1|1:0,0:0:0:0:
171,176,146449,1,12,0:0:0:0:
321,152,146621,1,0,0:0:0:0:
71,258,146793,6,0,P|70:198|156:139,1,158.400004833985,4|0,0:0|0:0,0:0:0:0:
220,142,147138,2,0,L|87:128,1,105.600003222656,8|0,0:0|0:0,0:0:0:0:
325,124,147397,2,0,B|396:111|396:111|292:94,1,158.400004833985,0|0,1:0|0:0,0:0:0:0:
65,130,147828,2,0,L|50:26,1,105.600003222656,8|0,0:0|0:0,0:0:0:0:
212,157,148173,5,0,1:0:0:0:
70,115,148345,1,2,0:0:0:0:
341,276,148518,2,0,P|404:251|373:158,1,158.400004833985,8|0,0:0|0:0,0:0:0:0:
316,125,148862,2,0,L|245:119,1,52.8000016113282,2|0,0:0|0:0,0:0:0:0:
54,177,149035,1,0,1:0:0:0:
205,244,149207,2,0,L|347:238,1,105.600003222656,8|0,0:0|0:0,0:0:0:0:
128,301,149552,6,0,P|87:262|163:202,1,158.400004833985,2|0,2:0|1:0,0:0:0:0:
325,260,149897,2,0,P|366:215|324:147,1,105.600003222656,8|0,0:0|0:0,0:0:0:0:
187,128,150155,2,0,L|12:110,1,158.400004833985,0|0,1:0|1:0,1:0:0:0:
160,287,150587,2,0,L|37:279,1,105.600003222656,8|0,0:0|0:0,0:0:0:0:
315,273,150931,5,0,1:0:0:0:
478,239,151104,2,0,L|490:161,1,52.8000016113282,2|0,0:0|0:0,0:0:0:0:
308,141,151276,2,0,L|192:137,1,105.600003222656,8|0,0:0|0:0,0:0:0:0:
43,209,151535,2,0,P|47:147|142:101,1,158.400004833985,0|0,1:0|1:0,1:0:0:0:
269,201,151966,2,0,L|143:202,1,105.600003222656,8|0,0:0|0:0,0:0:0:0:
467,306,152311,5,4,0:0:0:0:
344,241,152569,1,2,0:0:0:0:
494,194,152828,1,2,0:0:0:0:
302,106,153087,1,2,0:0:0:0:
508,50,153345,1,2,0:0:0:0:
275,318,153690,6,0,L|257:244,1,52.8000016113282,0|0,1:0|2:0,1:0:0:0:
180,264,153862,2,0,L|159:198,1,52.8000016113282,0|0,1:0|2:0,1:0:0:0:
276,189,154035,2,0,L|294:115,1,52.8000016113282,0|0,1:0|2:0,1:0:0:0:
379,136,154207,2,0,L|400:70,1,52.8000016113282,0|0,1:0|2:0,1:0:0:0:
228,141,154380,2,0,L|207:75,1,52.8000016113282,0|0,1:0|1:0,1:0:0:0:
51,145,154552,2,0,L|30:79,1,52.8000016113282,0|0,1:0|1:0,1:0:0:0:
298,231,154724,2,0,L|476:229,1,158.400004833985,0|0,1:0|2:0,1:0:0:0:
120,162,155069,5,2,0:3:0:0:
256,192,155242,12,0,159207,0:0:0:0:
204,328,160587,6,0,P|256:299|194:230,1,172.799994726563,2|0,0:0|0:0,0:0:0:0:
97,234,161104,2,0,P|93:176|187:120,1,172.799994726563,2|0,0:0|0:0,0:0:0:0:
76,329,161621,2,0,P|24:300|86:231,1,172.799994726563,2|0,0:0|0:0,0:0:0:0:
183,222,162138,2,0,P|187:164|93:108,1,172.799994726563,2|0,0:0|0:0,0:0:0:0:
209,245,162655,2,0,P|294:178|195:97,1,259.199992089844,2|0,0:0|0:0,0:0:0:0:
321,273,163345,6,0,P|396:240|404:158,1,172.799994726563,2|0,0:0|0:0,0:0:0:0:
299,95,163862,2,0,L|473:89,1,172.799994726563,2|0,0:0|0:0,0:0:0:0:
360,274,164380,2,0,P|284:241|276:158,1,172.799994726563,2|0,0:0|0:0,0:0:0:0:
381,100,164897,2,0,L|207:94,1,172.799994726563,2|0,0:0|0:0,0:0:0:0:
81,249,165414,2,0,P|81:161|235:82,1,259.199992089844,2|0,0:0|0:0,0:0:0:0:
348,258,166104,6,0,L|166:242,1,172.799994726563,2|0,0:0|0:0,0:0:0:0:
289,252,166621,2,0,P|330:211|266:132,1,172.799994726563,2|0,0:0|0:0,0:0:0:0:
157,148,167138,2,0,L|339:132,1,172.799994726563,2|0,0:0|0:0,0:0:0:0:
216,142,167655,2,0,P|175:101|239:22,1,172.799994726563,2|0,0:0|0:0,0:0:0:0:
360,298,168173,2,0,P|407:232|286:117,1,259.199992089844,2|0,0:0|0:0,0:0:0:0:
179,114,168862,6,0,L|372:110,1,172.799994726563,2|0,0:0|0:0,0:0:0:0:
230,306,169380,2,0,P|187:261|249:170,1,172.799994726563,2|0,0:0|0:0,0:0:0:0:
361,101,169897,2,0,L|168:97,1,172.799994726563,2|0,0:0|0:0,0:0:0:0:
310,293,170415,2,0,P|353:248|291:157,1,172.799994726563,2|0,0:0|0:0,0:0:0:0:
177,210,170931,2,0,P|71:172|28:7,1,259.199992089844,2|0,0:0|0:0,0:0:0:0:
155,45,171621,6,0,L|351:50,1,172.799994726563,2|0,0:0|0:0,0:0:0:0:
202,147,172138,2,0,L|398:152,1,172.799994726563,2|0,0:0|0:0,0:0:0:0:
253,249,172655,2,0,L|449:254,1,172.799994726563,2|0,0:0|0:0,0:0:0:0:
300,351,173173,2,0,L|496:356,1,172.799994726563,2|0,0:0|0:0,0:0:0:0:
344,269,173690,2,0,L|65:259,1,259.199992089844,2|0,0:0|0:0,0:0:0:0:
236,356,174380,6,0,P|290:321|219:256,1,172.799994726563,2|0,0:0|0:0,0:0:0:0:
83,356,174897,2,0,P|29:321|100:256,1,172.799994726563,2|0,0:0|0:0,0:0:0:0:
243,346,175414,2,0,P|297:311|226:246,1,172.799994726563,2|0,0:0|0:0,0:0:0:0:
87,345,175931,2,0,P|33:310|104:245,1,172.799994726563,2|0,0:0|0:0,0:0:0:0:
254,290,176449,2,0,P|330:287|460:113,1,302.399990771485,2|0,0:0|0:0,0:0:0:0:
397,73,177138,5,4,0:3:0:0:
279,105,177311,1,0,0:0:0:0:
275,147,177397,1,0,0:0:0:0:
271,189,177483,1,0,0:0:0:0:
336,273,177655,1,2,0:0:0:0:
454,171,177828,1,0,0:0:0:0:
458,213,177914,1,0,0:0:0:0:
462,255,178000,1,0,0:0:0:0:
326,338,178173,2,0,L|216:326,2,86.3999973632813,2|0|0,0:0|0:0|0:0,0:0:0:0:
224,240,178690,6,0,L|400:224,1,172.799994726563,2|0,0:0|0:0,0:0:0:0:
286,192,179207,2,0,P|258:133|355:70,1,172.799994726563,2|0,0:0|0:0,0:0:0:0:
445,69,179724,1,0,0:0:0:0:
213,237,179897,5,2,0:0:0:0:
90,236,180069,1,0,0:0:0:0:
78,194,180155,1,0,0:0:0:0:
66,151,180242,1,0,0:0:0:0:
134,94,180414,1,2,0:0:0:0:
257,93,180586,1,0,0:0:0:0:
269,51,180672,1,0,0:0:0:0:
281,8,180759,1,0,0:0:0:0:
146,197,180931,2,0,L|54:200,2,86.3999973632813,2|0|0,0:0|0:0|0:0,0:0:0:0:
259,277,181449,6,0,L|73:284,1,172.799994726563,2|0,0:0|0:0,0:0:0:0:
233,317,181966,2,0,P|251:240|153:168,1,172.799994726563,2|0,0:0|0:0,0:0:0:0:
64,172,182483,1,2,0:0:0:0:
358,244,182655,5,2,0:0:0:0:
466,172,182828,2,0,L|473:122,2,43.1999986816407,0|0|2,0:0|0:0|0:0,0:0:0:0:
333,123,183173,1,2,0:0:0:0:
466,49,183346,2,0,L|473:-1,2,43.1999986816407,0|0|2,0:0|0:0|0:0,0:0:0:0:
331,229,183690,2,0,L|519:248,1,172.799994726563,2|0,0:0|0:0,0:0:0:0:
366,303,184207,6,0,P|304:263|350:173,1,172.799994726563,2|0,0:0|0:0,0:0:0:0:
483,167,184724,2,0,P|483:92|389:41,1,172.799994726563,2|0,0:0|0:0,0:0:0:0:
269,41,185242,1,2,0:0:0:0:
30,247,185414,5,2,0:0:0:0:
24,204,185500,1,0,0:0:0:0:
18,160,185587,1,0,0:0:0:0:
160,160,185759,1,0,0:0:0:0:
207,93,185931,1,2,0:0:0:0:
213,50,186017,1,0,0:0:0:0:
219,6,186104,1,0,0:0:0:0:
86,36,186276,1,0,0:0:0:0:
223,252,186449,2,0,L|332:245,2,86.3999973632813,2|0|0,0:0|0:0|0:0,0:0:0:0:
344,134,186966,6,0,L|237:123,1,86.3999973632813,2|0,0:0|0:0,0:0:0:0:
133,317,187311,2,0,L|311:303,1,172.799994726563,2|0,0:0|0:0,0:0:0:0:
463,318,187828,2,0,L|466:211,1,86.3999973632813,2|0,0:0|0:0,0:0:0:0:
195,204,188173,5,2,0:0:0:0:
78,285,188345,1,0,0:0:0:0:
72,242,188431,1,0,0:0:0:0:
67,198,188518,1,2,0:0:0:0:
181,158,188690,1,2,0:0:0:0:
64,239,188862,1,0,0:0:0:0:
58,196,188948,1,0,0:0:0:0:
53,152,189035,1,2,0:0:0:0:
191,210,189207,2,0,L|298:210,2,86.3999973632813,2|0|0,0:0|0:0|0:0,0:0:0:0:
70,196,189724,6,0,P|74:139|168:79,1,172.799994726563,2|0,0:0|0:0,0:0:0:0:
281,79,190242,2,0,L|75:65,1,172.799994726563,2|0,0:0|0:0,0:0:0:0:
218,75,190759,1,2,0:0:0:0:
484,218,190931,5,2,0:0:0:0:
365,212,191104,1,0,0:0:0:0:
359,169,191190,1,0,0:0:0:0:
353,126,191276,1,2,0:0:0:0:
479,123,191449,1,2,0:0:0:0:
343,67,191621,2,0,L|293:68,2,43.1999986816407,0|0|2,0:0|0:0|0:0,0:0:0:0:
456,218,191966,2,0,L|364:220,2,86.3999973632813,2|0|0,0:0|0:0|0:0,0:0:0:0:
323,314,192483,6,0,P|252:267|320:198,1,172.799994726563,2|0,0:0|0:0,0:0:0:0:
424,195,193000,2,0,P|469:145|411:60,1,172.799994726563,2|0,0:0|0:0,0:0:0:0:
297,62,193518,1,2,0:0:0:0:
71,248,193690,5,2,0:0:0:0:
177,245,193862,1,0,0:0:0:0:
182,201,193949,1,0,0:0:0:0:
187,158,194035,1,2,0:0:0:0:
61,143,194207,1,2,0:0:0:0:
182,92,194380,2,0,L|263:94,2,43.1999986816407,0|0|2,0:0|0:0|0:0,0:0:0:0:
56,93,194724,1,0,0:0:0:0:
186,183,194897,2,0,L|308:186,2,86.3999973632813,2|0|0,0:0|0:0|0:0,0:0:0:0:
71,266,195414,6,0,L|247:260,2,172.799994726563,2|2|0,0:0|0:0|0:0,0:0:0:0:
170,227,196276,1,2,0:0:0:0:
454,253,196449,6,0,P|446:179|342:129,1,172.799994726563,2|0,0:0|0:0,0:0:0:0:
246,180,196966,2,0,L|451:167,1,172.799994726563,2|0,0:0|0:0,0:0:0:0:
58,131,197483,6,0,P|66:205|170:255,1,172.799994726563,2|0,0:0|0:0,0:0:0:0:
266,204,198000,2,0,L|61:217,1,172.799994726563,2|0,0:0|0:0,0:0:0:0:
228,355,198518,5,2,0:0:0:0:
263,330,198604,1,0,0:0:0:0:
276,289,198690,1,0,0:0:0:0:
255,251,198776,1,0,0:0:0:0:
213,239,198862,1,2,0:0:0:0:
176,215,198949,1,0,0:0:0:0:
158,175,199035,1,0,0:0:0:0:
178,136,199121,1,0,0:0:0:0:
393,46,199207,6,0,P|426:100|326:172,1,172.799994726563,4|0,0:0|1:0,0:0:0:0:
246,178,199724,1,0,0:0:0:0:
353,282,199897,2,0,L|372:179,1,86.3999973632813,0|0,3:0|0:0,0:0:0:0:
221,282,200242,2,0,L|202:179,1,86.3999973632813,0|0,1:0|0:0,0:0:0:0:
337,197,200587,6,0,L|356:94,1,86.3999973632813,0|0,3:0|0:0,0:0:0:0:
205,197,200931,2,0,L|186:94,1,86.3999973632813,0|0,1:0|0:0,0:0:0:0:
321,112,201276,2,0,L|340:9,1,86.3999973632813,0|0,3:0|0:0,0:0:0:0:
189,112,201621,2,0,L|170:9,1,86.3999973632813,0|2,1:0|2:0,0:0:0:0:
431,245,201966,6,0,L|225:217,1,172.799994726563,0|0,1:0|1:0,0:0:0:0:
124,256,202483,1,0,2:0:0:0:
271,327,202655,2,0,L|360:323,1,86.3999973632813,0|0,3:0|2:0,3:0:0:0:
210,234,203000,2,0,L|121:230,1,86.3999973632813,0|0,1:0|0:0,0:0:0:0:
283,244,203345,6,0,L|372:240,1,86.3999973632813,0|0,3:0|0:0,0:0:0:0:
222,151,203690,2,0,L|133:147,1,86.3999973632813,0|0,1:0|0:0,0:0:0:0:
272,304,204035,1,0,1:0:0:0:
300,265,204121,1,0,0:0:0:0:
305,217,204207,1,2,0:0:0:0:
275,179,204293,1,0,0:0:0:0:
228,166,204380,1,0,1:0:0:0:
360,94,204552,1,2,0:0:0:0:
43,303,204724,6,0,L|149:291,1,96,0|0,1:0|0:0,0:0:0:0:
259,207,205069,1,0,1:0:0:0:
130,137,205242,1,0,0:0:0:0:
282,134,205414,2,0,L|291:23,1,96,0|0,1:0|0:0,0:0:0:0:
154,278,205759,1,0,1:0:0:0:
116,248,205845,1,0,0:0:0:0:
105,201,205931,1,2,0:0:0:0:
125,157,206018,1,0,0:0:0:0:
174,131,206104,6,0,L|285:122,1,96,0|0,1:0|0:0,0:0:0:0:
381,7,206449,2,0,L|285:14,1,96,0|0,1:0|0:0,0:0:0:0:
423,157,206793,2,0,L|434:105,1,48,0|0,1:0|0:0,0:0:0:0:
363,49,206966,1,2,0:0:0:0:
210,50,207138,1,0,1:0:0:0:
387,251,207311,2,0,L|457:252,1,48,2|0,0:0|0:0,0:0:0:0:
216,283,207483,5,0,1:0:0:0:
89,323,207655,1,0,1:0:0:0:
319,141,207828,1,0,1:0:0:0:
446,181,208000,1,0,1:0:0:0:
196,203,208173,5,0,1:0:0:0:
69,243,208345,1,0,1:0:0:0:
299,61,208518,1,0,1:0:0:0:
426,101,208690,1,0,1:0:0:0:
128,336,208862,5,0,1:0:0:0:
87,308,208949,1,0,1:0:0:0:
70,263,209035,1,0,1:0:0:0:
94,221,209121,1,0,1:0:0:0:
139,206,209207,1,0,1:0:0:0:
179,181,209293,1,0,1:0:0:0:
197,136,209380,1,0,1:0:0:0:
180,91,209466,1,0,1:0:0:0:
135,72,209552,2,0,L|72:67,1,48,0|0,1:0|1:0,1:0:0:0:
243,236,209724,2,0,L|306:231,1,48,0|0,1:0|1:0,1:0:0:0:
126,265,209897,1,0,1:0:0:0:
74,340,210242,6,0,P|70:277|162:217,1,158.400004833985,4|0,2:0|0:0,0:0:0:0:
215,217,210587,1,8,1:2:0:0:
63,125,210759,1,0,0:0:0:0:
436,326,210931,6,0,P|468:272|391:200,1,158.400004833985,4|0,0:0|0:0,0:0:0:0:
221,274,211276,2,0,L|219:213,1,52.8000016113282,8|0,1:2|0:0,0:0:0:0:
299,188,211449,2,0,L|304:118,1,52.8000016113282,2|0,0:0|0:0,0:0:0:0:
87,69,211621,6,0,L|246:57,1,158.400004833985
440,202,211966,2,0,L|436:133,1,52.8000016113282,8|0,1:2|0:0,0:0:0:0:
259,278,212138,2,0,L|255:209,1,52.8000016113282,2|0,2:0|0:0,0:0:0:0:
434,365,212311,6,0,L|445:247,1,105.600003222656,4|0,0:0|0:0,0:0:0:0:
255,225,212569,2,0,L|244:107,1,105.600003222656,4|0,0:0|0:0,0:0:0:0:
53,320,212828,2,0,L|46:243,1,52.8000016113282,4|0,0:0|0:0,0:0:0:0:
233,298,213000,6,0,L|422:297,1,158.400004833985,4|0,0:0|0:0,0:0:0:0:
286,198,213345,2,0,L|214:201,1,52.8000016113282,8|0,1:2|0:0,0:0:0:0:
59,114,213518,2,0,L|142:111,1,52.8000016113282,2|0,0:0|0:0,0:0:0:0:
403,208,213690,6,0,P|464:172|473:74,1,158.400004833985,4|0,0:0|0:0,0:0:0:0:
276,219,214035,2,0,L|205:219,1,52.8000016113282,8|0,1:2|0:0,0:0:0:0:
373,108,214208,2,0,L|435:108,1,52.8000016113282,2|0,0:0|0:0,0:0:0:0:
154,319,214380,6,0,P|97:285|150:223,1,158.400004833985,4|0,0:0|0:0,0:0:0:0:
337,172,214724,2,0,L|260:169,1,52.8000016113282,8|0,1:2|0:0,0:0:0:0:
103,217,214897,2,0,L|36:212,1,52.8000016113282,2|0,0:0|0:0,0:0:0:0:
254,337,215069,6,0,L|277:214,1,105.600003222656,4|0,0:0|0:0,0:0:0:0:
466,195,215328,2,0,L|450:82,1,105.600003222656,4|0,0:0|0:0,0:0:0:0:
258,122,215587,2,0,L|248:60,1,52.8000016113282,4|0,0:0|0:0,0:0:0:0:
456,340,215759,6,0,L|467:254,1,52.8000016113282,0|0,1:0|1:0,1:0:0:0:
377,271,215931,2,0,L|388:198,1,52.8000016113282,0|0,1:0|1:0,1:0:0:0:
297,336,216104,2,0,L|308:250,1,52.8000016113282,0|0,1:0|1:0,1:0:0:0:
218,266,216276,2,0,L|229:193,1,52.8000016113282,0|0,1:0|1:0,1:0:0:0:
53,241,216449,2,0,L|178:228,1,105.600003222656,0|0,1:0|0:0,0:0:0:0:
345,142,216707,2,0,L|222:129,1,105.600003222656,0|0,1:0|0:0,0:0:0:0:
296,88,216966,1,0,1:0:0:0:
56,340,217138,6,0,L|45:254,1,52.8000016113282,0|0,1:0|1:0,1:0:0:0:
135,271,217310,2,0,L|124:198,1,52.8000016113282,0|0,1:0|1:0,1:0:0:0:
215,336,217483,2,0,L|204:250,1,52.8000016113282,0|0,1:0|1:0,1:0:0:0:
294,266,217655,2,0,L|283:193,1,52.8000016113282,0|0,1:0|1:0,1:0:0:0:
468,266,217828,2,0,L|488:152,1,105.600003222656,0|0,1:0|1:0,1:0:0:0:
258,177,218087,2,0,L|238:63,1,105.600003222656,0|0,1:0|1:0,1:0:0:0:
36,215,218345,2,0,L|109:216,1,52.8000016113282,0|0,1:0|1:0,1:0:0:0:
321,326,218518,6,0,L|328:271,1,52.8000016113282,0|0,1:0|1:0,1:0:0:0:
407,265,218690,2,0,L|416:200,1,52.8000016113282,0|0,1:0|1:0,1:0:0:0:
207,237,218862,2,0,L|200:182,1,52.8000016113282,0|0,1:0|1:0,1:0:0:0:
116,176,219034,2,0,L|107:111,1,52.8000016113282,0|0,1:0|1:0,1:0:0:0:
292,212,219207,2,0,L|299:157,1,52.8000016113282,0|0,1:0|1:0,1:0:0:0:
441,122,219379,2,0,L|450:57,1,52.8000016113282,0|0,1:0|1:0,1:0:0:0:
269,231,219552,2,0,L|262:176,1,52.8000016113282,0|0,1:0|1:0,1:0:0:0:
56,125,219724,2,0,L|47:60,1,52.8000016113282,0|0,1:0|1:0,1:0:0:0:
341,343,219897,5,0,1:0:0:0:
365,333,219940,1,0,1:0:0:0:
383,314,219983,1,0,1:0:0:0:
389,289,220026,1,0,1:0:0:0:
383,263,220069,1,0,1:0:0:0:
366,244,220112,1,0,1:0:0:0:
341,235,220155,1,0,1:0:0:0:
185,211,220242,1,0,1:0:0:0:
183,184,220285,1,0,1:0:0:0:
190,159,220328,1,0,1:0:0:0:
204,137,220371,1,0,1:0:0:0:
225,120,220414,1,0,1:0:0:0:
249,111,220457,1,0,1:0:0:0:
275,109,220500,1,0,1:0:0:0:
126,311,220587,5,0,1:0:0:0:
98,301,220630,1,0,1:0:0:0:
79,279,220673,1,0,1:0:0:0:
71,251,220716,1,0,1:0:0:0:
78,223,220759,1,0,1:0:0:0:
98,201,220802,1,0,1:0:0:0:
125,191,220845,1,0,1:0:0:0:
313,212,220932,1,0,1:0:0:0:
315,182,220975,1,0,1:0:0:0:
307,154,221018,1,0,1:0:0:0:
291,129,221061,1,0,1:0:0:0:
268,111,221104,1,0,1:0:0:0:
241,100,221147,1,0,1:0:0:0:
211,98,221190,1,0,1:0:0:0:
411,73,221276,5,4,1:2:0:0:
230,341,221621,1,0,1:0:0:0:
310,292,221793,1,0,1:0:0:0:
209,256,221966,1,0,1:0:0:0:
316,211,222138,1,0,1:0:0:0:
192,167,222311,1,0,1:0:0:0:
326,122,222483,1,0,1:0:0:0:
88,339,222655,5,0,1:0:0:0:
62,292,222742,1,0,0:0:0:0:
86,245,222828,1,0,0:0:0:0:
138,237,222914,1,0,0:0:0:0:
307,245,223000,1,0,1:0:0:0:
324,195,223086,1,0,0:0:0:0:
302,147,223172,1,0,0:0:0:0:
244,131,223258,1,0,0:0:0:0:
464,163,223345,6,0,L|474:91,1,57.5999982421876,2|0,0:0|0:0,0:0:0:0:
280,34,223518,2,0,L|218:34,1,57.5999982421876,0|0,1:0|0:0,0:0:0:0:
33,265,223690,2,0,L|23:193,1,57.5999982421876,10|0,0:0|0:0,0:0:0:0:
212,196,223863,2,0,L|274:196,1,57.5999982421876,0|0,1:0|0:0,0:0:0:0:
459,277,224035,6,0,L|316:261,1,115.199996484375,4|2,0:0|1:2,0:0:0:0:
418,239,224293,1,0,1:0:0:0:
251,238,224380,2,0,P|249:181|299:139,1,115.199996484375,8|2,1:2|1:2,0:0:0:0:
366,145,224638,1,0,0:0:0:0:
136,207,224724,6,0,L|109:78,1,115.199996484375,0|0,1:0|0:0,0:0:0:0:
366,150,225069,1,8,0:0:0:0:
210,153,225242,1,0,0:0:0:0:
448,288,225414,6,0,L|475:159,1,115.199996484375,0|0,1:0|0:0,0:0:0:0:
160,240,225759,1,8,0:0:0:0:
320,240,225931,1,2,0:0:0:0:
32,176,226104,2,0,L|176:160,1,115.199996484375,0|0,1:0|0:0,0:0:0:0:
377,64,226449,2,0,L|254:48,1,115.199996484375,8|2,0:0|0:0,0:0:0:0:
177,70,226707,1,0,0:0:0:0:
416,290,226793,6,0,P|466:247|446:172,1,115.199996484375,0|2,1:0|1:2,0:0:0:0:
385,184,227052,1,0,0:0:0:0:
181,253,227138,2,0,L|164:132,1,115.199996484375,8|2,0:0|1:2,0:0:0:0:
321,140,227397,1,0,0:0:0:0:
466,192,227483,2,0,L|483:71,1,115.199996484375,0|2,1:0|1:2,0:0:0:0:
326,79,227742,1,0,0:0:0:0:
128,188,227828,2,0,L|108:62,1,115.199996484375,8|2,2:0|0:0,0:0:0:0:
371,188,228173,6,0,L|239:189,1,115.199996484375,0|0,1:0|0:0,0:0:0:0:
132,114,228518,1,8,0:0:0:0:
383,74,228690,2,0,L|399:10,1,57.5999982421876,2|0,0:0|0:0,0:0:0:0:
180,286,228862,2,0,L|152:158,1,115.199996484375,0|0,1:0|0:0,0:0:0:0:
457,105,229207,1,8,0:0:0:0:
316,100,229380,1,0,0:0:0:0:
65,291,229552,6,0,P|39:239|77:182,1,115.199996484375,0|0,1:0|0:0,0:0:0:0:
211,279,229811,1,0,0:0:0:0:
360,317,229897,2,0,L|504:262,1,115.199996484375,8|0,0:0|0:0,0:0:0:0:
304,193,230155,1,0,0:0:0:0:
141,135,230242,2,0,L|15:129,1,115.199996484375,0|2,1:0|1:2,0:0:0:0:
336,325,230587,2,0,L|501:317,1,115.199996484375,8|0,0:0|0:0,0:0:0:0:
153,224,230931,6,0,L|293:219,1,115.199996484375,0|0,1:0|0:0,0:0:0:0:
411,118,231276,1,8,0:0:0:0:
100,318,231449,2,0,L|80:251,1,57.5999982421876,2|0,0:0|0:0,0:0:0:0:
293,265,231621,1,0,1:0:0:0:
439,262,231793,1,0,1:0:0:0:
191,117,231966,1,8,1:2:0:0:
45,114,232138,1,0,1:0:0:0:
228,270,232311,6,0,L|379:268,1,115.199996484375,0|2,1:0|0:0,0:0:0:0:
281,202,232569,1,0,0:0:0:0:
193,182,232655,2,0,L|185:124,1,57.5999982421876,2|0,1:2|0:0,0:0:0:0:
356,177,232828,2,0,P|414:154|457:50,1,172.799994726563,4|0,1:2|0:0,0:0:0:0:
314,331,233173,2,0,P|265:292|273:222,1,115.199996484375,0|0,1:0|1:0,0:0:0:0:
341,172,233431,2,0,L|478:170,1,115.199996484375,0|0,1:0|0:0,0:0:0:0:
216,312,233690,6,0,P|161:270|176:211,1,115.199996484375,4|0,0:0|0:0,0:0:0:0:
341,172,233949,2,0,P|396:130|381:71,1,115.199996484375,0|0,1:0|0:0,0:0:0:0:
220,213,234207,2,0,L|208:138,1,57.5999982421876,0|0,1:0|0:0,0:0:0:0:
272,83,234380,1,0,0:0:0:0:
416,83,234466,2,0,L|292:83,1,115.199996484375,2|0,1:2|0:0,0:0:0:0:
81,195,234724,2,0,P|74:125|169:69,1,172.799994726563,8|0,0:0|0:0,0:0:0:0:
356,127,235069,6,0,L|128:126,1,187.199991430664,0|0,1:0|0:0,0:0:0:0:
336,240,235414,1,0,1:0:0:0:
480,240,235587,1,2,0:0:0:0:
215,332,235759,1,0,1:2:0:0:
359,332,235932,1,2,0:0:0:0:
52,207,236104,1,8,1:2:0:0:
196,207,236277,1,2,0:0:0:0:
433,211,236449,5,4,1:2:0:0:
155,207,236621,1,0,0:0:0:0:
305,209,236793,1,8,1:2:0:0:
325,91,236966,1,2,0:0:0:0:
22,201,237138,1,0,1:0:0:0:
160,201,237311,1,0,0:0:0:0:
332,91,237483,1,8,1:2:0:0:
194,91,237656,1,0,0:0:0:0:
464,96,237828,5,4,1:2:0:0:
208,96,238000,1,0,0:0:0:0:
332,240,238173,2,0,L|362:129,1,115.199996484375,8|0,0:0|0:0,0:0:0:0:
287,92,238431,1,0,0:0:0:0:
49,238,238518,2,0,L|21:116,1,115.199996484375,0|0,1:2|0:0,0:0:0:0:
99,70,238776,1,0,0:0:0:0:
354,265,238862,2,0,L|482:263,1,115.199996484375,8|0,1:2|0:0,0:0:0:0:
163,270,239207,5,4,0:0:0:0:
25,268,239380,1,2,0:0:0:0:
357,163,239552,1,8,0:0:0:0:
425,116,239667,1,0,0:0:0:0:
357,163,239782,1,0,0:0:0:0:
127,315,239897,2,0,P|78:265|99:201,1,115.199996484375,0|0,1:0|0:0,0:0:0:0:
229,222,240155,2,0,L|347:222,1,115.199996484375,8|0,1:2|0:0,0:0:0:0:
490,223,240414,2,0,L|503:155,1,57.5999982421876,8|0,1:2|0:0,0:0:0:0:
298,280,240587,6,0,L|160:268,1,105.600003222656,4|0,0:0|0:0,0:0:0:0:
107,251,240845,2,0,P|93:199|145:149,1,105.600003222656,2|0,0:0|0:0,0:0:0:0:
213,150,241104,2,0,L|227:81,1,52.8000016113282,2|0,0:0|0:0,0:0:0:0:
39,248,241276,2,0,L|14:122,1,105.600003222656,8|0,0:0|0:0,0:0:0:0:
186,63,241621,1,2,0:0:0:0:
55,65,241793,1,0,0:0:0:0:
355,289,241966,6,0,L|380:163,1,105.600003222656,0|0,1:0|0:0,0:0:0:0:
208,104,242311,1,2,0:0:0:0:
339,106,242483,2,0,L|416:93,1,52.8000016113282
199,342,242655,5,8,2:2:0:0:
177,325,242699,1,0,0:0:0:0:
166,299,242742,1,0,0:0:0:0:
171,273,242785,1,0,0:0:0:0:
184,249,242828,1,0,0:0:0:0:
207,238,242871,1,0,0:0:0:0:
233,229,242914,1,0,0:0:0:0:
258,221,242957,1,0,0:0:0:0:
283,213,243000,1,0,0:0:0:0:
302,194,243043,1,0,0:0:0:0:
315,170,243087,1,0,0:0:0:0:
316,143,243130,1,0,0:0:0:0:
308,117,243173,1,0,0:0:0:0:
289,97,243216,1,0,0:0:0:0:
264,86,243259,1,0,0:0:0:0:
111,245,243345,5,0,1:0:0:0:
88,192,243431,1,0,0:0:0:0:
119,142,243518,1,0,0:0:0:0:
175,133,243604,1,0,0:0:0:0:
376,258,243690,1,0,0:0:0:0:
417,218,243776,1,0,0:0:0:0:
425,159,243862,1,0,0:0:0:0:
383,117,243949,1,0,0:0:0:0:
168,231,244035,5,2,0:0:0:0:
139,181,244121,1,0,0:0:0:0:
160,127,244207,1,0,0:0:0:0:
213,105,244293,1,0,0:0:0:0:
361,198,244380,1,2,0:0:0:0:
390,148,244466,1,0,0:0:0:0:
369,94,244552,1,0,0:0:0:0:
316,72,244638,1,0,0:0:0:0:
148,216,244724,6,0,L|297:203,1,115.199996484375,0|0,1:2|0:0,0:0:0:0:
300,124,244983,1,0,0:0:0:0:
107,86,245069,1,2,0:0:0:0:
250,71,245242,1,2,0:0:0:0:
96,80,245414,1,2,0:0:0:0:
256,272,245587,2,0,L|269:209,1,57.5999982421876,2|0,1:2|0:0,0:0:0:0:
37,154,245759,2,2,L|95:153,1,57.5999982421876,2|2,3:2|3:2,3:2:0:0:
284,144,245932,2,2,L|358:143,1,57.5999982421876,2|2,3:2|3:2,3:2:0:0:
112,288,246104,6,0,P|48:255|63:158,1,158.400004833985,6|0,0:3|0:0,0:0:0:0:
125,165,246449,1,8,0:0:0:0:
272,176,246621,2,0,P|285:119|200:57,1,158.400004833985,2|0,0:0|0:0,0:0:0:0:
44,59,246965,1,0,1:0:0:0:
176,174,247138,2,0,P|227:138|222:95,1,105.600003222656,8|0,0:0|0:0,0:0:0:0:
80,64,247483,5,2,0:0:0:0:
314,269,247655,2,0,L|328:197,1,52.8000016113282,0|0,1:0|0:0,0:0:0:0:
269,157,247828,1,8,0:0:0:0:
420,156,248000,1,2,0:0:0:0:
179,343,248173,2,0,L|168:252,1,52.8000016113282,2|0,0:0|0:0,0:0:0:0:
333,343,248345,2,0,L|344:252,1,52.8000016113282,0|0,1:0|0:0,0:0:0:0:
254,211,248518,2,0,L|243:120,1,52.8000016113282,8|0,0:0|0:0,0:0:0:0:
408,211,248690,2,0,L|419:120,1,52.8000016113282,2|0,2:0|0:0,0:0:0:0:
187,132,248862,6,0,P|131:108|171:15,1,158.400004833985,0|0,1:0|0:0,0:0:0:0:
333,300,249207,2,0,L|364:300,1,26.4000008056641,8|0,0:0|0:0,0:0:0:0:
459,207,249380,2,0,L|464:162,1,26.4000008056641,2|0,0:0|0:0,0:0:0:0:
308,72,249552,2,0,L|413:76,1,105.600003222656,2|0,0:0|1:0,0:0:0:0:
161,227,249897,1,8,0:0:0:0:
295,207,250069,1,2,0:0:0:0:
140,152,250242,5,2,0:0:0:0:
443,228,250414,1,0,1:0:0:0:
116,358,250587,2,0,L|92:223,1,105.600003222656,8|0,0:0|0:0,0:0:0:0:
351,227,250931,1,0,1:0:0:0:
44,160,251104,1,0,1:0:0:0:
336,127,251276,2,0,L|453:128,1,105.600003222656,8|0,0:0|0:0,0:0:0:0:
205,278,251621,6,0,P|143:245|161:154,1,158.400004833985,0|0,1:0|0:0,0:0:0:0:
222,168,251966,1,8,0:0:0:0:
361,175,252138,2,0,P|356:114|261:55,1,158.400004833985,2|0,0:0|0:0,0:0:0:0:
104,54,252483,1,0,1:0:0:0:
236,204,252655,2,0,L|349:201,1,105.600003222656,8|0,0:0|0:0,0:0:0:0:
43,293,253000,6,0,P|96:283|176:293,1,105.600003222656,2|0,0:0|0:0,0:0:0:0:
299,343,253345,1,8,0:0:0:0:
172,299,253518,1,2,0:0:0:0:
469,293,253690,2,0,P|416:283|336:293,1,105.600003222656,2|0,0:0|1:0,0:0:0:0:
86,252,254035,1,8,0:0:0:0:
378,324,254207,1,2,0:0:0:0:
141,325,254380,6,0,P|90:288|123:201,1,158.400004833985,0|0,1:0|0:0,0:0:0:0:
256,232,254724,2,0,L|332:228,1,52.8000016113282,8|0,0:0|0:0,0:0:0:0:
402,229,254897,2,0,P|394:157|311:109,1,158.400004833985
226,147,255242,2,0,L|207:77,1,52.8000016113282,0|0,1:0|0:0,0:0:0:0:
293,37,255414,1,2,0:0:0:0:
43,41,255587,1,0,0:0:0:0:
206,254,255759,6,0,P|256:226|236:112,1,158.400004833985,0|0,1:0|0:0,0:0:0:0:
178,104,256104,1,8,0:0:0:0:
26,107,256276,1,0,0:0:0:0:
348,249,256449,2,0,L|358:191,1,52.8000016113282,0|2,1:0|0:0,0:0:0:0:
186,151,256707,1,0,0:0:0:0:
109,116,256793,2,0,P|124:57|209:28,1,158.400004833985,0|0,1:0|0:0,0:0:0:0:
458,252,257138,6,0,P|447:185|359:132,1,172.799994726563,0|0,1:0|0:0,0:0:0:0:
295,70,257483,2,0,L|421:66,1,115.199996484375,8|0,0:0|1:0,0:0:0:0:
102,308,257828,1,0,1:0:0:0:
216,228,258000,1,0,1:0:0:0:
77,152,258173,1,0,1:0:0:0:
241,109,258345,2,0,L|249:44,1,57.5999982421876
180,11,258518,1,0,1:0:0:0:
355,12,258690,1,0,1:0:0:0:
121,320,258862,6,0,L|49:297,1,57.5999982421876,0|0,1:0|1:0,1:0:0:0:
354,225,259035,2,0,L|426:202,1,57.5999982421876,0|0,1:0|1:0,1:0:0:0:
182,197,259207,2,0,L|110:220,1,57.5999982421876,0|0,1:0|1:0,1:0:0:0:
400,295,259380,2,0,L|472:318,1,57.5999982421876,0|0,1:0|1:0,1:0:0:0:
192,288,259552,1,8,1:2:0:0:
336,288,259724,1,2,0:0:0:0:
41,323,259897,5,6,0:3:0:0:
144,238,260069,1,0,0:0:0:0:
393,238,260242,1,12,0:1:0:0:
87,232,260414,1,0,0:0:0:0:
471,323,260587,5,4,0:0:0:0:
368,238,260759,1,4,0:1:0:0:
119,238,260932,1,8,0:0:0:0:
256,240,261104,1,4,0:1:0:0:
23,360,261276,5,2,0:0:0:0:
8,224,261449,1,4,1:1:0:0:
349,222,261621,1,8,0:0:0:0:
28,219,261793,1,4,0:1:0:0:
327,263,261966,1,4,2:1:0:0:
192,262,262138,1,0,1:0:0:0:
477,268,262311,1,12,0:1:0:0:
146,263,262483,1,2,0:0:0:0:
449,357,262655,6,0,P|463:298|447:236,1,115.199996484375,4|0,0:0|0:0,0:0:0:0:
291,166,263000,2,0,L|452:167,1,115.199996484375,0|2,1:0|0:0,0:0:0:0:
105,166,263345,2,0,L|221:166,1,115.199996484375,0|2,1:0|0:0,0:0:0:0:
60,245,263690,2,0,P|49:301|62:357,1,115.199996484375,0|2,1:0|0:0,0:0:0:0:
293,229,264035,6,0,L|423:230,1,115.199996484375,0|0,1:0|0:0,0:0:0:0:
220,143,264380,2,0,L|93:143,1,115.199996484375,0|2,1:0|0:0,0:0:0:0:
379,312,264724,2,0,L|411:163,1,115.199996484375,0|2,1:0|0:0,0:0:0:0:
239,185,265069,1,0,1:0:0:0:
396,183,265242,1,2,0:0:0:0:
70,328,265414,5,4,0:0:0:0:
48,210,265587,1,0,0:0:0:0:
354,214,265759,1,12,0:1:0:0:
55,208,265931,1,0,0:0:0:0:
419,343,266104,1,2,0:0:0:0:
447,218,266276,1,4,1:1:0:0:
202,215,266449,1,8,0:0:0:0:
343,212,266621,1,4,0:1:0:0:
67,269,266793,5,2,0:0:0:0:
39,144,266965,1,4,1:0:0:0:
284,141,267138,1,8,0:0:0:0:
143,138,267310,1,4,0:1:0:0:
394,337,267483,2,0,L|408:263,1,57.5999982421876,2|0,0:2|0:0,0:0:0:0:
249,221,267655,2,0,L|238:145,1,57.5999982421876,0|0,1:0|0:0,0:0:0:0:
391,96,267828,2,0,L|431:80,6,28.7999991210938,0|0|0|0|0|0|0,1:0|0:0|0:0|0:0|0:0|0:0|0:0,0:0:0:0:
74,307,268173,6,0,P|34:255|77:176,1,115.199996484375,4|2,0:0|0:0,0:0:0:0:
119,207,268431,1,0,0:0:0:0:
296,204,268518,2,0,L|177:177,1,115.199996484375,2|0,1:2|0:0,0:0:0:0:
98,107,268776,2,0,L|226:90,1,115.199996484375,2|0,1:2|0:0,0:0:0:0:
311,27,269035,2,0,L|242:17,1,57.5999982421876,2|0,1:2|0:0,0:0:0:0:
80,241,269207,6,0,L|71:207,6,28.7999991210938,0|0|0|0|0|0|0,1:0|0:0|0:0|0:0|0:0|0:0|0:0,0:0:0:0:
268,332,269552,2,0,P|308:301|286:224,1,115.199996484375,4|0,1:2|1:0,0:0:0:0:
139,151,269811,2,0,P|99:120|121:43,1,115.199996484375,0|0,1:2|1:0,0:0:0:0:
273,52,270069,2,0,L|350:52,1,57.5999982421876,0|0,1:0|0:0,0:0:0:0:
488,261,270242,6,0,L|496:199,1,57.5999982421876,2|0,0:0|0:0,0:0:0:0:
413,122,270414,2,0,L|340:123,1,57.5999982421876,0|0,1:0|0:0,0:0:0:0:
131,125,270587,1,4,0:0:0:0:
414,203,270759,1,2,0:0:0:0:
94,350,270931,5,4,0:0:0:0:
57,236,271104,1,0,0:0:0:0:
376,236,271276,1,12,0:1:0:0:
101,235,271449,1,0,0:0:0:0:
446,340,271621,5,2,0:0:0:0:
465,210,271793,1,4,1:0:0:0:
214,251,271966,1,8,0:0:0:0:
74,222,272138,1,4,0:1:0:0:
333,109,272311,5,2,0:0:0:0:
473,80,272483,1,4,1:0:0:0:
190,108,272655,1,8,0:0:0:0:
458,178,272828,1,4,0:1:0:0:
144,336,273000,5,4,0:1:0:0:
112,208,273173,1,0,1:0:0:0:
359,174,273345,1,12,0:0:0:0:
221,137,273518,1,0,0:0:0:0:
447,195,273690,6,0,L|328:175,1,115.199996484375,4|0,0:0|0:0,0:0:0:0:
476,96,274035,2,0,L|345:75,1,115.199996484375,8|0,1:2|0:0,0:0:0:0:
65,195,274380,2,0,L|184:175,1,115.199996484375,0|0,1:0|0:0,0:0:0:0:
36,98,274725,2,0,L|167:77,1,115.199996484375,8|0,1:2|0:0,0:0:0:0:
396,287,275069,6,0,L|414:157,1,115.199996484375,0|0,1:0|0:0,0:0:0:0:
173,139,275414,1,8,1:2:0:0:
318,136,275587,1,2,0:0:0:0:
48,176,275759,2,0,L|176:160,1,115.199996484375,2|0,1:2|0:0,0:0:0:0:
464,176,276104,2,0,L|336:160,1,115.199996484375,10|0,1:2|0:0,0:0:0:0:
25,268,276449,6,0,L|38:210,1,57.5999982421876,0|0,1:0|1:0,1:0:0:0:
181,174,276621,2,0,L|250:165,1,57.5999982421876,0|0,1:0|1:0,1:0:0:0:
478,184,276793,2,0,L|465:126,1,57.5999982421876,0|0,1:0|1:0,1:0:0:0:
307,73,276965,2,0,L|238:64,1,57.5999982421876,0|0,1:0|1:0,1:0:0:0:
50,308,277138,6,0,L|29:167,1,115.199996484375,4|0,1:2|0:0,0:0:0:0:
221,207,277397,2,0,L|235:78,1,115.199996484375,0|0,1:0|0:0,0:0:0:0:
401,96,277655,2,0,L|411:32,1,57.5999982421876,0|0,1:0|0:0,0:0:0:0:
135,314,277828,6,0,L|69:299,1,57.5999982421876,0|0,1:0|1:0,1:0:0:0:
246,219,278000,2,0,L|252:136,1,57.5999982421876,0|0,1:0|1:0,1:0:0:0:
425,145,278173,2,0,L|434:65,1,57.5999982421876,0|0,1:0|1:0,1:0:0:0:
245,46,278345,2,0,L|171:34,1,57.5999982421876,0|0,1:0|1:0,1:0:0:0:
421,314,278518,6,0,P|464:266|456:199,1,115.199996484375,4|0,1:2|0:0,0:0:0:0:
288,192,278776,2,0,L|173:202,1,115.199996484375,0|0,1:0|0:0,0:0:0:0:
16,112,279035,2,0,L|5:44,1,57.5999982421876,0|0,1:0|0:0,0:0:0:0:
247,282,279207,6,0,L|325:273,1,57.5999982421876,4|0,1:2|2:0,1:0:0:0:
464,285,279380,2,0,L|471:204,1,57.5999982421876,0|0,1:0|1:0,1:0:0:0:
268,210,279552,2,0,L|190:201,1,57.5999982421876,4|0,1:2|2:0,1:0:0:0:
51,213,279725,2,0,L|44:132,1,57.5999982421876,0|0,1:0|1:0,1:0:0:0:
245,309,279897,6,0,L|323:300,1,57.5999982421876,4|0,1:2|2:0,1:0:0:0:
448,300,280069,2,0,L|438:218,1,57.5999982421876,0|0,1:0|1:0,1:0:0:0:
265,148,280242,2,0,L|187:139,1,57.5999982421876,4|0,1:2|2:0,1:0:0:0:
50,140,280415,2,0,L|58:62,1,57.5999982421876,0|0,1:0|1:0,1:0:0:0:
233,298,280587,6,0,L|315:274,1,57.5999982421876,4|0,1:2|2:0,1:0:0:0:
377,258,280759,2,0,L|371:187,1,57.5999982421876,0|0,1:0|2:0,1:0:0:0:
279,185,280931,2,0,L|197:161,1,57.5999982421876,4|0,1:2|2:0,1:0:0:0:
131,155,281103,2,0,L|137:84,1,57.5999982421876,0|0,1:0|2:0,1:0:0:0:
226,223,281276,6,0,L|288:194,1,57.5999982421876,4|0,1:2|2:0,1:0:0:0:
347,180,281449,2,0,L|339:97,1,57.5999982421876,0|0,1:0|1:0,1:0:0:0:
273,104,281621,2,0,L|211:75,1,57.5999982421876,4|0,1:2|2:0,1:0:0:0:
154,78,281793,2,0,L|162:-5,1,57.5999982421876,0|0,1:0|1:0,1:0:0:0:
454,74,281966,5,2,1:3:0:0:
188,186,282483,6,0,L|167:358,1,172.799994726563,2|0,0:0|0:0,0:0:0:0:
298,63,283000,2,0,L|320:235,1,172.799994726563,2|0,0:0|0:0,0:0:0:0:
182,156,283517,2,0,L|161:328,1,172.799994726563,2|0,0:0|0:0,0:0:0:0:
326,265,284035,2,0,P|406:222|309:115,1,259.199992089844,2|0,0:0|0:0,0:0:0:0:
195,130,284724,6,0,L|16:112,1,172.799994726563,2|0,0:0|0:0,0:0:0:0:
145,223,285242,2,0,L|324:205,1,172.799994726563,2|0,0:0|0:0,0:0:0:0:
202,111,285759,2,0,L|23:93,1,172.799994726563,2|0,0:0|0:0,0:0:0:0:
152,204,286276,2,0,L|331:186,1,172.799994726563,2|0,0:0|0:0,0:0:0:0:
199,233,286793,2,0,P|147:142|262:77,1,259.199992089844,2|0,0:0|0:0,0:0:0:0:
156,314,287483,6,0,L|338:298,1,172.799994726563,2|0,0:0|0:0,0:0:0:0:
215,308,288000,2,0,P|174:267|238:188,1,172.799994726563,2|0,0:0|0:0,0:0:0:0:
347,204,288517,2,0,L|165:188,1,172.799994726563,2|0,0:0|0:0,0:0:0:0:
288,198,289035,2,0,P|329:157|265:78,1,172.799994726563,2|0,0:0|0:0,0:0:0:0:
156,354,289552,2,0,P|109:288|230:173,1,259.199992089844,2|0,0:0|0:0,0:0:0:0:
351,273,290242,6,0,L|169:257,1,172.799994726563,2|0,0:0|0:0,0:0:0:0:
292,267,290759,2,0,P|333:226|269:147,1,172.799994726563,2|0,0:0|0:0,0:0:0:0:
160,163,291276,2,0,L|342:147,1,172.799994726563,2|0,0:0|0:0,0:0:0:0:
219,157,291793,2,0,P|178:116|242:37,1,172.799994726563,2|0,0:0|0:0,0:0:0:0:
351,313,292311,2,0,P|398:247|277:132,1,259.199992089844,2|0,0:0|0:0,0:0:0:0:
165,132,293000,5,2,0:0:0:0:
307,300,293518,2,0,P|346:251|264:192,1,172.799994726563,2|0,0:0|0:0,0:0:0:0:
146,187,294035,1,2,0:0:0:0:
307,300,294552,2,0,P|346:251|264:192,1,172.799994726563,2|0,0:0|0:0,0:0:0:0:
136,222,295069,2,0,P|125:153|217:95,1,172.799994726563,2|0,0:0|0:0,0:0:0:0:
391,100,295759,5,2,0:0:0:0:
146,319,296276,2,0,L|328:310,1,172.799994726563,2|0,0:0|0:0,0:0:0:0:
211,293,296793,1,2,0:0:0:0:
366,319,297311,2,0,L|184:310,1,172.799994726563,2|0,0:0|0:0,0:0:0:0:
92,216,297828,2,0,L|274:207,1,172.799994726563,2|0,0:0|0:0,0:0:0:0:
32,140,298518,5,2,0:0:0:0:
143,141,299035,1,0,0:0:0:0:
255,141,299552,1,0,0:0:0:0:
367,142,300069,1,0,0:0:0:0:
479,144,300587,1,0,0:0:0:0:
60,146,301276,5,2,0:0:0:0:
158,170,301793,1,0,0:0:0:0:
256,195,302310,1,0,0:0:0:0:
355,227,302827,1,0,0:0:0:0:
454,252,303345,1,0,0:0:0:0:
256,192,304035,5,8,0:3:0:0:
256,192,304380,12,2,315069,0:2:0:0:
