osu file format v14

[General]
AudioFilename: hhhhhhhhhhhhhhhhhhhhh.mp3
AudioLeadIn: 0
PreviewTime: 222658
Countdown: 0
SampleSet: Soft
StackLeniency: 0.2
Mode: 0
LetterboxInBreaks: 0
WidescreenStoryboard: 0

[Editor]
Bookmarks: 110934
DistanceSpacing: 1.3
BeatDivisor: 8
GridSize: 16
TimelineZoom: 5.299997

[Metadata]
Title:Nirvana(Camellia's "BinaryHeaven" Remix)
TitleUnicode:Nirvana(かめりあ's "BinaryHeaven" Remix)
Artist:kors k feat.RIRE
ArtistUnicode:kors k feat.ЯIRE
Creator:Arutsuki
Version:Ambivalence
Source:
Tags:QWCE-00450 Exit Tunes Let’s Do It Again!!
BeatmapID:1461252
BeatmapSetID:690430

[Difficulty]
HPDrainRate:5.6
CircleSize:4.5
OverallDifficulty:8.6
ApproachRate:9.4
SliderMultiplier:1.8
SliderTickRate:1

[Events]
//Background and Video events
0,0,"vBeat.jpg",0,0
//Break Periods
//Storyboard Layer 0 (Background)
//Storyboard Layer 1 (Fail)
//Storyboard Layer 2 (Pass)
//Storyboard Layer 3 (Foreground)
//Storyboard Sound Samples

[TimingPoints]
590,344.827586206897,4,2,1,10,1,0
590,-500,4,2,1,10,0,0
11624,-333.333333333333,4,2,1,10,0,0
22658,-250,4,2,1,20,0,0
23865,-250,4,2,1,5,0,0
24038,-250,4,2,1,20,0,0
26624,-250,4,2,1,5,0,0
26796,-250,4,2,1,20,0,0
29383,-250,4,2,1,5,0,0
29555,-250,4,2,1,20,0,0
33693,-250,4,2,1,20,0,0
34900,-250,4,2,1,5,0,0
35072,-250,4,2,1,20,0,0
37658,-250,4,2,1,5,0,0
37831,-250,4,2,1,20,0,0
40417,-250,4,2,1,5,0,0
40590,-250,4,2,1,20,0,0
44727,-250,4,2,1,30,0,0
55762,-250,4,2,1,30,0,0
66796,-133.333333333333,4,2,1,20,0,0
77831,-133.333333333333,4,2,1,25,0,0
80590,-133.333333333333,4,2,1,30,0,0
83348,-133.333333333333,4,2,1,35,0,0
84727,-133.333333333333,4,2,1,50,0,0
86107,-200,4,2,1,35,0,0
88176,-200,4,2,1,20,0,0
88865,-100,4,2,1,50,0,0
89124,-100,4,2,1,5,0,0
89210,-125,4,2,1,50,0,0
89383,-125,4,2,1,5,0,0
89469,-125,4,2,1,50,0,0
89641,-125,4,2,1,5,0,0
89727,-125,4,2,1,50,0,0
90762,-125,4,2,1,5,0,0
90848,-125,4,2,1,50,0,0
91021,-125,4,2,1,5,0,0
91107,-125,4,2,1,50,0,0
92141,-125,4,2,1,5,0,0
92227,-125,4,2,1,50,0,0
92400,-125,4,2,1,5,0,0
92486,-125,4,2,1,50,0,0
93521,-125,4,2,1,5,0,0
93607,-125,4,2,1,50,0,0
93779,-125,4,2,1,5,0,0
93865,-125,4,2,1,50,0,0
94900,-125,4,2,1,5,0,0
94986,-125,4,2,1,50,0,0
95158,-125,4,2,1,5,0,0
95245,-125,4,2,1,50,0,0
96279,-125,4,2,1,5,0,0
96365,-125,4,2,1,50,0,0
96538,-125,4,2,1,5,0,0
96624,-125,4,2,1,50,0,0
97141,-166.666666666667,4,2,1,40,0,0
97831,-166.666666666667,4,2,1,10,0,0
98176,-166.666666666667,4,2,1,20,0,0
98521,-166.666666666667,4,2,1,30,0,0
98865,-166.666666666667,4,2,1,40,0,0
99210,-166.666666666667,4,2,1,50,0,0
99555,-166.666666666667,4,2,1,55,0,0
99900,-166.666666666667,4,2,1,50,0,0
105417,-166.666666666667,4,2,1,60,0,0
106796,-166.666666666667,4,2,1,65,0,0
108176,-166.666666666667,4,2,1,70,0,0
108521,-166.666666666667,4,2,1,72,0,0
108865,-166.666666666667,4,2,1,74,0,0
109210,-166.666666666667,4,2,1,75,0,0
109555,-500,4,2,1,30,0,0
110417,-83.3333333333333,4,2,1,60,0,0
110590,-83.3333333333333,4,2,1,40,0,0
110762,-83.3333333333333,4,2,1,20,0,0
110934,-66.6666666666667,4,2,3,70,0,0
111193,-66.6666666666667,4,2,1,5,0,0
111279,-66.6666666666667,4,2,1,70,0,0
111452,-58.8235294117647,4,2,1,70,0,0
111710,-66.6666666666667,4,2,1,5,0,0
111796,-66.6666666666667,4,2,1,70,0,0
112141,-83.3333333333333,4,2,1,70,0,0
113693,-66.6666666666667,4,2,1,70,0,0
113952,-66.6666666666667,4,2,1,5,0,0
114038,-50,4,2,1,70,0,0
114900,-83.3333333333333,4,2,1,70,0,0
116107,-66.6666666666667,4,2,1,70,0,0
116365,-66.6666666666667,4,2,1,5,0,0
116452,-66.6666666666667,4,2,1,70,0,0
116710,-66.6666666666667,4,2,1,5,0,0
116796,-66.6666666666667,4,2,1,70,0,0
116969,-58.8235294117647,4,2,1,70,0,0
117227,-66.6666666666667,4,2,1,5,0,0
117314,-66.6666666666667,4,2,1,70,0,0
117658,-83.3333333333333,4,2,1,70,0,0
119210,-100,4,2,1,70,0,0
121538,-83.3333333333333,4,2,1,70,0,0
121883,-83.3333333333333,4,2,1,5,0,0
121969,-133.333333333333,4,2,1,70,0,0
122227,-133.333333333333,4,2,1,5,0,0
122314,-133.333333333333,4,2,1,70,0,0
122572,-133.333333333333,4,2,1,5,0,0
122658,-133.333333333333,4,2,1,55,0,0
123348,-133.333333333333,4,2,1,60,0,0
123693,-133.333333333333,4,2,1,63,0,0
124038,-133.333333333333,4,2,1,65,0,0
124210,-133.333333333333,4,2,1,70,0,0
124383,-66.6666666666667,4,2,1,70,0,0
124641,-66.6666666666667,4,2,1,5,0,0
124727,-66.6666666666667,4,2,3,70,0,0
124986,-66.6666666666667,4,2,1,5,0,0
125072,-50,4,2,1,70,0,0
125934,-83.3333333333333,4,2,1,70,0,0
127141,-66.6666666666667,4,2,1,70,0,0
127400,-66.6666666666667,4,2,1,5,0,0
127486,-66.6666666666667,4,2,1,70,0,0
127745,-66.6666666666667,4,2,1,5,0,0
127831,-66.6666666666667,4,2,1,70,0,0
128003,-58.8235294117647,4,2,1,70,0,0
128262,-66.6666666666667,4,2,1,5,0,0
128348,-66.6666666666667,4,2,1,70,0,0
128693,-83.3333333333333,4,2,1,70,0,0
130245,-100,4,2,1,50,0,0
130503,-100,4,2,1,5,0,0
130590,-133.333333333333,4,2,1,50,0,0
130934,-133.333333333333,4,2,1,53,0,0
131279,-133.333333333333,4,2,1,55,0,0
131624,-133.333333333333,4,2,1,55,0,0
131710,-133.333333333333,4,2,1,56,0,0
131796,-133.333333333333,4,2,1,57,0,0
131883,-133.333333333333,4,2,1,58,0,0
131969,-133.333333333333,4,2,1,59,0,0
132055,-133.333333333333,4,2,1,60,0,0
132141,-133.333333333333,4,2,1,63,0,0
132227,-133.333333333333,4,2,1,65,0,0
132314,-83.3333333333333,4,2,1,70,0,0
132486,-83.3333333333333,4,2,1,45,0,0
132658,-83.3333333333333,4,2,1,40,0,0
132831,-83.3333333333333,4,2,1,20,0,0
133003,-66.6666666666667,4,2,3,70,0,1
133262,-66.6666666666667,4,2,1,5,0,1
133348,-133.333333333333,4,2,1,70,0,1
135417,-100,4,2,1,70,0,1
135590,-133.333333333333,4,2,1,70,0,1
135762,-76.9230769230769,4,2,1,70,0,0
136279,-76.9230769230769,4,2,1,5,0,0
136365,-76.9230769230769,4,2,1,70,0,0
136538,-76.9230769230769,4,2,1,5,0,0
136624,-76.9230769230769,4,2,1,70,0,0
137055,-76.9230769230769,4,2,1,5,0,0
137141,-153.846153846154,4,2,1,70,0,0
137314,-76.9230769230769,4,2,1,70,0,0
138521,-66.6666666666667,4,2,1,70,0,1
138779,-66.6666666666667,4,2,1,5,0,1
138865,-133.333333333333,4,2,1,70,0,1
141279,-66.6666666666667,4,2,1,70,0,0
142055,-66.6666666666667,4,2,1,5,0,0
142141,-66.6666666666667,4,2,1,70,0,0
143262,-50,4,2,1,70,0,0
143693,-200,4,2,1,70,0,0
143952,-200,4,2,1,5,0,0
144038,-66.6666666666667,4,2,3,70,0,1
144296,-66.6666666666667,4,2,1,5,0,1
144383,-133.333333333333,4,2,1,70,0,1
146452,-100,4,2,1,70,0,1
146624,-133.333333333333,4,2,1,70,0,1
146796,-76.9230769230769,4,2,1,70,0,0
147314,-76.9230769230769,4,2,1,5,0,0
147400,-76.9230769230769,4,2,1,70,0,0
147572,-76.9230769230769,4,2,1,5,0,0
147658,-76.9230769230769,4,2,1,70,0,0
148176,-153.846153846154,4,2,1,70,0,0
148348,-76.9230769230769,4,2,1,70,0,0
149124,-76.9230769230769,4,2,1,5,0,0
149210,-76.9230769230769,4,2,1,70,0,0
149469,-76.9230769230769,4,2,1,5,0,0
149555,-76.9230769230769,4,2,1,70,0,0
149727,-76.9230769230769,4,2,1,5,0,0
149814,-76.9230769230769,4,2,1,70,0,0
151107,-76.9230769230769,4,2,1,5,0,0
151193,-76.9230769230769,4,2,1,70,0,0
151452,-76.9230769230769,4,2,1,5,0,0
151538,-76.9230769230769,4,2,1,70,0,0
151710,-76.9230769230769,4,2,1,5,0,0
151796,-76.9230769230769,4,2,1,70,0,0
152314,-133.333333333333,4,2,1,40,0,0
153003,-133.333333333333,4,2,1,10,0,0
153348,-133.333333333333,4,2,1,20,0,0
153693,-133.333333333333,4,2,1,30,0,0
154038,-133.333333333333,4,2,1,40,0,0
154383,-133.333333333333,4,2,1,70,0,0
160417,-133.333333333333,4,2,1,5,0,0
160590,-500,4,2,1,10,0,0
161021,-500,4,2,1,5,0,0
161107,-500,4,2,1,10,0,0
161538,-500,4,2,1,5,0,0
161624,-500,4,2,1,10,0,0
162055,-500,4,2,1,5,0,0
162141,-500,4,2,1,10,0,0
162572,-500,4,2,1,5,0,0
162658,-500,4,2,1,10,0,0
163779,-500,4,2,1,5,0,0
163865,-500,4,2,1,10,0,0
164296,-500,4,2,1,5,0,0
164383,-500,4,2,1,10,0,0
164814,-500,4,2,1,5,0,0
164900,-500,4,2,1,10,0,0
165331,-500,4,2,1,5,0,0
165417,-500,4,2,1,10,0,0
166107,-333.333333333333,4,2,1,15,0,0
166538,-333.333333333333,4,2,1,5,0,0
166624,-333.333333333333,4,2,1,15,0,0
167055,-333.333333333333,4,2,1,5,0,0
167141,-333.333333333333,4,2,1,15,0,0
167572,-333.333333333333,4,2,1,5,0,0
167658,-333.333333333333,4,2,1,15,0,0
168090,-333.333333333333,4,2,1,5,0,0
168176,-333.333333333333,4,2,1,15,0,0
169296,-333.333333333333,4,2,1,5,0,0
169383,-333.333333333333,4,2,1,15,0,0
169814,-333.333333333333,4,2,1,5,0,0
169900,-333.333333333333,4,2,1,15,0,0
170331,-333.333333333333,4,2,1,5,0,0
170417,-333.333333333333,4,2,1,15,0,0
170848,-333.333333333333,4,2,1,5,0,0
170934,-333.333333333333,4,2,1,15,0,0
171624,-250,4,2,1,20,0,0
172055,-250,4,2,1,5,0,0
172141,-250,4,2,1,20,0,0
172572,-250,4,2,1,5,0,0
172658,-250,4,2,1,20,0,0
173090,-250,4,2,1,5,0,0
173176,-250,4,2,1,20,0,0
173607,-250,4,2,1,5,0,0
173693,-250,4,2,1,20,0,0
174814,-250,4,2,1,5,0,0
174900,-250,4,2,1,20,0,0
175331,-250,4,2,1,5,0,0
175417,-250,4,2,1,20,0,0
175848,-250,4,2,1,5,0,0
175934,-250,4,2,1,20,0,0
176365,-250,4,2,1,5,0,0
176452,-250,4,2,1,20,0,0
177141,-250,4,2,1,35,0,0
187227,-250,4,2,1,5,0,0
187314,-250,4,2,1,35,0,0
188176,-250,4,2,1,35,0,0
198262,-250,4,2,1,5,0,0
198348,-500,4,2,1,25,0,0
198779,-500,4,2,1,5,0,0
198865,-500,4,2,1,25,0,0
199210,-100,4,2,1,30,0,0
199555,-100,4,2,1,20,0,0
204727,-100,4,2,1,30,0,0
207486,-100,4,2,1,35,0,0
209555,-100,4,2,1,80,0,0
209641,-100,4,2,1,50,0,0
209727,-100,4,2,1,80,0,0
209814,-100,4,2,1,50,0,0
209900,-100,4,2,1,80,0,0
210245,-50,4,2,1,50,0,0
210503,-50,4,2,1,5,0,0
210590,-50,4,2,1,50,0,0
211193,-50,4,2,1,5,0,0
211279,-50,4,2,1,50,0,0
211883,-50,4,2,1,5,0,0
211969,-50,4,2,1,50,0,0
212486,-50,4,2,1,5,0,0
212572,-50,4,2,1,50,0,0
212745,-50,4,2,1,5,0,0
212831,-50,4,2,1,50,0,0
213003,-50,4,2,1,55,0,0
213262,-50,4,2,1,5,0,0
213348,-50,4,2,1,55,0,0
213952,-50,4,2,1,5,0,0
214038,-50,4,2,1,55,0,0
214641,-50,4,2,1,5,0,0
214727,-50,4,2,1,55,0,0
215245,-50,4,2,1,5,0,0
215331,-50,4,2,1,55,0,0
215503,-50,4,2,1,5,0,0
215590,-50,4,2,1,55,0,0
215762,-50,4,2,1,70,0,0
215848,-50,4,2,1,55,0,0
215934,-50,4,2,1,70,0,0
216021,-50,4,2,1,55,0,0
216107,-50,4,2,1,70,0,0
216193,-50,4,2,1,55,0,0
216279,-50,4,2,1,70,0,0
216365,-50,4,2,1,55,0,0
216452,-50,4,2,1,70,0,0
217141,-50,4,2,1,80,0,0
217227,-50,4,2,1,65,0,0
217314,-50,4,2,1,80,0,0
217400,-50,4,2,1,65,0,0
217486,-50,4,2,1,80,0,0
217572,-50,4,2,1,65,0,0
217658,-50,4,2,1,80,0,0
217745,-50,4,2,1,65,0,0
217831,-50,4,2,1,80,0,0
218521,-50,4,2,1,70,0,0
219900,-66.6666666666667,4,2,1,75,0,0
219943,-66.6666666666667,4,2,1,35,0,0
219986,-66.6666666666667,4,2,1,75,0,0
220029,-66.6666666666667,4,2,1,35,0,0
220072,-66.6666666666667,4,2,1,75,0,0
220115,-66.6666666666667,4,2,1,35,0,0
220158,-66.6666666666667,4,2,1,75,0,0
220202,-66.6666666666667,4,2,1,35,0,0
220245,-66.6666666666667,4,2,1,75,0,0
220288,-66.6666666666667,4,2,1,35,0,0
220331,-66.6666666666667,4,2,1,75,0,0
220374,-66.6666666666667,4,2,1,35,0,0
220417,-66.6666666666667,4,2,1,75,0,0
220460,-66.6666666666667,4,2,1,35,0,0
220503,-66.6666666666667,4,2,1,75,0,0
220546,-66.6666666666667,4,2,1,35,0,0
220590,-100,4,2,1,70,0,0
220633,-100,4,2,1,35,0,0
220676,-100,4,2,1,70,0,0
220719,-100,4,2,1,35,0,0
220762,-100,4,2,1,70,0,0
220805,-100,4,2,1,35,0,0
220848,-100,4,2,1,70,0,0
220891,-100,4,2,1,35,0,0
220934,-83.3333333333333,4,2,1,70,0,0
220977,-83.3333333333333,4,2,1,35,0,0
221021,-71.4285714285714,4,2,1,70,0,0
221064,-71.4285714285714,4,2,1,35,0,0
221107,-62.5,4,2,1,70,0,0
221150,-62.5,4,2,1,35,0,0
221193,-55.5555555555556,4,2,1,70,0,0
221236,-55.5555555555556,4,2,1,35,0,0
221279,-100,4,2,1,70,0,0
221538,-100,4,2,1,5,0,0
221624,-100,4,2,1,10,0,0
221969,-100,4,2,1,20,0,0
222314,-100,4,2,1,30,0,0
222658,-100,4,2,1,40,0,0
223003,-100,4,2,1,50,0,0
223348,-100,4,2,1,70,0,0
223521,-100,4,2,1,75,0,0
223693,-100,4,2,1,80,0,0
223779,-100,4,2,1,78,0,0
223865,-100,4,2,1,76,0,0
223952,-100,4,2,1,74,0,0
224038,-100,4,2,2,100,0,1
224124,-100,4,2,1,70,0,1
225245,-66.6666666666667,4,2,1,70,0,1
225417,-50,4,2,1,70,0,1
225676,-50,4,2,1,5,0,1
225762,-66.6666666666667,4,2,1,70,0,1
225934,-50,4,2,1,70,0,1
226193,-50,4,2,1,5,0,1
226279,-66.6666666666667,4,2,1,70,0,1
226452,-50,4,2,1,70,0,1
226710,-50,4,2,1,5,0,1
226796,-100,4,2,1,70,0,1
228003,-66.6666666666667,4,2,1,70,0,1
228176,-50,4,2,1,70,0,1
228434,-50,4,2,1,5,0,1
228521,-66.6666666666667,4,2,1,70,0,1
228693,-50,4,2,1,70,0,1
228952,-50,4,2,1,5,0,1
229038,-66.6666666666667,4,2,1,70,0,1
229555,-100,4,2,1,70,0,1
230762,-66.6666666666667,4,2,1,70,0,1
230934,-50,4,2,1,70,0,1
231193,-50,4,2,1,5,0,1
231279,-66.6666666666667,4,2,1,70,0,1
232314,-58.8235294117647,4,2,1,70,0,1
232572,-58.8235294117647,4,2,1,5,0,1
232658,-58.8235294117647,4,2,1,70,0,1
233090,-58.8235294117647,4,2,1,5,0,1
233176,-83.3333333333333,4,2,1,70,0,1
233693,-58.8235294117647,4,2,1,70,0,1
233865,-58.8235294117647,4,2,1,5,0,1
233952,-58.8235294117647,4,2,1,70,0,1
234124,-58.8235294117647,4,2,1,5,0,1
234210,-83.3333333333333,4,2,1,70,0,1
234727,-58.8235294117647,4,2,1,70,0,1
234986,-58.8235294117647,4,2,1,5,0,1
235072,-200,4,2,1,70,0,0
235331,-200,4,2,1,5,0,0
235417,-66.6666666666667,4,2,2,70,0,1
235590,-66.6666666666667,4,2,1,70,0,1
236452,-50,4,2,1,70,0,1
236710,-50,4,2,1,5,0,1
236796,-66.6666666666667,4,2,1,70,0,1
236969,-50,4,2,1,70,0,1
237227,-50,4,2,1,5,0,1
237314,-66.6666666666667,4,2,1,70,0,1
237486,-50,4,2,1,70,0,1
237745,-50,4,2,1,5,0,1
237831,-100,4,2,1,70,0,1
239038,-66.6666666666667,4,2,1,70,0,1
239210,-50,4,2,1,70,0,1
239469,-50,4,2,1,5,0,1
239555,-66.6666666666667,4,2,1,70,0,1
239900,-83.3333333333333,4,2,1,70,0,1
240331,-83.3333333333333,4,2,1,5,0,1
240417,-83.3333333333333,4,2,1,70,0,1
240590,-100,4,2,1,70,0,1
241796,-66.6666666666667,4,2,1,70,0,1
241969,-50,4,2,1,70,0,1
242227,-50,4,2,1,5,0,1
242314,-66.6666666666667,4,2,1,70,0,1
243348,-133.333333333333,4,2,1,70,0,0
245590,-83.3333333333333,4,2,1,60,0,0
245762,-83.3333333333333,4,2,1,40,0,0
245934,-83.3333333333333,4,2,1,20,0,0
246107,-66.6666666666667,4,2,3,70,0,1
246365,-66.6666666666667,4,2,1,5,0,1
246452,-133.333333333333,4,2,1,70,0,1
248521,-100,4,2,1,70,0,1
248693,-133.333333333333,4,2,1,70,0,1
248865,-66.6666666666667,4,2,1,70,0,0
251624,-58.8235294117647,4,2,1,70,0,1
251883,-58.8235294117647,4,2,1,5,0,1
251969,-133.333333333333,4,2,1,70,0,1
254038,-66.6666666666667,4,2,1,70,0,1
254383,-66.6666666666667,4,2,1,70,0,0
255158,-66.6666666666667,4,2,1,5,0,0
255245,-66.6666666666667,4,2,1,70,0,0
256193,-66.6666666666667,4,2,1,5,0,0
256279,-66.6666666666667,4,2,1,70,0,0
256796,-133.333333333333,4,2,4,75,0,0
256883,-133.333333333333,4,2,4,5,0,0
256969,-133.333333333333,4,2,4,50,0,0
257055,-133.333333333333,4,2,4,5,0,0
257141,-58.8235294117647,4,2,3,70,0,1
257400,-58.8235294117647,4,2,1,5,0,1
257486,-133.333333333333,4,2,1,70,0,1
259555,-100,4,2,1,70,0,1
259727,-133.333333333333,4,2,1,70,0,1
259900,-66.6666666666667,4,2,1,70,0,0
261279,-100,4,2,1,70,0,0
261969,-66.6666666666667,4,2,1,70,0,0
262227,-66.6666666666667,4,2,1,5,0,0
262314,-50,4,2,1,70,0,0
262572,-50,4,2,1,5,0,0
262658,-100,4,2,1,70,0,1
263348,-200,4,2,1,70,0,1
263521,-200,4,2,1,5,0,1
263607,-200,4,2,1,70,0,1
263779,-200,4,2,1,5,0,1
263865,-200,4,2,1,70,0,1
264038,-100,4,2,1,70,0,1
264727,-200,4,2,1,70,0,1
264900,-200,4,2,1,5,0,1
264986,-200,4,2,1,70,0,1
265158,-200,4,2,1,5,0,1
265245,-200,4,2,1,70,0,1
265417,-100,4,2,1,70,0,1
266107,-100,4,2,1,60,0,1
266796,-100,4,2,1,50,0,1
267486,-100,4,2,1,40,0,1
267831,-100,4,2,1,30,0,1
268176,-250,4,2,1,50,0,0
268262,-250,4,2,1,30,0,0
268607,-250,4,2,1,5,0,0
268693,-250,4,2,1,30,0,0
269124,-250,4,2,1,5,0,0
269210,-250,4,2,1,30,0,0
269641,-250,4,2,1,5,0,0
269727,-250,4,2,1,30,0,0
270158,-250,4,2,1,5,0,0
270245,-250,4,2,1,30,0,0
271365,-250,4,2,1,5,0,0
271452,-250,4,2,1,30,0,0
271883,-250,4,2,1,5,0,0
271969,-250,4,2,1,30,0,0
272400,-250,4,2,1,5,0,0
272486,-250,4,2,1,30,0,0
272917,-250,4,2,1,5,0,0
273003,-250,4,2,1,30,0,0
273693,-333.333333333333,4,2,1,30,0,0
274124,-333.333333333333,4,2,1,5,0,0
274210,-333.333333333333,4,2,1,30,0,0
274641,-333.333333333333,4,2,1,5,0,0
274727,-333.333333333333,4,2,1,30,0,0
275158,-333.333333333333,4,2,1,5,0,0
275245,-333.333333333333,4,2,1,30,0,0
275676,-333.333333333333,4,2,1,5,0,0
275762,-333.333333333333,4,2,1,30,0,0
276883,-333.333333333333,4,2,1,5,0,0
276969,-333.333333333333,4,2,1,30,0,0
277400,-333.333333333333,4,2,1,5,0,0
277486,-333.333333333333,4,2,1,30,0,0
277917,-333.333333333333,4,2,1,5,0,0
278003,-333.333333333333,4,2,1,30,0,0
278434,-333.333333333333,4,2,1,5,0,0
278521,-333.333333333333,4,2,1,30,0,0
279210,-500,4,2,1,20,0,0
279641,-500,4,2,1,5,0,0
279727,-500,4,2,1,20,0,0
280158,-500,4,2,1,5,0,0
280245,-500,4,2,1,20,0,0
280676,-500,4,2,1,5,0,0
280762,-500,4,2,1,20,0,0
281193,-500,4,2,1,5,0,0
281279,-500,4,2,1,20,0,0
282400,-500,4,2,1,5,0,0
282486,-500,4,2,1,20,0,0
282917,-500,4,2,1,5,0,0
283003,-500,4,2,1,20,0,0
283434,-500,4,2,1,5,0,0
283521,-500,4,2,1,20,0,0
283952,-500,4,2,1,5,0,0
284038,-500,4,2,1,20,0,0
284727,-500,4,2,1,10,0,0

[Colours]
Combo1 : 112,75,180
Combo2 : 192,192,192
Combo3 : 128,128,128
Combo4 : 55,106,200
Combo5 : 112,160,197
Combo6 : 49,55,111

[HitObjects]
88,252,590,6,0,L|148:257,4,54
176,334,3348,2,0,L|116:339,4,54
331,253,6107,6,0,L|336:313,4,54
413,341,8865,2,0,L|418:281,4,54
161,148,11624,70,0,L|74:155,1,80.9999975280763
73,230,12658,2,0,L|160:237,1,80.9999975280763
169,141,13693,1,0,0:0:0:0:
344,233,14383,6,0,L|351:146,1,80.9999975280763
426,145,15417,2,0,L|433:232,1,80.9999975280763
337,241,16452,1,0,0:0:0:0:
78,142,17141,70,0,L|164:133,1,80.9999975280763
166,45,18175,2,0,L|78:36,1,80.9999975280763
70,150,19210,1,0,0:0:0:0:
416,136,19900,6,0,L|405:49,1,80.9999975280763
310,48,20934,2,0,L|299:135,1,80.9999975280763
424,144,21969,1,0,0:0:0:0:
433,153,22658,21,0,0:0:0:0:
440,161,23348,2,0,P|409:150|344:196,1,108
449,170,24038,2,0,B|424:144|384:141|353:157|333:184|332:225|355:253|356:253|356:253|327:240|287:254,1,252
204,303,25417,53,0,0:0:0:0:
197,311,26107,2,0,P|210:271|193:197,1,108
190,317,26796,2,0,B|224:256|190:196|190:196|155:136|190:76,1,252
270,138,28176,21,0,0:0:0:0:
262,145,28866,2,0,P|298:134|356:174,1,108
255,155,29555,2,0,P|315:142|277:259,1,252
202,223,30934,37,0,0:0:0:0:
256,192,31107,12,0,33521,0:0:0:0:
166,287,33693,37,0,0:0:0:0:
162,298,34383,2,0,P|119:266|67:275,1,108
159,308,35072,2,0,B|147:281|118:265|87:267|62:285|62:285|30:313|-10:288|-10:288|21:270|49:283,1,252
102,336,36452,37,0,0:0:0:0:
109,346,37142,2,0,P|115:300|107:231,1,108
118,358,37831,2,0,B|132:297|119:245|119:245|131:210|131:210|103:160|127:102,1,252
207,154,39210,37,0,0:0:0:0:
222,165,39900,2,0,P|214:121|269:74,1,108
239,174,40590,2,0,P|237:98|325:167,1,252
288,223,41969,37,0,0:0:0:0:
256,192,42141,12,0,43176,0:0:0:0:
297,146,43348,70,0,L|298:124,3,18
245,206,43693,2,0,L|248:252,1,36
322,143,44038,2,0,L|331:123,3,18
236,225,44383,2,0,L|224:270,1,36
448,334,44727,5,6,0:0:0:0:
457,344,45417,2,0,P|447:296|460:266,1,72
512,230,45934,2,0,B|470:261|414:255|365:218|353:166|368:107|412:69|461:73|461:73|419:53|377:75|377:75|332:98|275:72|275:72|166:81|217:222|354:151|274:71|274:71|225:46|179:75,1,864
105,171,50245,37,0,0:0:0:0:
107,87,50762,1,0,0:0:0:0:
100,157,50934,2,0,P|112:123|102:76,1,72
42,46,51452,2,0,B|69:72|110:73|138:48|138:48|165:18|207:18|236:45|236:45|197:30|165:48,1,288
201,121,53003,2,0,B|243:148|226:209|177:227|124:200|133:150|133:150|84:169|30:146|30:146|63:203|43:248|43:248|22:297|44:347,1,504
51,357,55503,1,0,0:0:0:0:
68,357,55589,1,0,0:0:0:0:
76,342,55675,1,0,0:0:0:0:
69,326,55762,37,0,0:0:0:0:
207,261,56452,2,0,P|178:254|129:263,1,72
215,364,56969,2,0,B|304:358|352:261|306:163|206:153|206:153|171:200|175:256|175:256|172:294|221:319|259:283|256:241|226:217|194:214|175:254|175:254|180:323|139:345|139:345|105:295|52:296|17:323,1,864
69,384,61279,37,0,0:0:0:0:
105,287,61796,1,0,0:0:0:0:
107,217,61969,2,0,P|100:246|109:295,1,72
179,195,62486,2,0,B|166:152|127:137|94:142|94:142|121:113|154:110|154:110|123:89|94:89|94:89|113:75|144:75,1,288
107,217,64038,2,0,B|125:265|176:285|223:266|248:226|248:226|275:182|325:170|375:187|392:240,1,360
320,280,65934,2,0,P|319:271|319:263,1,18
375,337,66107,22,0,P|368:342|360:347,3,18
396,260,66452,2,0,L|397:248,1,9
413,258,66538,2,0,L|415:246,1,9
431,259,66624,2,0,L|434:247,1,9
448,264,66710,2,0,L|452:252,1,9
465,274,66796,21,6,0:0:0:0:
346,339,67141,1,8,0:0:0:0:
469,284,67658,1,2,0:0:0:0:
341,328,67831,1,8,0:0:0:0:
472,296,68348,1,2,0:0:0:0:
338,316,68521,1,8,0:0:0:0:
473,308,69038,1,2,0:0:0:0:
337,304,69211,1,8,0:0:0:0:
465,110,69555,37,2,0:0:0:0:
346,45,69900,1,8,0:0:0:0:
469,99,70417,1,2,0:0:0:0:
341,55,70590,1,8,0:0:0:0:
472,87,71107,1,2,0:0:0:0:
338,67,71280,1,8,0:0:0:0:
471,70,71624,1,2,0:0:0:0:
473,75,71797,1,2,0:0:0:0:
337,79,71970,1,8,0:0:0:0:
47,110,72314,37,2,0:0:0:0:
166,45,72659,1,8,0:0:0:0:
43,100,73176,1,2,0:0:0:0:
171,56,73349,1,8,0:0:0:0:
40,88,73866,1,2,0:0:0:0:
174,68,74039,1,8,0:0:0:0:
39,76,74556,1,2,0:0:0:0:
175,80,74727,1,8,0:0:0:0:
47,274,75072,37,2,0:0:0:0:
166,339,75417,1,8,0:0:0:0:
43,285,75934,1,2,0:0:0:0:
171,329,76107,1,8,0:0:0:0:
40,297,76624,1,2,0:0:0:0:
174,317,76797,1,8,0:0:0:0:
41,314,77141,1,2,0:0:0:0:
39,309,77314,1,2,0:0:0:0:
175,305,77487,1,8,0:0:0:0:
234,114,77831,37,6,0:0:0:0:
279,268,78176,1,8,0:0:0:0:
247,110,78693,1,2,0:0:0:0:
265,271,78866,1,8,0:0:0:0:
262,109,79383,1,2,0:0:0:0:
250,271,79556,1,8,0:0:0:0:
277,111,80073,1,2,0:0:0:0:
236,270,80246,1,8,0:0:0:0:
178,170,80590,37,2,0:0:0:0:
332,215,80935,1,8,0:0:0:0:
174,183,81452,1,2,0:0:0:0:
335,201,81625,1,8,0:0:0:0:
173,198,82142,1,2,0:0:0:0:
335,186,82315,1,8,0:0:0:0:
180,218,82658,1,2,0:0:0:0:
175,213,82832,1,2,0:0:0:0:
334,172,83003,1,8,0:0:0:0:
238,278,83348,37,2,0:0:0:0:
231,280,83522,1,2,0:0:0:0:
279,106,83693,1,8,0:0:0:0:
325,252,84038,37,2,0:0:0:0:
323,260,84210,1,2,0:0:0:0:
190,124,84383,1,8,0:0:0:0:
352,159,84727,37,2,0:0:0:0:
357,165,84901,1,2,0:0:0:0:
156,217,85072,1,8,0:0:0:0:
231,280,85245,1,2,0:0:0:0:
195,124,85417,37,2,0:0:0:0:
169,115,85503,1,2,0:0:0:0:
142,115,85589,1,2,0:0:0:0:
116,122,85675,1,2,0:0:0:0:
84,191,85762,2,0,P|62:193|41:189,1,33.7500012874604,8|0,0:0|0:0,0:0:0:0:
161,232,85934,1,2,0:0:0:0:
164,248,86020,1,2,0:0:0:0:
162,265,86107,38,0,P|161:279|162:292,1,22.5,2|0,0:0|0:0,0:0:0:0:
96,343,86279,2,0,P|97:329|96:316,3,22.5
169,263,86624,70,0,P|167:279|167:293,1,22.5
88,344,86796,2,0,P|90:328|90:314,3,22.5
179,261,87141,6,0,P|175:279|173:296,1,22.5
78,346,87313,2,0,P|82:328|84:311,3,22.5
188,262,87658,70,0,P|182:281|178:299,1,22.5
69,345,87831,2,0,P|75:326|76:306,3,22.5
203,374,88176,70,0,P|174:379|143:367,1,45
154,366,88434,2,0,L|149:348,1,11.25
147,344,88521,2,0,L|147:375,1,30
220,176,88865,22,0,B|197:172|174:179|174:179|135:164|85:180,1,135,6|0,0:0|0:0,0:0:0:0:
83,192,89210,2,0,P|86:151|77:101,1,72
73,113,89469,2,0,P|70:73|79:22,1,72
81,35,89727,2,0,P|83:14|81:-10,1,36
150,82,89900,1,0,0:0:0:0:
176,87,89986,1,0,0:0:0:0:
203,85,90072,1,0,0:0:0:0:
228,76,90158,1,0,0:0:0:0:
234,68,90244,21,0,0:0:0:0:
239,59,90590,2,0,P|235:100|239:135,1,72
244,138,90848,2,0,P|248:179|244:214,1,72
232,225,91107,1,0,0:0:0:0:
230,242,91193,1,0,0:0:0:0:
231,260,91279,1,0,0:0:0:0:
254,247,91365,1,0,0:0:0:0:
281,246,91451,1,0,0:0:0:0:
305,257,91537,1,0,0:0:0:0:
310,267,91623,53,0,0:0:0:0:
314,276,91969,2,0,P|350:273|390:281,1,72
391,286,92227,2,0,P|427:289|467:281,1,72
468,273,92486,2,0,P|492:271|508:272,1,36
422,212,92658,1,0,0:0:0:0:
416,185,92744,1,0,0:0:0:0:
418,158,92830,1,0,0:0:0:0:
427,133,92916,1,0,0:0:0:0:
436,128,93003,21,0,0:0:0:0:
445,123,93348,2,0,P|404:127|369:123,1,72
366,118,93608,2,0,P|325:114|290:118,1,72
279,130,93865,1,0,0:0:0:0:
262,132,93953,1,0,0:0:0:0:
247,131,94039,1,0,0:0:0:0:
260,154,94124,1,0,0:0:0:0:
261,181,94210,1,0,0:0:0:0:
250,205,94296,1,0,0:0:0:0:
240,210,94383,53,0,0:0:0:0:
230,215,94727,2,0,P|190:203|152:216,1,72
154,223,94986,2,0,P|114:235|76:222,1,72
78,215,95245,2,0,P|56:211|35:215,1,36
3,331,95417,1,0,0:0:0:0:
30,337,95503,1,0,0:0:0:0:
57,335,95589,1,0,0:0:0:0:
82,326,95675,1,0,0:0:0:0:
87,317,95762,21,0,0:0:0:0:
92,308,96107,2,0,P|129:317|164:306,1,72
164,299,96365,2,0,P|201:290|236:301,1,72
247,307,96624,1,0,0:0:0:0:
265,309,96710,1,0,0:0:0:0:
285,308,96796,1,0,0:0:0:0:
271,282,96882,1,0,0:0:0:0:
270,253,96968,1,0,0:0:0:0:
282,226,97054,1,0,0:0:0:0:
292,219,97141,53,0,0:0:0:0:
313,121,97314,2,0,L|315:169,1,26.9999991760254
304,218,97486,1,0,0:0:0:0:
325,113,97658,2,0,L|327:163,1,26.9999991760254
317,218,97831,1,2,0:0:0:0:
337,105,98003,2,0,L|339:155,1,26.9999991760254,2|0,0:0|0:0,0:0:0:0:
329,217,98177,1,2,0:0:0:0:
348,96,98348,2,0,L|350:146,1,26.9999991760254,2|0,0:0|0:0,0:0:0:0:
342,217,98521,37,2,0:0:0:0:
360,88,98693,1,2,0:0:0:0:
464,257,98865,1,2,0:0:0:0:
446,127,99037,1,2,0:0:0:0:
364,306,99210,1,2,0:0:0:0:
504,193,99382,1,2,0:0:0:0:
285,222,99555,1,2,0:0:0:0:
298,192,99900,37,6,0:0:0:0:
286,222,100245,1,2,0:0:0:0:
256,235,100590,1,2,0:0:0:0:
226,222,100935,1,2,0:0:0:0:
213,192,101280,1,2,0:0:0:0:
226,162,101624,1,2,0:0:0:0:
256,150,101969,1,2,0:0:0:0:
286,162,102314,1,2,0:0:0:0:
155,152,102658,69,2,0:0:0:0:
157,234,103003,1,2,0:0:0:0:
215,293,103348,1,2,0:0:0:0:
298,291,103693,1,2,0:0:0:0:
354,232,104038,1,2,0:0:0:0:
355,150,104382,1,2,0:0:0:0:
296,94,104727,1,2,0:0:0:0:
214,94,105072,1,2,0:0:0:0:
285,222,105418,53,6,0:0:0:0:
156,152,105590,1,2,0:0:0:0:
297,192,105762,1,2,0:0:0:0:
155,235,105934,1,2,0:0:0:0:
285,163,106107,1,2,0:0:0:0:
215,293,106279,1,2,0:0:0:0:
255,148,106452,1,2,0:0:0:0:
297,290,106624,1,2,0:0:0:0:
226,161,106796,5,2,0:0:0:0:
355,233,106969,1,2,0:0:0:0:
213,192,107141,1,2,0:0:0:0:
355,151,107314,1,2,0:0:0:0:
225,223,107486,1,2,0:0:0:0:
295,93,107659,1,2,0:0:0:0:
256,235,107831,1,2,0:0:0:0:
213,93,108004,1,2,0:0:0:0:
50,234,108176,69,2,0:0:0:0:
70,216,108262,1,2,0:0:0:0:
96,211,108348,1,2,0:0:0:0:
121,218,108434,1,2,0:0:0:0:
157,278,108521,5,2,0:0:0:0:
182,254,108607,1,2,0:0:0:0:
216,248,108693,1,2,0:0:0:0:
249,257,108779,1,2,0:0:0:0:
280,322,108866,37,2,0:0:0:0:
310,293,108952,1,2,0:0:0:0:
350,286,109038,1,2,0:0:0:0:
390,296,109124,1,2,0:0:0:0:
426,357,109210,5,2,0:0:0:0:
494,337,109296,1,2,0:0:0:0:
500,266,109382,1,2,0:0:0:0:
433,240,109468,1,2,0:0:0:0:
429,247,109555,38,0,L|420:193,1,54
419,240,110417,54,0,L|411:187,1,53.9999983520508,8|0,0:0|0:0,0:0:0:0:
291,265,110590,37,2,0:0:0:0:
287,293,110676,1,2,0:0:0:0:
295,317,110762,1,2,0:0:0:0:
293,331,110848,1,2,0:0:0:0:
323,191,110934,6,0,B|287:175|254:192|254:192|237:177|218:171|218:171|174:202|125:183,1,202.500007724762,6|0,0:0|0:0,0:0:0:0:
35,157,111279,1,8,0:0:0:0:
137,295,111452,2,0,P|169:217|80:264,1,229.500004377365
57,325,111796,1,2,0:0:0:0:
162,106,111969,1,8,0:0:0:0:
10,143,112141,54,0,L|95:148,1,53.9999983520508
169,116,112314,2,0,L|238:120,1,53.9999983520508
308,175,112486,1,2,0:0:0:0:
474,215,112658,2,0,L|389:220,1,53.9999983520508,8|0,0:0|0:0,0:0:0:0:
302,187,112831,2,0,L|164:195,1,107.999996704102
57,322,113175,2,0,L|142:327,1,53.9999983520508,2|0,0:0|0:0,0:0:0:0:
235,273,113348,2,0,L|372:281,1,107.999996704102,8|0,0:0|0:0,0:0:0:0:
437,368,113607,1,0,0:0:0:0:
441,378,113693,70,0,B|458:336|435:298|435:298|448:267|440:240|440:240|428:209|440:175,1,202.500007724762,6|0,0:0|0:0,0:0:0:0:
465,92,114038,1,8,0:0:0:0:
243,93,114210,2,0,B|243:57|255:37|255:37|261:55|261:86,1,90
306,183,114383,2,0,B|275:200|249:202|249:202|258:187|277:178,1,90
353,84,114555,2,0,B|384:96|399:122|399:122|380:121|366:111,1,90,2|0,0:0|0:0,0:0:0:0:
363,345,114727,1,8,0:0:0:0:
496,312,114900,6,0,L|411:307,1,53.9999983520508
351,351,115073,2,0,L|282:347,1,53.9999983520508
212,282,115245,1,2,0:0:0:0:
56,325,115417,2,0,L|141:320,1,53.9999983520508,8|0,0:0|0:0,0:0:0:0:
222,274,115590,2,0,L|290:270,1,53.9999983520508
374,202,115762,53,2,0:0:0:0:
361,357,115934,1,2,0:0:0:0:
400,124,116107,2,0,B|371:153|373:203|373:203|340:189|333:170|333:170|300:185|263:178,1,202.500007724762,8|0,0:0|0:0,0:0:0:0:
170,55,116452,54,0,B|166:92|186:125|186:125|167:144|164:169|164:169|184:211|168:249,1,202.500007724762,6|0,0:0|0:0,0:0:0:0:
147,336,116796,1,8,0:0:0:0:
63,186,116969,2,0,P|142:179|60:237,1,229.500004377365
0,249,117314,1,2,0:0:0:0:
162,48,117486,1,8,0:0:0:0:
10,83,117658,54,0,L|95:88,1,53.9999983520508
169,38,117831,2,0,L|238:42,1,53.9999983520508
308,97,118003,1,2,0:0:0:0:
481,122,118175,2,0,L|396:127,1,53.9999983520508,8|0,0:0|0:0,0:0:0:0:
301,112,118348,2,0,L|163:120,1,107.999996704102
78,242,118693,2,0,L|163:247,1,53.9999983520508,2|0,0:0|0:0,0:0:0:0:
242,200,118865,2,0,L|310:204,1,53.9999983520508,8|0,0:0|0:0,0:0:0:0:
351,318,119038,2,0,L|419:322,1,53.9999983520508
409,181,119210,38,0,B|412:160|412:160|411:135,1,45,6|0,0:0|0:0,0:0:0:0:
322,44,119383,1,0,0:0:0:0:
310,52,119469,1,0,0:0:0:0:
299,63,119555,2,0,B|298:87|298:87|301:108,1,45,8|0,0:0|0:0,0:0:0:0:
331,184,119727,1,2,0:0:0:0:
331,195,119813,1,0,0:0:0:0:
331,206,119900,69,0,0:0:0:0:
330,217,119985,1,0,0:0:0:0:
329,228,120072,2,0,B|326:249|326:249|327:274,1,45,8|0,0:0|0:0,0:0:0:0:
411,344,120245,1,0,0:0:0:0:
423,336,120331,1,0,0:0:0:0:
434,325,120417,2,0,B|435:301|435:301|432:280,1,45
337,279,120590,6,0,B|313:280|313:280|292:277,1,45,2|0,0:0|0:0,0:0:0:0:
222,221,120762,2,0,B|209:200|209:200|201:181,1,45
214,305,120934,2,0,B|202:326|202:326|189:342,1,45,8|0,0:0|0:0,0:0:0:0:
121,376,121107,2,0,B|97:377|97:377|75:374,1,45,2|0,0:0|0:0,0:0:0:0:
25,319,121279,69,0,0:0:0:0:
84,263,121365,2,0,B|96:283|96:283|104:302,1,45,0|8,0:0|0:0,0:0:0:0:
22,212,121538,2,0,B|61:169|124:177|154:226|154:226|136:195|149:157,1,215.999993408203
253,206,121969,54,0,L|145:228,1,101.250003862381,6|0,0:0|0:0,0:0:0:0:
234,127,122314,2,0,L|342:149,1,101.250003862381,8|0,0:0|0:0,0:0:0:0:
246,219,122658,5,2,0:0:0:0:
240,113,122831,1,2,0:0:0:0:
235,228,123003,1,2,0:0:0:0:
250,103,123176,1,2,0:0:0:0:
251,86,123262,1,2,0:0:0:0:
252,69,123348,37,2,0:0:0:0:
128,72,123521,1,2,0:0:0:0:
271,95,123693,2,2,L|271:140,1,33.7500012874604
116,99,123865,2,2,L|116:144,1,33.7500012874604
287,122,124038,2,2,L|287:167,1,33.7500012874604
101,130,124210,1,2,0:0:0:0:
101,199,124296,1,2,0:0:0:0:
101,268,124383,2,0,P|167:217|87:132,1,202.500007724762,8|0,0:0|0:0,0:0:0:0:
101,199,124727,6,0,B|148:193|178:217|178:217|202:209|220:192|220:192|257:213|312:195,1,202.500007724762,6|0,0:0|0:0,0:0:0:0:
389,162,125072,1,8,0:0:0:0:
390,363,125246,2,0,B|416:384|445:384|445:384|434:367|413:356,1,90
351,261,125418,2,0,B|321:275|305:299|305:299|321:294|334:288,1,90
458,277,125590,2,0,B|460:241|447:217|447:217|443:238|446:261,1,90,2|0,0:0|0:0,0:0:0:0:
344,39,125762,1,8,0:0:0:0:
478,71,125934,6,0,L|393:76,1,53.9999983520508
333,32,126107,2,0,L|264:36,1,53.9999983520508
204,119,126279,1,2,0:0:0:0:
59,67,126451,2,0,L|144:72,1,53.9999983520508,8|0,0:0|0:0,0:0:0:0:
214,127,126624,2,0,L|282:131,1,53.9999983520508
355,181,126796,53,2,0:0:0:0:
343,26,126968,1,2,0:0:0:0:
341,253,127141,2,0,B|360:220|355:181|355:181|382:249|360:314,1,202.500007724762,8|0,0:0|0:0,0:0:0:0:
242,194,127486,54,0,B|200:202|170:183|170:183|162:206|143:222|143:222|106:199|57:213,1,202.500007724762,6|0,0:0|0:0,0:0:0:0:
0,284,127831,1,8,0:0:0:0:
84,117,128003,2,0,P|101:197|153:111,1,229.500004377365
129,54,128348,1,2,0:0:0:0:
161,313,128521,1,8,0:0:0:0:
9,278,128693,54,0,L|94:273,1,53.9999983520508
168,323,128866,2,0,L|237:319,1,53.9999983520508
304,253,129038,1,2,0:0:0:0:
463,229,129210,2,0,L|378:224,1,53.9999983520508,8|0,0:0|0:0,0:0:0:0:
297,238,129383,2,0,L|159:230,1,107.999996704102
73,110,129727,2,0,L|158:105,1,53.9999983520508,2|0,0:0|0:0,0:0:0:0:
237,152,129900,2,0,L|305:148,1,53.9999983520508,8|0,0:0|0:0,0:0:0:0:
346,34,130073,2,0,L|414:30,1,53.9999983520508
444,179,130245,54,0,B|459:217|447:273|447:273|457:252|472:236,1,135,6|0,0:0|0:0,0:0:0:0:
477,239,130590,2,0,L|453:285,1,33.7500012874604,2|0,0:0|0:0,0:0:0:0:
377,295,130762,2,0,L|401:341,1,33.7500012874604,2|0,0:0|0:0,0:0:0:0:
487,232,130934,2,0,L|471:281,1,33.7500012874604,2|0,0:0|0:0,0:0:0:0:
363,285,131106,2,0,L|378:334,1,33.7500012874604,2|0,0:0|0:0,0:0:0:0:
495,223,131279,2,0,L|488:274,1,33.7500012874604,2|0,0:0|0:0,0:0:0:0:
350,272,131452,2,0,L|356:323,1,33.7500012874604,2|0,0:0|0:0,0:0:0:0:
437,167,131624,5,2,0:0:0:0:
413,152,131710,1,2,0:0:0:0:
377,148,131796,1,2,0:0:0:0:
340,161,131882,1,2,0:0:0:0:
308,198,131969,37,2,0:0:0:0:
253,215,132055,1,2,0:0:0:0:
195,189,132141,1,2,0:0:0:0:
167,124,132227,1,2,0:0:0:0:
198,46,132314,21,8,0:0:0:0:
26,84,132486,2,0,B|26:59|26:59|34:31,1,53.9999983520508,8|0,0:0|0:0,0:0:0:0:
134,114,132658,53,2,0:0:0:0:
138,142,132745,1,2,0:0:0:0:
100,169,132831,1,2,0:0:0:0:
98,183,132917,1,2,0:0:0:0:
77,262,133003,38,0,B|118:274|153:249|153:249|183:255|183:255|183:231|207:214|232:231|232:255|210:267,1,202.500007724762,6|0,0:0|0:0,0:0:0:0:
188,341,133348,54,0,P|214:344|234:344,1,33.7500012874604,8|0,0:0|0:0,0:0:0:0:
442,259,133521,2,0,P|416:253|396:252,1,33.7500012874604
205,250,133693,2,0,P|231:247|251:247,1,33.7500012874604
478,349,133865,2,0,P|452:354|432:355,1,33.7500012874604,2|0,0:0|0:0,0:0:0:0:
321,160,134038,1,8,0:0:0:0:
453,247,134210,70,0,P|427:241|407:240,1,33.7500012874604
217,241,134383,2,0,P|243:238|263:238,1,33.7500012874604
490,340,134555,2,0,P|464:345|444:346,1,33.7500012874604,2|0,0:0|0:0,0:0:0:0:
325,145,134727,1,8,0:0:0:0:
465,238,134900,6,0,P|439:232|419:231,1,33.7500012874604
229,232,135073,2,0,P|255:229|275:229,1,33.7500012874604
445,256,135245,2,0,P|420:264|402:272,1,33.7500012874604,2|0,0:0|0:0,0:0:0:0:
282,272,135417,2,0,P|267:265|234:258,1,45,12|0,0:0|0:0,0:0:0:0:
433,280,135590,2,0,P|415:299|404:315,1,33.7500012874604
254,289,135762,5,6,0:0:0:0:
321,160,135934,1,0,0:0:0:0:
104,133,136107,2,0,B|101:97|101:97|115:55|115:55|125:75|123:99,1,116.999994644165,8|0,0:0|0:0,0:0:0:0:
133,198,136365,2,0,B|103:216|103:216|59:226|59:226|93:197,1,116.999994644165,2|0,0:0|0:0,0:0:0:0:
184,136,136624,1,2,0:0:0:0:
183,346,136796,2,0,P|152:280|113:341,1,175.499991966248,8|0,0:0|0:0,0:0:0:0:
243,256,137141,6,0,P|233:243|221:232,1,29.2499986610413,2|0,0:0|0:0,0:0:0:0:
162,184,137314,2,0,P|173:173|186:164,2,29.2499986610413
233,108,137486,2,0,P|219:99|205:93,2,29.2499986610413,8|0|0,0:0|0:0|0:0,0:0:0:0:
165,30,137658,2,0,P|179:24|194:20,6,29.2499986610413
235,114,138003,1,2,0:0:0:0:
70,89,138176,54,0,L|49:62,1,29.2499986610413,8|0,0:0|0:0,0:0:0:0:
77,96,138262,6,0,L|99:71,1,29.2499986610413
71,105,138348,70,0,L|38:98,1,29.2499986610413
80,116,138434,6,0,L|112:109,1,29.2499986610413
77,191,138521,6,0,B|68:231|90:267|90:267|94:301|73:330|73:330|81:297|67:274,1,202.500007724762,6|0,0:0|0:0,0:0:0:0:
7,361,138865,54,0,P|1:341|0:314,1,33.7500012874604,8|0,0:0|0:0,0:0:0:0:
168,171,139038,2,0,P|172:188|173:205,1,33.7500012874604
124,378,139210,2,0,P|136:361|146:336,1,33.7500012874604
74,146,139383,2,0,P|68:166|68:193,1,33.7500012874604,2|0,0:0|0:0,0:0:0:0:
217,292,139555,1,8,0:0:0:0:
185,197,139727,70,0,P|184:180|181:164,1,33.7500012874604
137,371,139900,2,0,P|149:354|159:329,1,33.7500012874604
87,139,140072,2,0,P|81:159|81:186,1,33.7500012874604,2|0,0:0|0:0,0:0:0:0:
230,285,140245,1,8,0:0:0:0:
193,155,140416,6,0,P|197:172|198:189,1,33.7500012874604
149,363,140589,2,0,P|161:346|171:321,1,33.7500012874604
181,175,140762,2,0,P|181:191|179:208,1,33.7500012874604,2|0,0:0|0:0,0:0:0:0:
144,340,140934,2,0,P|153:321|159:294,1,33.7500012874604,8|0,0:0|0:0,0:0:0:0:
165,191,141107,2,0,P|162:207|157:223,1,33.7500012874604
20,361,141279,22,0,B|11:330|11:330|22:297,1,67.5000025749208,6|0,0:0|0:0,0:0:0:0:
24,290,141452,2,0,B|33:259|33:259|22:226,1,67.5000025749208
19,219,141624,2,0,B|10:188|10:188|21:155,1,67.5000025749208
95,155,141796,1,2,0:0:0:0:
135,215,141883,2,0,B|84:192|84:192|114:274,1,135.000005149842
199,251,142141,2,0,B|210:218|210:218|201:187,1,67.5000025749208
197,177,142314,2,0,B|191:160|191:160|196:145,6,33.7500012874604
98,72,142658,70,0,B|129:81|129:81|162:70,1,67.5000025749208,2|0,0:0|0:0,0:0:0:0:
169,68,142831,2,0,B|200:59|200:59|233:70,1,67.5000025749208
240,73,143003,2,0,B|271:82|271:82|304:71,1,67.5000025749208
373,27,143176,1,2,0:0:0:0:
376,109,143262,6,0,L|422:93,1,45
394,141,143348,70,0,L|432:110,1,45
423,164,143434,6,0,L|448:121,1,45
458,176,143521,70,0,L|467:127,1,45,2|0,0:0|0:0,0:0:0:0:
494,176,143607,6,0,L|486:127,1,45
477,65,143693,6,0,B|483:20|483:20|491:46,1,67.5,2|0,0:0|0:0,0:0:0:0:
505,128,144038,70,0,B|463:143|429:118|429:118|405:133|392:152|392:152|351:122|306:144,1,202.500007724762,6|0,0:0|0:0,0:0:0:0:
338,218,144383,54,0,P|312:221|292:221,1,33.7500012874604,8|0,0:0|0:0,0:0:0:0:
84,123,144556,2,0,P|110:117|130:116,1,33.7500012874604
314,126,144728,2,0,P|288:123|268:123,1,33.7500012874604
48,213,144900,2,0,P|74:218|94:219,1,33.7500012874604,2|0,0:0|0:0,0:0:0:0:
205,24,145073,1,8,0:0:0:0:
73,111,145245,70,0,P|99:105|119:104,1,33.7500012874604
302,117,145418,2,0,P|276:114|256:114,1,33.7500012874604
36,204,145590,2,0,P|62:209|82:210,1,33.7500012874604,2|0,0:0|0:0,0:0:0:0:
201,9,145762,1,8,0:0:0:0:
61,102,145935,6,0,P|87:96|107:95,1,33.7500012874604
290,108,146108,2,0,P|264:105|244:105,1,33.7500012874604
81,120,146279,2,0,P|106:128|124:136,1,33.7500012874604,2|0,0:0|0:0,0:0:0:0:
237,148,146452,2,0,P|252:141|285:134,1,45,8|0,0:0|0:0,0:0:0:0:
93,144,146625,2,0,P|111:163|122:179,1,33.7500012874604
265,165,146797,5,6,0:0:0:0:
172,293,146969,1,0,0:0:0:0:
362,241,147141,2,0,B|360:224|364:204|364:204|355:188|351:163|351:163|341:184|343:207,1,116.999994644165,8|0,0:0|0:0,0:0:0:0:
333,306,147399,2,0,B|353:313|365:325|365:325|380:325|407:334|407:334|384:319|373:305,1,116.999994644165,2|0,0:0|0:0,0:0:0:0:
282,244,147658,1,2,0:0:0:0:
442,232,147831,2,0,L|476:230,6,29.2499986610413,8|0|0|0|0|0|0,0:0|0:0|0:0|0:0|0:0|0:0|0:0,0:0:0:0:
362,241,148176,6,0,L|350:278,1,29.2499986610413,2|0,0:0|0:0,0:0:0:0:
476,156,148348,2,0,L|507:132,2,29.2499986610413
334,157,148521,2,0,L|295:157,2,29.2499986610413,8|0|0,0:0|0:0|0:0,0:0:0:0:
449,240,148693,2,0,L|480:262,2,29.2499986610413
404,105,148865,2,0,P|405:42|484:78,1,175.499991966248,2|0,0:0|0:0,0:0:0:0:
483,88,149210,2,0,B|442:64|395:86|395:86|343:107|300:76,1,175.499991966248,8|0,0:0|0:0,0:0:0:0:
299,90,149555,6,0,B|306:71|306:51|306:51|329:88|305:129,1,116.999994644165,6|0,0:0|0:0,0:0:0:0:
232,209,149814,1,2,0:0:0:0:
224,144,149900,2,0,L|220:173,2,29.2499986610413,8|0|0,0:0|0:0|0:0,0:0:0:0:
140,235,150072,1,0,0:0:0:0:
137,206,150158,1,2,0:0:0:0:
134,177,150244,5,0,0:0:0:0:
11,239,150417,1,2,0:0:0:0:
171,250,150589,1,8,0:0:0:0:
55,173,150762,1,0,0:0:0:0:
103,333,150934,6,0,B|139:354|176:331|176:331|157:332|137:324,1,116.999994644165,2|0,0:0|0:0,0:0:0:0:
91,251,151193,1,2,0:0:0:0:
171,250,151279,2,0,B|135:240|101:241|101:241|126:239|157:229,1,116.999994644165,8|0,0:0|0:0,0:0:0:0:
201,180,151538,2,0,B|221:173|246:171|246:171|212:172|176:162,1,116.999994644165,2|0,0:0|0:0,0:0:0:0:
114,116,151796,1,2,0:0:0:0:
332,265,151969,1,8,0:0:0:0:
346,255,152314,6,0,L|350:222,2,33.7500012874604,4|0|0,0:0|0:0|0:0,0:0:0:0:
260,266,152572,2,0,L|264:300,2,33.7500012874604
355,265,152831,2,0,L|359:223,1,33.7500012874604
252,257,153003,6,0,L|257:299,1,33.7500012874604,2|0,0:0|0:0,0:0:0:0:
368,281,153175,2,0,L|373:240,1,33.7500012874604,2|0,0:0|0:0,0:0:0:0:
244,248,153348,2,0,L|249:290,1,33.7500012874604,2|0,0:0|0:0,0:0:0:0:
382,298,153521,2,0,L|387:257,1,33.7500012874604,2|0,0:0|0:0,0:0:0:0:
289,171,153693,5,2,0:0:0:0:
273,163,153779,1,2,0:0:0:0:
249,158,153865,1,2,0:0:0:0:
219,163,153951,1,2,0:0:0:0:
193,200,154037,69,2,0:0:0:0:
166,217,154125,1,2,0:0:0:0:
130,225,154211,1,2,0:0:0:0:
87,216,154297,1,2,0:0:0:0:
66,175,154382,5,2,0:0:0:0:
133,137,154468,1,2,0:0:0:0:
190,191,154554,1,2,0:0:0:0:
155,261,154640,1,2,0:0:0:0:
78,250,154727,1,2,0:0:0:0:
392,315,155072,21,6,0:0:0:0:
256,192,155245,12,0,160417,0:0:0:0:
129,158,160590,70,0,L|124:113,1,45
56,76,161107,2,0,L|51:120,1,45
129,103,161624,2,0,L|173:98,1,45
211,30,162141,2,0,L|166:25,1,45
184,108,162658,1,0,0:0:0:0:
377,228,163348,6,0,L|372:272,1,45
304,310,163865,2,0,L|299:265,1,45
377,283,164382,2,0,L|421:287,1,45
459,356,164899,2,0,L|414:360,1,45
432,278,165416,1,0,0:0:0:0:
97,351,166107,70,0,P|58:357|26:343,1,67.4999979400635
140,294,166624,2,0,P|164:324|168:359,1,67.4999979400635
70,286,167141,2,0,P|84:249|112:228,1,67.4999979400635
204,297,167658,2,0,P|165:303|133:289,1,67.4999979400635
175,236,168176,1,0,0:0:0:0:
415,33,168865,6,0,P|454:27|486:41,1,67.4999979400635
372,90,169382,2,0,P|347:59|343:24,1,67.4999979400635
442,98,169899,2,0,P|427:134|399:155,1,67.4999979400635
308,87,170416,2,0,P|347:81|379:95,1,67.4999979400635
337,148,170934,1,0,0:0:0:0:
50,232,171624,70,0,P|39:190|58:144,1,90
198,193,172141,2,0,L|108:193,1,90
256,151,172658,2,0,P|267:193|248:239,1,90
122,230,173176,2,0,P|152:199|202:192,1,90
187,262,173693,1,0,0:0:0:0:
462,232,174383,6,0,P|473:190|454:144,1,90
314,193,174900,2,0,L|404:193,1,90
256,153,175417,2,0,P|245:195|264:241,1,90
389,231,175935,2,0,P|358:200|308:193,1,90
326,262,176452,1,0,0:0:0:0:
439,241,177141,53,0,0:0:0:0:
403,326,177314,2,0,L|406:349,2,18
430,245,177658,1,0,0:0:0:0:
413,334,177831,2,0,L|415:357,2,18
419,247,178176,1,0,0:0:0:0:
422,342,178348,2,0,L|423:365,2,18
409,251,178693,1,0,0:0:0:0:
491,295,178865,2,0,L|514:294,2,18
400,254,179211,5,0,0:0:0:0:
460,204,179383,1,0,0:0:0:0:
364,183,179555,1,0,0:0:0:0:
471,131,179727,1,0,0:0:0:0:
291,79,179900,69,0,0:0:0:0:
376,115,180073,2,0,L|399:112,2,18
295,88,180417,1,0,0:0:0:0:
384,105,180590,2,0,L|407:103,2,18
297,99,180935,1,0,0:0:0:0:
392,96,181107,2,0,L|415:95,2,18
301,109,181452,1,0,0:0:0:0:
342,39,181625,2,0,L|341:15,2,18
304,118,181969,5,0,0:0:0:0:
242,151,182141,1,0,0:0:0:0:
173,134,182313,1,0,0:0:0:0:
135,74,182486,1,0,0:0:0:0:
57,157,182658,69,0,0:0:0:0:
52,58,182831,2,0,L|49:35,2,18
66,153,183175,1,0,0:0:0:0:
42,50,183348,2,0,L|40:27,2,18
77,151,183693,1,0,0:0:0:0:
33,42,183865,2,0,L|32:19,2,18
87,147,184210,1,0,0:0:0:0:
18,116,184383,2,0,L|-5:116,2,18
96,144,184728,5,0,0:0:0:0:
0,200,184900,1,0,0:0:0:0:
89,223,185072,1,0,0:0:0:0:
27,269,185245,1,0,0:0:0:0:
111,313,185418,69,0,0:0:0:0:
108,330,185503,1,0,0:0:0:0:
105,348,185590,2,0,L|100:374,3,18
187,341,185935,53,0,0:0:0:0:
184,324,186021,1,0,0:0:0:0:
181,306,186107,2,0,L|176:279,3,18
263,313,186452,21,0,0:0:0:0:
260,330,186538,1,0,0:0:0:0:
257,348,186624,2,0,L|252:374,3,18
337,327,186969,54,0,L|327:262,1,54
336,342,187314,2,0,P|352:351|411:294,1,108
407,288,187917,1,0,0:0:0:0:
407,271,188003,1,0,0:0:0:0:
422,263,188089,1,0,0:0:0:0:
438,270,188176,21,0,0:0:0:0:
444,182,188348,1,0,0:0:0:0:
453,180,188434,1,0,0:0:0:0:
462,178,188521,2,0,L|488:172,1,18
422,263,188693,5,0,0:0:0:0:
434,177,188865,1,0,0:0:0:0:
443,175,188951,1,0,0:0:0:0:
452,173,189038,2,0,L|478:167,1,18
406,256,189210,69,0,0:0:0:0:
424,172,189382,1,0,0:0:0:0:
433,170,189468,1,0,0:0:0:0:
442,168,189555,2,0,L|468:162,1,18
390,249,189727,5,0,0:0:0:0:
347,166,189900,2,0,L|350:143,2,18
274,231,190245,5,0,0:0:0:0:
238,153,190417,1,0,0:0:0:0:
255,251,190590,1,0,0:0:0:0:
256,132,190762,1,0,0:0:0:0:
183,211,190934,53,0,0:0:0:0:
95,217,191106,1,0,0:0:0:0:
93,226,191192,1,0,0:0:0:0:
91,235,191279,2,0,L|85:261,1,18
176,195,191451,5,0,0:0:0:0:
90,207,191623,1,0,0:0:0:0:
88,216,191709,1,0,0:0:0:0:
86,225,191796,2,0,L|80:251,1,18
169,179,191968,69,0,0:0:0:0:
85,197,192140,1,0,0:0:0:0:
83,206,192226,1,0,0:0:0:0:
81,215,192313,2,0,L|75:241,1,18
162,163,192485,5,0,0:0:0:0:
79,120,192658,2,0,L|56:123,2,18
155,147,193003,6,0,L|160:106,1,36
235,173,193348,1,0,0:0:0:0:
155,319,193521,5,0,0:0:0:0:
255,254,193693,37,0,0:0:0:0:
261,342,193865,1,0,0:0:0:0:
270,344,193951,1,0,0:0:0:0:
279,346,194038,2,0,L|305:352,1,18
239,261,194210,5,0,0:0:0:0:
251,347,194382,1,0,0:0:0:0:
260,349,194468,1,0,0:0:0:0:
269,351,194555,2,0,L|295:357,1,18
223,268,194727,69,0,0:0:0:0:
241,352,194899,1,0,0:0:0:0:
250,354,194985,1,0,0:0:0:0:
259,356,195072,2,0,L|285:362,1,18
207,275,195244,5,0,0:0:0:0:
164,358,195417,2,0,L|167:381,2,18
107,288,195762,2,0,L|85:279,2,18
207,275,196107,2,0,L|225:260,1,18
251,174,196279,2,0,L|248:151,1,18
207,71,196452,69,0,0:0:0:0:
295,65,196624,1,0,0:0:0:0:
297,56,196710,1,0,0:0:0:0:
299,47,196797,2,0,L|305:21,1,18
214,87,196969,5,0,0:0:0:0:
305,85,197141,1,0,0:0:0:0:
307,76,197227,1,0,0:0:0:0:
309,67,197314,2,0,L|315:41,1,18
221,103,197486,69,0,0:0:0:0:
319,107,197658,1,0,0:0:0:0:
321,98,197744,1,0,0:0:0:0:
323,89,197831,2,0,L|329:63,1,18
228,119,198003,6,0,L|173:106,1,54
235,135,198348,6,0,L|182:141,1,45
242,151,198865,70,0,L|216:163,1,27
341,277,199210,53,6,0:0:0:0:
170,277,199555,1,2,0:0:0:0:
256,312,199900,1,2,0:0:0:0:
135,192,200245,1,2,0:0:0:0:
170,277,200590,1,2,0:0:0:0:
170,106,200935,1,2,0:0:0:0:
135,192,201279,1,2,0:0:0:0:
256,71,201624,1,2,0:0:0:0:
171,107,201969,37,2,0:0:0:0:
341,106,202314,1,2,0:0:0:0:
256,71,202659,1,2,0:0:0:0:
377,192,203004,1,2,0:0:0:0:
341,106,203348,1,2,0:0:0:0:
341,277,203693,1,2,0:0:0:0:
377,192,204038,1,2,0:0:0:0:
256,312,204383,1,2,0:0:0:0:
341,277,204727,37,2,0:0:0:0:
170,277,205072,1,2,0:0:0:0:
170,106,205417,1,2,0:0:0:0:
340,106,205762,1,2,0:0:0:0:
256,312,206107,1,2,0:0:0:0:
135,192,206451,1,2,0:0:0:0:
255,71,206796,1,2,0:0:0:0:
376,192,207141,1,2,0:0:0:0:
169,110,207486,37,2,0:0:0:0:
165,101,207658,1,2,0:0:0:0:
340,106,207831,1,8,0:0:0:0:
255,71,208003,1,2,0:0:0:0:
342,273,208176,37,2,0:0:0:0:
346,282,208348,1,2,0:0:0:0:
171,277,208521,1,8,0:0:0:0:
256,312,208693,1,2,0:0:0:0:
256,192,208865,37,2,0:0:0:0:
231,188,208951,1,2,0:0:0:0:
208,193,209037,1,2,0:0:0:0:
187,204,209123,1,2,0:0:0:0:
163,246,209210,69,10,0:0:0:0:
139,248,209296,1,2,0:0:0:0:
115,243,209382,1,2,0:0:0:0:
94,232,209468,1,2,0:0:0:0:
77,198,209555,53,2,0:0:0:0:
19,237,209641,1,2,0:0:0:0:
3,306,209727,1,2,0:0:0:0:
60,347,209814,1,2,0:0:0:0:
130,337,209900,1,2,0:0:0:0:
152,358,210245,6,0,B|135:264|135:264|152:227|152:227|135:190|135:190|152:97,1,270,12|0,0:0|0:0,0:0:0:0:
176,14,210590,1,2,0:0:0:0:
152,353,210934,70,0,B|128:263|128:263|152:227|152:227|128:191|128:191|152:101,1,270,8|0,0:0|0:0,0:0:0:0:
182,11,211279,1,2,0:0:0:0:
152,342,211624,6,0,B|119:259|119:259|152:226|152:226|119:193|119:193|152:111,1,270,8|0,0:0|0:0,0:0:0:0:
188,8,211969,1,2,0:0:0:0:
147,329,212314,70,0,B|98:255|98:255|188:227,1,180,8|0,0:0|0:0,0:0:0:0:
294,220,212572,2,0,B|254:299|254:299|185:235,1,180,8|0,0:0|0:0,0:0:0:0:
126,147,212831,2,0,B|227:141,1,90,8|0,0:0|0:0,0:0:0:0:
424,112,213003,6,0,B|454:57|454:57|384:41|384:41|313:57|313:57|345:112,1,270,12|0,0:0|0:0,0:0:0:0:
384,184,213348,1,2,0:0:0:0:
428,112,213693,70,0,B|461:66|461:66|383:55|383:55|304:66|304:66|340:112,1,270,8|0,0:0|0:0,0:0:0:0:
384,200,214038,1,2,0:0:0:0:
432,112,214383,6,0,B|468:79|468:79|383:68|383:68|297:79|297:79|336:112,1,270,8|0,0:0|0:0,0:0:0:0:
384,216,214727,1,2,0:0:0:0:
432,112,215072,70,0,B|480:88|480:88|352:96,1,180,8|0,0:0|0:0,0:0:0:0:
304,168,215331,2,0,B|300:221|300:221|357:106,1,180,8|0,0:0|0:0,0:0:0:0:
320,30,215590,2,0,B|282:4|282:4|307:42,1,90,8|0,0:0|0:0,0:0:0:0:
456,234,215762,5,6,0:0:0:0:
459,224,215849,1,2,0:0:0:0:
395,282,215934,69,2,0:0:0:0:
398,292,216021,1,2,0:0:0:0:
465,264,216107,5,2,0:0:0:0:
472,254,216193,1,2,0:0:0:0:
383,257,216279,69,2,0:0:0:0:
382,269,216365,1,2,0:0:0:0:
470,352,216452,6,0,B|424:349|399:320|399:320|386:349|357:368|357:368|334:349|304:343|304:343|275:358|236:349,2,270,2|2|2,0:0|0:0|0:0,0:0:0:0:
251,245,217141,69,6,0:0:0:0:
254,255,217227,1,2,0:0:0:0:
323,231,217314,5,2,0:0:0:0:
326,221,217400,1,2,0:0:0:0:
256,162,217486,69,2,0:0:0:0:
259,174,217572,1,2,0:0:0:0:
344,139,217659,5,2,0:0:0:0:
347,127,217745,1,2,0:0:0:0:
236,89,217831,70,0,B|274:70|316:80|343:106|343:106|363:75|357:44|357:44|391:79|464:78,2,270,2|2|2,0:0|0:0|0:0,0:0:0:0:
33,158,218521,5,6,0:0:0:0:
1,113,218607,1,2,0:0:0:0:
0,61,218693,1,2,0:0:0:0:
29,19,218779,1,2,0:0:0:0:
79,0,218865,1,2,0:0:0:0:
129,17,218952,1,2,0:0:0:0:
162,56,219038,1,2,0:0:0:0:
165,109,219124,1,2,0:0:0:0:
136,152,219210,69,2,0:0:0:0:
102,204,219297,1,2,0:0:0:0:
107,265,219383,1,2,0:0:0:0:
143,314,219469,1,2,0:0:0:0:
203,330,219556,1,2,0:0:0:0:
261,309,219642,1,2,0:0:0:0:
295,259,219728,1,2,0:0:0:0:
295,198,219814,1,2,0:0:0:0:
252,154,219900,54,2,P|262:172|280:186,1,33.7500012874604
289,177,219986,2,2,P|305:188|332:193,1,33.7500012874604
333,178,220072,2,2,P|353:179|378:166,1,33.7500012874604
371,155,220158,2,2,P|393:147|406:132,1,33.7500012874604
392,115,220245,2,2,P|409:99|421:80,1,33.7500012874604
410,81,220331,2,2,P|421:58|436:44,1,33.7500012874604
443,62,220417,2,2,P|461:47|485:43,1,33.7500012874604
481,62,220503,2,2,P|502:55|521:64,1,33.7500012874604
494,88,220590,6,2,L|495:121,1,22.5
477,114,220676,2,2,L|486:145,1,22.5
469,144,220762,2,2,L|486:172,1,22.5
469,176,220848,2,2,L|493:198,1,22.5
477,206,220934,22,2,L|459:227,1,26.9999991760254
483,227,221021,54,2,L|514:243,1,31.4999990386963
483,249,221106,22,2,L|450:256,1,31.4999990386963
477,270,221192,54,2,L|516:273,1,36
414,339,221279,22,0,B|365:351|319:339|319:339|345:356|365:358,1,135,12|0,0:0|0:0,0:0:0:0:
359,371,221624,70,0,B|334:364|313:347,1,45,2|0,0:0|0:0,0:0:0:0:
256,290,221796,2,0,B|271:277|296:270,1,45,2|0,0:0|0:0,0:0:0:0:
372,370,221969,2,0,B|346:371|320:363,1,45,2|0,0:0|0:0,0:0:0:0:
262,263,222141,2,0,B|280:256|306:258,1,45,2|0,0:0|0:0,0:0:0:0:
383,364,222314,2,0,B|359:374|332:375,1,45,2|0,0:0|0:0,0:0:0:0:
276,239,222486,2,0,B|295:239|319:249,1,45,2|0,0:0|0:0,0:0:0:0:
168,314,222658,5,2,0:0:0:0:
153,288,222744,1,2,0:0:0:0:
147,258,222830,1,2,0:0:0:0:
151,229,222916,1,2,0:0:0:0:
195,202,223004,69,2,0:0:0:0:
209,176,223090,1,2,0:0:0:0:
215,146,223176,1,2,0:0:0:0:
211,117,223262,1,2,0:0:0:0:
175,45,223348,53,2,0:0:0:0:
197,52,223434,1,0,0:0:0:0:
223,75,223521,5,2,0:0:0:0:
250,62,223607,1,2,0:0:0:0:
293,123,223693,69,8,0:0:0:0:
341,65,223779,1,0,0:0:0:0:
415,78,223865,1,0,0:0:0:0:
441,149,223951,1,0,0:0:0:0:
393,207,224038,38,0,P|384:234|387:274,1,45,14|0,0:0|0:0,0:0:0:0:
476,246,224210,1,0,0:0:0:0:
380,217,224296,2,0,P|373:244|379:284,1,45,0|8,0:0|0:0,0:0:0:0:
441,364,224469,1,0,0:0:0:0:
446,352,224555,1,0,0:0:0:0:
372,355,224641,1,0,0:0:0:0:
298,357,224727,38,0,P|275:354|254:346,1,45,2|0,0:0|0:0,0:0:0:0:
170,304,224900,2,0,P|160:283|157:261,1,45
152,165,225072,2,0,P|165:146|182:132,1,45,8|0,0:0|0:0,0:0:0:0:
80,306,225245,54,0,P|54:306|77:299,1,67.5000025749208
285,232,225417,2,0,B|319:172|306:121|257:78|257:78|286:133|261:175,1,270,2|0,0:0|0:0,0:0:0:0:
184,136,225762,6,0,P|158:135|181:142,1,67.5000025749208,8|0,0:0|0:0,0:0:0:0:
288,253,225934,2,0,B|340:268|377:249|377:249|419:230|471:245|471:245|447:211|395:210,1,270
433,327,226279,70,0,P|417:346|422:322,1,67.5000025749208
409,94,226452,2,0,B|392:112|383:140|383:140|431:133|473:154|473:154|476:79|399:54,1,270,8|0,0:0|0:0,0:0:0:0:
306,120,226796,70,0,P|301:148|306:167,1,45,6|0,0:0|0:0,0:0:0:0:
359,218,226969,1,0,0:0:0:0:
282,148,227055,2,0,P|285:119|295:101,1,45,0|8,0:0|0:0,0:0:0:0:
339,6,227227,1,0,0:0:0:0:
344,18,227313,1,0,0:0:0:0:
274,29,227399,1,0,0:0:0:0:
207,5,227485,38,0,P|184:8|163:16,1,45,2|0,0:0|0:0,0:0:0:0:
105,90,227658,1,0,0:0:0:0:
158,152,227745,2,0,P|152:174|144:195,1,45,0|8,0:0|0:0,0:0:0:0:
32,289,227917,1,0,0:0:0:0:
20,292,228003,70,0,P|1:276|25:281,1,67.5000025749208
138,359,228176,2,0,B|203:384|272:359|272:359|291:325|272:291|234:291|214:325|234:359,1,270,2|0,0:0|0:0,0:0:0:0:
362,352,228521,70,0,P|377:371|371:347,1,67.5000025749208,8|0,0:0|0:0,0:0:0:0:
319,251,228693,2,0,B|260:216|197:248|197:248|175:212|175:212|194:178|194:178|232:178|232:178|252:212|252:212|232:246,1,270
264,324,229038,6,0,P|248:343|254:319,1,67.5000025749208
333,248,229210,2,0,B|323:227|342:220|342:220|357:234|345:249,1,67.5000025749208,8|0,0:0|0:0,0:0:0:0:
412,317,229383,2,0,B|414:336|428:346|428:346|434:331|424:313,1,67.5000025749208
385,117,229555,54,0,P|357:110|317:116,1,45,6|0,0:0|0:0,0:0:0:0:
348,207,229727,1,0,0:0:0:0:
373,104,229813,2,0,P|345:99|306:108,1,45,0|8,0:0|0:0,0:0:0:0:
258,189,229986,1,0,0:0:0:0:
202,148,230072,1,0,0:0:0:0:
147,188,230158,1,0,0:0:0:0:
117,123,230245,38,0,P|90:116|50:122,1,45,2|0,0:0|0:0,0:0:0:0:
0,202,230417,2,0,P|7:228|32:260,1,45
126,263,230590,2,0,P|145:243|160:205,1,45,8|0,0:0|0:0,0:0:0:0:
82,183,230762,54,0,P|75:207|91:187,1,67.5000025749208
156,36,230934,2,0,B|206:16|245:32|245:32|296:46|345:22|345:22|318:63|266:69,1,270,2|0,0:0|0:0,0:0:0:0:
219,126,231279,6,0,P|199:110|223:116,1,67.5000025749208,8|0,0:0|0:0,0:0:0:0:
299,231,231452,2,0,B|306:249|290:260|290:260|275:250|283:231,1,67.5000025749208
374,114,231624,37,2,0:0:0:0:
207,202,231796,1,2,0:0:0:0:
435,219,231969,1,8,0:0:0:0:
293,157,232141,1,2,0:0:0:0:
362,353,232314,54,0,B|371:330|388:312|388:312|321:299|255:312|255:312|273:330|281:353,1,229.500004377365,6|0,0:0|0:0,0:0:0:0:
419,291,232658,1,8,0:0:0:0:
176,303,232831,2,0,P|122:242|219:252,1,229.500004377365,6|0,0:0|0:0,0:0:0:0:
102,304,233176,22,0,L|33:308,1,53.9999983520508,8|0,0:0|0:0,0:0:0:0:
6,198,233348,1,0,0:0:0:0:
0,207,233434,2,0,L|69:211,1,53.9999983520508,8|0,0:0|0:0,0:0:0:0:
107,100,233607,1,0,0:0:0:0:
112,112,233693,54,0,B|68:112|68:112|68:79|101:57|133:79|133:112,1,153.000002918243,6|0,0:0|0:0,0:0:0:0:
148,200,233952,2,0,B|148:237|185:262|185:262|223:237|223:200,1,153.000002918243,8|0,0:0|0:0,0:0:0:0:
229,108,234210,2,0,L|233:39,1,53.9999983520508,8|0,0:0|0:0,0:0:0:0:
320,10,234383,1,0,0:0:0:0:
333,89,234469,1,2,0:0:0:0:
359,26,234555,2,0,L|428:22,1,53.9999983520508,2|0,0:0|0:0,0:0:0:0:
469,167,234727,38,0,B|469:216|421:249|371:216|371:167|371:167|437:167,1,229.500004377365,8|0,0:0|0:0,0:0:0:0:
442,290,235072,22,0,B|419:296|394:290|394:290|419:303,1,67.5,2|0,0:0|0:0,0:0:0:0:
417,317,235417,37,12,0:0:0:0:
212,285,235590,2,0,B|206:252|206:252|211:210,1,67.5000025749208
341,334,235762,1,2,0:0:0:0:
136,302,235934,2,0,B|130:269|130:269|135:227,1,67.5000025749208
265,351,236106,1,8,0:0:0:0:
60,319,236279,22,0,P|41:334|65:328,1,67.5000025749208
175,147,236452,2,0,B|221:123|274:147|274:147|321:168|356:147|356:147|323:113|274:130,1,270,2|0,0:0|0:0,0:0:0:0:
211,220,236796,6,0,P|226:239|220:215,1,67.5000025749208,8|0,0:0|0:0,0:0:0:0:
80,0,236969,2,0,B|45:51|45:119|80:171|80:171|73:119|97:85,1,270
235,54,237314,70,0,P|230:29|225:53,1,67.5000025749208
354,219,237486,2,0,B|403:221|440:175|439:118|393:89|393:89|442:88|462:142,1,270,8|0,0:0|0:0,0:0:0:0:
410,282,237831,70,0,P|383:291|343:288,1,45,6|0,0:0|0:0,0:0:0:0:
285,263,238003,1,0,0:0:0:0:
356,307,238090,2,0,P|378:306|399:300,1,45,0|8,0:0|0:0,0:0:0:0:
490,211,238262,1,0,0:0:0:0:
502,216,238348,1,0,0:0:0:0:
512,146,238434,1,0,0:0:0:0:
489,79,238520,38,0,P|492:56|500:35,1,45,2|0,0:0|0:0,0:0:0:0:
336,34,238693,1,0,0:0:0:0:
392,85,238780,2,0,P|399:106|405:127,1,45,0|8,0:0|0:0,0:0:0:0:
284,178,238952,1,0,0:0:0:0:
281,166,239038,70,0,P|297:147|292:171,1,67.5000025749208
172,266,239210,2,0,B|125:290|85:285|85:285|48:249|3:253|3:253|34:232|96:244,1,270,2|0,0:0|0:0,0:0:0:0:
13,326,239555,70,0,P|6:350|22:330,1,67.5000025749208,8|0,0:0|0:0,0:0:0:0:
95,173,239727,2,0,B|102:154|86:143|86:143|71:153|79:173,1,67.5000025749208
205,339,239900,54,0,L|274:343,1,53.9999983520508,2|0,0:0|0:0,0:0:0:0:
345,279,240072,1,2,0:0:0:0:
340,379,240158,2,0,L|332:255,1,107.999996704102,8|0,0:0|0:0,0:0:0:0:
301,205,240417,2,0,L|297:258,1,53.9999983520508,8|0,0:0|0:0,0:0:0:0:
488,300,240590,6,0,P|499:281|501:259,1,45,6|0,0:0|0:0,0:0:0:0:
433,261,240762,1,0,0:0:0:0:
505,291,240848,2,0,P|512:263|506:223,1,45
466,148,241021,1,0,0:0:0:0:
424,171,241107,1,0,0:0:0:0:
378,163,241193,1,0,0:0:0:0:
327,109,241280,38,0,P|320:82|326:42,1,45,8|0,0:0|0:0,0:0:0:0:
406,0,241452,2,0,P|432:7|464:32,1,45
464,124,241625,2,0,P|444:143|406:158,1,45
387,78,241796,54,0,P|411:71|391:87,1,67.5000025749208
196,202,241969,2,0,B|174:161|195:119|195:119|219:69|187:30|187:30|153:63|172:123,1,270,2|0,0:0|0:0,0:0:0:0:
276,171,242314,6,0,P|294:154|270:160,1,67.5000025749208
260,313,242486,38,0,B|264:321|270:324|270:324|270:315|266:309,1,33.7500012874604
188,333,242572,1,2,0:0:0:0:
120,311,242658,1,10,0:0:0:0:
157,87,242831,54,0,P|177:73|165:95,1,67.5000025749208
55,174,243003,2,0,B|34:185|26:166|26:166|39:151|55:162,1,67.5000025749208
170,228,243176,2,0,B|180:244|175:259|175:259|160:250|157:232,1,67.5000025749208
130,161,243348,38,0,L|221:161,1,67.5000025749208,2|0,0:0|0:0,0:0:0:0:
272,144,243693,2,0,P|226:164|198:203,1,67.5000025749208
280,232,243952,1,0,0:0:0:0:
274,241,244038,54,0,P|276:265|291:285,1,33.7500012874604
258,293,244210,2,0,P|279:303|304:300,1,33.7500012874604
346,245,244383,2,0,P|370:247|390:262,1,33.7500012874604
397,227,244555,2,0,P|407:248|404:273,1,33.7500012874604
378,349,244727,53,2,0:0:0:0:
471,348,244900,2,0,L|499:349,2,16.8750006437302
400,358,245072,1,0,0:0:0:0:
450,340,245245,1,0,0:0:0:0:
426,348,245417,1,0,0:0:0:0:
512,177,245590,38,0,L|504:124,1,53.9999983520508,8|0,0:0|0:0,0:0:0:0:
368,170,245763,1,2,0:0:0:0:
365,197,245849,1,2,0:0:0:0:
372,222,245935,1,2,0:0:0:0:
370,236,246021,1,2,0:0:0:0:
403,96,246107,6,0,B|367:80|334:97|334:97|317:82|298:76|298:76|254:107|205:88,1,202.500007724762,6|0,0:0|0:0,0:0:0:0:
0,166,246452,54,0,P|26:169|46:169,1,33.7500012874604,8|0,0:0|0:0,0:0:0:0:
240,114,246625,2,0,P|214:108|194:107,1,33.7500012874604
10,152,246797,2,0,P|36:149|56:149,1,33.7500012874604
276,204,246969,2,0,P|250:209|230:210,1,33.7500012874604,2|0,0:0|0:0,0:0:0:0:
119,15,247142,1,8,0:0:0:0:
251,102,247314,70,0,P|225:96|205:95,1,33.7500012874604
22,143,247487,2,0,P|48:140|68:140,1,33.7500012874604
288,195,247659,2,0,P|262:200|242:201,1,33.7500012874604,2|0,0:0|0:0,0:0:0:0:
123,0,247831,1,8,0:0:0:0:
263,93,248004,6,0,P|237:87|217:86,1,33.7500012874604
34,134,248177,2,0,P|60:131|80:131,1,33.7500012874604
243,111,248348,2,0,P|218:119|200:127,1,33.7500012874604,2|0,0:0|0:0,0:0:0:0:
87,174,248521,2,0,P|72:167|39:160,1,45,8|0,0:0|0:0,0:0:0:0:
231,135,248694,2,0,P|213:154|202:170,1,33.7500012874604
218,358,248865,5,6,0:0:0:0:
86,251,249038,2,0,B|80:218|80:218|85:176,1,67.5000025749208
230,367,249210,5,8,0:0:0:0:
299,172,249383,2,0,B|305:139|305:139|300:97,1,67.5000025749208
218,358,249555,69,2,0:0:0:0:
55,266,249727,2,0,B|60:232|60:232|79:195,1,67.5000025749208
230,367,249900,5,8,0:0:0:0:
340,237,250072,2,0,B|334:203|334:203|315:166,1,67.5000025749208
202,365,250245,69,2,0:0:0:0:
201,202,250417,2,0,B|203:184|203:184|201:164,2,33.7500012874604
272,369,250590,5,8,0:0:0:0:
194,187,250762,2,0,B|191:169|191:169|193:149,2,33.7500012874604
132,369,250935,37,2,0:0:0:0:
203,82,251107,2,0,B|212:81|212:81|222:82,4,16.8750006437302
347,366,251280,5,8,0:0:0:0:
195,77,251452,2,0,B|186:76|186:76|176:77,4,16.8750006437302
207,277,251624,22,0,B|231:321|292:321|328:273|304:224|304:224|334:243|346:275,1,229.500004377365,6|0,0:0|0:0,0:0:0:0:
415,299,251969,54,0,P|421:279|422:252,1,33.7500012874604,8|0,0:0|0:0,0:0:0:0:
285,129,252142,2,0,P|281:146|280:163,1,33.7500012874604
368,368,252314,2,0,P|350:356|332:336,1,33.7500012874604
379,176,252487,2,0,P|385:196|385:223,1,33.7500012874604,2|0,0:0|0:0,0:0:0:0:
245,277,252659,1,8,0:0:0:0:
290,173,252831,70,0,P|291:156|294:140,1,33.7500012874604
382,366,253004,2,0,P|364:354|346:334,1,33.7500012874604
392,184,253177,2,0,P|398:204|398:231,1,33.7500012874604,2|0,0:0|0:0,0:0:0:0:
258,270,253349,1,8,0:0:0:0:
305,152,253520,6,0,P|301:169|300:186,1,33.7500012874604
372,339,253693,21,0,0:0:0:0:
380,327,253779,1,0,0:0:0:0:
400,343,253865,37,2,0:0:0:0:
408,355,253951,1,0,0:0:0:0:
441,325,254038,6,0,L|443:290,1,33.7500012874604,8|0,0:0|0:0,0:0:0:0:
451,327,254124,2,0,L|453:362,1,33.7500012874604
461,326,254210,2,0,L|463:289,1,33.7500012874604
471,321,254296,2,0,L|473:365,1,33.7500012874604
483,317,254383,6,0,B|492:286|492:286|481:253,1,67.5000025749208,6|0,0:0|0:0,0:0:0:0:
415,216,254556,2,0,B|406:185|406:185|417:152,1,67.5000025749208
484,118,254728,2,0,B|493:87|493:87|482:54,1,67.5000025749208,8|0,0:0|0:0,0:0:0:0:
333,57,254900,1,0,0:0:0:0:
313,149,254986,2,0,B|335:87|335:87|347:121|347:121|336:153,1,135.000005149842
313,229,255245,2,0,B|280:240|280:240|249:231,1,67.5000025749208
196,177,255418,2,0,B|179:171|179:171|164:176,6,33.7500012874604,8|0|0|0|0|0|0,0:0|0:0|0:0|0:0|0:0|0:0|0:0,0:0:0:0:
74,196,255762,6,0,B|51:164|51:164|52:141|42:117|42:117|65:134|73:154,1,135.000005149842,6|0,0:0|0:0,0:0:0:0:
127,264,256020,2,0,B|108:296|108:296|93:306|73:330|73:330|75:305|89:284,1,135.000005149842,2|0,0:0|0:0,0:0:0:0:
164,175,256279,70,0,B|171:134,1,33.7500012874604,2|0,0:0|0:0,0:0:0:0:
182,184,256365,6,0,B|188:217,1,33.7500012874604
200,175,256452,70,0,B|209:160|209:160|223:153,1,33.7500012874604,2|0,0:0|0:0,0:0:0:0:
262,156,256538,6,0,B|278:160|278:160|289:172,1,33.7500012874604,2|0,0:0|0:0,0:0:0:0:
299,209,256624,70,0,B|300:226|300:226|292:240,1,33.7500012874604
260,261,256710,6,0,B|243:267|243:267|228:264,1,33.7500012874604
198,240,256796,70,0,B|186:226|186:226|185:210,1,33.7500012874604,6|0,0:0|0:0,0:0:0:0:
374,144,256969,2,0,B|372:160|372:160|361:173,1,33.7500012874604,6|0,0:0|0:0,0:0:0:0:
169,74,257141,6,0,B|214:95|262:68|262:68|280:86|306:93|306:93|337:58|378:63,1,229.500004377365,6|0,0:0|0:0,0:0:0:0:
500,228,257486,54,0,P|474:231|454:231,1,33.7500012874604,8|0,0:0|0:0,0:0:0:0:
260,176,257659,2,0,P|286:170|306:169,1,33.7500012874604
490,214,257831,2,0,P|464:211|444:211,1,33.7500012874604
224,266,258003,2,0,P|250:271|270:272,1,33.7500012874604,2|0,0:0|0:0,0:0:0:0:
381,77,258176,1,8,0:0:0:0:
249,164,258348,70,0,P|275:158|295:157,1,33.7500012874604
478,205,258521,2,0,P|452:202|432:202,1,33.7500012874604
212,257,258693,2,0,P|238:262|258:263,1,33.7500012874604,2|0,0:0|0:0,0:0:0:0:
377,62,258865,1,8,0:0:0:0:
237,155,259038,6,0,P|263:149|283:148,1,33.7500012874604
466,196,259211,2,0,P|440:193|420:193,1,33.7500012874604
257,173,259383,2,0,P|282:181|300:189,1,33.7500012874604,2|0,0:0|0:0,0:0:0:0:
413,236,259555,2,0,P|428:229|461:222,1,45,8|0,0:0|0:0,0:0:0:0:
269,197,259728,2,0,P|287:216|298:232,1,33.7500012874604
318,380,259900,5,6,0:0:0:0:
460,301,260072,2,0,B|466:268|466:268|461:226,1,67.5000025749208
337,384,260245,5,8,0:0:0:0:
361,175,260417,2,0,B|355:141|355:141|336:104,1,67.5000025749208
318,380,260590,69,2,0:0:0:0:
245,235,260762,2,0,B|250:201|250:201|265:171,1,67.5000025749208
337,384,260935,5,8,0:0:0:0:
175,312,261107,2,0,B|158:283|158:283|150:249,1,67.5000025749208
347,292,261279,54,0,P|323:286|295:284,1,45,2|0,0:0|0:0,0:0:0:0:
151,330,261452,2,0,P|175:336|203:338,1,45
371,268,261624,70,0,P|346:270|319:278,1,45,8|0,0:0|0:0,0:0:0:0:
127,354,261797,2,0,P|151:351|178:343,1,45
256,192,261969,22,0,B|267:129|267:129|258:58|258:58|239:137,1,202.500007724762,2|0,0:0|0:0,0:0:0:0:
268,200,262314,6,0,B|279:137|279:137|262:29|262:29|236:135,1,270,8|0,0:0|0:0,0:0:0:0:
198,266,262658,69,6,0:0:0:0:
231,288,262744,1,2,0:0:0:0:
271,294,262830,1,2,0:0:0:0:
309,284,262916,1,2,0:0:0:0:
343,218,263003,5,2,0:0:0:0:
381,208,263089,1,2,0:0:0:0:
421,214,263175,1,2,0:0:0:0:
454,237,263261,1,2,0:0:0:0:
468,307,263348,70,0,P|501:306|525:295,1,45,2|0,0:0|0:0,0:0:0:0:
448,317,263607,6,0,P|479:327|505:325,1,45,2|0,0:0|0:0,0:0:0:0:
425,319,263865,70,0,P|434:332|446:338,1,22.5,2|0,0:0|0:0,0:0:0:0:
320,381,264038,5,6,0:0:0:0:
342,348,264124,1,2,0:0:0:0:
348,308,264210,1,2,0:0:0:0:
338,270,264296,1,2,0:0:0:0:
265,241,264383,69,2,0:0:0:0:
242,208,264469,1,2,0:0:0:0:
236,168,264555,1,2,0:0:0:0:
246,130,264641,1,2,0:0:0:0:
325,123,264728,6,0,P|324:90|313:66,1,45,2|0,0:0|0:0,0:0:0:0:
335,143,264987,70,0,P|345:111|343:85,1,45,2|0,0:0|0:0,0:0:0:0:
337,166,265245,6,0,P|350:156|356:144,1,22.5,2|0,0:0|0:0,0:0:0:0:
376,259,265417,69,6,0:0:0:0:
343,237,265503,1,2,0:0:0:0:
303,231,265589,1,2,0:0:0:0:
265,241,265675,1,2,0:0:0:0:
232,307,265762,5,2,0:0:0:0:
194,317,265848,1,2,0:0:0:0:
154,311,265934,1,2,0:0:0:0:
121,288,266020,1,2,0:0:0:0:
185,240,266107,69,6,0:0:0:0:
193,205,266193,1,2,0:0:0:0:
188,169,266279,1,2,0:0:0:0:
167,140,266365,1,2,0:0:0:0:
113,90,266452,5,2,0:0:0:0:
105,58,266538,1,2,0:0:0:0:
110,26,266624,1,2,0:0:0:0:
129,0,266710,1,2,0:0:0:0:
183,58,266797,37,6,0:0:0:0:
206,75,266883,1,2,0:0:0:0:
235,79,266969,1,2,0:0:0:0:
263,72,267055,1,2,0:0:0:0:
306,16,267141,5,2,0:0:0:0:
283,1,267227,1,2,0:0:0:0:
257,0,267313,1,2,0:0:0:0:
232,8,267399,1,2,0:0:0:0:
263,72,267486,37,6,0:0:0:0:
263,86,267572,1,2,0:0:0:0:
264,101,267658,1,2,0:0:0:0:
264,116,267744,1,2,0:0:0:0:
240,180,267831,5,2,0:0:0:0:
239,187,267917,1,2,0:0:0:0:
239,194,268003,1,2,0:0:0:0:
239,202,268089,1,2,0:0:0:0:
315,250,268176,70,0,L|420:250,1,90
438,335,268693,2,0,L|333:335,1,90
256,347,269210,2,0,P|298:358|344:339,1,90
335,211,269727,2,0,P|304:241|297:291,1,90
366,276,270245,1,0,0:0:0:0:
197,134,270934,6,0,L|92:134,1,90
74,49,271451,2,0,L|179:49,1,90
256,37,271968,2,0,P|214:26|168:45,1,90
177,173,272485,2,0,P|207:142|214:92,1,90
145,107,273003,1,0,0:0:0:0:
391,143,273693,70,0,P|430:149|462:135,1,67.4999979400635
348,86,274210,2,0,P|324:116|320:151,1,67.4999979400635
418,78,274727,2,0,P|404:41|376:20,1,67.4999979400635
284,89,275244,2,0,P|323:95|355:81,1,67.4999979400635
313,28,275762,1,0,0:0:0:0:
121,241,276452,6,0,P|82:235|50:249,1,67.4999979400635
164,298,276969,2,0,P|188:268|192:233,1,67.4999979400635
94,306,277486,2,0,P|108:343|136:364,1,67.4999979400635
228,295,278003,2,0,P|189:289|157:303,1,67.4999979400635
199,356,278521,1,0,0:0:0:0:
129,158,279210,70,0,L|124:113,1,45
56,76,279727,2,0,L|51:120,1,45
129,103,280244,2,0,L|173:98,1,45
211,30,280761,2,0,L|166:25,1,45
184,108,281278,1,0,0:0:0:0:
377,228,281968,6,0,L|372:272,1,45
304,310,282485,2,0,L|299:265,1,45
377,283,283002,2,0,L|421:287,1,45
459,356,283521,2,0,L|414:360,1,45
432,278,284038,1,0,0:0:0:0:
331,131,284727,70,0,L|336:71,4,54
413,43,287486,2,0,L|418:103,4,54
256,192,290245,38,0,B|208:240|128:176|128:96|192:32|288:48|311:135|311:135|370:115|416:150|416:150|474:158|501:127|501:127|451:182|470:242|470:242|492:289|475:328|475:328|474:379|543:380|536:295|475:328|475:328|408:364|330:333|330:333|361:365,1,1098
