osu file format v14

[General]
AudioFilename: audio.mp3
AudioLeadIn: 0
PreviewTime: -1
Countdown: 1
SampleSet: Soft
StackLeniency: 0
Mode: 0
LetterboxInBreaks: 0
WidescreenStoryboard: 0

[Editor]
DistanceSpacing: 0.7
BeatDivisor: 8
GridSize: 32
TimelineZoom: 2.1

[Metadata]
Title:Brightness (Camellia's 'Vividness' Remix)
TitleUnicode:Brightness (Camellia's 'Vividness' Remix)
Artist:kors k feat. kradness
ArtistUnicode:kors k feat. kradness
Creator:Sharu
Version:sharu x sharu
Source:
Tags:
BeatmapID:1580835
BeatmapSetID:750759

[Difficulty]
HPDrainRate:5.7
CircleSize:4.2
OverallDifficulty:8.7
ApproachRate:9.4
SliderMultiplier:2.86
SliderTickRate:1

[Events]
//Background and Video events
0,0,"lolm.jpg",0,0
//Break Periods
//Storyboard Layer 0 (Background)
//Storyboard Layer 1 (Fail)
//Storyboard Layer 2 (Pass)
//Storyboard Layer 3 (Foreground)
//Storyboard Sound Samples

[TimingPoints]
2650,400,4,2,0,20,1,0
2650,-166.666666666667,4,2,0,20,0,0
5550,-125,4,2,0,20,0,0
5850,-166.666666666667,4,2,0,20,0,0
13850,-100,4,2,0,20,0,0
14650,-83.3333333333334,4,2,0,20,0,0
14850,-100,4,2,0,20,0,0
15050,-125,4,2,0,20,0,0
15450,-100,4,2,0,20,0,0
16250,-83.3333333333333,4,2,0,20,0,0
17050,-71.4285714285714,4,2,0,20,0,0
18650,-100,4,2,0,20,0,0
19450,-83.3333333333333,4,2,0,20,0,0
20250,-71.4285714285714,4,2,0,20,0,0
21850,-100,4,2,0,20,0,0
22650,-83.3333333333333,4,2,0,20,0,0
23450,-71.4285714285714,4,2,0,20,0,0
24250,-500,4,2,0,20,0,0
25050,-125,4,2,0,20,0,0
28250,-71.4285714285714,4,2,0,20,0,0
29450,-66.6666666666667,4,2,0,20,0,0
29650,-500,4,2,0,20,0,0
31450,-71.4285714285714,4,2,0,20,0,0
32650,-66.6666666666667,4,2,0,20,0,0
32850,-200,4,2,0,20,0,0
33450,-83.3333333333333,4,2,0,20,0,0
34650,-71.4285714285714,4,2,0,20,0,0
35850,-66.6666666666667,4,2,0,20,0,0
36050,-250,4,2,0,20,0,0
36850,-71.4285714285714,4,2,0,20,0,0
37650,-83.3333333333333,4,2,0,20,0,0
38650,-71.4285714285714,4,2,0,20,0,0
39250,-100,4,2,0,20,0,0
53850,-50,4,2,0,20,0,0
54250,-100,4,2,0,20,0,0
54650,-71.4285714285714,4,2,0,20,0,0
54950,-62.5,4,2,0,20,0,0
55250,-100,4,2,0,20,0,0
55450,-50,4,2,0,20,0,0
56250,-71.4285714285714,4,2,0,20,0,0
57050,-100,4,2,0,20,0,0
57850,-62.5,4,2,0,20,0,0
58050,-100,4,2,0,20,0,0
58250,-55.5555555555556,4,2,0,20,0,0
59050,-100,4,2,0,20,0,0
60250,-200,4,2,0,20,0,0
60650,-50,4,2,0,20,0,0
61050,-55.5555555555556,4,2,0,20,0,0
61450,-71.4285714285714,4,2,0,20,0,0
61850,-50,4,2,0,20,0,0
62150,-71.4285714285714,4,2,0,20,0,0
62450,-50,4,2,0,20,0,0
63050,-83.3333333333333,4,2,0,20,0,0
63250,-71.4285714285714,4,2,0,20,0,0
64250,-100,4,2,0,20,0,0
65450,-62.5,4,2,0,20,0,0
65650,-55.5555555555556,4,2,0,20,0,0
66650,-50,4,2,0,20,0,0
67050,-100,4,2,0,20,0,0
67450,-71.4285714285714,4,2,0,20,0,0
67750,-62.5,4,2,0,20,0,0
68050,-100,4,2,0,20,0,0
68250,-50,4,2,0,20,0,0
69050,-71.4285714285714,4,2,0,20,0,0
69850,-100,4,2,0,20,0,0
70650,-62.5,4,2,0,20,0,0
70850,-100,4,2,0,20,0,0
71050,-55.5555555555556,4,2,0,20,0,0
71850,-100,4,2,0,20,0,0
73050,-200,4,2,0,20,0,0
73450,-50,4,2,0,20,0,0
73850,-55.5555555555556,4,2,0,20,0,0
74250,-71.4285714285714,4,2,0,20,0,0
74650,-50,4,2,0,20,0,0
79450,-55.5555555555556,4,2,0,20,0,0
80250,-62.5,4,2,0,20,0,0
80650,-83.3333333333333,4,2,0,20,0,0
81050,-50,4,2,0,20,0,0
82650,-55.5555555555556,4,2,0,20,0,0
83050,-200,4,2,0,20,0,0
83450,-62.5,4,2,0,20,0,0
84250,-71.4285714285714,4,2,0,20,0,0
85050,-200,4,2,0,20,0,0
85850,-55.5555555555556,4,2,0,20,0,0
86650,-62.5,4,2,0,20,0,0
87050,-83.3333333333333,4,2,0,20,0,0
87450,-50,4,2,0,20,0,0
89050,-100,4,2,0,20,0,0
89650,-50,4,2,0,20,0,0
89850,-100,4,2,0,20,0,0
90450,-83.3333333333333,4,2,0,20,0,0
90650,-100,4,2,0,20,0,0
91250,-83.3333333333333,4,2,0,20,0,0
91450,-100,4,2,0,20,0,0
92250,-71.4285714285714,4,2,0,20,0,0
92850,-83.3333333333333,4,2,0,20,0,0
93850,-50,4,2,0,20,0,0
95450,-55.5555555555556,4,2,0,20,0,0
95850,-62.5,4,2,0,20,0,0
97050,-50,4,2,0,20,0,0
97850,-41.6666666666667,4,2,0,20,0,0
98650,-55.5555555555556,4,2,0,20,0,0
99450,-83.3333333333333,4,2,0,20,0,0
100250,-50,4,2,0,20,0,0
102150,-62.5,4,2,0,20,0,0
102850,-83.3333333333333,4,2,0,20,0,0
103450,-50,4,2,0,20,0,0
103750,-62.5,4,2,0,20,0,0
104050,-55.5555555555556,4,2,0,20,0,0
104250,-50,4,2,0,20,0,0
105050,-166.666666666667,4,2,0,20,0,0
111450,-125,4,2,0,20,0,0
117050,-100,4,2,0,20,0,0
117250,-125,4,2,0,20,0,0
117450,-166.666666666667,4,2,0,20,0,0
117850,-100,4,2,0,20,0,0
119150,-166.666666666667,4,2,0,20,0,0
119450,-100,4,2,0,20,0,0
123450,-166.666666666667,4,2,0,20,0,0
124250,-100,4,2,0,20,0,0
125550,-166.666666666667,4,2,0,20,0,0
125850,-100,4,2,0,20,0,0
127450,-166.666666666667,4,2,0,20,0,0
128250,-125,4,2,0,20,0,0
129850,-83.3333333333334,4,2,0,20,0,0
130650,-71.4285714285714,4,2,0,20,0,0
131850,-66.6666666666667,4,2,0,20,0,0
132050,-500,4,2,0,20,0,0
133850,-71.4285714285714,4,2,0,20,0,0
135050,-66.6666666666667,4,2,0,20,0,0
135250,-200,4,2,0,20,0,0
135850,-83.3333333333333,4,2,0,20,0,0
137050,-71.4285714285714,4,2,0,20,0,0
138250,-66.6666666666667,4,2,0,20,0,0
138450,-250,4,2,0,20,0,0
139050,-71.4285714285714,4,2,0,20,0,0
140050,-83.3333333333333,4,2,0,20,0,0
141050,-71.4285714285714,4,2,0,20,0,0
141650,-100,4,2,0,20,0,0
156250,-50,4,2,0,20,0,0
156650,-100,4,2,0,20,0,0
157050,-71.4285714285714,4,2,0,20,0,0
157350,-62.5,4,2,0,20,0,0
157650,-100,4,2,0,20,0,0
157850,-50,4,2,0,20,0,0
158650,-71.4285714285714,4,2,0,20,0,0
159450,-100,4,2,0,20,0,0
160250,-62.5,4,2,0,20,0,0
160450,-100,4,2,0,20,0,0
160650,-55.5555555555556,4,2,0,20,0,0
161450,-100,4,2,0,20,0,0
162650,-200,4,2,0,20,0,0
163050,-50,4,2,0,20,0,0
163450,-55.5555555555556,4,2,0,20,0,0
163850,-71.4285714285714,4,2,0,20,0,0
164250,-50,4,2,0,20,0,0
164550,-71.4285714285714,4,2,0,20,0,0
164850,-50,4,2,0,20,0,0
165450,-83.3333333333333,4,2,0,20,0,0
165650,-71.4285714285714,4,2,0,20,0,0
166650,-100,4,2,0,20,0,0
167850,-62.5,4,2,0,20,0,0
168050,-55.5555555555556,4,2,0,20,0,0
169050,-50,4,2,0,20,0,0
169450,-100,4,2,0,20,0,0
169850,-71.4285714285714,4,2,0,20,0,0
170150,-62.5,4,2,0,20,0,0
170450,-100,4,2,0,20,0,0
170650,-50,4,2,0,20,0,0
171450,-71.4285714285714,4,2,0,20,0,0
172250,-100,4,2,0,20,0,0
173050,-62.5,4,2,0,20,0,0
173250,-100,4,2,0,20,0,0
173450,-55.5555555555556,4,2,0,20,0,0
174250,-100,4,2,0,20,0,0
175450,-200,4,2,0,20,0,0
175850,-50,4,2,0,20,0,0
176250,-55.5555555555556,4,2,0,20,0,0
176650,-71.4285714285714,4,2,0,20,0,0
177050,-50,4,2,0,20,0,0

[Colours]
Combo1 : 255,255,64
Combo2 : 128,128,192
Combo3 : 255,128,64
Combo4 : 253,66,70

[HitObjects]
67,216,2650,5,0,0:0:0:0:
67,216,2850,21,0,0:0:0:0:
103,293,2950,1,0,0:0:0:0:
186,312,3050,1,0,0:0:0:0:
253,259,3150,1,0,0:0:0:0:
255,255,3250,1,0,0:0:0:0:
257,251,3350,1,0,0:0:0:0:
195,191,3450,22,0,L|180:136,1,42.8999986907959
364,133,3650,1,0,0:0:0:0:
367,130,3750,2,0,L|382:75,1,42.8999986907959
367,130,3950,21,0,0:0:0:0:
367,215,4050,1,0,0:0:0:0:
425,277,4150,1,0,0:0:0:0:
509,282,4250,22,0,P|440:288|363:314,1,128.699996072388
313,352,4650,1,0,0:0:0:0:
241,300,4750,2,0,L|256:245,1,42.8999986907959
195,191,4950,2,0,L|180:136,2,42.8999986907959
367,215,5250,21,0,0:0:0:0:
370,212,5350,1,0,0:0:0:0:
440,162,5450,1,0,0:0:0:0:
432,74,5550,2,0,L|295:92,1,114.4
268,160,5850,22,0,L|181:148,1,85.7999973815919
182,148,6250,21,0,0:0:0:0:
119,89,6350,1,0,0:0:0:0:
114,90,6450,1,0,0:0:0:0:
110,91,6550,1,0,0:0:0:0:
59,160,6650,2,0,L|77:220,1,42.8999986907959
241,304,6850,1,0,0:0:0:0:
245,302,6950,1,0,0:0:0:0:
301,367,7050,21,0,0:0:0:0:
245,302,7150,1,0,0:0:0:0:
160,302,7250,1,0,0:0:0:0:
98,360,7350,1,0,0:0:0:0:
56,285,7450,22,0,L|77:165,1,85.7999973815919
70,200,7850,1,0,0:0:0:0:
139,152,7950,2,0,L|191:146,1,42.8999986907959
432,74,8150,1,0,0:0:0:0:
386,146,8250,1,0,0:0:0:0:
302,166,8350,21,0,0:0:0:0:
352,190,8450,1,0,0:0:0:0:
373,241,8550,1,0,0:0:0:0:
280,258,8650,22,0,L|254:280,3,21.449999345398
444,305,8850,2,0,L|470:327,3,21.449999345398
335,314,9050,22,0,P|266:320|189:346,1,128.699996072388
140,285,9450,1,0,0:0:0:0:
191,216,9550,1,0,0:0:0:0:
194,213,9650,1,0,0:0:0:0:
197,210,9750,1,0,0:0:0:0:
111,188,9850,22,0,L|51:206,1,42.8999986907959
113,97,10050,1,0,0:0:0:0:
111,101,10150,2,0,L|51:119,1,42.8999986907959
111,101,10350,21,0,0:0:0:0:
196,101,10450,1,0,0:0:0:0:
265,50,10550,1,0,0:0:0:0:
329,107,10650,22,0,P|347:167|355:212,1,85.7999973815919
429,226,10950,2,0,L|408:280,1,42.8999986907959
395,349,11150,1,0,0:0:0:0:
321,305,11250,2,0,L|315:274,3,21.449999345398
242,352,11450,22,0,L|89:335,2,128.699996072388,8|0|0,0:0|0:0|0:0,0:0:0:0:
201,265,12250,22,0,P|114:270|129:352,1,171.599994763184
242,352,12750,1,0,0:0:0:0:
245,350,12850,1,0,0:0:0:0:
249,348,12950,1,0,0:0:0:0:
316,283,13050,22,0,L|295:229,1,42.8999986907959
429,226,13250,1,0,0:0:0:0:
426,222,13350,2,0,L|447:168,1,42.8999986907959
426,222,13550,21,0,0:0:0:0:
360,153,13650,1,0,0:0:0:0:
265,157,13750,1,0,0:0:0:0:
164,257,13850,22,0,P|78:148|263:181,1,429
322,225,14550,1,0,0:0:0:0:
254,171,14650,22,0,L|233:249,3,42.8999986907959
183,305,14850,2,0,L|173:267,3,35.75
431,94,15050,38,0,L|438:64,7,28.6
482,176,15450,38,0,B|490:94|303:46|357:204|246:168,1,286
255,171,15950,1,0,0:0:0:0:
195,103,16050,2,0,P|226:85|260:86,1,71.5
422,290,16250,6,0,B|376:317|376:317|402:189,1,171.599994763184
482,176,16550,37,0,0:0:0:0:
446,118,16650,1,0,0:0:0:0:
378,110,16750,1,0,0:0:0:0:
320,151,16850,1,0,0:0:0:0:
255,171,16950,1,0,0:0:0:0:
195,103,17050,6,0,P|219:165|248:306,1,200.199993890381
103,346,17350,2,0,P|68:314|164:260,1,200.199993890381
395,312,17650,2,0,P|364:346|306:369,1,100.099996945191
169,264,17850,38,0,L|152:214,7,50.0499984725953
246,295,18250,5,0,0:0:0:0:
228,197,18350,1,0,0:0:0:0:
195,103,18450,1,0,0:0:0:0:
195,103,18650,38,0,B|302:117|302:117|352:166|352:166|475:180,1,286
459,178,19150,1,0,0:0:0:0:
495,92,19250,2,0,B|464:79|464:79|405:96,1,71.5
63,219,19450,6,0,L|262:198,1,171.599994763184
459,178,19750,37,0,0:0:0:0:
388,170,19850,1,0,0:0:0:0:
327,141,19950,1,0,0:0:0:0:
265,112,20050,1,0,0:0:0:0:
195,103,20150,1,0,0:0:0:0:
103,75,20250,6,0,B|50:90|50:90|17:122|20:188|65:220,1,200.199993890381
170,332,20650,1,0,0:0:0:0:
239,324,20750,1,0,0:0:0:0:
308,318,20850,1,0,0:0:0:0:
356,262,20950,37,0,0:0:0:0:
356,262,21050,2,0,B|289:268|264:204|264:204|206:206|184:254|184:254|196:301|163:343,1,300.299990835572
343,183,21450,6,0,L|383:122,7,50.0499984725953
457,136,21850,38,0,B|415:124|370:82|370:82|419:165|436:262,1,286
434,252,22350,1,0,0:0:0:0:
377,327,22450,2,0,P|358:299|363:247,1,71.5
495,39,22650,6,0,P|445:7|492:43,1,171.599994763184
434,252,22950,37,0,0:0:0:0:
416,182,23050,1,0,0:0:0:0:
388,116,23150,1,0,0:0:0:0:
370,82,23250,1,0,0:0:0:0:
457,136,23350,1,0,0:0:0:0:
362,95,23450,6,0,P|280:130|154:161,1,200.199993890381
238,350,23750,2,0,P|156:315|30:284,1,200.199993890381
137,76,24050,2,0,P|101:103|84:184,1,100.099996945191
207,240,24250,38,0,P|243:213|260:132,1,100.099996945191
262,162,25050,6,0,B|363:136|326:216|424:209,1,171.6
512,10,25450,2,0,B|484:110|433:38|390:126,1,171.6
496,286,25850,2,0,P|481:199|405:224,1,171.6
286,317,26250,1,0,0:0:0:0:
286,317,26650,38,0,P|226:288|179:282,1,114.4
96,315,26950,2,0,P|150:277|178:240,1,114.4
186,154,27250,2,0,P|190:219|209:263,1,114.4
470,310,27550,1,0,0:0:0:0:
470,310,27850,5,0,0:0:0:0:
410,247,27950,1,0,0:0:0:0:
330,257,28050,1,0,0:0:0:0:
286,317,28150,1,0,0:0:0:0:
381,341,28250,6,0,B|415:256|370:185|370:185|415:205|460:175|460:175|486:195|486:195|517:114|481:21|481:21|439:70|343:61|343:61|397:83|418:136,1,700.699978616334
470,310,29050,1,0,0:0:0:0:
470,310,29250,38,0,P|512:323|480:333,1,100.099996945191
247,274,29450,6,0,P|293:245|301:302,1,107.250004091263
39,360,29650,38,0,P|69:293|127:307,1,143
440,101,31050,1,0,0:0:0:0:
125,305,31450,6,0,B|137:244|201:219|201:219|199:204|199:204|273:213|331:123|331:123|229:158|119:111|123:39|123:39|161:81|161:81|166:127|166:127|131:144|121:184,1,700.699978616334
217,312,32250,1,0,0:0:0:0:
217,312,32450,38,0,B|252:332|247:361|247:361|240:346|206:327,1,100.099996945191
311,201,32650,6,0,B|336:237|316:272|316:272|306:249|284:234,1,107.250004091263
440,101,32850,38,0,B|461:155|419:196|419:196|417:166|400:145,1,143
409,159,33450,6,0,B|310:136|227:161|227:161|205:180|205:180|156:202|109:245|109:245|103:194|139:148,1,428.999986907959
155,72,34050,38,0,B|83:51|17:-6|17:-6|84:96|111:252,1,428.999986907959
298,245,34650,6,0,B|272:260|255:290|255:290|226:168|427:109|464:226|464:226|442:224|442:224|393:239|327:207|373:103|284:62|284:62|309:96|316:128,1,700.699978616334
333,318,35450,1,0,0:0:0:0:
333,318,35650,38,0,B|329:371|329:371|343:327,1,100.099996945191
158,252,35850,6,0,B|132:306|132:306|176:274,1,107.250004091263
82,83,36050,38,0,B|28:115|28:115|88:125,1,114.4
427,74,36650,5,0,0:0:0:0:
427,74,36850,2,0,B|371:44|310:73|310:73|294:72|294:72|287:90|287:90|239:148|267:231,1,300.299990835572
265,225,37250,2,0,B|289:249|289:249|271:174,1,100.099996945191
419,280,37650,38,0,P|296:269|211:360,1,257.399992144776
419,280,38050,6,0,L|440:217,4,42.8999986907959
210,360,38350,1,0,0:0:0:0:
194,353,38450,1,0,0:0:0:0:
161,284,38550,1,0,0:0:0:0:
181,212,38650,38,0,B|318:123|259:-112|46:36|109:161|370:156,1,500.499984725953
413,131,39250,6,0,B|450:-29|576:-16|638:129|520:329|-179:287|-44:-22|261:-110|253:-19|314:69|272:238|65:251,1,965.25
97,246,40650,2,0,L|63:201,7,35.75
24,276,41050,38,0,P|68:280|109:362,1,143
119,370,41350,1,0,0:0:0:0:
187,325,41450,2,0,P|230:333|264:363,1,71.5
490,280,41650,2,0,P|447:288|413:318,1,71.5
345,264,41850,38,0,B|336:334|336:334|296:176,1,214.5
139,71,42250,2,0,P|158:100|183:127,1,71.5
422,153,42450,1,0,0:0:0:0:
409,156,42550,1,0,0:0:0:0:
332,117,42650,6,0,B|252:91|269:155|179:132,1,143
183,127,42950,1,0,0:0:0:0:
119,184,43050,2,0,L|134:259,1,71.5
281,349,43250,1,0,0:0:0:0:
230,348,43350,1,0,0:0:0:0:
202,306,43450,2,0,L|216:235,1,71.5
396,191,43650,1,0,0:0:0:0:
465,96,43850,37,0,0:0:0:0:
397,74,43950,1,0,0:0:0:0:
329,96,44050,1,0,0:0:0:0:
286,154,44150,1,0,0:0:0:0:
286,226,44250,1,0,0:0:0:0:
286,226,44450,6,0,L|211:236,1,71.5
70,162,44650,2,0,L|140:171,1,71.5
144,304,44850,1,0,0:0:0:0:
139,317,44950,1,0,0:0:0:0:
187,380,45050,38,0,P|171:282|139:168,1,214.5
82,86,45450,2,0,P|110:71|149:68,1,71.5
240,55,45650,1,0,0:0:0:0:
227,60,45750,1,0,0:0:0:0:
249,132,45850,6,0,P|259:56|329:28,1,143
324,19,46150,1,0,0:0:0:0:
404,49,46250,38,0,L|492:32,1,71.5
410,130,46450,6,0,L|498:113,1,71.5
417,209,46650,38,0,L|505:192,1,71.5
422,287,46850,6,0,L|510:270,1,71.5
422,287,47050,37,0,0:0:0:0:
371,337,47150,5,0,0:0:0:0:
292,345,47250,37,0,0:0:0:0:
216,304,47350,5,0,0:0:0:0:
188,215,47450,37,0,0:0:0:0:
199,206,47650,1,0,0:0:0:0:
207,134,47850,6,0,L|198:211,1,71.5
480,116,48050,37,0,0:0:0:0:
453,126,48250,1,0,0:0:0:0:
425,118,48450,1,0,0:0:0:0:
417,46,48650,6,0,L|425:118,1,71.5
111,339,48850,37,0,0:0:0:0:
158,306,49050,1,0,0:0:0:0:
216,304,49250,1,0,0:0:0:0:
224,232,49450,6,0,L|215:309,1,71.5
417,46,49650,37,0,0:0:0:0:
343,90,49850,1,0,0:0:0:0:
257,80,50050,1,0,0:0:0:0:
248,8,50250,6,0,L|257:85,1,71.5
466,258,50450,37,0,0:0:0:0:
466,258,50650,21,0,0:0:0:0:
425,316,50750,1,0,0:0:0:0:
354,330,50850,1,0,0:0:0:0:
290,296,50950,1,0,0:0:0:0:
263,214,51050,1,0,0:0:0:0:
208,147,51150,1,0,0:0:0:0:
122,138,51250,1,0,0:0:0:0:
55,192,51350,1,0,0:0:0:0:
144,285,51450,38,0,L|154:250,6,35.75
368,229,51850,6,0,L|358:197,16,17.875
449,3,53850,38,0,B|446:90|502:171|502:171|391:130|391:130|383:116|383:116|327:126|273:106|273:106|311:126|331:171,1,500.5
368,229,54250,22,0,L|352:236,14,17.875
458,293,54650,22,0,P|373:253|226:335,1,250.249992362976
238,313,54950,22,0,B|205:325|205:325|274:386|400:347,1,228.8
121,48,55250,22,0,L|101:17,1,35.75
63,97,55349,2,0,L|35:73,1,35.75
64,186,55450,22,0,B|57:88|192:10|284:88|284:88|261:104|247:134,1,357.5
324,158,55750,22,0,B|408:151|359:30|188:93|241:323,1,357.5
296,358,56050,2,0,P|312:310|245:241,1,143
0,236,56250,1,0,0:0:0:0:
0,236,56450,22,0,P|28:274|81:281,1,100.099996945191
418,217,56650,22,0,L|451:202,14,25.0249992362976
456,123,57050,22,0,B|509:27|509:27|386:53|386:53|345:96|346:184|428:223,1,429
445,349,57750,1,0,0:0:0:0:
482,275,57850,22,0,B|436:311|436:311|377:295,1,114.4
166,215,58050,22,0,L|171:261,1,35.75
95,220,58150,2,0,L|100:266,1,35.75
55,316,58250,22,0,P|130:270|272:375,1,257.399992144776
418,217,58550,2,0,L|354:223,1,64.3499980361939
195,139,58650,22,0,B|292:148|292:148|334:212|334:212|417:216,1,257.399992144776
512,28,58950,21,0,0:0:0:0:
441,52,59050,2,0,P|426:28|402:18,1,35.75
407,118,59150,2,0,P|379:111|355:121,1,35.75
414,193,59250,2,0,P|390:207|380:232,1,35.75
470,242,59350,1,0,0:0:0:0:
470,242,59450,21,0,0:0:0:0:
459,312,59550,21,0,0:0:0:0:
394,357,59650,21,0,0:0:0:0:
309,344,59750,21,0,0:0:0:0:
267,260,59850,21,0,0:0:0:0:
245,162,59950,21,0,0:0:0:0:
156,101,60050,21,0,0:0:0:0:
46,135,60150,21,0,0:0:0:0:
4,249,60250,22,0,L|-26:255,4,17.875
4,249,60650,22,0,B|-63:237|-96:377|56:407|170:392|87:170|226:188|226:188|194:205|186:242,1,500.5
224,323,61050,2,0,B|250:347|250:347|287:306|260:242,2,128.699996072388
88,37,61450,22,0,P|24:41|10:68,1,66.7333312967937
117,127,61583,22,0,P|75:175|85:204,1,66.7333312967937
204,165,61716,22,0,P|192:227|214:247,1,66.7333312967937
275,72,61850,22,0,B|218:1|81:6|45:115|45:115|134:130,1,357.5
266,259,62150,22,0,P|142:239|18:255,1,250.249992362976
0,330,62450,22,0,P|68:318|96:255,1,143
340,212,62650,22,0,B|272:151|272:151|311:248|318:349,1,286
479,271,62950,1,0,0:0:0:0:
439,205,63050,2,0,P|443:161|471:111,1,85.7999973815919
461,124,63250,22,0,B|502:98|502:98|418:17|317:66|317:66|347:111,1,300.299990835572
117,127,63650,2,0,P|142:168|194:162,1,100.099996945191
218,81,63850,22,0,B|340:184|342:328|181:286|278:179,1,300.299990835572
481,275,64250,22,0,P|405:252|247:380,1,286
250,364,64750,2,0,L|185:317,1,71.5
37,112,64950,21,0,0:0:0:0:
63,208,65050,2,0,P|53:245|3:352,1,143
245,2,65350,21,0,0:0:0:0:
219,98,65450,2,0,P|229:135|240:163,1,57.2
304,209,65550,1,0,0:0:0:0:
375,260,65650,22,0,P|328:165|297:65,1,193.049994108582
287,85,65850,22,0,P|269:149|182:336,1,257.399992144776
63,208,66150,22,0,P|56:118|128:201,1,257.399992144776
107,356,66450,2,0,B|79:343|79:343|80:289|143:264,1,128.699996072388
431,174,66650,22,0,B|446:238|446:238|440:241|440:241|436:320|436:320|367:203|288:219|288:219|279:318|175:323,1,500.5
134,268,67050,22,0,L|110:267,14,17.875
90,124,67450,22,0,B|47:157|47:157|60:220|139:264|202:234,1,250.249992362976
202,235,67750,22,0,B|160:194|164:111|231:82|231:82|217:126,1,228.8
445,214,68050,22,0,L|481:212,1,35.75
437,289,68149,2,0,L|472:298,1,35.75
364,352,68250,22,0,B|433:299|440:167|365:125|365:125|376:180|348:217,1,357.5
198,308,68550,22,0,P|176:167|268:265,1,357.5
283,326,68850,2,0,P|219:301|202:234,1,143
450,85,69050,1,0,0:0:0:0:
450,85,69250,22,0,P|399:124|352:122,1,100.099996945191
65,59,69450,22,0,L|40:43,12,25.0249992362976
152,110,69850,22,0,B|145:71|168:37|168:37|118:37|18:83|86:210|86:210|74:199|59:195|59:195|121:171|152:195,1,429
172,377,70550,1,0,0:0:0:0:
102,348,70650,22,0,P|141:308|199:307,1,114.4
397,360,70850,22,0,L|394:324,1,35.75
470,368,70950,2,0,L|467:332,1,35.75
439,253,71050,22,0,B|457:285|488:314|488:314|407:287|302:278,1,257.399992144776
152,110,71350,2,0,L|235:124,1,64.3499980361939
234,244,71450,22,0,B|166:202|131:19|273:66|271:107|195:127,1,257.399992144776
197,307,71750,21,0,0:0:0:0:
121,315,71850,2,0,L|100:362,1,35.75
64,269,71950,2,0,L|15:288,1,35.75
38,198,72050,2,0,L|-9:177,1,35.75
67,130,72150,1,0,0:0:0:0:
67,130,72250,21,0,0:0:0:0:
112,184,72350,21,0,0:0:0:0:
189,197,72450,21,0,0:0:0:0:
256,144,72550,21,0,0:0:0:0:
277,53,72650,21,0,0:0:0:0:
369,13,72750,21,0,0:0:0:0:
467,54,72850,21,0,0:0:0:0:
474,168,72950,21,0,0:0:0:0:
381,246,73050,22,0,L|383:265,4,17.875
381,246,73450,22,0,B|366:200|382:148|382:148|280:190|280:288|280:288|192:338|138:261|138:261|161:276|195:275,1,500.5
187,123,73850,2,0,B|155:109|155:109|190:198,2,128.699996072388
417,17,74250,22,0,P|481:21|495:48,1,66.7333312967937
388,107,74383,22,0,P|430:155|420:184,1,66.7333312967937
302,144,74516,22,0,P|314:206|292:226,1,66.7333312967937
169,366,74650,22,0,B|344:179|99:72|96:282|217:278,1,357.5
433,308,74950,1,0,0:0:0:0:
417,235,75050,2,0,P|351:230|299:311,1,143
78,338,75250,22,0,P|34:311|86:317,1,143
236,72,75450,22,0,B|141:23|141:23|191:208,1,286
301,282,75750,2,0,B|270:226|192:222|192:222|189:219|189:219|186:223|186:223|101:242|86:318,1,286
302,144,76050,5,0,0:0:0:0:
256,192,76100,12,0,78600,0:0:0:0:
304,31,78650,37,0,0:0:0:0:
313,101,78750,1,0,0:0:0:0:
370,160,78850,5,0,0:0:0:0:
365,188,78950,1,0,0:0:0:0:
338,263,79050,38,0,P|426:192|511:234,1,214.5
507,229,79250,2,0,P|419:300|334:258,1,214.5
43,137,79450,6,0,B|42:227|-19:341|-19:341|-9:313|-12:294|-12:294|54:237|131:222|131:222|157:237|157:237|183:221|183:221|242:297|242:297|242:185|242:185|260:182|260:182|271:125|271:125|304:186|304:186|344:177|384:195,1,900.899972506715
466,373,80250,37,0,0:0:0:0:
399,332,80350,2,0,L|335:363,1,57.2
389,315,80450,2,0,L|319:309,1,57.2
385,295,80550,2,0,L|327:255,1,57.2
470,187,80650,6,0,P|490:191|510:183,1,42.8999986907959
459,135,80750,2,0,P|479:128|491:111,1,42.8999986907959
425,95,80850,2,0,P|439:79|441:58,1,42.8999986907959
375,80,80950,2,0,P|379:59|371:39,1,42.8999986907959
288,122,81050,38,0,B|227:105|227:105|220:108|220:108|135:85,2,143
347,356,81350,2,0,B|316:369|316:369|340:253,2,143
364,187,81650,2,0,P|297:222|226:201,1,143
77,121,81850,6,0,B|150:89|150:89|120:236,1,214.5
73,292,82050,2,0,P|143:246|201:285,1,143
470,187,82250,37,0,0:0:0:0:
482,272,82350,1,0,0:0:0:0:
432,341,82450,1,0,0:0:0:0:
347,356,82550,1,0,0:0:0:0:
338,261,82650,6,0,B|357:208|337:150|337:150|343:144|343:144|345:97|345:97|319:77|319:77|397:46|438:103|438:103|407:116|391:147,1,386.099988217163
266,214,83050,38,0,P|261:196|258:179,1,35.75
221,285,83250,2,0,P|204:277|189:268,1,35.75
36,56,83450,5,0,0:0:0:0:
36,56,83650,2,0,P|93:75|175:89,1,114.4
65,166,83850,2,0,P|52:107|24:29,1,114.4
146,85,84050,2,0,P|101:124|47:188,1,114.4
435,46,84250,37,0,0:0:0:0:
435,46,84450,2,0,P|385:62|314:74,1,100.099996945191
408,142,84650,2,0,P|419:90|444:23,1,100.099996945191
338,71,84850,2,0,P|376:106|422:161,1,100.099996945191
432,341,85050,6,0,L|345:332,1,71.5
360,333,85350,37,0,0:0:0:0:
281,336,85450,5,0,0:0:0:0:
206,293,85550,37,0,0:0:0:0:
164,209,85650,5,0,0:0:0:0:
172,109,85750,38,0,L|180:79,1,17.875
338,71,85850,6,0,B|322:34|330:-5|330:-5|262:63|262:63|259:87|259:87|240:157|240:157|230:157|230:157|232:236|287:239|322:252|446:157|271:-38|69:34|1:181|56:207|56:207|44:231|44:231|35:242|35:242|39:285,1,900.899972506715
281,336,86650,37,0,0:0:0:0:
360,333,86750,2,0,L|424:364,1,57.2
370,316,86850,2,0,L|440:310,1,57.2
374,296,86950,2,0,L|432:256,1,57.2
265,215,87050,6,0,P|261:236|269:256,1,42.8999986907959
215,199,87151,2,0,P|201:214|199:236,1,42.8999986907959
181,159,87251,2,0,P|161:166|149:184,1,42.8999986907959
171,108,87352,2,0,P|150:104|131:113,1,42.8999986907959
271,118,87450,38,0,P|342:112|407:139,2,143
38,275,87750,2,0,B|-68:231|1:141|14:229,2,143
256,195,88050,2,0,P|198:159|198:91,1,143
28,75,88250,6,0,P|134:72|227:20,1,214.5
302,2,88450,2,0,B|285:71|285:71|285:59|285:59|268:130,1,143
281,336,88650,37,0,0:0:0:0:
366,348,88750,1,0,0:0:0:0:
435,298,88850,1,0,0:0:0:0:
450,213,88950,1,0,0:0:0:0:
407,139,89050,5,0,0:0:0:0:
350,212,89150,1,0,0:0:0:0:
256,195,89250,2,0,P|266:231|275:279,1,71.5
423,69,89450,2,0,P|413:105|404:153,1,71.5
356,246,89650,38,0,P|276:224|166:286,1,214.5
171,363,89850,5,0,0:0:0:0:
78,360,89950,1,0,0:0:0:0:
38,274,90050,2,0,P|28:238|19:190,1,71.5
246,115,90250,2,0,P|238:150|229:184,1,71.5
171,363,90450,38,0,L|180:321,1,42.8999986907959
157,327,90550,2,0,L|166:285,1,42.8999986907959
272,264,90650,5,0,0:0:0:0:
179,261,90750,1,0,0:0:0:0:
139,175,90850,2,0,P|129:139|120:91,1,71.5
350,212,91050,2,0,P|359:177|366:142,1,71.5
251,37,91250,38,0,L|260:79,1,42.8999986907959
237,73,91350,2,0,L|246:115,1,42.8999986907959
332,215,91450,5,0,0:0:0:0:
352,127,91550,1,0,0:0:0:0:
437,91,91650,1,0,0:0:0:0:
457,3,91750,1,0,0:0:0:0:
365,48,91850,38,0,B|327:162|435:131|409:253,1,214.5
359,317,92250,6,0,B|385:267|385:267|267:200|201:338,1,250.249992362976
157,347,92550,1,0,0:0:0:0:
117,242,92650,2,0,P|67:236|17:228,1,100.099996945191
266,119,92850,2,0,P|308:123|351:126,1,85.7999973815919
66,64,93050,37,0,0:0:0:0:
143,45,93150,2,0,L|207:31,1,42.8999986907959
144,74,93250,2,0,L|206:93,1,42.8999986907959
132,108,93350,2,0,L|176:156,1,42.8999986907959
72,180,93450,6,0,P|52:186|39:203,1,42.8999986907959
106,219,93550,2,0,P|92:235|90:255,1,42.8999986907959
155,236,93650,2,0,P|150:256|159:276,1,42.8999986907959
207,224,93750,2,0,P|214:244|230:257,1,42.8999986907959
332,215,93850,38,0,P|387:209|442:279,2,143
176,351,94150,2,0,B|102:365|112:305|37:325,2,143
260,138,94450,2,0,B|215:170|215:170|234:276,1,143
348,342,94650,6,0,P|346:255|361:128,1,214.5
424,79,94850,2,0,P|478:137|413:188,1,143
125,232,95050,37,0,0:0:0:0:
181,167,95150,1,0,0:0:0:0:
266,161,95250,1,0,0:0:0:0:
332,215,95350,1,0,0:0:0:0:
229,256,95450,6,0,B|117:184|233:61|373:194|162:363,1,386.099988217163
348,342,95850,38,0,P|383:314|375:359,3,114.4
132,280,96250,6,0,L|59:303,9,76.2666666666667
4,245,96950,1,0,0:0:0:0:
241,185,97050,38,0,L|332:215,9,95.3333333333333
387,141,97750,1,0,0:0:0:0:
108,98,97850,6,0,L|0:133,10,114.399996508789
320,61,98650,38,0,B|340:113|340:113|339:120|339:120|357:168|357:168|343:156|343:156|279:173|226:119|226:119|232:136|232:136|176:148|158:213,1,386.099988217163
213,346,99050,2,0,P|245:329|215:240,1,128.699996072388
108,98,99250,2,0,B|66:82|66:82|88:177,1,128.699996072388
327,227,99450,5,0,0:0:0:0:
386,170,99550,2,0,L|450:184,1,42.8999986907959
387,141,99650,2,0,L|449:122,1,42.8999986907959
375,107,99750,2,0,L|419:59,1,42.8999986907959
275,119,99850,38,0,P|283:140|299:153,1,42.8999986907959
223,132,99949,2,0,P|219:152|227:171,1,42.8999986907959
175,114,100049,2,0,P|161:130|159:151,1,42.8999986907959
141,75,100149,2,0,P|120:82|107:99,1,42.8999986907959
2,178,100250,6,0,P|71:193|93:270,2,143
327,227,100550,2,0,P|258:248|188:262,2,143
196,340,100850,2,0,B|169:366|169:366|190:255,1,143
208,87,101050,38,0,B|170:-47|295:93|217:186,1,214.5
95,255,101250,2,0,P|103:181|158:151,1,143
512,67,101450,5,0,0:0:0:0:
512,152,101550,37,0,0:0:0:0:
441,223,101650,5,0,0:0:0:0:
326,227,101750,37,0,0:0:0:0:
320,126,101850,6,0,B|372:102|428:48|428:48|374:146|358:281,1,357.5
434,347,102150,38,0,P|307:275|246:344,1,228.8
0,170,102450,2,0,B|119:134|72:273|195:261,1,228.8
249,31,102750,5,0,0:0:0:0:
196,90,102850,2,0,P|180:167|178:193,1,85.7999973815919
182,341,103050,38,0,P|100:283|123:380,1,257.399992144776
347,331,103450,6,0,B|382:293|382:293|359:222|244:188|179:271,1,286
11,201,103750,38,0,B|63:216|103:264|103:264|107:204|150:157,1,228.8
362,107,104050,6,0,B|410:87|401:27|401:27|338:13|313:57,1,193.049994108582
287,122,104250,37,0,0:0:0:0:
241,201,104383,6,0,P|192:223|190:267,1,95.3333333333333
201,273,104516,2,0,P|250:251|252:207,1,95.3333333333333
454,338,104650,38,0,B|357:298|434:218|332:199|332:199|345:300|277:343|277:343|283:381|283:381|234:387|204:360|204:360|160:390|105:376,1,572
123,85,105550,37,0,0:0:0:0:
126,86,105650,1,0,0:0:0:0:
129,87,105750,2,0,P|156:121|126:175,1,85.7999973815919
61,247,106050,1,0,0:0:0:0:
64,244,106150,2,0,P|101:263|108:269,1,42.8999986907959
241,354,106350,22,0,P|160:355|104:398,2,128.699996072388
430,250,107150,21,0,0:0:0:0:
433,247,107250,1,0,0:0:0:0:
436,244,107350,2,0,P|376:252|316:246,1,85.7999973815919
315,346,107650,1,0,0:0:0:0:
318,343,107750,2,0,P|299:306|293:299,1,42.8999986907959
254,186,107950,22,0,P|200:195|213:285,2,128.699996072388
364,18,108650,21,0,0:0:0:0:
367,20,108750,1,0,0:0:0:0:
370,21,108850,2,0,P|363:72|361:125,1,85.7999973815919
454,170,109150,1,0,0:0:0:0:
451,167,109250,2,0,P|470:130|476:123,2,42.8999986907959
249,70,109550,21,0,0:0:0:0:
249,70,109850,2,0,P|228:134|155:136,1,128.699996072388
90,33,110350,21,0,0:0:0:0:
87,36,110450,2,0,P|96:69|98:92,2,42.8999986907959
5,160,110750,1,0,0:0:0:0:
6,155,110850,1,0,0:0:0:0:
51,143,110950,1,0,0:0:0:0:
94,162,111050,2,0,L|87:192,3,21.449999345398
142,244,111250,2,0,L|149:274,3,21.449999345398
36,273,111450,22,0,B|178:248|98:365|234:351,1,228.8
315,220,111950,2,0,P|346:196|379:185,1,57.2
307,345,112150,2,0,P|293:304|202:284,1,114.4
147,265,112450,1,0,0:0:0:0:
89,182,112550,2,0,P|58:158|25:147,1,57.2
252,66,112750,22,0,P|214:107|214:163,1,114.4
388,297,113050,2,0,P|388:207|402:55,1,228.8
318,113,113550,1,0,0:0:0:0:
296,202,113650,2,0,L|304:249,3,28.6
231,275,113850,22,0,P|174:261|113:256,1,114.4
9,127,114150,2,0,P|73:141|80:202,1,114.4
48,312,114450,2,0,P|38:287|29:245,1,57.2
189,129,114650,22,0,L|134:366,1,228.8
231,275,115150,1,0,0:0:0:0:
273,342,115250,1,0,0:0:0:0:
331,288,115350,2,0,B|393:298|375:248|444:259,1,114.4
512,29,115650,1,0,0:0:0:0:
432,40,115750,1,0,0:0:0:0:
402,114,115850,22,0,P|435:156|445:288,1,171.6
287,223,116250,2,0,P|229:174|254:271,1,228.8
373,294,116750,2,0,B|314:291|326:347|248:341,1,114.4
82,322,117050,22,0,L|38:309,3,35.75
82,242,117250,22,0,L|40:229,3,28.6
82,162,117450,38,0,L|44:150,7,21.449999345398
24,49,117850,38,0,P|95:129|215:97,1,214.5
263,10,118250,1,0,0:0:0:0:
321,51,118350,1,0,0:0:0:0:
392,49,118450,2,0,P|366:79|366:118,2,71.5
434,163,118750,5,0,0:0:0:0:
374,127,118850,1,0,0:0:0:0:
304,138,118950,1,0,0:0:0:0:
260,194,119050,1,0,0:0:0:0:
254,265,119150,2,0,P|292:288|310:341,1,85.7999973815919
98,368,119450,38,0,P|175:339|268:350,1,143
484,255,119850,1,0,0:0:0:0:
413,267,119950,1,0,0:0:0:0:
357,221,120050,1,0,0:0:0:0:
34,72,120250,6,0,L|39:155,1,71.5
108,81,120450,2,0,L|113:164,1,71.5
184,92,120650,2,0,L|189:175,2,71.5
446,32,121050,38,0,P|400:130|283:125,1,214.5
357,221,121450,1,0,0:0:0:0:
321,159,121550,1,0,0:0:0:0:
254,137,121650,1,0,0:0:0:0:
188,163,121750,1,0,0:0:0:0:
155,226,121850,6,0,P|178:255|177:302,1,71.5
155,314,122050,1,0,0:0:0:0:
93,288,122150,2,0,P|128:291|155:314,1,71.5
94,376,122350,2,0,P|121:353|156:350,1,71.5
403,328,122550,37,0,0:0:0:0:
403,328,122650,2,0,P|328:347|235:354,1,143
61,197,123050,1,0,0:0:0:0:
132,209,123150,1,0,0:0:0:0:
188,163,123250,1,0,0:0:0:0:
188,91,123350,5,0,0:0:0:0:
264,82,123450,2,0,P|311:128|304:197,1,128.699996072388
262,353,123850,38,0,L|225:356,3,21.449999345398
253,280,124050,2,0,L|216:283,3,21.449999345398
400,225,124250,6,0,B|432:213|458:191|458:191|425:261|398:341,1,214.5
275,202,124650,1,0,0:0:0:0:
207,179,124750,1,0,0:0:0:0:
146,217,124850,2,0,P|151:254|162:298,2,71.5
211,162,125150,37,0,0:0:0:0:
151,198,125250,1,0,0:0:0:0:
81,187,125350,1,0,0:0:0:0:
37,131,125450,1,0,0:0:0:0:
31,60,125550,2,0,L|128:70,1,85.7999973815919
413,74,125850,6,0,P|347:58|307:119,1,143
406,292,126150,2,0,P|425:208|452:142,1,143
270,349,126450,2,0,P|258:297|241:256,1,71.5
176,203,126650,1,0,0:0:0:0:
31,60,126850,37,0,0:0:0:0:
38,131,126950,2,0,P|105:135|139:77,1,143
306,111,127250,2,0,P|271:109|239:124,1,71.5
444,206,127450,6,0,B|504:150|504:150|379:189|276:196,1,300.299990835572
251,280,128250,38,0,P|172:309|64:335,1,171.6
176,203,128650,2,0,P|179:146|126:128,1,114.4
66,247,128950,1,0,0:0:0:0:
49,232,129050,6,0,P|79:205|111:200,1,57.2
343,31,129750,37,0,0:0:0:0:
306,110,129850,2,0,B|338:30|448:11|506:63|506:63|497:90,1,257.399992144776
394,149,130250,5,0,0:0:0:0:
472,206,130350,1,0,0:0:0:0:
463,287,130450,1,0,0:0:0:0:
403,331,130550,1,0,0:0:0:0:
371,240,130650,6,0,B|325:210|273:224|273:224|240:210|240:210|222:241|222:241|175:239|175:239|180:306|95:353|95:353|97:235|3:148|3:148|58:147|113:191,1,700.699978616334
309,315,131450,1,0,0:0:0:0:
309,315,131650,38,0,P|363:300|350:254,1,100.099996945191
210,161,131850,6,0,P|264:192|311:162,1,107.250004091263
289,9,132050,38,0,P|305:70|378:97,1,143
96,178,133450,1,0,0:0:0:0:
233,349,133850,6,0,B|220:249|296:279|277:182|277:182|225:187|225:187|218:181|218:181|155:289|66:205|5:337|166:426|230:253|86:149|86:149|99:187,1,700.699978616334
323,329,134650,1,0,0:0:0:0:
323,329,134850,38,0,B|350:322|374:327|374:327|388:344|390:376,1,100.099996945191
370,213,135050,6,0,B|390:192|414:185|414:185|436:195|453:220,1,107.250004091263
303,99,135250,38,0,B|311:59|333:37|333:37|368:33|410:50,1,143
404,47,135850,6,0,B|331:189|-10:144|47:-53|194:32|182:138,1,428.999986907959
94,164,136450,38,0,B|59:250|59:250|64:334|171:333|171:333|123:272|176:209|176:209|174:240|187:266,1,428.999986907959
378,285,137050,6,0,B|410:321|447:323|447:323|393:382|191:298|308:32|433:69|433:69|389:167|454:222,1,700.699978616334
256,49,137850,1,0,0:0:0:0:
256,49,138050,38,0,B|228:36|217:18|217:18|202:34|166:39,1,100.099996945191
179,163,138250,6,0,B|146:166|125:155|125:155|120:178|89:202,1,107.250004091263
203,285,138450,38,0,B|175:304|150:305|150:305|157:329|142:366,1,114.4
395,155,139050,5,0,0:0:0:0:
395,155,139250,2,0,B|325:88|325:88|380:292,1,300.299990835572
377,284,139650,2,0,B|364:352|364:352|359:307,1,100.099996945191
103,100,140050,38,0,B|58:100|63:-23|229:11|172:182,1,257.399992144776
109,238,140450,6,0,L|88:175,4,42.8999986907959
267,312,140750,1,0,0:0:0:0:
260,296,140850,1,0,0:0:0:0:
191,263,140950,1,0,0:0:0:0:
113,264,141050,38,0,B|37:374|37:374|222:321|222:321|209:315|209:315|218:327|218:327|368:361,1,500.499984725953
447,214,141650,6,0,B|401:178|367:111|367:111|447:378|447:378|209:325|209:325|37:373|37:373|120:253,1,965.25
112,263,143050,2,0,L|78:218,7,35.75
33,155,143450,38,0,P|77:151|118:69,1,143
128,61,143750,1,0,0:0:0:0:
196,106,143850,2,0,P|239:98|273:68,1,71.5
499,151,144050,2,0,P|456:143|422:113,1,71.5
393,51,144250,38,0,B|350:-3|350:-3|346:151,1,214.5
213,280,144650,2,0,P|232:251|257:224,1,71.5
468,231,144850,1,0,0:0:0:0:
471,244,144950,1,0,0:0:0:0:
394,243,145050,6,0,B|314:269|331:205|241:228,1,143
245,233,145350,1,0,0:0:0:0:
181,176,145450,2,0,L|196:101,1,71.5
381,17,145650,1,0,0:0:0:0:
330,18,145750,1,0,0:0:0:0:
302,60,145850,2,0,L|316:131,1,71.5
402,342,146050,1,0,0:0:0:0:
471,244,146250,37,0,0:0:0:0:
403,222,146350,1,0,0:0:0:0:
335,244,146450,1,0,0:0:0:0:
292,302,146550,1,0,0:0:0:0:
292,374,146650,1,0,0:0:0:0:
292,374,146850,6,0,L|217:364,1,71.5
98,281,147050,2,0,L|168:272,1,71.5
109,133,147250,1,0,0:0:0:0:
96,128,147350,1,0,0:0:0:0:
33,172,147450,38,0,P|74:276|42:390,1,214.5
186,204,147850,2,0,P|171:232|168:271,1,71.5
208,359,148050,1,0,0:0:0:0:
221,364,148150,1,0,0:0:0:0:
313,382,148250,6,0,P|323:306|393:278,1,143
377,291,148550,1,0,0:0:0:0:
442,235,148650,38,0,L|530:252,1,71.5
441,158,148850,6,0,L|529:175,1,71.5
442,83,149050,38,0,L|530:100,1,71.5
442,6,149250,6,0,L|530:23,1,71.5
442,6,149450,37,0,0:0:0:0:
369,4,149550,5,0,0:0:0:0:
306,51,149650,37,0,0:0:0:0:
278,132,149750,5,0,0:0:0:0:
318,217,149850,37,0,0:0:0:0:
331,213,150050,1,0,0:0:0:0:
339,284,150250,6,0,L|330:207,1,71.5
159,84,150450,37,0,0:0:0:0:
132,74,150650,1,0,0:0:0:0:
104,82,150850,1,0,0:0:0:0:
96,153,151050,6,0,L|104:81,1,71.5
328,51,151250,37,0,0:0:0:0:
375,84,151450,1,0,0:0:0:0:
433,86,151650,1,0,0:0:0:0:
441,157,151850,6,0,L|432:80,1,71.5
229,304,152050,37,0,0:0:0:0:
155,260,152250,1,0,0:0:0:0:
69,270,152450,1,0,0:0:0:0:
60,342,152650,6,0,L|69:265,1,71.5
480,204,152850,37,0,0:0:0:0:
480,204,153050,21,0,0:0:0:0:
439,146,153150,1,0,0:0:0:0:
368,132,153250,1,0,0:0:0:0:
304,166,153350,1,0,0:0:0:0:
277,248,153450,1,0,0:0:0:0:
222,315,153550,1,0,0:0:0:0:
136,324,153650,1,0,0:0:0:0:
69,270,153750,1,0,0:0:0:0:
158,177,153850,38,0,L|168:212,6,35.75
382,233,154250,6,0,L|372:265,16,17.875
420,26,156250,38,0,B|502:103|446:215|446:215|414:161|349:175|349:175|310:275|310:275|342:245|381:249,1,500.5
374,329,156650,22,0,L|401:340,14,17.875
454,297,157050,22,0,B|494:321|494:321|416:408|304:367,1,250.249992362976
309,368,157350,22,0,B|303:288|171:203|137:326|236:301,1,228.8
46,197,157650,22,0,L|10:202,1,35.75
47,121,157749,2,0,L|11:115,1,35.75
110,35,157850,22,0,B|5:164|105:278|105:278|114:227|161:204,1,357.5
233,213,158150,22,0,B|385:105|91:-6|171:307|241:314,1,357.5
227,376,158450,2,0,P|284:340|274:254,1,143
196,4,158650,1,0,0:0:0:0:
196,4,158850,22,0,P|187:58|223:98,1,100.099996945191
413,143,159050,22,0,L|440:134,14,25.0249992362976
456,239,159450,22,0,B|395:208|399:153|399:153|326:103|208:148|208:235|208:235|234:195|280:188,1,429
340,320,160150,1,0,0:0:0:0:
285,373,160250,22,0,P|264:329|303:256,1,114.4
148,59,160450,22,0,L|112:62,1,35.75
155,131,160550,2,0,L|119:134,1,35.75
37,107,160650,22,0,B|170:69|137:224|267:191,1,257.399992144776
352,14,160950,2,0,P|345:48|355:74,1,64.3499980361939
436,135,161050,22,0,P|356:188|375:72,1,257.399992144776
498,322,161350,21,0,0:0:0:0:
445,267,161450,2,0,P|460:243|458:216,1,35.75
371,264,161550,2,0,P|365:235|345:217,1,35.75
306,302,161650,2,0,P|282:285|256:287,1,35.75
285,373,161750,1,0,0:0:0:0:
285,373,161850,21,0,0:0:0:0:
214,382,161950,21,0,0:0:0:0:
151,334,162050,21,0,0:0:0:0:
145,248,162150,21,0,0:0:0:0:
218,191,162250,21,0,0:0:0:0:
278,110,162350,21,0,0:0:0:0:
235,11,162450,21,0,0:0:0:0:
121,1,162550,21,0,0:0:0:0:
55,111,162650,22,0,L|30:113,4,17.875
55,111,163050,22,0,B|80:183|28:236|28:236|120:279|177:176|177:176|290:204|290:204|250:208|222:230,1,500.5
291,332,163450,2,0,P|314:320|280:328,2,128.699996072388
414,69,163850,22,0,P|471:40|497:56,1,66.7333312967937
433,161,163983,22,0,P|493:181|499:211,1,66.7333312967937
377,237,164116,22,0,P|418:284|409:313,1,66.7333312967937
478,193,164250,22,0,B|353:222|388:133|277:157|277:157|267:230|217:251|217:251|229:220,1,357.5
122,152,164550,22,0,B|146:116|188:115|188:115|137:168|112:280,1,250.249992362976
98,365,164850,22,0,P|108:306|179:336,1,143
417,283,165050,22,0,B|400:321|400:321|326:329|245:270|282:137,1,286
503,127,165350,1,0,0:0:0:0:
433,161,165450,2,0,P|395:129|386:96,1,85.7999973815919
385,95,165650,22,0,B|428:66|428:66|344:-15|243:34|243:34|273:79,1,300.299990835572
122,152,166050,2,0,P|157:110|202:128,1,100.099996945191
368,223,166250,22,0,B|415:305|415:305|325:249|215:222,1,300.299990835572
0,109,166650,22,0,P|120:178|104:320,1,286
111,310,167150,2,0,B|100:321|100:321|177:353,1,71.5
394,319,167350,21,0,0:0:0:0:
368,223,167450,2,0,P|378:186|428:79,1,143
226,224,167750,21,0,0:0:0:0:
252,124,167850,2,0,P|242:87|231:59,1,57.2
167,13,167950,1,0,0:0:0:0:
287,15,168050,22,0,B|180:8|219:93|115:80,1,193.049994108582
97,77,168250,22,0,B|68:113|68:113|95:164|202:189|262:137,1,257.399992144776
420,90,168550,22,0,P|434:23|348:90,1,257.399992144776
437,242,168850,2,0,B|454:216|454:216|426:170|359:180,1,128.699996072388
131,274,169050,22,0,B|188:272|204:218|204:218|204:153|204:153|222:100|288:107|288:107|428:154|428:154|372:164|354:215,1,500.5
365,285,169450,22,0,L|379:304,14,17.875
488,339,169850,22,0,B|507:296|507:296|394:268|324:364,1,250.249992362976
327,359,170150,22,0,B|275:341|245:285|245:285|203:332|134:339,1,228.8
424,196,170450,22,0,L|459:203,1,35.75
428,119,170549,2,0,L|464:115,1,35.75
338,80,170650,22,0,B|281:48|324:-49|443:71|397:211|397:211|370:169|323:157,1,357.5
320,248,170950,22,0,B|189:270|222:155|47:184|78:290|78:290|102:266|127:263,1,357.5
144,338,171250,2,0,P|185:296|172:216,1,143
17,53,171450,1,0,0:0:0:0:
17,53,171650,22,0,P|58:108|115:104,1,100.099996945191
338,80,171850,22,0,L|365:71,14,25.0249992362976
211,113,172250,22,0,B|206:81|174:54|174:54|301:0|301:0|348:112|283:214,1,429
144,338,172950,1,0,0:0:0:0:
71,316,173050,22,0,P|120:267|181:271,1,114.4
386,211,173250,22,0,L|383:247,1,35.75
459,203,173350,2,0,L|456:239,1,35.75
428,318,173450,22,0,B|446:286|477:257|477:257|396:284|291:293,1,257.399992144776
141,149,173750,2,0,P|173:156|201:181,1,64.3499980361939
162,264,173850,22,0,B|82:184|160:107|160:107|198:177,1,257.399992144776
496,117,174150,21,0,0:0:0:0:
443,172,174250,2,0,P|458:196|456:223,1,35.75
369,175,174350,2,0,P|363:204|343:222,1,35.75
304,137,174450,2,0,P|280:154|254:152,1,35.75
283,66,174550,1,0,0:0:0:0:
283,66,174650,21,0,0:0:0:0:
229,18,174750,21,0,0:0:0:0:
151,33,174850,21,0,0:0:0:0:
111,109,174950,21,0,0:0:0:0:
156,189,175050,21,0,0:0:0:0:
253,210,175150,21,0,0:0:0:0:
316,296,175250,21,0,0:0:0:0:
239,381,175350,21,0,0:0:0:0:
123,324,175450,22,0,L|102:330,4,17.875
123,324,175850,22,0,B|42:403|20:288|71:172|298:222|364:309|364:309|298:291,1,500.5
239,381,176250,2,0,B|220:381|197:386|197:386|234:358|251:301,2,128.699996072388
311,49,176650,22,0,P|250:68|243:98,1,66.7333312967937
362,127,176783,22,0,P|333:183|350:209,1,66.7333312967937
455,141,176916,22,0,P|459:203|486:217,1,66.7333312967937
432,49,177050,22,0,B|450:0|450:0|363:39|357:207,1,286
143,241,177350,1,0,0:0:0:0:
193,187,177450,2,0,P|223:225|245:325,1,143
15,155,177650,22,0,B|-19:144|-19:96|-19:96|20:74|52:98,1,143
257,140,177850,22,0,P|280:72|189:145,1,286
37,302,178150,2,0,B|89:236|99:174|99:174|135:221|222:254,1,286
455,141,178450,5,0,0:0:0:0:
256,192,178500,12,0,181050,0:0:0:0:
