osu file format v14

[General]
AudioFilename: Akira Complex Remix.mp3
AudioLeadIn: 0
PreviewTime: 86411
Countdown: 0
SampleSet: Soft
StackLeniency: 0.7
Mode: 0
LetterboxInBreaks: 0
WidescreenStoryboard: 1

[Editor]
Bookmarks: 8411,19706,31000,42294,53588,76176,87470,98764,121353,143941,155235,166529,189117,200411,211706,234294,256882,279470,290764
DistanceSpacing: 1.2
BeatDivisor: 16
GridSize: 8
TimelineZoom: 3.400005

[Metadata]
Title:On The Beat (Akira Complex Remix)
TitleUnicode:On The Beat (Akira Complex Remix)
Artist:kors k feat. Yukacco
ArtistUnicode:kors k feat. Yukacco
Creator:Naitoshi
Version:Let's Dance
Source:
Tags:dubstep S2TBGathering 2014 C86 S2TB Gathering
BeatmapID:775897
BeatmapSetID:352083

[Difficulty]
HPDrainRate:5.5
CircleSize:4
OverallDifficulty:7.5
ApproachRate:9
SliderMultiplier:1.4
SliderTickRate:1

[Events]
//Background and Video events
0,0,"vBeat.jpg",0,0
//Break Periods
//Storyboard Layer 0 (Background)
//Storyboard Layer 1 (Fail)
//Storyboard Layer 2 (Pass)
//Storyboard Layer 3 (Foreground)
//Storyboard Sound Samples

[TimingPoints]
296,352.941176470588,4,2,1,30,1,0
1354,352.941176470588,4,2,1,30,1,0
4883,-100,4,2,1,40,0,0
7001,-100,4,2,1,50,0,0
7353,-100,4,2,1,60,0,0
8412,352.941176470588,4,2,1,30,1,0
19706,-200,4,2,1,30,0,0
20853,-200,4,2,1,10,0,0
20941,-200,4,2,1,30,0,0
21382,-200,4,2,1,10,0,0
21470,-200,4,2,1,30,0,0
22264,-200,4,2,1,10,0,0
22353,-200,4,2,1,30,0,0
22529,-133.333333333333,4,2,1,45,0,0
23676,-133.333333333333,4,2,1,10,0,0
23764,-133.333333333333,4,2,1,45,0,0
24206,-133.333333333333,4,2,1,10,0,0
24294,-133.333333333333,4,2,1,45,0,0
25088,-133.333333333333,4,2,1,10,0,0
25176,-133.333333333333,4,2,1,45,0,0
25353,-117.647058823529,4,2,1,50,0,0
26500,-117.647058823529,4,2,1,10,0,0
26588,-117.647058823529,4,2,1,50,0,0
27029,-117.647058823529,4,2,1,10,0,0
27117,-117.647058823529,4,2,1,50,0,0
28176,-100,4,2,1,60,0,0
29676,-83.3333333333333,4,2,1,70,0,0
29941,-83.3333333333333,4,2,1,80,0,0
30294,-133.333333333333,4,2,1,45,0,0
31000,-200,4,2,3,30,0,0
32676,-200,4,2,3,10,0,0
32764,-200,4,2,3,30,0,0
33559,-200,4,2,3,10,0,0
33647,-200,4,2,3,30,0,0
33823,-133.333333333333,4,2,3,45,0,0
35500,-133.333333333333,4,2,3,10,0,0
35588,-133.333333333333,4,2,3,45,0,0
36647,-117.647058823529,4,2,3,50,0,0
38323,-117.647058823529,4,2,3,10,0,0
38411,-117.647058823529,4,2,3,50,0,0
39206,-117.647058823529,4,2,3,10,0,0
39294,-117.647058823529,4,2,3,50,0,0
39470,-100,4,2,3,60,0,0
40706,-100,4,2,1,50,0,0
40970,-83.3333333333333,4,2,3,70,0,0
41235,-83.3333333333333,4,2,3,80,0,0
41588,-133.333333333333,4,2,3,50,0,0
42294,-133.333333333333,4,2,3,65,0,0
45117,-200,4,2,3,30,0,0
45206,-200,4,2,3,65,0,0
45823,-117.647058823529,4,2,3,65,0,0
47941,-100,4,2,3,65,0,0
50764,-200,4,2,3,30,0,0
50853,-200,4,2,3,65,0,0
51470,-83.3333333333333,4,2,3,75,0,0
53059,-83.3333333333333,4,2,3,85,0,0
53235,-83.3333333333333,4,2,1,100,0,0
53588,-133.333333333333,4,2,1,100,0,1
54029,-133.333333333333,4,2,1,100,0,0
54117,-133.333333333333,4,2,1,100,0,1
54559,-133.333333333333,4,2,1,100,0,0
54647,-200,4,2,1,80,0,1
55000,-200,4,2,2,70,0,1
55176,-200,4,2,1,65,0,1
55353,-200,4,2,2,50,0,1
55706,-200,4,2,1,40,0,1
56059,-200,4,2,2,10,0,1
56235,-200,4,2,2,80,0,1
56411,-133.333333333333,4,2,3,50,0,0
57647,-133.333333333333,4,2,6,50,0,0
58088,-133.333333333333,4,2,3,10,0,0
58176,-133.333333333333,4,2,3,50,0,0
59235,-133.333333333333,4,2,1,100,0,1
59676,-133.333333333333,4,2,1,100,0,0
59764,-133.333333333333,4,2,1,100,0,1
60206,-133.333333333333,4,2,1,100,0,0
60294,-200,4,2,1,80,0,1
60647,-200,4,2,2,70,0,1
60823,-200,4,2,1,65,0,1
61000,-200,4,2,2,50,0,1
61353,-200,4,2,1,40,0,1
61706,-200,4,2,2,10,0,1
61882,-200,4,2,1,80,0,1
62059,-133.333333333333,4,2,3,50,0,0
63294,-133.333333333333,4,2,6,50,0,0
63735,-133.333333333333,4,2,3,10,0,0
63823,-133.333333333333,4,2,3,50,0,0
64529,-200,4,2,1,80,0,0
64882,-133.333333333333,4,2,1,100,0,1
65323,-133.333333333333,4,2,1,100,0,0
65411,-133.333333333333,4,2,1,100,0,1
65853,-133.333333333333,4,2,1,100,0,0
65941,-200,4,2,1,80,0,1
66294,-200,4,2,2,75,0,1
66470,-200,4,2,1,65,0,1
66647,-200,4,2,2,50,0,1
67000,-200,4,2,1,40,0,1
67353,-200,4,2,2,10,0,1
67529,-200,4,2,2,80,0,1
67706,-133.333333333333,4,2,3,50,0,0
68941,-133.333333333333,4,2,6,50,0,0
69382,-133.333333333333,4,2,3,10,0,0
69470,-133.333333333333,4,2,3,50,0,0
70529,-133.333333333333,4,2,1,100,0,1
70970,-133.333333333333,4,2,1,100,0,0
71059,-133.333333333333,4,2,1,100,0,1
71500,-133.333333333333,4,2,1,100,0,0
71588,-200,4,2,1,80,0,1
71941,-200,4,2,2,70,0,1
72117,-200,4,2,1,65,0,1
72294,-200,4,2,2,50,0,1
72647,-200,4,2,1,40,0,1
73000,-200,4,2,2,10,0,1
73176,-200,4,2,1,80,0,1
73353,-133.333333333333,4,2,3,50,0,0
74588,-133.333333333333,4,2,6,50,0,0
75029,-133.333333333333,4,2,3,10,0,0
75117,-133.333333333333,4,2,3,50,0,0
75823,-200,4,2,1,80,0,0
76176,-133.333333333333,4,2,3,60,0,0
76353,-133.333333333333,4,2,3,10,0,0
76441,-133.333333333333,4,2,3,60,0,0
76882,-133.333333333333,4,2,3,10,0,0
76970,-133.333333333333,4,2,3,60,0,0
77147,-133.333333333333,4,2,3,10,0,0
77235,-133.333333333333,4,2,3,60,0,0
77411,-133.333333333333,4,2,3,30,0,0
77500,-133.333333333333,4,2,3,60,0,0
77676,-133.333333333333,4,2,3,10,0,0
77764,-133.333333333333,4,2,3,60,0,0
78206,-133.333333333333,4,2,3,10,0,0
78294,-133.333333333333,4,2,3,60,0,0
78470,-133.333333333333,4,2,3,10,0,0
78559,-133.333333333333,4,2,3,60,0,0
78647,-133.333333333333,4,2,3,75,0,0
78911,-133.333333333333,4,2,3,10,0,0
79000,-117.647058823529,4,2,3,60,0,0
79176,-117.647058823529,4,2,3,10,0,0
79264,-117.647058823529,4,2,3,60,0,0
79706,-117.647058823529,4,2,3,10,0,0
79794,-117.647058823529,4,2,3,60,0,0
79970,-117.647058823529,4,2,3,10,0,0
80059,-117.647058823529,4,2,3,60,0,0
80235,-117.647058823529,4,2,3,30,0,0
80323,-117.647058823529,4,2,3,60,0,0
80500,-117.647058823529,4,2,3,10,0,0
80588,-117.647058823529,4,2,3,60,0,0
81029,-117.647058823529,4,2,3,10,0,0
81117,-117.647058823529,4,2,3,60,0,0
81294,-117.647058823529,4,2,3,10,0,0
81382,-117.647058823529,4,2,3,60,0,0
81470,-117.647058823529,4,2,3,75,0,0
81735,-117.647058823529,4,2,3,10,0,0
81823,-100,4,2,3,60,0,0
82000,-100,4,2,3,10,0,0
82088,-100,4,2,3,60,0,0
82529,-100,4,2,3,10,0,0
82617,-100,4,2,3,60,0,0
82794,-100,4,2,3,10,0,0
82882,-100,4,2,3,60,0,0
83059,-100,4,2,3,30,0,0
83147,-100,4,2,3,60,0,0
83323,-100,4,2,3,10,0,0
83411,-100,4,2,3,60,0,0
83853,-100,4,2,3,10,0,0
83941,-100,4,2,3,60,0,0
84117,-100,4,2,3,10,0,0
84206,-100,4,2,3,60,0,0
84294,-100,4,2,3,75,0,0
84559,-100,4,2,3,10,0,0
84647,-83.3333333333333,4,2,3,60,0,0
84823,-83.3333333333333,4,2,3,10,0,0
84911,-83.3333333333333,4,2,3,60,0,0
85353,-83.3333333333333,4,2,3,10,0,0
85441,-83.3333333333333,4,2,3,60,0,0
85617,-83.3333333333333,4,2,3,10,0,0
85706,-83.3333333333333,4,2,3,60,0,0
85882,-83.3333333333333,4,2,3,10,0,0
85970,-83.3333333333333,4,2,3,60,0,0
86147,-83.3333333333333,4,2,3,10,0,0
86235,-83.3333333333333,4,2,3,60,0,0
86676,-83.3333333333333,4,2,3,10,0,0
86764,-117.647058823529,4,2,1,90,0,0
95764,-83.3333333333333,4,2,1,90,0,0
95941,-117.647058823529,4,2,1,30,0,0
97353,-200,4,2,1,40,0,0
97706,-166.666666666667,4,2,1,50,0,0
98059,-142.857142857143,4,2,1,60,0,0
98411,-125,4,2,1,100,0,0
98764,-133.333333333333,4,2,1,90,0,1
99823,-200,4,2,1,90,0,1
100794,-200,4,2,1,20,0,1
100882,-100,4,2,1,90,0,0
101588,-133.333333333333,4,2,1,10,0,0
101941,-133.333333333333,4,2,1,90,0,1
102647,-200,4,2,1,90,0,1
104411,-133.333333333333,4,2,1,90,0,1
105470,-200,4,2,1,90,0,1
106441,-200,4,2,1,20,0,0
106529,-133.333333333333,4,2,4,90,0,0
106706,-133.333333333333,4,2,4,50,0,0
107588,-133.333333333333,4,2,1,90,0,1
108294,-200,4,2,1,90,0,1
110059,-200,4,2,1,90,0,1
110764,-200,4,2,1,90,0,1
112176,-100,4,2,1,90,0,0
112353,-100,4,2,1,70,0,0
113235,-133.333333333333,4,2,1,90,0,1
113941,-200,4,2,1,90,0,1
115000,-100,4,2,1,90,0,1
115353,-100,4,2,5,70,0,1
115617,-100,4,2,1,10,0,0
115706,-200,4,2,1,90,0,1
117735,-200,4,2,1,10,0,1
117823,-200,4,2,4,90,0,0
118000,-200,4,2,4,50,0,0
118882,-133.333333333333,4,2,1,90,0,1
119588,-200,4,2,1,90,0,1
121353,-133.333333333333,4,2,1,90,0,1
122411,-200,4,2,1,90,0,1
123382,-200,4,2,1,10,0,0
123470,-100,4,2,4,90,0,0
123647,-100,4,2,4,50,0,0
124529,-133.333333333333,4,2,1,90,0,1
125235,-200,4,2,1,90,0,1
127000,-133.333333333333,4,2,1,90,0,1
128059,-200,4,2,1,90,0,1
129117,-133.333333333333,4,2,1,90,0,0
129294,-133.333333333333,4,2,1,40,0,0
129823,-83.3333333333333,4,2,1,40,0,0
130176,-133.333333333333,4,2,1,90,0,1
130882,-200,4,2,1,90,0,1
132294,-100,4,2,1,90,0,1
132647,-200,4,2,1,90,0,1
134764,-100,4,2,1,90,0,0
134941,-100,4,2,1,70,0,0
135823,-133.333333333333,4,2,1,90,0,1
136529,-200,4,2,1,90,0,1
138294,-200,4,2,1,90,0,1
139353,-200,4,2,1,90,0,1
140323,-200,4,2,1,10,0,1
140411,-200,4,2,4,90,0,0
140588,-200,4,2,4,50,0,0
141470,-133.333333333333,4,2,1,90,0,1
142176,-200,4,2,1,90,0,1
143235,-100,4,2,1,90,0,1
143941,-200,4,2,3,70,0,0
144294,-200,4,2,3,30,0,0
145617,-200,4,2,3,10,0,0
145706,-200,4,2,3,30,0,0
146500,-200,4,2,3,10,0,0
146588,-200,4,2,3,30,0,0
146764,-133.333333333333,4,2,3,45,0,0
148441,-133.333333333333,4,2,3,10,0,0
148529,-133.333333333333,4,2,3,45,0,0
149588,-117.647058823529,4,2,3,50,0,0
151264,-117.647058823529,4,2,3,10,0,0
151353,-117.647058823529,4,2,3,50,0,0
152147,-117.647058823529,4,2,3,10,0,0
152235,-117.647058823529,4,2,3,50,0,0
152411,-100,4,2,3,60,0,0
153647,-100,4,2,3,50,0,0
153911,-83.3333333333333,4,2,3,70,0,0
154176,-83.3333333333333,4,2,3,80,0,0
154529,-133.333333333333,4,2,3,50,0,0
155235,-133.333333333333,4,2,3,65,0,0
158059,-200,4,2,3,30,0,0
158147,-200,4,2,3,65,0,0
158764,-117.647058823529,4,2,3,65,0,0
160882,-100,4,2,3,65,0,0
163706,-200,4,2,3,65,0,0
163794,-200,4,2,3,65,0,0
164411,-83.3333333333333,4,2,3,75,0,0
165823,-83.3333333333333,4,2,3,100,0,0
166000,-83.3333333333333,4,2,3,85,0,0
166176,-83.3333333333333,4,2,1,100,0,0
166529,-133.333333333333,4,2,1,100,0,1
166970,-133.333333333333,4,2,1,100,0,0
167059,-133.333333333333,4,2,1,100,0,1
167500,-133.333333333333,4,2,1,100,0,0
167588,-200,4,2,1,80,0,1
167941,-200,4,2,2,70,0,1
168117,-200,4,2,1,65,0,1
168294,-200,4,2,2,50,0,1
168647,-200,4,2,1,40,0,1
169000,-200,4,2,2,10,0,1
169176,-200,4,2,2,80,0,1
169353,-133.333333333333,4,2,3,50,0,0
170588,-133.333333333333,4,2,6,50,0,0
171029,-133.333333333333,4,2,3,10,0,0
171117,-133.333333333333,4,2,3,50,0,0
172176,-133.333333333333,4,2,1,100,0,1
172617,-133.333333333333,4,2,1,100,0,0
172706,-133.333333333333,4,2,1,100,0,1
173147,-133.333333333333,4,2,1,100,0,0
173235,-200,4,2,1,80,0,1
173588,-200,4,2,2,70,0,1
173764,-200,4,2,1,65,0,1
173941,-200,4,2,2,50,0,1
174294,-200,4,2,1,40,0,1
174647,-200,4,2,2,10,0,1
174823,-200,4,2,1,80,0,1
175000,-133.333333333333,4,2,3,50,0,0
176235,-133.333333333333,4,2,6,50,0,0
176676,-133.333333333333,4,2,3,10,0,0
176764,-133.333333333333,4,2,3,50,0,0
177470,-200,4,2,1,80,0,0
177823,-133.333333333333,4,2,1,100,0,1
178264,-133.333333333333,4,2,1,100,0,0
178353,-133.333333333333,4,2,1,100,0,1
178794,-133.333333333333,4,2,1,100,0,0
178882,-200,4,2,1,80,0,1
179235,-200,4,2,2,75,0,1
179411,-200,4,2,1,65,0,1
179588,-200,4,2,2,50,0,1
179941,-200,4,2,1,40,0,1
180294,-200,4,2,2,10,0,1
180470,-200,4,2,2,80,0,1
180647,-133.333333333333,4,2,3,50,0,0
181882,-133.333333333333,4,2,6,50,0,0
182323,-133.333333333333,4,2,3,10,0,0
182411,-133.333333333333,4,2,3,50,0,0
183470,-133.333333333333,4,2,1,100,0,1
183911,-133.333333333333,4,2,1,100,0,0
184000,-133.333333333333,4,2,1,100,0,1
184441,-133.333333333333,4,2,1,100,0,0
184529,-200,4,2,1,80,0,1
184882,-200,4,2,2,70,0,1
185058,-200,4,2,1,65,0,1
185235,-200,4,2,2,50,0,1
185588,-200,4,2,1,40,0,1
185941,-200,4,2,2,10,0,1
186117,-200,4,2,1,80,0,1
186294,-133.333333333333,4,2,3,50,0,0
187529,-133.333333333333,4,2,6,50,0,0
187970,-133.333333333333,4,2,3,10,0,0
188059,-133.333333333333,4,2,3,50,0,0
188764,-200,4,2,1,80,0,0
189117,-133.333333333333,4,2,3,60,0,0
189294,-133.333333333333,4,2,3,10,0,0
189382,-133.333333333333,4,2,3,60,0,0
189823,-133.333333333333,4,2,3,10,0,0
189911,-133.333333333333,4,2,3,60,0,0
190088,-133.333333333333,4,2,3,10,0,0
190176,-133.333333333333,4,2,3,60,0,0
190353,-133.333333333333,4,2,3,30,0,0
190441,-133.333333333333,4,2,3,60,0,0
190617,-133.333333333333,4,2,3,10,0,0
190706,-133.333333333333,4,2,3,60,0,0
191147,-133.333333333333,4,2,3,10,0,0
191235,-133.333333333333,4,2,3,60,0,0
191411,-133.333333333333,4,2,3,10,0,0
191500,-133.333333333333,4,2,3,60,0,0
191588,-133.333333333333,4,2,3,75,0,0
191852,-133.333333333333,4,2,3,10,0,0
191941,-117.647058823529,4,2,3,60,0,0
192117,-117.647058823529,4,2,3,10,0,0
192206,-117.647058823529,4,2,3,60,0,0
192647,-117.647058823529,4,2,3,10,0,0
192735,-117.647058823529,4,2,3,60,0,0
192911,-117.647058823529,4,2,3,10,0,0
193000,-117.647058823529,4,2,3,60,0,0
193176,-117.647058823529,4,2,3,30,0,0
193264,-117.647058823529,4,2,3,60,0,0
193441,-117.647058823529,4,2,3,10,0,0
193529,-117.647058823529,4,2,3,60,0,0
193970,-117.647058823529,4,2,3,10,0,0
194058,-117.647058823529,4,2,3,60,0,0
194235,-117.647058823529,4,2,3,10,0,0
194323,-117.647058823529,4,2,3,60,0,0
194411,-117.647058823529,4,2,3,75,0,0
194676,-117.647058823529,4,2,3,10,0,0
194764,-100,4,2,3,60,0,0
194941,-100,4,2,3,10,0,0
195029,-100,4,2,3,60,0,0
195470,-100,4,2,3,10,0,0
195558,-100,4,2,3,60,0,0
195735,-100,4,2,3,10,0,0
195823,-100,4,2,3,60,0,0
196000,-100,4,2,3,30,0,0
196088,-100,4,2,3,60,0,0
196264,-100,4,2,3,10,0,0
196352,-100,4,2,3,60,0,0
196794,-100,4,2,3,10,0,0
196882,-100,4,2,3,60,0,0
197058,-100,4,2,3,10,0,0
197147,-100,4,2,3,60,0,0
197235,-100,4,2,3,75,0,0
197500,-100,4,2,3,10,0,0
197588,-83.3333333333333,4,2,3,60,0,0
197764,-83.3333333333333,4,2,3,10,0,0
197852,-83.3333333333333,4,2,3,60,0,0
198294,-83.3333333333333,4,2,3,10,0,0
198382,-83.3333333333333,4,2,3,60,0,0
198558,-83.3333333333333,4,2,3,10,0,0
198647,-83.3333333333333,4,2,3,60,0,0
198823,-83.3333333333333,4,2,3,10,0,0
198911,-83.3333333333333,4,2,3,60,0,0
199088,-83.3333333333333,4,2,3,10,0,0
199176,-83.3333333333333,4,2,3,60,0,0
199617,-83.3333333333333,4,2,3,10,0,0
199705,-117.647058823529,4,2,1,90,0,0
208882,-117.647058823529,4,2,1,30,0,0
210294,-200,4,2,1,40,0,0
210647,-166.666666666667,4,2,1,50,0,0
211000,-142.857142857143,4,2,1,60,0,0
211353,-66.6666666666667,4,2,1,100,0,0
211411,-66.6666666666667,4,2,1,10,0,0
211470,-66.6666666666667,4,2,1,100,0,0
211529,-66.6666666666667,4,2,1,10,0,0
211588,-66.6666666666667,4,2,1,70,0,0
211647,-66.6666666666667,4,2,1,10,0,0
211706,-133.333333333333,4,2,1,90,0,1
212764,-200,4,2,1,90,0,1
213736,-200,4,2,1,20,0,1
213823,-100,4,2,1,90,0,0
214529,-133.333333333333,4,2,1,10,0,0
214882,-133.333333333333,4,2,1,90,0,1
215588,-200,4,2,1,90,0,1
217353,-133.333333333333,4,2,1,90,0,1
218411,-200,4,2,1,90,0,1
219382,-200,4,2,1,20,0,0
219470,-133.333333333333,4,2,4,90,0,0
219647,-133.333333333333,4,2,4,50,0,0
220529,-133.333333333333,4,2,1,90,0,1
221235,-200,4,2,1,90,0,1
222206,-200,4,2,1,10,0,1
222294,-100,4,2,1,90,0,1
222353,-100,4,2,1,10,0,1
222411,-100,4,2,1,90,0,1
222470,-100,4,2,1,10,0,1
222529,-100,4,2,1,90,0,1
222588,-100,4,2,1,10,0,1
222647,-100,4,2,1,90,0,1
222706,-100,4,2,1,10,0,1
222764,-100,4,2,1,90,0,1
222823,-100,4,2,1,10,0,1
222882,-100,4,2,1,90,0,1
222941,-100,4,2,1,90,0,0
223000,-200,4,2,1,90,0,1
223705,-200,4,2,1,90,0,1
225117,-100,4,2,1,90,0,0
225294,-100,4,2,1,70,0,0
226176,-133.333333333333,4,2,1,90,0,1
226882,-200,4,2,1,90,0,1
227941,-100,4,2,1,90,0,1
228294,-100,4,2,5,70,0,1
228559,-100,4,2,1,10,0,0
228647,-200,4,2,1,90,0,1
230676,-200,4,2,1,10,0,1
230764,-200,4,2,4,90,0,0
230941,-200,4,2,4,50,0,0
231823,-133.333333333333,4,2,1,90,0,1
232529,-200,4,2,1,90,0,1
233235,-83.3333333333333,4,2,1,90,0,1
233588,-200,4,2,1,90,0,1
233941,-83.3333333333333,4,2,1,90,0,1
234294,-133.333333333333,4,2,1,90,0,1
235352,-200,4,2,1,90,0,1
236323,-200,4,2,1,10,0,0
236411,-100,4,2,1,90,0,0
237264,-100,4,2,1,50,0,0
237470,-133.333333333333,4,2,1,90,0,1
238176,-200,4,2,1,90,0,1
239941,-133.333333333333,4,2,1,90,0,1
241000,-200,4,2,1,90,0,1
242059,-133.333333333333,4,2,4,90,0,0
242235,-133.333333333333,4,2,4,50,0,0
243117,-133.333333333333,4,2,1,90,0,1
243823,-200,4,2,1,90,0,1
244794,-200,4,2,1,10,0,1
244882,-100,4,2,1,90,0,1
244941,-100,4,2,1,10,0,1
245000,-100,4,2,1,90,0,1
245059,-100,4,2,1,10,0,1
245117,-100,4,2,1,90,0,1
245176,-100,4,2,1,10,0,1
245235,-100,4,2,1,90,0,1
245294,-100,4,2,1,10,0,1
245353,-100,4,2,1,90,0,1
245411,-100,4,2,1,10,0,1
245470,-100,4,2,1,90,0,1
245529,-100,4,2,1,10,0,1
245588,-133.333333333333,4,2,1,90,0,1
246647,-200,4,2,1,90,0,1
247706,-100,4,2,1,90,0,0
248764,-133.333333333333,4,2,1,90,0,1
249470,-200,4,2,1,90,0,1
251235,-200,4,2,1,90,0,1
252294,-200,4,2,1,90,0,1
253264,-200,4,2,1,10,0,1
253353,-200,4,2,4,90,0,0
253529,-200,4,2,4,50,0,0
254411,-133.333333333333,4,2,1,90,0,1
255117,-200,4,2,1,90,0,1
256176,-100,4,2,1,90,0,1
256882,-133.333333333333,4,2,3,50,0,0
259706,-117.647058823529,4,2,3,60,0,0
262529,-100,4,2,3,65,0,0
265353,-83.3333333333333,4,2,3,75,0,0
267647,-83.3333333333333,4,2,3,85,0,0
267823,-249.99999999,4,2,1,100,0,0
268176,-133.333333333333,4,2,3,50,0,0
271000,-200,4,2,3,30,0,0
271353,-117.647058823529,4,2,3,60,0,0
273823,-100,4,2,3,65,0,0
276647,-83.3333333333333,4,2,3,75,0,0
279117,-153.846153846153,4,2,3,75,0,0
279470,-133.333333333333,4,2,3,50,0,0
282294,-133.333333333333,4,2,3,30,0,0
282470,-133.333333333333,4,2,3,50,0,0
287941,-133.333333333333,4,2,3,30,0,0
288117,-133.333333333333,4,2,3,50,0,0
290764,-133.333333333333,4,2,1,50,0,0
296411,-100,4,2,1,50,0,0
299235,-100,4,2,1,50,0,0
301706,-100,4,2,1,90,0,0
302059,-100,4,2,1,50,0,1
302147,-100,4,2,1,50,0,0

[Colours]
Combo1 : 255,94,55
Combo2 : 173,255,95
Combo3 : 17,254,176
Combo4 : 255,88,100

[HitObjects]
256,192,296,12,0,8237,0:0:0:0:
87,328,8411,5,2,1:0:0:0:
159,300,8764,1,0,0:0:0:0:
233,317,9117,5,0,0:0:0:0:
307,336,9382,1,0,0:0:0:0:
376,303,9647,1,0,0:0:0:0:
448,329,9912,1,2,0:0:0:0:
475,257,10176,1,0,1:0:0:0:
416,206,10529,5,0,1:0:0:0:
341,226,10794,1,0,0:0:0:0:
321,151,11059,1,0,0:0:0:0:
395,131,11235,5,0,0:0:0:0:
341,226,11588,1,0,1:0:0:0:
240,235,11941,5,0,1:0:0:0:
139,189,12206,1,0,0:0:0:0:
31,210,12470,1,0,0:0:0:0:
66,105,12735,1,2,0:0:0:0:
139,189,13000,1,0,1:0:0:0:
183,290,13353,5,0,1:0:0:0:
227,189,13617,1,0,0:0:0:0:
290,98,13882,1,0,0:0:0:0:
205,103,14059,5,0,0:0:0:0:
202,19,14411,1,0,1:0:0:0:
285,14,14764,5,0,1:0:0:0:
290,98,15029,1,0,0:0:0:0:
358,146,15294,1,0,0:0:0:0:
440,127,15559,1,2,0:0:0:0:
415,207,15823,1,0,1:0:0:0:
424,290,16176,5,0,1:0:0:0:
487,345,16441,1,0,0:0:0:0:
407,372,16706,1,0,0:0:0:0:
305,310,16882,5,0,0:0:0:0:
185,313,17235,1,0,1:0:0:0:
101,229,17588,5,0,1:0:0:0:
120,111,17853,1,0,0:0:0:0:
225,167,18117,1,0,0:0:0:0:
120,111,18382,1,2,0:0:0:0:
235,79,18647,1,0,1:0:0:0:
120,111,19000,5,0,1:0:0:0:
182,8,19264,1,0,0:0:0:0:
120,111,19529,1,0,0:0:0:0:
235,79,19706,6,0,L|280:66,1,35
307,179,20059,2,0,L|336:142,1,35,0|0,1:0|0:0,0:0:0:0:
422,220,20411,6,0,L|425:173,1,35,0|0,1:0|0:0,0:0:0:0:
468,292,20676,2,0,L|506:318,1,35
383,293,20941,2,0,L|340:313,1,35
245,270,21206,2,0,P|268:267|294:271,1,35,2|0,0:0|0:0,0:0:0:0:
205,347,21470,2,0,P|182:350|156:346,1,35,0|0,1:0|0:0,0:0:0:0:
46,220,21823,6,0,P|49:194|51:182,1,35,0|0,1:0|0:0,0:0:0:0:
154,134,22088,2,0,P|129:143|118:147,1,35
26,81,22353,1,0,0:0:0:0:
125,220,22529,6,0,L|179:246,1,52.5000020027161
222,162,22882,2,0,L|274:136,1,52.5000020027161,0|0,1:0|0:0,0:0:0:0:
276,252,23235,6,0,L|332:280,1,52.5000020027161,0|0,1:0|0:0,0:0:0:0:
365,163,23500,2,0,L|383:107,1,52.5000020027161
397,268,23764,2,0,L|410:328,1,52.5000020027161
463,135,24029,2,0,L|468:80,1,52.5000020027161,2|0,0:0|0:0,0:0:0:0:
489,293,24294,2,0,L|495:364,1,52.5000020027161,0|0,1:0|0:0,0:0:0:0:
286,345,24647,6,0,P|319:340|343:343,1,52.5000020027161,0|0,1:0|0:0,0:0:0:0:
221,291,24911,2,0,P|240:264|259:249,1,52.5000020027161
136,298,25176,1,0,0:0:0:0:
149,148,25353,6,0,L|156:72,1,59.5000011348725,0|0,1:0|0:0,0:0:0:0:
56,204,25706,2,0,L|49:280,1,59.5000011348725,4|0,0:0|0:0,0:0:0:0:
69,131,26059,6,0,P|33:134|11:145,1,59.5000011348725,0|0,1:0|0:0,0:0:0:0:
149,148,26323,2,0,P|184:144|206:133,1,59.5000011348725,0|0,1:0|0:0,0:0:0:0:
226,231,26588,2,0,L|219:307,1,59.5000011348725
319,175,26853,2,0,L|326:99,1,59.5000011348725,2|0,0:0|0:0,0:0:0:0:
402,247,27117,2,0,L|395:323,1,59.5000011348725,0|0,1:0|0:0,0:0:0:0:
456,186,27470,6,0,P|440:148|420:122,1,59.5000011348725,0|0,1:0|0:0,0:0:0:0:
431,22,27735,2,0,P|462:48|480:76,1,59.5000011348725,0|0,1:0|0:0,0:0:0:0:
324,115,28000,1,0,0:0:0:0:
213,16,28176,6,0,L|197:104,1,70,0|0,1:0|0:0,0:0:0:0:
324,115,28529,2,0,L|340:203,1,70,4|0,0:0|0:0,0:0:0:0:
322,291,28882,6,0,P|267:283|241:269,1,70,0|0,1:0|0:0,0:0:0:0:
195,138,29147,2,0,P|215:189|216:219,1,70,0|0,1:0|0:0,0:0:0:0:
126,325,29411,2,0,P|160:281|185:265,1,70,0|0,1:0|0:0,0:0:0:0:
92,208,29676,6,0,L|19:142,1,83.9999974365235,2|0,0:0|0:0,0:0:0:0:
111,92,29941,2,0,L|75:17,1,83.9999974365235,0|0,1:0|0:0,0:0:0:0:
225,71,30294,6,0,L|215:16,1,52.5000020027161,0|0,1:0|0:0,0:0:0:0:
310,116,30559,2,0,L|318:60,1,52.5000020027161,0|0,1:0|0:0,0:0:0:0:
375,186,30823,1,2,0:0:0:0:
238,220,31000,6,0,P|249:257|274:293,1,70,4|10,1:0|0:0,0:0:0:0:
342,295,31706,6,0,L|389:282,1,35,0|0,1:0|0:0,0:0:0:0:
232,354,31970,2,0,L|200:346,1,17.5,0|10,0:0|0:0,0:0:0:0:
46,384,32235,2,0,L|93:371,1,35
77,268,32500,2,0,L|116:239,1,35
66,148,32764,2,0,L|93:107,1,35,10|0,0:0|0:0,0:0:0:0:
203,78,33117,6,0,P|208:108|208:126,1,35,0|0,1:0|0:0,0:0:0:0:
295,189,33382,2,0,P|290:159|290:141,1,35
363,69,33647,1,2,0:0:0:0:
420,253,33823,6,0,L|353:259,1,52.5000020027161
295,189,34176,2,0,L|228:183,1,52.5000020027161,10|0,0:0|0:0,0:0:0:0:
171,280,34529,6,0,L|238:274,1,52.5000020027161,0|0,1:0|0:0,0:0:0:0:
71,368,34794,2,0,L|117:364,1,26.2500010013581,0|10,0:0|0:0,0:0:0:0:
38,222,35059,2,0,L|105:216,1,52.5000020027161
295,189,35323,2,0,L|228:183,1,52.5000020027161
451,135,35588,2,0,L|384:129,1,52.5000020027161,10|0,0:0|0:0,0:0:0:0:
257,83,35941,6,0,P|261:56|267:31,1,52.5000020027161,0|10,1:0|0:0,0:0:0:0:
161,130,36206,2,0,P|158:168|159:194,1,52.5000020027161,0|10,0:0|0:0,0:0:0:0:
267,95,36470,1,0,0:0:0:0:
112,73,36647,6,0,L|50:66,1,59.5000011348725
99,189,37000,2,0,L|161:182,1,59.5000011348725,10|0,0:0|0:0,0:0:0:0:
18,267,37353,6,0,P|18:300|27:351,1,59.5000011348725,0|0,1:0|0:0,0:0:0:0:
115,361,37617,2,0,P|115:346|113:331,1,29.7500005674362,0|10,1:0|0:0,0:0:0:0:
203,256,37882,2,0,P|202:286|206:316,1,59.5000011348725,4|0,0:0|0:0,0:0:0:0:
333,225,38147,2,0,P|307:209|280:198,1,59.5000011348725
292,103,38411,2,0,P|317:88|341:70,1,59.5000011348725,10|0,0:0|0:0,0:0:0:0:
435,178,38764,6,0,L|422:119,1,59.5000011348725,0|0,1:0|0:0,0:0:0:0:
468,305,39029,2,0,L|486:223,1,59.5000011348725,0|0,1:0|0:0,0:0:0:0:
401,351,39294,1,2,0:0:0:0:
274,328,39470,6,0,L|205:314,1,70
25,303,39823,2,0,L|93:289,1,70,10|0,0:0|0:0,0:0:0:0:
260,247,40176,6,0,P|215:235|185:219,1,70,0|0,1:0|0:0,0:0:0:0:
61,210,40441,2,0,P|94:201|116:189,1,35,0|10,1:0|0:0,0:0:0:0:
224,148,40706,2,0,P|187:128|165:101,1,70,4|0,1:2|0:0,0:0:0:0:
55,88,40970,6,0,P|95:65|120:36,1,83.9999974365235,0|0,1:0|0:0,0:0:0:0:
304,19,41235,2,0,P|263:41|238:70,1,83.9999974365235,10|0,0:0|0:0,0:0:0:0:
405,182,41588,6,0,L|408:119,1,52.5000020027161,0|0,1:0|0:0,0:0:0:0:
388,197,41853,2,0,L|391:134,1,52.5000020027161,4|0,1:2|0:0,0:0:0:0:
370,212,42117,2,0,L|373:168,1,26.2500010013581,2|0,0:0|0:0,0:0:0:0:
477,296,42294,6,0,P|450:330|424:351,1,52.5000020027161,0|0,1:0|0:0,0:0:0:0:
353,226,42647,2,0,P|312:209|279:204,1,52.5000020027161,8|0,0:0|0:0,0:0:0:0:
145,324,43000,6,0,P|148:286|154:266,1,52.5000020027161,0|0,1:0|0:0,0:0:0:0:
103,188,43264,2,0,P|90:210|82:235,1,52.5000020027161,0|0,1:0|0:0,0:0:0:0:
45,132,43529,2,0,P|60:110|79:92,1,52.5000020027161,0|0,1:0|0:0,0:0:0:0:
7,235,43794,2,0,P|4:261|6:287,1,52.5000020027161,2|0,1:2|0:0,0:0:0:0:
182,189,44059,2,0,P|175:163|164:139,1,52.5000020027161,8|0,0:0|0:0,0:0:0:0:
330,161,44411,6,0,L|257:159,1,52.5000020027161,0|0,1:0|0:0,0:0:0:0:
416,93,44676,2,0,L|343:91,1,52.5000020027161,0|0,1:0|0:0,0:0:0:0:
502,24,44941,2,0,L|455:23,1,26.2500010013581,0|0,1:0|0:0,0:0:0:0:
251,25,45117,6,2,L|324:27,1,70,4|8,0:0|0:0,0:0:0:0:
415,151,45823,6,0,P|414:99|424:71,1,59.5000011348725,0|0,1:0|0:0,0:0:0:0:
363,217,46088,2,0,P|334:213|305:217,1,59.5000011348725,2|0,1:2|0:0,0:0:0:0:
432,266,46353,2,0,P|436:295|432:324,1,59.5000011348725,0|0,1:0|0:0,0:0:0:0:
375,383,46617,2,0,P|345:387|316:383,1,59.5000011348725,2|0,1:2|0:0,0:0:0:0:
174,300,46882,2,0,P|203:295|232:299,1,59.5000011348725,8|0,0:0|0:0,0:0:0:0:
79,358,47235,6,0,L|30:297,1,59.5000011348725,0|0,1:0|0:0,0:0:0:0:
77,183,47500,2,0,L|98:239,1,59.5000011348725,0|0,1:0|0:0,0:0:0:0:
154,132,47764,2,0,L|153:84,1,29.7500005674362,0|0,1:0|0:0,0:0:0:0:
252,44,47941,6,0,P|257:78|253:125,1,70,0|0,1:0|0:0,0:0:0:0:
324,218,48294,2,0,P|338:186|344:151,1,70,8|0,0:0|0:0,0:0:0:0:
254,324,48647,6,0,P|285:309|320:303,1,70,0|0,1:0|0:0,0:0:0:0:
153,233,48911,2,0,P|167:264|173:299,1,70,0|0,1:0|0:0,0:0:0:0:
244,132,49176,2,0,P|212:146|177:152,1,70,4|0,1:2|0:0,0:0:0:0:
343,151,49441,2,0,P|375:138|403:117,1,70,2|0,1:2|0:0,0:0:0:0:
495,195,49706,2,0,P|505:228|506:263,1,70,8|0,0:0|0:0,0:0:0:0:
396,339,50059,6,0,L|499:332,1,70,0|0,1:0|0:0,0:0:0:0:
320,371,50323,2,0,L|217:364,1,70,0|0,1:0|0:0,0:0:0:0:
146,328,50588,2,0,L|203:324,1,35,0|0,1:0|0:0,0:0:0:0:
303,255,50764,6,2,L|232:259,1,70,4|8,0:0|0:0,0:0:0:0:
101,215,51470,6,0,P|91:175|99:106,1,83.9999974365235,0|0,1:0|0:0,0:0:0:0:
1,66,51735,2,0,P|11:106|3:175,1,83.9999974365235,2|0,1:2|0:0,0:0:0:0:
178,46,52000,2,0,P|138:56|69:48,1,83.9999974365235,0|0,1:0|3:0,0:0:0:0:
244,163,52264,2,0,P|254:123|246:54,1,83.9999974365235,2|0,1:2|0:0,0:0:0:0:
165,171,52529,2,0,P|184:207|236:253,1,83.9999974365235,4|0,1:2|0:0,0:0:0:0:
464,251,52882,5,0,1:0:0:0:
434,243,52970,1,0,3:0:0:0:
404,235,53059,1,0,0:0:0:0:
377,261,53147,5,0,1:0:0:0:
346,256,53235,1,12,0:0:0:0:
315,251,53324,1,0,3:0:0:0:
288,277,53411,5,2,1:2:0:0:
387,135,53588,6,2,B|389:87|389:87|378:55|378:55|380:3,1,131.25000500679,6|0,1:0|0:0,1:0:0:0:
281,138,54117,6,0,B|266:92|266:92|268:58|268:58|253:8,1,131.25000500679,2|0,1:0|0:0,1:0:0:0:
39,200,54647,6,2,P|138:288|178:162,1,315,6|0,1:0|0:0,1:0:0:0:
117,211,56411,6,0,L|185:242,1,52.5000020027161,0|0,1:0|0:0,0:0:0:0:
263,152,56764,2,0,L|333:119,1,52.5000020027161,10|0,0:0|0:0,0:0:0:0:
310,296,57117,6,0,L|243:265,1,52.5000020027161,0|0,1:0|0:0,0:0:0:0:
396,192,57382,2,0,L|357:209,1,26.2500010013581,0|10,1:0|0:0,0:0:0:0:
382,343,57647,2,0,L|429:321,1,52.5000020027161,0|0,3:0|0:0,0:0:0:0:
244,348,57911,2,0,L|297:372,1,52.5000020027161,0|0,3:0|0:0,0:0:0:0:
104,342,58176,2,0,L|157:318,1,52.5000020027161,10|0,0:0|0:0,0:0:0:0:
45,269,58529,6,0,P|37:225|43:193,1,52.5000020027161,0|0,1:0|0:0,0:0:0:0:
127,157,58794,2,0,P|130:178|128:195,1,26.2500010013581,0|10,1:0|0:0,0:0:0:0:
27,113,59059,2,0,P|23:91|26:75,1,26.2500010013581,0|0,1:0|0:0,0:0:0:0:
230,75,59235,6,2,P|243:136|235:218,1,131.25000500679,6|0,1:0|0:0,1:0:0:0:
359,66,59764,6,0,P|298:79|216:71,1,131.25000500679,2|0,1:0|0:0,0:0:0:0:
238,204,60294,6,2,P|373:229|288:333,1,315,6|0,1:0|0:0,1:0:0:0:
298,255,62059,6,0,L|358:212,1,52.5000020027161,0|0,1:0|0:0,0:0:0:0:
161,300,62411,2,0,L|101:343,1,52.5000020027161,10|0,0:0|0:0,0:0:0:0:
99,232,62764,6,0,L|26:245,1,52.5000020027161,0|0,1:0|0:0,0:0:0:0:
45,137,63029,2,0,L|71:144,1,26.2500010013581,0|10,1:0|0:0,0:0:0:0:
81,51,63294,2,0,L|40:18,1,52.5000020027161,0|0,3:0|0:0,0:0:0:0:
178,51,63559,2,0,L|219:84,1,52.5000020027161,0|0,3:0|0:0,0:0:0:0:
284,208,63823,2,0,L|243:175,1,52.5000020027161,10|0,0:0|0:0,0:0:0:0:
362,245,64176,6,0,P|398:233|425:219,1,52.5000020027161,0|0,1:0|0:0,0:0:0:0:
259,324,64441,1,0,1:0:0:0:
237,328,64529,6,2,P|199:326|169:320,1,52.5000020027161,12|0,0:0|0:0,0:0:0:0:
124,384,64882,6,2,P|138:339|136:232,1,131.25000500679,6|0,1:0|0:0,1:0:0:0:
362,245,65411,6,0,P|320:266|246:343,1,131.25000500679,2|0,1:0|0:0,0:0:0:0:
415,149,65941,6,2,B|297:75|190:348|156:38|269:92|290:147,1,315,6|0,1:0|0:0,1:0:0:0:
163,214,67706,6,0,P|145:186|134:146,1,52.5000020027161,0|0,1:0|0:0,0:0:0:0:
327,62,68059,2,0,P|299:42|260:29,1,52.5000020027161,10|0,0:0|0:0,0:0:0:0:
132,146,68411,6,0,P|127:113|134:72,1,52.5000020027161,0|0,1:0|0:0,0:0:0:0:
259,25,68676,2,0,P|240:22|216:25,1,26.2500010013581,0|10,1:0|0:0,0:0:0:0:
51,115,68941,2,0,P|51:141|57:166,1,52.5000020027161,0|0,3:0|0:0,0:0:0:0:
169,265,69206,2,0,P|168:238|162:213,1,52.5000020027161,0|0,3:0|0:0,0:0:0:0:
258,102,69470,2,0,P|258:128|264:153,1,52.5000020027161,10|0,0:0|0:0,0:0:0:0:
379,218,69823,6,0,L|433:208,1,52.5000020027161,0|0,1:0|0:0,0:0:0:0:
273,258,70088,2,0,L|247:253,1,26.2500010013581,0|10,1:0|0:0,0:0:0:0:
404,302,70353,2,0,L|430:297,1,26.2500010013581,0|0,1:0|0:0,0:0:0:0:
300,377,70529,6,2,B|266:381|245:370|245:370|213:377|213:377|188:366|159:375,1,131.25000500679,6|0,1:0|0:0,1:0:0:0:
34,157,71059,6,0,B|67:161|88:150|88:150|120:157|120:157|145:146|174:155,1,131.25000500679,2|0,1:0|0:0,0:0:0:0:
273,258,71588,6,2,B|155:332|48:59|14:369|127:315|148:260,1,315,6|0,1:0|0:0,1:0:0:0:
162,152,73353,6,0,P|152:103|143:82,1,52.5000020027161,0|0,1:0|0:0,0:0:0:0:
14,30,73706,2,0,P|64:34|85:40,1,52.5000020027161,10|0,0:0|0:0,0:0:0:0:
246,119,74059,6,0,P|243:68|237:46,1,52.5000020027161,0|0,1:0|0:0,0:0:0:0:
321,179,74323,2,0,P|339:177|358:177,1,26.2500010013581,0|10,1:0|0:0,0:0:0:0:
468,260,74588,2,0,P|436:265|402:265,1,52.5000020027161,0|0,3:0|0:0,0:0:0:0:
275,261,74853,2,0,P|306:255|340:255,1,52.5000020027161,0|0,3:0|0:0,0:0:0:0:
197,306,75117,2,0,P|165:311|131:311,1,52.5000020027161,10|0,0:0|0:0,0:0:0:0:
84,194,75470,6,0,L|76:127,1,52.5000020027161,0|0,1:0|0:0,0:0:0:0:
205,65,75735,1,0,1:0:0:0:
220,78,75823,6,0,L|226:140,1,52.5,12|0,0:0|0:0,0:0:0:0:
256,157,76176,6,0,L|330:153,1,52.5000020027161,4|0,1:0|0:0,0:0:0:0:
386,214,76441,2,0,L|423:212,1,26.2500010013581,0|8,0:0|0:0,0:0:0:0:
301,284,76706,2,0,P|288:266|280:229,1,52.5000020027161,0|0,1:0|0:0,0:0:0:0:
212,324,76970,2,0,P|194:311|157:303,1,52.5000020027161
37,348,77235,2,0,P|55:361|92:369,1,52.5000020027161,8|0,1:2|0:0,0:0:0:0:
172,216,77500,6,0,P|154:229|117:237,1,52.5000020027161
41,84,77764,2,0,P|59:97|96:105,1,52.5000020027161,0|8,1:0|0:0,0:0:0:0:
222,117,78029,2,0,P|258:98|290:92,1,52.5000020027161
389,129,78294,2,0,P|408:165|414:197,1,52.5000020027161
375,333,78559,2,0,L|365:287,1,26.2500010013581,0|8,0:0|1:2,0:0:0:0:
253,224,78823,2,0,L|263:270,1,26.2500010013581
207,354,79000,6,0,P|188:318|182:286,1,59.5000011348725,0|0,1:0|0:0,0:0:0:0:
75,264,79264,2,0,P|72:288|73:311,1,29.7500005674362,0|8,0:0|0:0,0:0:0:0:
130,184,79529,2,0,P|134:150|132:118,1,59.5000011348725,0|0,1:0|0:0,0:0:0:0:
209,69,79794,2,0,L|268:66,1,59.5000011348725
339,173,80059,2,0,L|279:175,1,59.5000011348725,8|0,1:2|0:0,0:0:0:0:
343,38,80323,6,0,L|345:97,1,59.5000011348725
205,204,80588,2,0,L|202:144,1,59.5000011348725,0|8,1:0|0:0,0:0:0:0:
274,259,80853,2,0,L|333:256,1,59.5000011348725
398,171,81117,2,0,L|338:173,1,59.5000011348725
468,284,81382,2,0,L|467:236,1,29.7500005674362,0|8,0:0|1:2,0:0:0:0:
339,329,81647,2,0,L|340:358,1,29.7500005674362
197,352,81823,6,0,L|193:282,1,70,0|0,1:0|0:0,0:0:0:0:
50,335,82088,2,0,L|51:373,1,35,0|8,0:0|0:0,0:0:0:0:
151,223,82353,2,0,P|150:183|141:128,1,70,0|0,1:0|0:0,0:0:0:0:
24,65,82617,2,0,P|56:83|109:102,1,70
222,34,82882,2,0,P|189:52|145:87,1,70,8|0,1:2|0:0,0:0:0:0:
324,76,83147,6,0,P|302:28|290:-13,1,70
333,158,83411,2,0,P|302:200|271:231,1,70,0|8,1:0|0:0,0:0:0:0:
399,110,83676,2,0,P|450:115|493:126,1,70
456,256,83941,2,0,P|405:251|362:240,1,70
258,287,84206,2,0,L|312:294,1,35,0|8,0:0|1:2,0:0:0:0:
415,363,84470,2,0,L|361:356,1,35
131,334,84647,6,0,P|128:271|132:235,1,83.9999974365235,0|0,1:0|0:0,0:0:0:0:
42,206,84911,2,0,P|33:229|27:273,1,41.9999987182618,0|8,0:0|0:0,0:0:0:0:
242,307,85176,2,0,P|246:257|237:213,1,83.9999974365235,0|0,1:0|0:0,0:0:0:0:
112,43,85441,2,0,P|75:25|34:16,1,83.9999974365235
170,87,85706,2,0,P|198:118|218:155,1,83.9999974365235,8|0,1:2|0:0,0:0:0:0:
361,203,85970,6,0,P|327:179|288:165,1,83.9999974365235
413,254,86235,2,0,P|436:288|450:328,1,83.9999974365235,0|8,1:0|0:0,0:0:0:0:
218,154,86500,2,0,P|176:153|136:165,1,83.9999974365235
213,224,86764,5,4,1:3:0:0:
202,221,86853,2,0,P|187:221|173:224,1,29.7500005674362,4|4,0:3|0:3,0:0:0:0:
256,344,87029,1,4,1:3:0:0:
262,334,87117,6,0,L|259:306,2,14.8750002837181,4|4|4,0:3|0:3|0:3,0:0:0:0:
337,292,87294,2,0,L|334:266,2,14.8750002837181,4|4|4,0:3|0:3|0:3,0:0:0:0:
413,254,87470,5,4,1:0:0:0:
413,254,87559,2,0,L|410:223,1,29.7500005674362,4|0,0:3|0:3,0:0:0:0:
320,119,87735,2,0,L|322:148,2,29.7500005674362,4|4|0,0:3|0:3|0:0,0:0:0:0:
202,221,88000,2,0,L|199:190,2,29.7500005674362,4|4|0,0:3|0:3|1:0,0:0:0:0:
72,135,88264,1,4,0:3:0:0:
72,135,88353,2,0,L|74:164,1,29.7500005674362,4|4,0:3|0:3,0:0:0:0:
45,344,88529,2,0,L|37:234,1,89.2500017023087,12|4,0:0|0:3,0:0:0:0:
132,377,88882,5,4,1:0:0:0:
132,377,88970,1,0,0:3:0:0:
132,377,89059,2,0,P|158:378|183:373,2,29.7500005674362,4|4|0,0:3|0:3|0:3,0:0:0:0:
255,329,89323,2,0,P|269:328|284:329,2,29.7500005674362,4|4|4,0:3|0:3|0:3,0:0:0:0:
380,283,89588,2,0,P|391:273|400:261,3,29.7500005674362,4|4|4|4,1:3|0:3|0:3|0:3,0:0:0:0:
350,133,89941,2,0,P|336:182|333:237,1,89.2500017023087,12|0,0:0|0:0,0:0:0:0:
254,241,90294,5,4,1:0:0:0:
254,241,90382,2,0,P|255:218|258:192,1,29.7500005674362,4|0,0:3|0:3,0:0:0:0:
191,102,90559,2,0,P|187:116|184:131,2,29.7500005674362,4|4|0,0:3|0:3|0:0,0:0:0:0:
122,246,90823,2,0,L|120:231|118:216,2,29.7500005674362,4|4|0,0:3|0:3|1:0,0:0:0:0:
73,91,91088,1,4,0:3:0:0:
73,91,91176,2,0,P|67:104|62:118,1,29.7500005674362,4|4,0:3|0:3,0:0:0:0:
29,311,91353,2,0,P|18:260|18:204,1,89.2500017023087,12|4,0:0|0:3,0:0:0:0:
143,327,91706,5,4,1:0:0:0:
143,327,91794,1,0,0:0:0:0:
143,327,91882,2,0,P|120:324|96:330,2,29.7500005674362,4|4|0,0:3|0:3|0:3,0:0:0:0:
274,354,92147,2,0,P|251:357|227:351,2,29.7500005674362,4|4|4,0:3|0:3|0:3,0:0:0:0:
378,273,92411,2,0,P|359:286|346:307,3,29.7500005674362,4|4|4|4,1:3|0:3|0:3|0:3,0:0:0:0:
437,134,92764,2,0,P|450:177|455:222,1,89.2500017023087,12|0,0:0|0:0,0:0:0:0:
334,150,93117,5,4,1:0:0:0:
354,128,93206,1,4,0:3:0:0:
365,101,93294,1,0,0:0:0:0:
364,71,93382,1,4,0:3:0:0:
351,45,93470,1,4,0:3:0:0:
328,25,93559,1,0,0:0:0:0:
300,16,93647,1,4,0:3:0:0:
271,19,93735,1,4,0:3:0:0:
245,33,93823,5,0,0:0:0:0:
228,58,93911,1,4,0:3:0:0:
233,87,94000,1,4,0:3:0:0:
232,116,94088,1,4,0:3:0:0:
223,145,94176,1,12,0:0:0:0:
207,170,94264,1,0,0:0:0:0:
186,191,94353,1,0,0:0:0:0:
161,206,94441,1,0,0:0:0:0:
133,219,94529,5,4,1:0:0:0:
122,252,94617,1,0,0:0:0:0:
131,287,94706,1,4,0:3:0:0:
157,311,94794,1,4,0:3:0:0:
191,317,94882,1,0,0:0:0:0:
225,304,94970,1,4,0:3:0:0:
244,275,95059,1,4,0:3:0:0:
247,238,95147,1,4,0:3:0:0:
229,208,95235,5,4,0:3:0:0:
197,192,95323,1,4,0:3:0:0:
161,188,95411,1,4,0:3:0:0:
126,177,95500,1,4,0:3:0:0:
102,150,95588,1,12,0:0:0:0:
95,115,95676,1,0,1:0:0:0:
97,79,95764,2,0,L|83:118,1,41.9999987182618,2|0,0:3|0:3,0:0:0:0:
185,254,95941,5,6,0:1:0:0:
184,254,97353,6,0,L|204:256,3,17.5,0|0|8|0,1:0|0:0|3:0|0:0,0:0:0:0:
252,173,97706,6,0,L|272:171,3,20.9999993591309,0|0|8|0,1:0|0:0|3:0|0:0,0:0:0:0:
316,267,98059,6,0,L|341:269,3,24.4999992523194,0|0|12|0,1:0|0:0|3:0|0:0,0:0:0:0:
382,154,98411,6,0,L|412:150,3,28,12|0|4|4,0:0|0:0|3:0|3:0,0:0:0:0:
434,304,98764,6,2,B|517:340|449:238|313:267,1,210.000008010865,6|8,1:0|0:0,1:0:0:0:
148,319,99823,2,0,B|80:210|149:116|144:200,1,192.5,6|0,1:0|0:0,0:0:0:0:
329,98,100882,6,0,B|296:98|296:98|273:90|273:90|260:99|260:99|246:89|246:89|234:99|234:99|213:93|213:93|129:107|63:81,1,280,12|0,0:0|0:0,0:0:0:0:
63,81,101941,6,2,P|34:132|23:185,1,105.000004005432,2|8,1:0|0:0,1:0:0:0:
43,366,102647,2,0,P|99:266|120:163,1,210,4|8,1:0|0:0,0:0:0:0:
231,377,104059,1,4,0:0:0:0:
241,154,104411,6,0,B|209:198|197:225|197:225|189:272|189:272|167:301|151:342,1,210.000008010865,4|8,1:0|0:0,0:0:0:0:
282,259,105470,2,2,B|299:223|321:198|321:198|331:156|331:156|344:132|376:94,1,192.5,0|0,1:0|0:0,1:0:0:0:
376,94,106529,6,0,L|361:161,1,52.5,8|2,0:0|0:0,0:0:0:0:
464,166,106882,2,0,L|479:232,1,52.5,2|0,0:0|0:0,0:0:0:0:
367,259,107235,2,0,L|351:325,1,52.5,0|2,0:0|0:0,0:0:0:0:
452,355,107500,1,0,0:0:0:0:
454,344,107588,6,0,P|389:331|338:335,1,105.000004005432,2|8,1:0|0:0,0:0:0:0:
60,246,108294,2,0,P|157:209|261:195,1,210,6|8,1:0|0:0,0:0:0:0:
44,266,109706,1,4,0:0:0:0:
284,205,110059,6,2,P|300:239|308:335,1,122.5,4|0,1:0|0:0,1:0:0:0:
141,124,110764,5,12,0:0:0:0:
282,131,111117,2,2,P|337:142|480:122,1,192.5,4|0,1:0|0:0,1:0:0:0:
487,131,112176,6,0,P|499:180|494:222,1,70,12|0,0:0|0:0,0:0:0:0:
396,356,112529,2,0,P|384:307|389:265,1,70,2|0,0:0|1:0,0:0:0:0:
282,131,112882,2,0,P|294:180|289:222,1,70,0|0,1:0|1:0,0:0:0:0:
162,346,113235,6,2,P|149:287|151:234,1,105.000004005432,2|8,1:0|0:0,1:0:0:0:
54,79,113941,2,0,P|36:176|39:273,1,192.5,4|0,1:0|0:0,0:0:0:0:
162,346,115000,6,0,B|191:346|191:346|212:353|212:353|224:345|224:345|236:354|236:354|247:345|247:345|266:350|266:350|342:337|401:361,1,245,8|0,0:0|0:0,0:0:0:0:
416,367,115706,6,0,P|453:302|467:235,1,140,4|8,1:0|0:0,0:0:0:0:
268,252,116764,2,2,P|290:158|340:76,1,192.5,2|0,1:0|0:0,1:0:0:0:
339,76,117823,6,0,L|299:93,1,35,8|2,0:0|0:0,0:0:0:0:
451,186,118176,2,0,L|491:202,1,35,2|0,0:0|0:0,0:0:0:0:
268,252,118529,2,0,L|227:268,1,35,0|2,0:0|0:0,0:0:0:0:
37,295,118882,6,0,P|72:299|141:289,1,105.000004005432,2|8,1:0|0:0,0:0:0:0:
282,371,119588,2,0,P|272:312|269:158,1,210,4|8,1:0|0:0,0:0:0:0:
269,162,121000,1,2,1:0:0:0:
269,162,121353,6,2,B|381:175|479:164|450:124,1,210.000008010865,6|8,1:0|0:0,1:0:0:0:
196,198,122411,2,0,B|86:185|-9:196|18:235,1,192.5,4|0,1:0|0:0,0:0:0:0:
12,237,123470,5,8,0:0:0:0:
110,120,123647,1,2,0:0:0:0:
195,244,123823,2,0,L|196:176,2,46.6666666666667,0|2|0,0:0|0:0|0:0,0:0:0:0:
45,58,124176,2,0,P|27:88|18:131,1,70,2|0,0:0|1:0,0:0:0:0:
268,162,124529,6,2,P|252:105|222:60,1,105.000004005432,2|8,1:0|0:0,1:0:0:0:
423,120,125235,2,0,P|400:193|393:331,1,210,4|8,1:0|0:0,0:0:0:0:
299,76,126647,1,4,0:0:0:0:
197,341,127000,6,0,B|185:289|194:270|194:270|180:209|180:209|190:177|176:132,1,210.000008010865,4|8,1:0|0:0,0:0:0:0:
70,63,128059,2,2,B|59:113|67:132|67:132|54:192|54:192|63:223|50:266,1,192.5,0|0,1:0|0:0,1:0:0:0:
54,253,129117,6,0,L|24:188,1,52.5000020027161,8|2,0:0|0:0,0:0:0:0:
176,134,129470,2,0,L|169:186,1,52.5000020027161,2|0,0:0|0:0,0:0:0:0:
118,358,129823,6,0,L|122:282,2,55.9999982910157,2|0|0,1:2|1:0|1:0,0:0:0:0:
270,224,130176,6,0,P|289:269|295:324,1,105.000004005432,2|8,1:0|0:0,0:0:0:0:
296,156,130882,2,0,P|361:167|515:144,1,210,4|8,1:0|0:0,0:0:0:0:
354,238,132294,2,0,P|377:241|401:239,2,46.6666666666667,4|0|0,0:0|0:0|0:0,0:0:0:0:
461,34,132647,6,2,P|493:106|502:150,1,122.5,4|0,1:0|0:0,1:0:0:0:
355,14,133353,5,14,0:0:0:0:
354,238,133706,2,2,P|308:153|282:60,1,192.5,0|0,1:0|0:0,1:0:0:0:
269,51,134764,6,0,L|175:72,1,70,12|0,0:0|0:0,0:0:0:0:
89,187,135117,2,0,L|183:166,1,70,2|0,0:0|1:0,0:0:0:0:
354,238,135470,2,0,L|260:259,1,70,0|0,1:0|1:0,0:0:0:0:
174,374,135823,6,2,L|278:350,1,105.000004005432,2|8,1:0|0:0,1:0:0:0:
473,100,136529,2,0,L|258:149,1,210,4|8,1:0|0:0,0:0:0:0:
27,201,137941,1,4,0:0:0:0:
467,186,138294,6,0,P|474:238|452:337,1,140,4|8,1:0|0:0,0:0:0:0:
180,94,139353,2,2,P|171:161|200:290,1,192.5,2|0,1:0|0:0,1:0:0:0:
196,282,140411,6,0,P|174:276|153:275,1,35,8|2,0:0|0:0,0:0:0:0:
293,158,140764,2,0,P|312:151|333:149,1,35,2|0,0:0|0:0,0:0:0:0:
109,127,141117,2,0,P|89:127|65:134,1,35,0|2,0:0|0:0,0:0:0:0:
267,38,141470,6,0,P|307:40|384:60,1,105.000004005432,2|8,1:0|0:0,0:0:0:0:
370,54,142176,2,0,P|371:141|393:225,1,175,4|8,1:0|3:0,0:0:0:0:
401,237,143147,1,0,0:0:0:0:
409,246,143235,2,0,L|362:267,3,35,8|0|0|0,0:0|0:0|0:0|0:0,0:0:0:0:
281,198,143588,2,0,L|229:207,1,35,2|0,0:3|0:0,0:0:0:0:
170,122,143764,2,0,L|117:117,1,35
12,211,143941,6,0,P|15:176|24:142,1,70,4|10,0:1|0:0,0:0:0:0:
30,291,144647,6,0,L|74:284,1,35,0|0,1:0|0:0,0:0:0:0:
142,272,144911,2,0,L|148:302,1,17.5,0|10,0:0|0:0,0:0:0:0:
242,328,145176,2,0,L|235:293,1,35
195,182,145441,2,0,L|233:199,1,35
217,97,145706,2,0,L|258:96,1,35,10|0,0:0|0:0,0:0:0:0:
469,170,146059,6,0,P|448:167|432:167,1,35,0|0,1:0|0:0,0:0:0:0:
331,238,146323,2,0,P|348:240|365:241,1,35
355,136,146588,1,2,0:0:0:0:
409,64,146764,6,0,L|448:4,1,52.5000020027161
355,136,147117,2,0,L|316:76,1,52.5000020027161,10|0,0:0|0:0,0:0:0:0:
217,97,147470,6,0,L|245:141,1,52.5000020027161,0|0,1:0|0:0,0:0:0:0:
124,136,147735,2,0,L|131:182,1,26.2500010013581,0|10,0:0|0:0,0:0:0:0:
25,132,148000,2,0,L|9:182,1,52.5000020027161
163,238,148264,2,0,P|130:236|89:243,1,52.5000020027161
71,342,148529,2,0,P|104:344|144:336,1,52.5000020027161,10|0,0:0|0:0,0:0:0:0:
270,277,148882,6,0,P|261:244|242:208,1,52.5000020027161,0|10,1:0|0:0,0:0:0:0:
353,280,149147,2,0,P|359:312|358:353,1,52.5000020027161,0|10,0:0|0:0,0:0:0:0:
262,291,149411,1,0,0:0:0:0:
374,203,149588,6,0,L|441:204,1,59.5000011348725
360,120,149941,2,0,L|421:92,1,59.5000011348725,10|0,0:0|0:0,0:0:0:0:
228,37,150294,6,0,P|215:71|209:116,1,59.5000011348725,0|0,1:0|0:0,0:0:0:0:
253,227,150559,2,0,P|259:210|262:187,1,29.7500005674362,0|10,0:0|0:0,0:0:0:0:
114,215,150823,2,0,L|179:204,1,59.5000011348725,4|0,0:0|0:0,0:0:0:0:
131,104,151088,2,0,L|83:139,1,59.5000011348725
22,83,151353,2,0,L|55:26,1,59.5000011348725,10|0,0:0|0:0,0:0:0:0:
20,189,151706,6,0,P|15:221|15:256,1,59.5000011348725,0|0,1:0|0:0,0:0:0:0:
114,301,151970,2,0,P|119:269|119:234,1,59.5000011348725,0|0,1:0|0:0,0:0:0:0:
25,357,152235,1,2,0:0:0:0:
178,351,152411,6,0,L|269:346,1,70
364,254,152764,2,0,L|295:251,1,70,10|0,0:0|0:0,0:0:0:0:
437,164,153117,6,0,P|450:118|443:66,1,70,0|0,1:0|0:0,0:0:0:0:
348,92,153382,2,0,P|367:111|395:123,1,35,0|10,1:0|0:0,0:0:0:0:
354,12,153647,2,0,P|307:23|266:55,1,70,4|0,1:2|0:0,0:0:0:0:
245,178,153911,6,0,L|201:95,1,83.9999974365235,0|0,1:0|0:0,0:0:0:0:
103,208,154176,2,0,L|178:247,1,83.9999974365235,10|0,0:0|0:0,0:0:0:0:
294,299,154529,6,0,P|302:271|297:236,1,52.5000020027161,0|0,1:0|0:0,0:0:0:0:
270,313,154794,2,0,P|289:291|299:257,1,52.5000020027161,4|0,1:2|0:0,0:0:0:0:
242,315,155059,2,0,P|257:308|270:292,1,26.2500010013581,2|0,0:0|0:0,0:0:0:0:
389,165,155235,6,0,P|359:163|334:168,1,52.5000020027161,0|0,1:0|0:0,0:0:0:0:
449,49,155588,2,0,P|451:79|446:104,1,52.5000020027161,8|0,0:0|0:0,0:0:0:0:
242,126,155941,6,0,P|240:156|245:181,1,52.5000020027161,0|0,1:0|0:0,0:0:0:0:
166,73,156206,2,0,P|173:43|185:21,1,52.5000020027161,0|0,1:0|0:0,0:0:0:0:
100,138,156470,2,0,P|98:168|103:193,1,52.5000020027161,0|0,1:0|0:0,0:0:0:0:
160,330,156735,2,0,P|140:306|130:283,1,52.5000020027161,2|0,1:2|0:0,0:0:0:0:
352,330,157000,2,0,P|371:306|381:283,1,52.5000020027161,8|0,0:0|0:0,0:0:0:0:
246,275,157353,6,0,L|319:273,1,52.5000020027161,0|0,1:0|0:0,0:0:0:0:
160,207,157617,2,0,L|233:205,1,52.5000020027161,0|0,1:0|0:0,0:0:0:0:
74,138,157882,2,0,L|121:137,1,26.2500010013581,0|0,1:0|0:0,0:0:0:0:
325,139,158059,6,2,L|252:141,1,70,4|8,0:0|0:0,0:0:0:0:
454,288,158764,6,0,P|449:231|452:210,1,59.5000011348725,0|0,1:0|0:0,0:0:0:0:
352,330,159029,2,0,P|374:277|378:256,1,59.5000011348725,2|0,1:2|0:0,0:0:0:0:
226,346,159294,2,0,P|275:316|295:310,1,59.5000011348725,0|0,1:0|0:0,0:0:0:0:
98,377,159559,2,0,P|155:379|175:374,1,59.5000011348725,2|0,1:2|0:0,0:0:0:0:
40,252,159823,2,0,P|87:283|107:290,1,59.5000011348725,8|0,0:0|0:0,0:0:0:0:
89,92,160176,6,0,L|86:154,1,59.5000011348725,0|0,1:0|0:0,0:0:0:0:
182,240,160441,2,0,L|179:180,1,59.5000011348725,0|0,1:0|0:0,0:0:0:0:
264,105,160706,2,0,L|261:152,1,29.7500005674362,0|0,1:0|0:0,0:0:0:0:
344,191,160882,6,0,P|359:156|364:100,1,70,0|0,1:0|0:0,0:0:0:0:
446,279,161235,2,0,P|414:264|379:258,1,70,8|0,0:0|0:0,0:0:0:0:
206,330,161588,6,0,P|241:345|297:350,1,70,0|0,1:0|0:0,0:0:0:0:
193,196,161853,2,0,P|186:230|172:262,1,70,0|0,1:0|0:0,0:0:0:0:
69,145,162117,2,0,P|76:111|90:79,1,70,4|0,1:2|0:0,0:0:0:0:
52,247,162382,2,0,P|51:281|57:316,1,70,2|0,1:2|0:0,0:0:0:0:
206,330,162647,2,0,P|173:319|138:315,1,70,8|0,0:0|0:0,0:0:0:0:
257,229,163000,6,0,L|283:162,1,70,0|0,1:0|0:0,0:0:0:0:
311,290,163264,2,0,L|361:241,1,70,0|0,1:0|0:0,0:0:0:0:
334,368,163529,2,0,L|387:349,1,35,0|0,1:0|0:0,0:0:0:0:
479,275,163706,6,2,L|403:300,1,70,4|8,0:0|0:0,0:0:0:0:
416,192,164411,6,0,P|455:153|488:137,1,83.9999974365235,0|0,1:0|0:0,0:0:0:0:
366,67,164676,2,0,P|344:102|333:143,1,83.9999974365235,2|0,1:2|0:0,0:0:0:0:
237,138,164941,2,0,P|227:97|230:56,1,83.9999974365235,0|0,1:0|3:0,0:0:0:0:
108,97,165206,1,2,1:2:0:0:
108,97,165294,1,0,0:0:0:0:
108,97,165382,1,0,0:0:0:0:
108,97,165470,2,0,L|157:103,1,41.9999987182618,12|0,1:2|0:0,0:0:0:0:
74,188,165647,2,0,L|18:190,1,41.9999987182618,2|0,0:0|0:0,0:0:0:0:
65,309,165823,5,0,1:0:0:0:
94,279,165911,1,0,3:0:0:0:
133,267,166000,1,0,0:0:0:0:
174,275,166088,5,0,1:0:0:0:
207,301,166176,1,12,0:0:0:0:
223,339,166264,1,0,3:0:0:0:
219,381,166353,5,2,1:2:0:0:
245,205,166529,6,2,B|252:168|241:92|201:77|187:108,1,131.25000500679,6|0,1:0|0:0,1:0:0:0:
338,277,167059,6,0,B|364:300|436:331|468:302|448:274,1,131.25000500679,2|0,1:0|0:0,0:0:0:0:
455,97,167588,6,2,B|405:70|317:149|317:149|395:236|462:210,1,315,6|0,1:0|0:0,1:0:0:0:
453,212,169353,6,0,P|412:207|386:207,1,52.5000020027161,0|0,1:0|0:0,0:0:0:0:
354,368,169706,2,0,P|322:366|291:360,1,52.5000020027161,10|0,0:0|0:0,0:0:0:0:
173,261,170059,6,0,P|178:308|174:334,1,52.5000020027161,0|0,1:0|0:0,0:0:0:0:
58,323,170323,2,0,P|56:301|60:278,1,26.2500010013581,0|10,1:0|0:0,0:0:0:0:
135,192,170588,2,0,P|88:197|62:193,1,52.5000020027161,0|0,3:0|0:0,0:0:0:0:
72,77,170853,2,0,P|103:75|134:80,1,52.5000020027161,0|0,3:0|0:0,0:0:0:0:
283,126,171117,2,0,P|251:124|220:129,1,52.5000020027161,10|0,0:0|0:0,0:0:0:0:
259,265,171470,6,0,L|257:193,1,52.5000020027161,0|0,1:0|0:0,0:0:0:0:
341,312,171735,2,0,L|339:274,1,26.2500010013581,0|10,1:0|0:0,0:0:0:0:
423,360,172000,2,0,L|421:314,1,26.2500010013581,0|0,1:0|0:0,0:0:0:0:
418,106,172176,6,2,P|404:148|397:254,1,131.25000500679,6|0,1:0|0:0,1:0:0:0:
366,49,172706,6,0,P|301:56|236:52,1,131.25000500679,2|0,1:0|0:0,0:0:0:0:
260,264,173235,6,2,B|314:252|329:135|329:135|213:120|184:175,1,315,6|0,1:0|0:0,1:0:0:0:
183,175,175000,6,0,P|186:144|179:101,1,52.5000020027161,0|0,1:0|0:0,0:0:0:0:
14,109,175353,2,0,P|11:140|18:183,1,52.5000020027161,10|0,0:0|0:0,0:0:0:0:
88,252,175706,6,0,P|56:251|14:261,1,52.5000020027161,0|0,1:0|0:0,0:0:0:0:
208,257,175970,2,0,P|224:257|247:264,1,26.2500010013581,0|10,1:0|0:0,0:0:0:0:
85,330,176235,2,0,P|58:329|32:333,1,52.5000020027161,0|0,3:0|0:0,0:0:0:0:
203,334,176500,2,0,P|229:335|254:342,1,52.5000020027161,0|0,3:0|0:0,0:0:0:0:
396,350,176764,2,0,P|370:355|344:356,1,52.5000020027161,10|0,0:0|0:0,0:0:0:0:
462,239,177117,6,0,L|410:232,1,52.5000020027161,0|0,1:0|0:0,0:0:0:0:
248,172,177382,1,0,1:0:0:0:
270,176,177470,6,0,L|320:161,1,52.5,12|0,0:0|0:0,0:0:0:0:
387,213,177823,6,2,P|368:150|366:84,1,131.25000500679,6|0,1:0|0:0,1:0:0:0:
202,257,178353,6,0,P|267:267|333:268,1,131.25000500679,2|0,1:0|0:0,0:0:0:0:
84,124,178882,6,2,B|69:179|86:219|86:219|65:257|131:290|148:406|-6:345|68:293,1,315,6|0,1:0|0:0,1:0:0:0:
85,286,180647,6,0,L|146:285,1,52.5000020027161,0|0,1:0|0:0,0:0:0:0:
324,256,181000,2,0,L|263:257,1,52.5000020027161,10|0,0:0|0:0,0:0:0:0:
138,142,181353,6,0,L|199:141,1,52.5000020027161,0|0,1:0|0:0,0:0:0:0:
350,184,181617,2,0,L|307:184,1,26.2500010013581,0|10,1:0|0:0,0:0:0:0:
111,214,181882,2,0,L|172:213,1,52.5000020027161,0|0,3:0|0:0,0:0:0:0:
324,256,182147,2,0,L|263:257,1,52.5000020027161,0|0,3:0|0:0,0:0:0:0:
85,286,182411,2,0,L|146:285,1,52.5000020027161,10|0,0:0|0:0,0:0:0:0:
240,369,182764,6,0,P|232:335|233:294,1,52.5000020027161,0|0,1:0|0:0,0:0:0:0:
324,255,183029,2,0,P|328:275|328:300,1,26.2500010013581,0|10,1:0|0:0,0:0:0:0:
407,354,183294,2,0,P|411:334|411:309,1,26.2500010013581,0|0,1:0|0:0,0:0:0:0:
442,124,183470,6,2,B|467:152|463:177|463:177|496:222|481:255|460:247,1,131.25000500679,6|0,1:0|0:0,1:0:0:0:
331,131,184000,6,0,B|312:164|322:187|322:187|299:239|322:267|341:254,1,131.25000500679,2|0,1:0|0:0,0:0:0:0:
222,109,184529,6,2,B|213:165|180:193|180:193|183:237|110:239|44:337|211:347|165:268,1,315,6|0,1:0|0:0,1:0:0:0:
146,262,186294,6,0,L|74:264,1,52.5000020027161,0|0,1:0|0:0,0:0:0:0:
61,158,186647,2,0,L|110:179,1,52.5000020027161,10|0,0:0|0:0,0:0:0:0:
135,101,187000,6,0,L|87:47,1,52.5000020027161,0|0,1:0|0:0,0:0:0:0:
214,82,187264,2,0,L|222:108,1,26.2500010013581,0|10,1:0|0:0,0:0:0:0:
297,153,187529,2,0,L|307:81,1,52.5000020027161,0|0,3:0|0:0,0:0:0:0:
383,27,187794,2,0,L|390:78,1,52.5000020027161,0|0,3:0|0:0,0:0:0:0:
485,131,188059,2,0,L|477:79,1,52.5000020027161,10|0,0:0|0:0,0:0:0:0:
437,234,188411,6,0,P|473:222|500:208,1,52.5000020027161,0|0,1:0|0:0,0:0:0:0:
334,313,188676,1,0,1:0:0:0:
312,317,188764,6,2,P|274:315|244:309,1,52.5000020027161,12|0,0:0|0:0,0:0:0:0:
417,346,189117,6,0,P|409:307|392:274,1,52.5000020027161,4|2,1:0|0:0,0:0:0:0:
320,226,189382,2,0,P|311:193|308:176,1,26.2500010013581,0|8,0:0|0:0,0:0:0:0:
413,118,189647,2,0,L|338:118,1,52.5000020027161,0|0,1:0|0:0,0:0:0:0:
301,33,189911,2,0,L|376:33,1,52.5000020027161
485,46,190176,2,0,L|426:38,1,52.5000020027161,8|0,1:2|0:0,0:0:0:0:
229,105,190441,6,0,L|288:113,1,52.5000020027161
123,204,190706,2,0,P|123:156|127:130,1,52.5000020027161,0|8,1:0|0:0,0:0:0:0:
196,269,190970,2,0,P|196:317|192:343,1,52.5000020027161,0|8,0:0|0:0,0:0:0:0:
206,189,191235,2,0,L|277:190,1,52.5000020027161
113,284,191500,2,0,L|75:283,1,26.2500010013581,0|8,0:0|1:2,0:0:0:0:
291,336,191764,2,0,L|253:335,1,26.2500010013581
383,258,191941,6,0,L|302:255,1,59.5000011348725,0|0,1:0|0:0,0:0:0:0:
455,203,192206,2,0,P|474:202|493:209,1,29.7500005674362,0|8,0:0|0:0,0:0:0:0:
468,337,192470,2,0,L|470:256,1,59.5000011348725,0|0,1:0|0:0,0:0:0:0:
384,173,192735,2,0,P|354:171|301:179,1,59.5000011348725
314,7,193000,2,0,P|344:9|397:1,1,59.5000011348725,8|0,1:2|0:0,0:0:0:0:
266,125,193264,6,0,P|268:95|260:42,1,59.5000011348725
432,55,193529,2,0,P|430:85|438:138,1,59.5000011348725,0|8,1:0|0:0,0:0:0:0:
314,7,193794,2,0,P|344:9|397:1,1,59.5000011348725,0|0,0:2|0:0,0:0:0:0:
266,125,194059,2,0,P|268:95|260:42,1,59.5000011348725
383,173,194323,2,0,P|364:171|334:173,1,29.7500005674362,0|8,0:0|1:2,0:0:0:0:
185,258,194588,2,0,P|204:260|234:258,1,29.7500005674362,0|0,0:0|0:2,0:0:0:0:
82,236,194764,6,0,P|69:271|61:318,1,70,0|0,1:0|0:0,0:0:0:0:
167,172,195029,2,0,P|175:150|179:121,1,35,0|8,0:0|0:0,0:0:0:0:
25,128,195294,2,0,L|104:132,1,70,0|0,1:0|0:0,0:0:0:0:
265,65,195559,2,0,L|186:61,1,70
304,193,195823,2,0,L|225:205,1,70,8|0,1:2|0:0,0:0:0:0:
110,334,196088,6,0,L|188:321,1,70
375,352,196353,2,0,L|298:331,1,70,0|8,1:0|0:0,0:0:0:0:
400,237,196617,2,0,L|478:224,1,70
335,121,196882,2,0,L|413:125,1,70
248,158,197147,2,0,L|226:190,1,35,0|8,0:0|1:2,0:0:0:0:
259,63,197411,2,0,L|230:7,1,35
89,118,197588,6,0,P|153:101|195:101,1,83.9999974365235,0|0,1:0|0:0,0:0:0:0:
73,236,197853,2,0,P|68:200|57:165,1,41.9999987182618,0|8,0:0|0:0,0:0:0:0:
250,269,198117,2,0,P|186:252|144:252,1,83.9999974365235,0|0,1:0|0:0,0:0:0:0:
268,358,198382,2,0,P|333:346|371:328,1,83.9999974365235
394,201,198647,2,0,P|339:239|312:271,1,83.9999974365235,8|0,1:2|0:0,0:0:0:0:
397,122,198911,6,0,P|461:103|503:102,1,83.9999974365235
291,74,199176,2,0,P|232:106|202:135,1,83.9999974365235,0|8,1:0|0:0,0:0:0:0:
32,105,199441,2,0,P|92:77|125:50,1,83.9999974365235,0|8,0:0|0:0,0:0:0:0:
75,240,199706,5,4,1:3:0:0:
68,231,199794,2,0,P|95:226|102:225,1,29.7500005674362,4|4,0:3|0:3,0:0:0:0:
255,274,199970,1,4,1:3:0:0:
262,283,200059,6,0,L|263:304,2,14.8750002837181,4|4|4,0:3|0:3|0:3,0:0:0:0:
61,222,200235,2,0,L|59:199,2,14.8750002837181,4|4|4,0:3|0:3|0:3,0:0:0:0:
144,347,200411,5,4,1:0:0:0:
144,347,200500,2,0,L|141:316,1,29.7500005674362,4|0,0:3|0:3,0:0:0:0:
174,180,200676,2,0,L|177:211,2,29.7500005674362,4|4|0,0:3|0:3|0:0,0:0:0:0:
264,312,200941,2,0,L|261:281,2,29.7500005674362,4|4|0,0:3|0:3|1:0,0:0:0:0:
294,145,201206,1,4,0:3:0:0:
294,145,201294,2,0,L|297:176,1,29.7500005674362,4|4,0:3|0:3,0:0:0:0:
391,293,201470,2,0,L|380:186,1,89.2500017023087,12|0,0:0|0:3,0:0:0:0:
410,42,201823,5,0,1:0:0:0:
410,42,201911,1,0,0:0:0:0:
410,42,202000,2,0,P|421:61|424:89,2,29.7500005674362,4|4|0,0:3|0:3|0:0,0:0:0:0:
294,145,202264,2,0,P|305:126|308:98,2,29.7500005674362,4|4|4,0:3|0:3|0:3,0:0:0:0:
138,127,202529,2,0,P|152:123|167:122,3,29.7500005674362,4|4|4|4,1:3|0:3|0:3|0:3,0:0:0:0:
188,278,202882,2,0,P|135:277|76:288,1,89.2500017023087,12|0,0:0|0:0,0:0:0:0:
263,349,203235,5,4,1:0:0:0:
263,349,203323,2,0,L|288:314,1,29.7500005674362,4|0,0:3|0:0,0:0:0:0:
337,202,203500,2,0,L|362:237,2,29.7500005674362,4|4|0,0:3|0:3|0:0,0:0:0:0:
414,354,203764,2,0,L|439:319,2,29.7500005674362,4|4|0,0:3|0:3|1:0,0:0:0:0:
488,207,204029,1,4,0:3:0:0:
488,207,204117,2,0,L|513:242,1,29.7500005674362,4|4,0:3|0:3,0:0:0:0:
425,129,204294,2,0,L|364:44,1,89.2500017023087,12|0,0:0|0:0,0:0:0:0:
265,118,204647,5,4,1:0:0:0:
265,118,204735,1,0,0:0:0:0:
265,118,204823,2,0,P|288:120|302:115,2,29.7500005674362,4|4|0,0:3|0:3|0:0,0:0:0:0:
187,204,205088,2,0,P|201:201|216:204,2,29.7500005674362,4|4|4,0:3|0:3|0:3,0:0:0:0:
109,290,205353,2,0,P|132:292|146:287,3,29.7500005674362,4|4|4|4,0:3|0:3|0:3|0:3,0:0:0:0:
314,263,205706,2,0,P|271:275|220:310,1,89.2500017023087,12|0,0:0|0:0,0:0:0:0:
359,326,206059,5,4,1:0:0:0:
379,304,206147,1,4,0:3:0:0:
390,277,206235,1,0,0:0:0:0:
390,247,206323,1,4,0:3:0:0:
379,220,206411,1,4,0:3:0:0:
359,198,206500,1,0,0:0:0:0:
332,186,206588,1,4,0:3:0:0:
302,185,206676,1,4,0:3:0:0:
274,196,206764,5,0,0:0:0:0:
245,204,206853,1,4,0:3:0:0:
215,208,206941,1,4,0:3:0:0:
186,208,207029,1,4,0:3:0:0:
156,204,207117,1,12,0:0:0:0:
128,197,207206,1,0,0:0:0:0:
101,184,207294,1,0,0:0:0:0:
80,163,207382,1,0,0:0:0:0:
58,142,207470,5,4,1:0:0:0:
60,177,207559,1,0,0:0:0:0:
60,213,207647,1,4,0:3:0:0:
55,248,207735,1,4,0:3:0:0:
47,283,207823,1,0,0:0:0:0:
35,316,207911,1,4,0:3:0:0:
67,300,208000,1,4,0:3:0:0:
105,285,208088,1,4,0:3:0:0:
146,277,208176,5,4,0:3:0:0:
188,278,208265,1,4,0:3:0:0:
228,289,208353,1,4,0:3:0:0:
266,306,208441,1,4,0:3:0:0:
275,271,208529,5,12,0:0:0:0:
274,235,208618,1,0,1:0:0:0:
263,200,208706,1,2,0:3:0:0:
247,168,208794,1,0,0:0:0:0:
220,144,208882,5,6,0:1:0:0:
220,144,210294,6,0,L|195:132,3,17.5,0|0|8|0,1:0|0:0|0:3|0:0,0:0:0:0:
146,223,210647,6,0,L|121:235,3,20.9999993591309,0|0|8|0,1:0|0:0|0:3|0:0,0:0:0:0:
72,144,211000,6,0,L|47:132,3,24.4999992523194,0|0|8|0,1:0|0:0|0:3|0:0,0:0:0:0:
218,247,211353,6,0,L|212:282,1,35.0000013351441,12|0,0:0|0:0,0:0:0:0:
244,223,211470,6,0,L|238:258,1,35.0000013351441,4|0,0:3|0:0,0:0:0:0:
270,199,211588,6,0,L|264:234,1,35.0000013351441,4|0,0:3|0:0,0:0:0:0:
270,361,211706,6,2,B|136:389|68:287|151:323,1,210.000008010865,6|8,1:0|0:0,1:0:0:0:
84,175,212764,2,0,P|57:215|43:358,1,192.5,4|0,1:0|0:0,0:0:0:0:
84,175,213823,6,0,B|116:172|116:172|140:179|140:179|152:169|152:169|167:178|167:178|178:167|178:167|200:171|200:171|282:152|350:173,1,280,12|0,0:0|0:0,0:0:0:0:
350,173,214882,6,2,P|375:226|382:280,1,105.000004005432,2|8,1:0|0:0,1:0:0:0:
477,365,215588,2,0,P|473:309|506:153,1,210,4|8,1:0|0:0,0:0:0:0:
249,376,217000,1,4,0:0:0:0:
210,148,217353,6,0,P|287:158|238:260,1,210.000008010865,4|8,1:0|0:0,0:0:0:0:
119,153,218411,2,2,P|169:236|193:333,1,192.5,0|0,1:0|0:0,1:0:0:0:
192,327,219470,6,0,L|256:302,1,52.5000020027161,8|2,0:0|0:0,0:0:0:0:
80,287,219823,2,0,L|16:312,1,52.5000020027161,2|0,0:0|0:0,0:0:0:0:
119,153,220176,2,0,L|144:216,1,52.5000020027161,0|2,0:0|0:0,0:0:0:0:
263,246,220441,1,0,0:0:0:0:
272,240,220529,6,0,P|283:202|281:120,1,105.000004005432,2|8,1:0|0:0,0:0:0:0:
440,128,221235,2,0,P|412:190|385:317,1,192.5,4|0,1:0|0:0,0:0:0:0:
386,311,222294,6,0,L|425:313,1,23.3333333333333,8|0,0:0|0:0,0:0:0:0:
346,294,222411,2,0,L|384:295,1,23.3333333333333
315,313,222529,2,0,L|353:314,1,23.3333333333333,8|0,0:3|0:0,0:0:0:0:
275,295,222647,6,0,L|313:296,1,23.3333333333333,0|0,1:0|0:0,0:0:0:0:
244,314,222764,2,0,L|282:315,1,23.3333333333333,8|0,0:3|0:0,0:0:0:0:
204,297,222882,2,0,L|242:298,1,23.3333333333333,2|0,0:0|0:0,0:0:0:0:
276,220,223000,6,2,P|284:182|282:98,1,122.5,6|0,1:0|0:0,1:0:0:0:
409,312,223706,5,12,0:0:0:0:
59,97,224059,2,2,P|55:161|80:299,1,192.5,6|0,1:0|0:0,1:0:0:0:
88,299,225117,6,0,P|37:310|0:308,1,70,12|0,0:0|0:0,0:0:0:0:
211,187,225470,2,0,P|212:238|202:274,1,70,0|0,0:0|1:0,0:0:0:0:
315,117,225823,2,0,P|365:112|402:120,1,70,0|0,1:0|1:0,0:0:0:0:
355,312,226176,6,2,P|343:253|344:200,1,105.000004005432,2|8,1:0|0:0,1:0:0:0:
224,47,226882,2,0,P|206:144|209:241,1,192.5,4|0,1:0|0:0,0:0:0:0:
355,312,227941,6,0,B|326:312|326:312|305:319|305:319|293:311|293:311|281:320|281:320|270:311|270:311|251:316|251:316|175:303|116:327,1,245,8|0,0:0|0:0,0:0:0:0:
101,333,228647,6,0,P|64:268|50:201,1,140,4|8,1:0|0:0,0:0:0:0:
309,237,229706,2,2,P|346:148|354:52,1,192.5,2|0,1:0|0:0,1:0:0:0:
354,52,230764,6,0,P|369:67|388:71,1,35,8|2,0:0|0:0,0:0:0:0:
248,104,231117,2,0,P|255:123|271:134,1,35,2|0,0:0|0:0,0:0:0:0:
129,106,231470,2,0,P|127:126|137:142,1,35,0|2,0:0|0:0,0:0:0:0:
296,323,231823,6,0,P|266:295|194:325,1,105.000004005432,2|8,1:0|0:0,0:0:0:0:
129,106,232529,2,0,P|111:157|106:236,1,122.5,4|0,1:0|0:0,0:0:0:0:
122,246,233235,2,0,L|217:251,2,55.9999982910157,4|0|0,0:3|1:0|1:0,0:0:0:0:
276,186,233588,6,0,L|216:182,1,52.5,12|0,0:0|0:0,0:0:0:0:
343,153,233941,2,0,P|348:181|347:209,2,55.9999982910157,8|4|4,0:3|0:3|0:3,0:0:0:0:
415,337,234294,6,2,B|484:263|412:171|466:180|422:125,1,210.000008010865,4|8,1:0|0:0,1:0:0:0:
270,39,235353,2,2,B|210:102|272:181|226:174|263:221,1,192.5,4|8,1:0|0:0,1:0:0:0:
455,279,236411,6,0,B|423:282|423:282|399:275|399:275|387:285|387:285|372:276|372:276|361:287|361:287|339:283|339:283|257:302|189:281,1,280,12|0,0:0|0:0,0:0:0:0:
163,201,237264,2,0,P|160:174|168:138,1,46.6666666666667,0|2,1:0|0:0,0:0:0:0:
110,258,237470,6,2,P|85:311|78:365,1,105.000004005432,2|8,1:0|0:0,1:0:0:0:
44,65,238176,2,0,P|22:141|15:273,1,210,4|8,1:0|0:0,0:0:0:0:
178,66,239588,1,4,0:0:0:0:
332,160,239941,6,0,B|283:146|243:149|243:149|230:163|214:152|214:152|170:171|117:155,1,210.000008010865,4|8,1:0|0:0,0:0:0:0:
302,259,241000,2,2,B|346:246|383:248|383:248|395:261|410:251|410:251|450:269|499:254,1,192.5,0|0,1:0|0:0,1:0:0:0:
488,256,242059,6,0,L|438:297,1,52.5000020027161,8|2,0:0|0:0,0:0:0:0:
384,155,242411,2,0,L|325:135,1,52.5000020027161,2|0,0:0|0:0,0:0:0:0:
268,267,242764,2,0,L|312:256,2,35.0000013351441,2|2|2,0:3|0:0|0:0,0:0:0:0:
191,358,243117,6,0,P|254:362|313:355,1,105.000004005432,2|8,1:0|0:0,0:0:0:0:
46,152,243823,2,0,P|42:246|92:327,1,192.5,4|0,1:0|0:0,0:0:0:0:
92,327,244882,6,0,P|115:328|135:322,1,23.3333333333333,8|0,0:0|0:0,0:0:0:0:
65,298,245000,2,0,P|86:304|107:304,1,23.3333333333333
46,263,245117,2,0,P|65:275|85:280,1,23.3333333333333,8|8,0:3|0:3,0:0:0:0:
36,224,245235,6,0,P|51:240|69:250,1,23.3333333333333,0|0,1:0|0:0,0:0:0:0:
37,184,245353,2,0,P|47:203|62:217,1,23.3333333333333,8|0,0:3|0:0,0:0:0:0:
48,145,245470,2,0,P|52:166|63:184,1,23.3333333333333,2|0,0:0|0:0,0:0:0:0:
196,188,245588,6,2,P|192:152|172:97,1,78.7500030040742,4|0,1:0|0:0,1:0:0:0:
272,258,245941,2,2,P|286:215|292:142,1,105.000004005432,0|8,1:0|0:0,1:0:0:0:
316,353,246647,2,2,P|379:280|427:197,1,192.5,0|0,1:0|0:0,1:0:0:0:
179,111,247706,6,0,B|211:113|211:113|235:106|235:106|247:116|247:116|262:107|262:107|273:118|273:118|295:114|295:114|377:133|445:112,1,280,12|0,0:0|0:0,0:0:0:0:
223,210,248588,1,0,1:0:0:0:
414,12,248764,2,2,P|447:52|460:103,1,105.000004005432,2|8,1:0|0:0,1:0:0:0:
105,112,249470,2,0,P|129:214|194:296,1,210,4|8,1:0|0:0,0:0:0:0:
30,124,250882,1,4,0:0:0:0:
78,379,251235,6,0,B|69:341|75:328|75:328|65:284|65:284|73:261|63:229,1,140,4|8,1:0|0:0,0:0:0:0:
275,41,252294,2,2,B|264:91|272:110|272:110|259:170|259:170|268:201|255:244,1,192.5,2|0,1:0|0:0,1:0:0:0:
258,230,253353,6,0,P|290:224|305:219,1,35,8|2,0:0|0:0,0:0:0:0:
123,276,253706,2,0,P|91:269|76:264,1,35,2|0,0:0|0:0,0:0:0:0:
301,318,254059,2,0,P|332:311|347:306,1,35,0|2,0:0|0:0,0:0:0:0:
140,373,254411,6,0,P|95:367|27:348,1,105.000004005432,2|8,1:0|0:0,0:0:0:0:
37,351,255117,2,0,P|72:271|88:186,1,175,4|8,1:0|3:0,0:0:0:0:
86,171,256088,1,0,0:0:0:0:
82,160,256176,2,0,L|132:170,3,35,8|0|0|0,0:0|0:0|0:0|0:0,0:0:0:0:
180,225,256529,2,0,L|230:219,1,35,2|0,0:3|0:0,0:0:0:0:
293,256,256706,2,0,L|339:234,1,35
410,226,256882,6,0,P|408:194|401:166,1,52.5000020027161,4|0,1:0|0:0,0:0:0:0:
322,72,257235,2,0,P|324:104|331:132,1,52.5000020027161,8|0,0:0|0:0,0:0:0:0:
170,81,257588,6,0,P|173:43|179:23,1,52.5000020027161,0|0,1:0|0:0,0:0:0:0:
167,174,257853,2,0,P|170:199|179:223,1,52.5000020027161,0|0,1:0|0:0,0:0:0:0:
188,357,258117,2,0,P|169:338|155:315,1,52.5000020027161,0|0,1:0|0:0,0:0:0:0:
331,374,258382,2,0,P|355:363|376:348,1,52.5000020027161,2|0,1:2|0:0,0:0:0:0:
433,192,258647,2,0,P|409:203|388:218,1,52.5000020027161,8|0,0:2|0:0,0:0:0:0:
200,243,259000,6,0,L|273:241,1,52.5000020027161,0|0,1:0|0:0,0:0:0:0:
120,197,259264,2,0,L|185:164,1,52.5000020027161,0|0,1:0|0:0,0:0:0:0:
27,189,259529,2,0,L|55:154,1,26.2500010013581,0|0,1:0|0:0,0:0:0:0:
200,100,259706,6,0,P|232:116|248:136,1,59.5000011348725,0|0,1:0|0:0,0:0:0:0:
257,3,260059,2,0,P|227:22|201:26,1,59.5000011348725,8|0,0:0|0:0,0:0:0:0:
313,101,260411,6,0,P|310:65|320:41,1,59.5000011348725,0|0,1:0|0:0,0:0:0:0:
357,213,260676,2,0,P|377:234|404:245,1,59.5000011348725,4|0,1:2|0:0,0:0:0:0:
228,226,260941,2,0,P|229:254|243:280,1,59.5000011348725,0|0,1:0|0:0,0:0:0:0:
366,317,261206,2,0,L|292:325,1,59.5000011348725,2|0,1:2|0:0,0:0:0:0:
228,226,261470,2,0,L|154:218,1,59.5000011348725,8|0,0:0|0:0,0:0:0:0:
88,352,261823,6,0,P|103:323|114:287,1,59.5000011348725,0|0,1:0|0:0,0:0:0:0:
14,217,262088,2,0,L|88:209,1,59.5000011348725,0|0,1:0|0:0,0:0:0:0:
128,123,262353,2,0,L|81:128,1,29.7500005674362,0|0,1:0|0:0,0:0:0:0:
246,135,262529,6,0,P|296:126|322:116,1,70,0|0,1:0|0:0,0:0:0:0:
483,161,262882,2,0,P|433:152|407:142,1,70,8|0,0:0|0:0,0:0:0:0:
246,187,263235,6,0,P|296:178|322:168,1,70,0|0,1:0|0:0,0:0:0:0:
483,213,263500,2,0,P|433:204|407:194,1,70,0|0,1:0|0:0,0:0:0:0:
246,239,263764,2,0,P|296:230|322:220,1,70,4|0,1:0|0:0,0:0:0:0:
483,265,264029,2,0,P|433:256|407:246,1,70,2|0,1:2|0:0,0:0:0:0:
246,291,264294,2,0,P|296:282|322:272,1,70,8|0,0:0|0:0,0:0:0:0:
118,293,264647,6,0,P|68:284|42:274,1,70,0|0,1:0|0:0,0:0:0:0:
246,239,264911,2,0,P|296:230|322:220,1,70,0|0,1:0|0:0,0:0:0:0:
118,184,265176,2,0,P|76:177|54:169,1,35,0|0,1:0|0:0,0:0:0:0:
135,19,265353,6,0,L|115:117,1,83.9999974365235,0|0,1:0|0:0,0:0:0:0:
262,149,265706,2,0,L|242:51,1,83.9999974365235,8|0,0:0|0:0,0:0:0:0:
386,26,266059,6,0,P|390:85|388:111,1,83.9999974365235,0|0,1:0|0:0,0:0:0:0:
483,213,266323,2,0,P|479:154|481:128,1,83.9999974365235,4|0,1:2|0:0,0:0:0:0:
398,256,266588,2,0,P|405:314|412:339,1,83.9999974365235,4|0,1:0|0:0,0:0:0:0:
304,237,266853,2,0,P|261:277|240:293,1,83.9999974365235,0|0,1:0|0:0,0:0:0:0:
262,149,267117,2,0,P|203:156|178:163,1,83.9999974365235,8|0,0:0|0:0,0:0:0:0:
280,138,267470,6,0,L|281:88,1,42,4|4,0:3|0:3,0:0:0:0:
142,101,267647,6,0,L|126:53,1,41.9999987182618,0|0,1:0|0:0,0:0:0:0:
58,208,267823,6,0,L|27:169,1,42,12|0,0:0|0:0,0:0:0:0:
31,175,268176,6,0,P|78:182|106:176,1,52.5000020027161,4|0,1:0|0:0,0:0:0:0:
162,277,268529,2,0,P|209:270|237:276,1,52.5000020027161,8|0,0:0|0:0,0:0:0:0:
94,361,268882,6,0,L|89:293,1,52.5000020027161,0|0,1:0|0:0,0:0:0:0:
165,224,269147,2,0,L|162:277,1,52.5000020027161,0|0,1:0|0:0,0:0:0:0:
262,376,269411,2,0,L|265:323,1,52.5000020027161,0|0,1:0|0:0,0:0:0:0:
334,239,269676,2,0,L|339:307,1,52.5000020027161,2|0,1:2|0:0,0:0:0:0:
360,169,269941,2,0,P|332:164|292:178,1,52.5000020027161,8|0,0:0|0:0,0:0:0:0:
434,133,270294,6,0,P|462:122|487:102,1,52.5000020027161,0|0,1:0|0:0,0:0:0:0:
417,230,270559,2,0,P|447:231|478:224,1,52.5000020027161,0|0,1:0|0:0,0:0:0:0:
360,310,270823,2,0,P|378:320|400:324,1,26.2500010013581,0|0,1:0|0:0,0:0:0:0:
255,287,271000,6,2,L|181:287,1,70,4|8,0:0|0:0,0:0:0:0:
58,252,271706,6,0,P|48:217|50:167,1,59.5000011348725,0|0,1:0|0:0,0:0:0:0:
184,176,271970,2,0,P|154:173|126:164,1,59.5000011348725,4|0,1:2|0:0,0:0:0:0:
243,229,272235,2,0,P|245:258|254:286,1,59.5000011348725,0|0,1:0|0:0,0:0:0:0:
224,366,272500,2,0,P|195:363|167:355,1,59.5000011348725,2|0,1:2|0:0,0:0:0:0:
367,378,272764,2,0,P|396:375|424:367,1,59.5000011348725,8|0,0:0|0:0,0:0:0:0:
357,218,273117,6,0,L|354:304,1,59.5000011348725,0|0,1:0|0:0,0:0:0:0:
434,130,273382,2,0,L|431:216,1,59.5000011348725,0|0,1:0|0:0,0:0:0:0:
290,107,273647,2,0,L|292:78,1,29.7500005674362,0|0,1:0|0:0,0:0:0:0:
219,166,273823,6,0,P|188:168|121:158,1,70,0|0,1:0|0:0,0:0:0:0:
31,94,274176,2,0,P|62:92|129:102,1,70,8|0,0:0|0:0,0:0:0:0:
49,256,274529,6,0,L|61:167,1,70,0|0,1:0|0:0,0:0:0:0:
132,298,274794,2,0,L|120:387,1,70,0|0,1:0|0:0,0:0:0:0:
213,269,275059,2,0,L|225:180,1,70,4|0,1:0|0:0,0:0:0:0:
378,317,275323,2,0,P|309:324|281:315,1,70,2|0,1:2|0:0,0:0:0:0:
458,149,275588,2,0,P|423:147|389:156,1,70,8|0,0:2|0:0,0:0:0:0:
309,324,275941,6,0,L|321:235,1,70,0|0,1:0|0:0,0:0:0:0:
203,338,276206,2,0,L|215:249,1,70,0|0,1:0|0:0,0:0:0:0:
96,353,276470,2,0,L|106:285,1,35,0|0,1:0|0:0,0:0:0:0:
49,142,276647,6,0,P|17:193|12:250,1,83.9999974365235,0|0,1:0|0:0,0:0:0:0:
178,203,277000,2,0,P|149:149|102:116,1,83.9999974365235,8|0,0:0|0:0,0:0:0:0:
350,258,277353,6,0,L|445:242,1,83.9999974365235,0|0,1:0|0:0,0:0:0:0:
400,137,277617,2,0,L|332:185,1,83.9999974365235,4|0,1:2|0:0,0:0:0:0:
284,126,277882,2,0,L|332:42,1,83.9999974365235,4|0,1:0|0:0,0:0:0:0:
136,130,278147,2,0,L|178:203,1,83.9999974365235,0|0,1:0|0:0,0:0:0:0:
67,285,278411,2,0,L|112:275,1,41.9999987182618,2|0,1:2|0:0,0:0:0:0:
225,352,278588,2,0,L|184:348,1,41.9999987182618,0|2,1:0|0:0,0:0:0:0:
296,271,278764,6,0,L|350:258,2,55.9999982910157,4|4|8,1:3|1:3|3:0,0:0:0:0:
484,209,279117,6,0,P|487:174|478:134,1,68.2499968757631,12|0,0:0|0:0,0:0:0:0:
457,116,279470,5,4,1:0:0:0:
368,146,279647,2,0,L|299:150,1,52.5000020027161,0|10,0:0|0:0,0:0:0:0:
153,227,280000,1,0,0:0:0:0:
296,271,280176,1,0,0:0:0:0:
122,302,280353,2,0,P|122:338|132:367,1,52.5000020027161,0|10,0:0|0:0,0:0:0:0:
30,244,280706,1,0,0:0:0:0:
153,227,280882,2,0,P|152:190|142:161,1,52.5000020027161
46,84,281235,1,10,0:0:0:0:
186,100,281411,2,0,L|262:96,1,52.5000020027161,0|0,1:0|0:0,0:0:0:0:
332,88,281764,2,0,P|330:51|320:20,2,52.5000020027161,0|10|0,0:0|0:0|0:0,0:0:0:0:
378,196,282294,6,2,P|393:156|410:130,1,52.5000020027161,4|0,0:0|0:0,0:0:0:0:
413,276,282647,2,0,P|433:259|451:240,1,52.5000020027161,10|0,0:0|0:0,0:0:0:0:
403,367,283000,2,0,P|427:357|452:351,1,52.5000020027161
276,375,283353,2,0,P|245:360|216:331,1,52.5000020027161,10|0,0:0|0:0,0:0:0:0:
308,269,283706,1,0,0:0:0:0:
170,220,283882,1,0,0:0:0:0:
308,171,284059,1,10,0:0:0:0:
170,122,284235,2,0,P|174:77|182:50,1,52.5000020027161,0|0,1:0|0:0,0:0:0:0:
83,154,284588,2,0,P|87:199|95:226,2,52.5000020027161,0|10|0,1:0|0:0|0:0,0:0:0:0:
12,311,285117,6,0,P|34:350|53:371,1,52.5000020027161,4|0,1:2|0:0,0:0:0:0:
88,206,285470,2,0,P|43:213|17:224,1,52.5000020027161,10|0,0:0|0:0,0:0:0:0:
215,242,285823,1,0,0:0:0:0:
113,282,286000,2,0,P|138:292|164:297,1,52.5000020027161,0|10,0:0|0:0,0:0:0:0:
239,170,286353,1,0,0:0:0:0:
369,232,286529,2,0,P|362:277|351:303,1,52.5000020027161
429,146,286882,1,10,0:0:0:0:
292,170,287059,2,0,L|224:171,1,52.5000020027161,0|0,1:0|0:0,0:0:0:0:
145,163,287411,2,0,P|145:125|154:94,2,52.5000020027161,0|10|0,0:0|0:0|0:0,0:0:0:0:
83,239,287941,6,2,P|68:198|56:180,1,52.5000020027161,4|0,0:0|0:0,0:0:0:0:
184,269,288294,2,0,P|171:297|165:330,1,52.5000020027161,10|0,0:0|0:0,0:0:0:0:
290,238,288647,2,0,P|279:202|267:177,1,52.5000020027161
404,238,289000,2,0,P|410:266|407:308,1,52.5000020027161,10|0,0:0|0:0,0:0:0:0:
368,160,289353,6,0,L|428:156,1,52.5000020027161,0|0,1:0|0:0,0:0:0:0:
297,89,289706,1,10,0:0:0:0:
390,85,289882,2,0,L|450:81,1,52.5000020027161,0|0,1:0|0:0,0:0:0:0:
319,14,290235,1,0,1:0:0:0:
319,14,290323,1,0,0:0:0:0:
319,14,290411,1,10,0:0:0:0:
170,119,290588,1,0,0:0:0:0:
170,119,290676,1,0,0:0:0:0:
170,119,290764,6,0,P|163:93|165:79,2,26.2500010013581,4|4|0,1:3|0:3|3:0,0:0:0:0:
97,213,291029,2,0,P|104:187|102:173,2,26.2500010013581,4|4|0,0:3|0:3|3:0,0:0:0:0:
206,261,291294,2,0,P|187:257|172:257,2,26.2500010013581,4|4|0,0:3|0:3|3:0,0:0:0:0:
304,317,291559,2,0,P|291:320|278:321,2,26.2500010013581,4|4|0,0:3|0:3|3:0,0:0:0:0:
178,370,291823,2,0,P|190:373|203:374,2,26.2500010013581,4|4|0,0:3|0:3|3:0,0:0:0:0:
374,351,292088,6,0,P|387:352|399:355,2,26.2500010013581,4|4|0,0:3|0:3|3:0,0:0:0:0:
432,268,292353,2,0,P|430:254|427:242,2,26.2500010013581,4|4|0,0:3|0:3|3:0,0:0:0:0:
342,187,292617,2,0,P|340:174|340:160,2,26.2500010013581,4|4|0,0:3|1:3|3:0,0:0:0:0:
192,122,292882,1,4,0:3:0:0:
198,121,292970,1,4,0:3:0:0:
204,120,293059,1,0,3:0:0:0:
210,119,293147,1,4,0:3:0:0:
216,118,293235,2,2,P|209:144|198:159,1,26.2500010013581,0|0,3:0|3:0,1:0:0:0:
153,218,293411,1,4,0:3:0:0:
153,218,293500,1,0,3:0:0:0:
153,218,293588,6,0,L|137:181,2,26.2500010013581,4|4|0,1:3|0:3|3:0,0:0:0:0:
258,211,293853,2,0,L|274:174,2,26.2500010013581,4|4|0,0:3|0:3|3:0,0:0:0:0:
95,285,294117,2,0,L|64:258,2,26.2500010013581,4|4|0,0:3|0:3|3:0,0:0:0:0:
316,278,294382,2,0,L|346:251,2,26.2500010013581,4|4|0,0:3|0:3|3:0,0:0:0:0:
70,370,294647,2,0,L|31:358,2,26.2500010013581,4|4|0,0:3|0:3|3:0,0:0:0:0:
341,363,294911,6,0,L|379:351,2,26.2500010013581,4|4|0,0:3|0:3|3:0,0:0:0:0:
413,229,295176,2,0,L|434:192,2,26.2500010013581,4|4|0,0:3|0:3|3:0,0:0:0:0:
378,79,295441,2,0,L|369:37,2,26.2500010013581,4|4|0,0:3|1:3|3:0,0:0:0:0:
221,145,295706,1,4,0:3:0:0:
215,146,295794,1,4,0:3:0:0:
209,147,295883,1,0,3:0:0:0:
203,148,295971,1,4,0:3:0:0:
197,149,296059,2,2,P|204:123|215:108,1,26.2500010013581,0|0,3:0|3:0,1:0:0:0:
34,146,296235,1,4,0:3:0:0:
34,146,296323,1,0,3:0:0:0:
34,146,296411,6,0,L|70:151,1,35,4|4,1:3|0:3,0:0:0:0:
172,216,296588,1,0,3:0:0:0:
172,216,296676,2,0,L|125:208,1,35,4|4,0:3|0:3,0:0:0:0:
104,336,296853,1,0,3:0:0:0:
104,336,296941,2,0,P|116:328|130:313,1,35,4|4,0:3|0:3,0:0:0:0:
264,261,297117,1,0,3:0:0:0:
264,261,297206,2,0,P|252:269|238:284,1,35,4|4,0:3|0:3,0:0:0:0:
366,219,297382,1,0,3:0:0:0:
366,219,297470,2,0,L|359:154,1,35,4|4,0:3|0:3,0:0:0:0:
463,131,297647,1,0,3:0:0:0:
463,131,297735,6,0,L|459:165,1,35,4|4,0:3|0:3,0:0:0:0:
355,52,297911,1,0,3:0:0:0:
355,52,298000,2,0,L|363:85,1,35,4|4,0:3|0:3,0:0:0:0:
265,184,298176,1,0,3:0:0:0:
265,184,298264,2,0,P|258:168|255:151,2,35,4|4|0,0:3|1:3|3:0,0:0:0:0:
150,77,298529,1,4,0:3:0:0:
156,78,298617,1,4,0:3:0:0:
162,79,298706,1,0,3:0:0:0:
168,80,298794,1,4,0:3:0:0:
174,81,298882,2,2,P|167:55|156:40,1,35,0|0,3:0|3:0,1:0:0:0:
61,92,299059,1,4,0:3:0:0:
61,92,299147,1,0,3:0:0:0:
61,92,299235,6,0,L|62:150,1,35,4|4,1:3|0:3,0:0:0:0:
96,293,299411,1,0,3:0:0:0:
96,293,299500,2,0,L|95:235,1,35,4|4,3:0|0:3,0:0:0:0:
150,77,299676,1,0,3:0:0:0:
150,77,299765,2,0,L|151:135,1,35,4|4,0:3|0:3,0:0:0:0:
185,308,299941,1,0,3:0:0:0:
185,308,300029,2,0,L|184:250,1,35,4|4,0:3|0:3,0:0:0:0:
239,62,300206,1,0,3:0:0:0:
239,62,300294,2,0,L|240:120,1,35,4|4,0:3|0:3,0:0:0:0:
274,322,300470,1,0,3:0:0:0:
274,322,300559,6,0,L|273:264,1,35,4|4,0:3|0:3,0:0:0:0:
328,46,300735,1,0,3:0:0:0:
328,46,300823,2,0,L|329:104,1,35,4|4,0:3|0:3,0:0:0:0:
363,336,301000,1,0,3:0:0:0:
363,336,301088,2,0,L|362:278,1,35,4|4,0:3|1:3,0:0:0:0:
421,188,301264,1,0,3:0:0:0:
421,188,301353,6,0,L|357:190,2,46.6666666666667,0|8|4,1:0|3:0|0:3,0:0:0:0:
145,192,301706,5,12,0:0:0:0:
421,188,302059,5,6,1:0:0:0:
