osu file format v14

[General]
AudioFilename: audio.mp3
AudioLeadIn: 0
PreviewTime: 52046
Countdown: 0
SampleSet: None
StackLeniency: 0.4
Mode: 2
LetterboxInBreaks: 0
WidescreenStoryboard: 1

[Editor]
DistanceSpacing: 0.8
BeatDivisor: 4
GridSize: 4
TimelineZoom: 1.6

[Metadata]
Title:7 Colors
TitleUnicode:7 Colors
Artist:kors k feat. Sunao Yoshikawa
ArtistUnicode:kors k feat. 吉河順央
Creator:Sorcerer
Version:Rain
Source:REFLEC BEAT colette -Summer-
Tags:Seven Colours Eurobeat PRISM EURO プリズムユーロ jubeat plus saucer fulfill pop'n music Sunny Park REFLEC BEAT plus
BeatmapID:1292320
BeatmapSetID:612303

[Difficulty]
HPDrainRate:6
CircleSize:4
OverallDifficulty:9
ApproachRate:9
SliderMultiplier:1.8
SliderTickRate:2

[Events]
//Background and Video events
0,0,"prettybackground.jpg",0,0
//Break Periods
//Storyboard Layer 0 (Background)
//Storyboard Layer 1 (Fail)
//Storyboard Layer 2 (Pass)
//Storyboard Layer 3 (Foreground)
//Storyboard Sound Samples

[TimingPoints]
316,384.615384615385,4,2,1,70,1,0
1085,-100,4,2,1,50,0,0
1373,-100,4,2,1,70,0,0
3392,-100,4,2,1,75,0,0
6469,-100,4,2,1,80,0,0
12623,-66.6666666666667,4,2,77,60,0,0
14162,-100,4,2,77,60,0,0
14258,-100,4,3,1,100,0,0
26469,-100,4,2,1,85,0,0
38777,-100,4,2,77,50,0,0
38873,-100,4,2,1,85,0,0
49546,-100,4,2,1,90,0,0
50316,-100,4,2,1,95,0,0
51469,-100,4,2,1,50,0,0
52239,-100,4,2,77,50,0,0
52623,-100,4,2,77,65,0,1
52719,-100,4,3,1,100,0,1
64546,-100,4,3,1,100,0,0
64931,-100,4,2,77,70,0,1
65027,-100,4,3,1,100,0,1
77239,-100,4,2,77,65,0,0
77335,-100,4,2,1,80,0,0
79931,-100,4,2,1,100,0,0
80316,-100,4,2,77,70,0,0
80412,-100,4,3,1,100,0,0
92623,-100,4,2,1,80,0,0
94162,-100,4,2,1,90,0,0
94546,-100,4,2,1,94,0,0
94931,-100,4,2,1,97,0,0
95316,-100,4,2,1,100,0,0

[Colours]
Combo1 : 254,94,162
Combo2 : 254,71,6
Combo3 : 254,151,37
Combo4 : 255,234,37
Combo5 : 76,245,31
Combo6 : 57,196,227
Combo7 : 192,13,181

[HitObjects]
124,280,316,6,0,P|96:232|144:148,1,135,2|0,0:0|0:0,0:0:0:0:
280,152,700,2,0,L|372:152,2,90,8|0|2,0:0|0:0|0:3,0:0:0:0:
88,160,1373,2,0,L|48:120,2,45,0|2|2,0:0|0:0|0:0,0:0:0:0:
148,156,1662,1,8,0:0:0:0:
416,164,1854,6,0,L|460:56,1,90,4|0,0:0|0:0,0:0:0:0:
296,140,2239,2,0,L|268:84,1,45,8|0,0:0|0:0,0:0:0:0:
212,96,2431,2,0,L|192:52,1,45,2|0,0:0|0:0,0:0:0:0:
280,212,2623,1,2,0:0:0:0:
316,184,2719,1,2,0:0:0:0:
316,148,2816,1,8,0:0:0:0:
280,132,2912,1,0,0:0:0:0:
208,132,3008,2,0,L|188:88,1,45,2|2,0:0|0:0,0:0:0:0:
296,88,3200,2,0,L|316:44,1,45,8|0,0:0|0:0,0:0:0:0:
140,64,3392,6,0,L|40:64,1,90,4|0,0:0|0:0,0:0:0:0:
252,140,3777,2,0,L|376:140,1,90,8|2,0:0|0:0,0:0:0:0:
160,140,4162,2,0,L|140:252,1,90,2|0,0:0|0:0,0:0:0:0:
336,212,4546,2,0,L|356:324,1,90,8|2,0:0|0:0,0:0:0:0:
80,288,4931,6,0,P|24:228|92:184,1,180,6|8,0:0|0:0,0:0:0:0:
176,156,5508,2,0,L|212:96,1,45,2|0,0:0|0:0,0:0:0:0:
280,112,5700,1,2,0:0:0:0:
316,144,5796,1,2,0:0:0:0:
316,188,5892,1,8,0:0:0:0:
280,216,5989,1,0,0:0:0:0:
196,224,6085,2,0,L|173:185,1,45,2|2,0:0|0:0,0:0:0:0:
256,160,6277,5,8,0:0:0:0:
276,188,6341,1,0,0:0:0:0:
256,216,6405,1,0,0:0:0:0:
204,216,6469,1,6,0:0:0:0:
184,236,6533,1,0,0:0:0:0:
204,268,6597,1,0,0:0:0:0:
256,268,6662,2,0,L|312:268,2,30,2|0|0,0:0|0:0|0:0,0:0:0:0:
196,268,6854,6,0,L|160:220,1,45,12|0,0:0|0:0,0:0:0:0:
336,252,7046,2,0,L|376:204,1,45,2|0,0:0|0:0,0:0:0:0:
284,197,7239,2,0,L|240:144,1,45,4|0,0:0|0:0,0:0:0:0:
332,148,7431,1,2,0:0:0:0:
368,108,7527,1,2,0:0:0:0:
368,72,7623,1,12,0:0:0:0:
332,64,7719,1,0,0:0:0:0:
248,64,7816,2,0,L|204:8,1,45,2|0,0:0|0:0,0:0:0:0:
396,56,8008,6,0,L|516:56,1,90,6|0,0:0|0:0,0:0:0:0:
280,56,8392,2,0,L|304:168,1,90,2|0,0:0|0:0,0:0:0:0:
488,144,8777,2,0,L|464:256,1,90,2|0,0:0|0:0,0:0:0:0:
276,228,9162,2,0,L|388:228,1,90,2|2,0:0|0:0,0:0:0:0:
76,232,9546,6,0,L|60:132,1,90,2|0,0:0|0:0,0:0:0:0:
244,132,9931,2,0,L|144:132,1,90,8|0,0:3|0:0,0:0:0:0:
348,132,10316,2,0,L|444:132,1,90,2|0,0:0|0:0,0:0:0:0:
188,136,10700,2,0,L|144:204,1,45,2|2,0:0|0:0,0:0:0:0:
88,168,10892,2,0,L|44:236,1,45,2|2,0:0|0:0,0:0:0:0:
272,232,11085,6,0,L|376:232,1,90,6|0,0:0|0:0,0:0:0:0:
180,224,11469,2,0,L|148:200,2,30,4|0|0,0:0|0:0|0:0,0:0:0:0:
220,224,11662,2,0,L|264:192,2,30,0|0|0,0:0|0:0|0:0,0:0:0:0:
128,224,11854,5,2,0:0:0:0:
92,192,11950,1,0,0:0:0:0:
92,144,12046,1,2,0:0:0:0:
128,116,12142,1,0,0:0:0:0:
292,200,12239,1,8,0:3:0:0:
328,168,12335,1,0,0:0:0:0:
328,120,12431,1,2,0:0:0:0:
292,92,12527,1,0,0:0:0:0:
116,96,12623,5,8,0:0:0:0:
340,88,12912,1,8,0:0:0:0:
68,152,13200,1,8,0:0:0:0:
384,152,13777,2,0,P|432:220|380:320,1,202.500007724762,2|2,0:0|0:0,0:0:0:0:
144,260,14162,6,0,L|76:196,1,90,4|0,0:0|0:0,0:0:0:0:
144,192,14450,1,4,0:0:0:0:
384,264,14739,2,0,L|452:200,1,90,4|8,0:0|0:0,0:0:0:0:
384,196,15027,1,2,0:0:0:0:
108,196,15316,2,0,L|208:196,1,90,8|2,0:0|0:0,0:0:0:0:
384,196,15700,6,0,L|420:148,1,45,2|2,0:0|0:0,0:0:0:0:
248,192,15892,2,0,L|212:144,1,45,2|2,0:0|0:0,0:0:0:0:
424,144,16085,2,0,L|468:60,1,90,8|2,0:0|0:0,0:0:0:0:
276,68,16469,2,0,L|168:68,1,90,6|0,0:0|0:0,0:0:0:0:
232,108,16758,1,12,0:0:0:0:
416,108,16854,2,0,L|480:192,1,90,0|8,0:0|0:0,0:0:0:0:
104,176,17239,6,0,L|0:176,1,90,6|0,0:0|0:0,0:0:0:0:
60,212,17528,1,12,0:0:0:0:
408,176,17816,2,0,L|512:176,1,90,4|2,0:0|0:0,0:0:0:0:
452,212,18105,1,8,0:0:0:0:
272,112,18392,2,0,L|372:112,1,90,2|8,0:0|0:0,0:0:0:0:
88,120,18777,5,6,0:0:0:0:
44,144,18873,1,2,0:0:0:0:
44,184,18969,1,6,0:0:0:0:
88,224,19066,1,2,0:0:0:0:
316,232,19162,2,0,L|440:232,1,90,2|8,0:0|0:0,0:0:0:0:
136,232,19546,2,0,L|36:232,1,90,2|0,0:0|0:0,0:0:0:0:
336,232,19931,2,0,L|368:176,1,45,8|2,0:0|0:0,0:0:0:0:
172,184,20123,2,0,L|140:128,1,45,8|2,0:0|0:0,0:0:0:0:
364,188,20316,6,0,L|480:188,1,90,6|0,0:0|0:0,0:0:0:0:
408,156,20604,1,12,0:0:0:0:
164,180,20892,2,0,L|48:180,1,90,4|2,0:0|0:0,0:0:0:0:
120,148,21180,1,8,0:0:0:0:
364,200,21469,2,0,L|264:200,1,90,2|8,0:0|0:0,0:0:0:0:
88,200,21853,6,0,L|52:152,1,45,6|2,0:0|0:0,0:0:0:0:
224,196,22045,2,0,L|260:148,1,45,2|2,0:0|0:0,0:0:0:0:
48,148,22238,2,0,L|4:64,1,90,8|2,0:0|0:0,0:0:0:0:
236,68,22623,2,0,L|344:68,1,90,6|0,0:0|0:0,0:0:0:0:
280,108,22912,1,12,0:0:0:0:
96,108,23008,2,0,L|32:192,1,90,0|2,0:0|0:0,0:0:0:0:
408,176,23392,6,0,L|512:176,1,90,6|0,0:0|0:0,0:0:0:0:
452,212,23681,1,12,0:0:0:0:
104,176,23969,2,0,L|0:176,1,90,4|2,0:0|0:0,0:0:0:0:
60,212,24258,1,8,0:0:0:0:
240,112,24546,2,0,L|140:112,1,90,2|8,0:0|0:0,0:0:0:0:
416,116,24931,5,6,0:0:0:0:
464,152,25027,1,2,0:0:0:0:
488,196,25123,1,6,0:0:0:0:
464,232,25219,1,2,0:0:0:0:
416,248,25316,1,8,0:0:0:0:
128,116,25508,5,2,0:0:0:0:
80,152,25604,1,2,0:0:0:0:
56,196,25700,1,6,0:0:0:0:
80,232,25796,1,2,0:0:0:0:
128,248,25893,1,8,0:0:0:0:
300,244,26085,1,2,0:0:0:0:
128,280,26277,1,8,0:0:0:0:
384,284,26469,6,0,L|480:284,1,90,6|0,0:0|0:0,0:0:0:0:
296,216,26854,2,0,L|180:216,1,90,2|0,0:0|0:0,0:0:0:0:
392,220,27239,1,2,0:0:0:0:
432,184,27335,1,0,0:0:0:0:
432,128,27431,1,8,0:0:0:0:
392,96,27527,1,0,0:0:0:0:
276,96,27623,2,0,L|180:96,1,90,2|8,0:0|0:0,0:0:0:0:
456,96,28008,6,0,L|484:188,1,90,2|0,0:0|0:0,0:0:0:0:
304,188,28392,2,0,L|436:188,1,90,2|0,0:0|0:0,0:0:0:0:
212,184,28777,2,0,L|104:184,1,90,6|0,0:0|0:0,0:0:0:0:
172,136,29066,1,4,0:0:0:0:
292,128,29162,2,0,L|400:128,1,90,0|6,0:0|0:0,0:0:0:0:
128,104,29546,6,0,L|28:104,1,90,2|0,0:0|0:0,0:0:0:0:
212,104,29931,2,0,L|232:228,1,90,8|0,0:0|0:0,0:0:0:0:
40,212,30316,2,0,L|60:336,1,90,2|0,0:0|0:0,0:0:0:0:
232,296,30700,2,0,L|116:296,1,90,8|0,0:0|0:0,0:0:0:0:
316,288,31085,5,2,0:0:0:0:
356,256,31181,1,0,0:0:0:0:
356,216,31277,1,2,0:0:0:0:
316,192,31373,1,0,0:0:0:0:
152,192,31469,2,0,L|124:88,1,90,8|0,0:0|0:0,0:0:0:0:
400,188,31854,2,0,L|428:84,1,90,2|4,0:0|0:0,0:0:0:0:
244,104,32239,2,0,L|348:104,1,90,2|4,0:0|0:0,0:0:0:0:
60,108,32623,6,0,L|44:212,1,90,6|0,0:0|0:0,0:0:0:0:
228,208,33008,2,0,L|336:208,1,90,8|0,0:0|0:0,0:0:0:0:
148,156,33392,2,0,L|36:156,1,90,2|2,0:0|0:0,0:0:0:0:
232,156,33777,2,0,L|272:228,1,45,8|0,0:0|0:0,0:0:0:0:
312,200,33969,2,0,L|352:272,1,45,2|0,0:0|0:0,0:0:0:0:
160,248,34162,5,2,0:0:0:0:
120,216,34258,1,2,0:0:0:0:
120,168,34354,1,2,0:0:0:0:
160,144,34450,1,2,0:0:0:0:
360,144,34546,2,0,L|456:144,1,90,6|0,0:0|0:0,0:0:0:0:
272,144,34931,2,0,L|252:44,1,90,8|0,0:0|0:0,0:0:0:0:
436,72,35316,2,0,L|396:144,1,45,2|2,0:0|0:0,0:0:0:0:
339,116,35508,2,0,L|299:188,1,45,2|2,0:0|0:0,0:0:0:0:
144,152,35700,6,0,L|24:152,1,90,12|0,0:0|0:0,0:0:0:0:
228,156,36085,2,0,L|324:156,1,90,4|2,0:0|0:0,0:0:0:0:
144,160,36469,1,8,0:0:0:0:
100,188,36566,1,0,0:0:0:0:
100,232,36662,1,2,0:0:0:0:
144,248,36758,1,0,0:0:0:0:
248,252,36854,2,0,L|288:212,1,45,2|2,0:0|0:0,0:0:0:0:
100,164,37046,2,0,L|60:124,1,45,8|2,0:0|0:0,0:0:0:0:
260,128,37239,6,0,L|364:128,1,90,6|0,0:0|0:0,0:0:0:0:
184,128,37623,2,0,L|76:128,1,90,8|2,0:0|0:0,0:0:0:0:
356,168,38008,2,0,L|348:268,1,90,2|2,0:0|0:0,0:0:0:0:
96,160,38392,2,0,L|104:276,1,90,8|2,0:0|0:0,0:0:0:0:
380,140,38777,6,0,L|480:140,1,90,4|0,0:0|0:0,0:0:0:0:
292,140,39162,2,0,L|184:140,1,90,8|0,0:0|0:0,0:0:0:0:
376,136,39546,2,0,L|400:244,1,90,2|0,0:0|0:0,0:0:0:0:
224,220,39931,2,0,L|336:220,1,90,8|0,0:0|0:0,0:0:0:0:
136,216,40316,6,0,L|108:120,1,90,2|0,0:0|0:0,0:0:0:0:
288,132,40700,2,0,L|328:196,1,45,8|2,0:0|0:0,0:0:0:0:
368,172,40892,2,0,L|408:236,1,45,2|2,0:0|0:0,0:0:0:0:
224,220,41085,1,2,0:0:0:0:
184,248,41181,1,0,0:0:0:0:
184,296,41277,1,2,0:0:0:0:
224,308,41373,1,0,0:0:0:0:
380,308,41469,2,0,L|400:196,1,90,8|2,0:0|0:0,0:0:0:0:
132,200,41854,6,0,L|32:200,1,90,6|0,0:0|0:0,0:0:0:0:
212,164,42239,2,0,L|332:164,1,90,8|0,0:0|0:0,0:0:0:0:
120,168,42623,2,0,L|44:220,1,90,2|0,0:0|0:0,0:0:0:0:
144,232,43008,1,8,0:0:0:0:
424,248,43200,6,0,P|476:200|424:108,1,180,6|2,0:0|0:0,0:0:0:0:
344,104,43777,1,8,0:0:0:0:
80,248,43969,2,0,P|36:196|96:96,1,180,0|2,0:0|0:0,0:0:0:0:
132,96,44450,1,0,0:0:0:0:
308,76,44546,2,0,L|356:144,1,45,8|2,0:0|0:0,0:0:0:0:
140,120,44739,2,0,L|92:188,1,45,8|8,0:0|0:0,0:0:0:0:
352,176,44931,6,0,L|472:176,1,90,6|0,0:0|0:0,0:0:0:0:
264,176,45316,2,0,L|164:176,1,90,8|0,0:0|0:0,0:0:0:0:
352,112,45700,2,0,L|220:112,1,90,2|2,0:0|0:0,0:0:0:0:
80,112,46085,2,0,L|192:112,1,90,8|0,0:0|0:0,0:0:0:0:
420,116,46469,6,0,L|444:232,1,90,6|0,0:0|0:0,0:0:0:0:
276,220,46854,2,0,L|366:220,1,90,8|2,0:0|0:0,0:0:0:0:
180,168,47238,2,0,L|48:168,1,90,6|0,0:0|0:0,0:0:0:0:
276,152,47623,2,0,L|366:152,1,90,6|0,0:0|0:0,0:0:0:0:
108,160,48008,6,0,L|80:44,1,90,6|0,0:0|0:0,0:0:0:0:
264,156,48392,2,0,L|292:40,1,90,8|0,0:0|0:0,0:0:0:0:
108,72,48777,2,0,L|16:72,1,90,2|2,0:0|0:0,0:0:0:0:
196,120,49162,2,0,L|96:120,1,90,8|0,0:0|0:0,0:0:0:0:
356,148,49546,5,6,0:0:0:0:
400,152,49642,1,0,0:0:0:0:
400,200,49739,1,0,0:0:0:0:
356,216,49835,1,0,0:0:0:0:
196,148,49931,1,2,0:0:0:0:
152,152,50027,1,0,0:0:0:0:
152,200,50124,1,2,0:0:0:0:
196,216,50220,1,0,0:0:0:0:
388,116,50316,5,8,0:0:0:0:
432,120,50412,1,2,0:0:0:0:
432,168,50509,1,2,0:0:0:0:
388,184,50605,1,2,0:0:0:0:
208,180,50700,2,0,L|156:124,1,45,8|2,0:0|0:0,0:0:0:0:
400,264,50892,2,0,L|452:204,1,45,2|2,0:0|0:0,0:0:0:0:
176,264,51085,6,0,P|128:228|184:120,1,180,6|0,0:0|0:0,0:0:0:0:
328,192,52239,2,0,L|448:192,1,90,8|0,0:0|0:0,0:0:0:0:
164,196,52623,6,0,L|68:196,1,90,4|0,0:0|0:0,0:0:0:0:
252,196,53008,2,0,L|364:196,1,90,8|0,0:0|0:0,0:0:0:0:
296,160,53296,1,0,0:0:0:0:
128,152,53392,2,0,L|100:60,1,90,2|2,0:0|0:0,0:0:0:0:
284,144,53777,2,0,L|172:144,1,90,8|0,0:0|0:0,0:0:0:0:
372,96,54162,6,0,L|468:96,1,90,2|0,0:0|0:0,0:0:0:0:
280,104,54546,2,0,L|168:104,1,90,8|0,0:0|0:0,0:0:0:0:
236,136,54835,1,0,0:0:0:0:
412,148,54931,2,0,L|432:240,1,90,2|0,0:0|0:0,0:0:0:0:
256,240,55316,2,0,L|364:240,1,90,8|0,0:0|0:0,0:0:0:0:
88,248,55700,6,0,L|52:128,1,90,2|0,0:0|0:0,0:0:0:0:
240,156,56085,1,8,0:0:0:0:
284,136,56181,1,0,0:0:0:0:
284,96,56277,1,0,0:0:0:0:
240,60,56373,1,0,0:0:0:0:
72,60,56469,2,0,L|92:188,1,90,2|0,0:0|0:0,0:0:0:0:
256,152,56854,2,0,L|300:220,1,45,8|2,0:0|0:0,0:0:0:0:
356,176,57046,2,0,L|400:244,1,45,8|2,0:0|0:0,0:0:0:0:
160,224,57239,6,0,L|48:224,1,90,2|0,0:0|0:0,0:0:0:0:
348,224,57623,2,0,L|460:224,1,90,8|2,0:0|0:0,0:0:0:0:
264,184,58008,2,0,L|364:184,1,90,2|4,0:0|0:0,0:0:0:0:
96,200,58392,2,0,L|64:156,1,45,2|2,0:0|0:0,0:0:0:0:
248,184,58585,2,0,L|280:140,1,45,4|4,0:0|0:0,0:0:0:0:
72,180,58777,6,0,L|40:96,1,90,6|0,0:0|0:0,0:0:0:0:
216,92,59162,2,0,L|116:92,1,90,8|0,0:0|0:0,0:0:0:0:
172,56,59450,1,0,0:0:0:0:
348,56,59546,2,0,L|372:168,1,90,2|0,0:0|0:0,0:0:0:0:
180,152,59931,2,0,L|156:264,1,90,8|0,0:0|0:0,0:0:0:0:
340,248,60316,6,0,L|444:248,1,90,2|0,0:0|0:0,0:0:0:0:
248,252,60700,1,8,0:0:0:0:
208,224,60796,1,0,0:0:0:0:
208,184,60892,1,0,0:0:0:0:
248,164,60989,1,0,0:0:0:0:
332,160,61085,2,0,L|360:116,1,45,2|2,0:0|0:0,0:0:0:0:
284,112,61277,2,0,L|256:68,1,45,2|2,0:0|0:0,0:0:0:0:
440,196,61469,2,0,L|456:106,1,90,12|0,0:0|0:0,0:0:0:0:
148,192,61854,6,0,L|52:192,1,90,2|0,0:0|0:0,0:0:0:0:
216,140,62239,2,0,L|108:140,1,90,8|0,0:0|0:0,0:0:0:0:
400,192,62623,2,0,L|496:192,1,90,2|0,0:0|0:0,0:0:0:0:
332,140,63008,2,0,L|440:140,1,90,8|0,0:0|0:0,0:0:0:0:
116,148,63392,6,0,L|96:252,1,90,2|0,0:0|0:0,0:0:0:0:
368,212,63777,2,0,L|388:316,1,90,8|2,0:0|0:0,0:0:0:0:
120,300,64162,1,8,0:0:0:0:
80,280,64258,1,8,0:0:0:0:
80,240,64354,1,2,0:0:0:0:
120,212,64450,1,2,0:0:0:0:
276,204,64546,2,0,L|312:148,1,45,4|4,0:0|0:0,0:0:0:0:
108,168,64739,2,0,L|72:112,1,45,2|2,0:0|0:0,0:0:0:0:
316,152,64931,6,0,L|412:152,1,90,4|0,0:0|0:0,0:0:0:0:
252,196,65316,2,0,L|364:196,1,90,8|0,0:0|0:0,0:0:0:0:
296,160,65604,1,0,0:0:0:0:
128,152,65700,2,0,L|100:60,1,90,2|0,0:0|0:0,0:0:0:0:
280,152,66085,2,0,L|308:60,1,90,8|0,0:0|0:0,0:0:0:0:
140,76,66469,6,0,L|240:76,1,90,2|0,0:0|0:0,0:0:0:0:
400,76,66854,2,0,L|496:76,1,90,8|2,0:0|0:0,0:0:0:0:
444,120,67142,1,2,0:0:0:0:
264,120,67239,2,0,L|164:120,1,90,2|4,0:0|0:0,0:0:0:0:
16,168,67623,2,0,L|108:168,1,90,8|0,0:0|0:0,0:0:0:0:
372,172,68008,6,0,L|388:268,1,90,2|0,0:0|0:0,0:0:0:0:
204,264,68392,1,8,0:0:0:0:
164,228,68489,1,0,0:0:0:0:
164,184,68585,1,0,0:0:0:0:
204,172,68681,1,0,0:0:0:0:
396,172,68777,2,0,L|384:64,1,90,2|0,0:0|0:0,0:0:0:0:
212,80,69162,2,0,L|168:148,1,45,8|2,0:0|0:0,0:0:0:0:
112,100,69354,2,0,L|68:168,1,45,8|2,0:0|0:0,0:0:0:0:
344,160,69546,6,0,L|456:160,1,90,6|0,0:0|0:0,0:0:0:0:
176,168,69931,2,0,L|64:168,1,90,8|0,0:0|0:0,0:0:0:0:
268,168,70316,2,0,L|380:168,1,90,2|4,0:0|0:0,0:0:0:0:
100,176,70700,2,0,L|64:224,1,45,2|2,0:0|0:0,0:0:0:0:
280,208,70892,2,0,L|316:256,1,45,4|4,0:0|0:0,0:0:0:0:
96,232,71085,6,0,L|36:308,1,90,6|0,0:0|0:0,0:0:0:0:
224,140,71469,2,0,L|324:140,1,90,8|0,0:0|0:0,0:0:0:0:
268,100,71757,1,0,0:0:0:0:
92,104,71853,2,0,L|68:216,1,90,6|0,0:0|0:0,0:0:0:0:
260,200,72238,2,0,L|284:312,1,90,8|0,0:0|0:0,0:0:0:0:
460,232,72623,6,0,L|436:344,1,90,2|0,0:0|0:0,0:0:0:0:
260,316,73008,1,8,0:0:0:0:
220,280,73104,1,0,0:0:0:0:
220,236,73200,1,0,0:0:0:0:
260,200,73296,1,0,0:0:0:0:
432,192,73392,2,0,L|472:108,1,90,2|2,0:0|0:0,0:0:0:0:
296,112,73777,2,0,L|392:112,1,90,8|0,0:0|0:0,0:0:0:0:
132,192,74162,6,0,L|36:192,1,90,6|0,0:0|0:0,0:0:0:0:
220,144,74547,2,0,L|112:144,1,90,8|0,0:0|0:0,0:0:0:0:
384,192,74931,2,0,L|480:192,1,90,2|2,0:0|0:0,0:0:0:0:
208,188,75316,2,0,L|172:120,1,45,8|8,0:0|0:0,0:0:0:0:
352,164,75508,2,0,L|388:96,1,45,2|2,0:0|0:0,0:0:0:0:
76,88,75700,6,0,P|40:128|88:252,1,180,6|0,0:0|0:0,0:0:0:0:
400,104,76277,2,0,P|440:144|372:248,1,180,2|2,0:0|0:0,0:0:0:0:
176,240,76854,2,0,L|140:176,1,45,8|2,0:0|0:0,0:0:0:0:
320,240,77046,2,0,L|356:176,1,45,8|8,0:0|0:0,0:0:0:0:
168,188,77239,6,0,L|104:108,1,90,4|0,0:0|0:0,0:0:0:0:
168,112,77527,1,0,0:0:0:0:
344,188,77623,2,0,L|408:108,1,90,8|0,0:0|0:0,0:0:0:0:
344,112,77911,1,0,0:0:0:0:
152,184,78008,6,0,L|56:168,1,90,2|0,0:0|0:0,0:0:0:0:
112,128,78296,1,0,0:0:0:0:
360,184,78392,2,0,L|464:168,1,90,8|0,0:0|0:0,0:0:0:0:
400,128,78680,1,0,0:0:0:0:
188,96,78777,5,2,0:0:0:0:
324,96,78969,1,2,0:0:0:0:
188,168,79162,1,0,0:0:0:0:
324,168,79354,1,2,0:0:0:0:
164,144,79546,2,0,L|120:104,1,45,10|2,0:0|0:0,0:0:0:0:
348,144,79739,2,0,L|396:104,1,45,2|2,0:0|0:0,0:0:0:0:
136,72,79931,2,0,P|104:120|156:200,1,135,12|0,0:0|0:0,0:0:0:0:
368,260,80316,6,0,L|436:196,1,90,4|0,0:0|0:0,0:0:0:0:
368,192,80604,1,4,0:0:0:0:
128,264,80893,2,0,L|60:200,1,90,4|2,0:0|0:0,0:0:0:0:
128,196,81181,1,8,0:0:0:0:
404,196,81470,2,0,L|304:196,1,90,8|0,0:0|0:0,0:0:0:0:
136,196,81854,2,0,L|108:144,1,45,2|2,0:0|0:0,0:0:0:0:
276,168,82046,2,0,L|304:116,1,45,2|2,0:0|0:0,0:0:0:0:
104,112,82239,6,0,L|24:176,1,90,8|0,0:0|0:0,0:0:0:0:
220,172,82623,2,0,L|328:172,1,90,6|0,0:0|0:0,0:0:0:0:
264,212,82912,1,12,0:0:0:0:
80,212,83008,2,0,L|28:304,1,90,0|8,0:0|0:0,0:0:0:0:
408,176,83392,6,0,L|512:176,1,90,6|0,0:0|0:0,0:0:0:0:
452,212,83681,1,4,0:0:0:0:
104,176,83969,2,0,L|0:176,1,90,4|2,0:0|0:0,0:0:0:0:
60,212,84258,1,8,0:0:0:0:
240,112,84546,2,0,L|144:112,1,90,8|2,0:0|0:0,0:0:0:0:
424,112,84931,5,6,0:0:0:0:
468,144,85027,1,2,0:0:0:0:
468,192,85123,1,6,0:0:0:0:
428,208,85219,1,2,0:0:0:0:
208,216,85316,2,0,L|104:216,1,90,8|0,0:0|0:0,0:0:0:0:
384,216,85700,2,0,L|488:216,1,90,2|0,0:0|0:0,0:0:0:0:
200,216,86085,2,0,L|160:164,1,45,8|2,0:0|0:0,0:0:0:0:
348,184,86277,2,0,L|388:132,1,45,8|2,0:0|0:0,0:0:0:0:
132,152,86469,6,0,L|36:152,1,90,6|0,0:0|0:0,0:0:0:0:
88,112,86758,1,4,0:0:0:0:
344,152,87046,2,0,L|440:152,1,90,4|2,0:0|0:0,0:0:0:0:
388,112,87335,1,8,0:0:0:0:
148,80,87623,2,0,L|248:80,1,90,8|2,0:0|0:0,0:0:0:0:
420,120,88008,6,0,L|452:184,1,45,2|2,0:0|0:0,0:0:0:0:
276,152,88200,2,0,L|244:216,1,45,2|2,0:0|0:0,0:0:0:0:
444,200,88392,2,0,L|508:288,1,90,8|0,0:0|0:0,0:0:0:0:
324,272,88777,2,0,L|200:272,1,90,6|0,0:0|0:0,0:0:0:0:
280,236,89066,1,12,0:0:0:0:
452,244,89162,2,0,L|472:152,1,90,0|8,0:0|0:0,0:0:0:0:
104,176,89546,6,0,L|0:176,1,90,6|0,0:0|0:0,0:0:0:0:
60,212,89835,1,4,0:0:0:0:
408,176,90123,2,0,L|512:176,1,90,4|2,0:0|0:0,0:0:0:0:
452,212,90412,1,8,0:0:0:0:
272,112,90700,2,0,L|372:112,1,90,8|2,0:0|0:0,0:0:0:0:
96,116,91085,5,6,0:0:0:0:
48,152,91181,1,2,0:0:0:0:
24,196,91277,1,6,0:0:0:0:
48,232,91373,1,2,0:0:0:0:
96,248,91470,1,8,0:0:0:0:
384,116,91662,5,6,0:0:0:0:
432,152,91758,1,2,0:0:0:0:
456,196,91854,1,6,0:0:0:0:
432,232,91950,1,2,0:0:0:0:
384,248,92047,1,8,0:0:0:0:
212,244,92239,1,2,0:0:0:0:
384,280,92431,1,8,0:0:0:0:
112,284,92623,6,0,L|88:176,1,90,6|0,0:0|0:0,0:0:0:0:
264,192,93008,2,0,L|288:84,1,90,8|0,0:0|0:0,0:0:0:0:
112,160,93392,2,0,L|216:160,1,90,2|0,0:0|0:0,0:0:0:0:
388,160,93777,2,0,L|480:160,1,90,8|2,0:0|0:0,0:0:0:0:
428,120,94066,1,2,0:0:0:0:
128,124,94162,6,0,L|100:224,1,90,6|0,0:0|0:0,0:0:0:0:
384,124,94546,2,0,L|412:224,1,90,8|0,0:0|0:0,0:0:0:0:
128,188,94931,2,0,L|32:189,1,90,2|0,0:0|0:0,0:0:0:0:
380,80,95316,5,12,0:0:0:0:
