osu file format v14

[General]
AudioFilename: audio.mp3
AudioLeadIn: 0
PreviewTime: 3755
Countdown: 1
SampleSet: Normal
StackLeniency: 0.7
Mode: 2
LetterboxInBreaks: 0
WidescreenStoryboard: 1

[Editor]
DistanceSpacing: 0.8
BeatDivisor: 2
GridSize: 16
TimelineZoom: 1

[Metadata]
Title:Butterfly
TitleUnicode:Butterfly
Artist:kors k feat. Starbitz
ArtistUnicode:kors k feat. Starbitz
Creator:Minato Yukina
Version:Cup
Source:DANCERUSH STARDOM
Tags:SMiLE.dk Smile Robert Uhlmann Robin Rex DanceDanceRevolution DDR 1st Video Game English
BeatmapID:1855316
BeatmapSetID:887380

[Difficulty]
HPDrainRate:3
CircleSize:2
OverallDifficulty:5
ApproachRate:5
SliderMultiplier:2.24
SliderTickRate:1

[Events]
//Background and Video events
0,0,"BG.jpg",0,0
//Break Periods
//Storyboard Layer 0 (Background)
//Storyboard Layer 1 (Fail)
//Storyboard Layer 2 (Pass)
//Storyboard Layer 3 (Foreground)
//Storyboard Sound Samples

[TimingPoints]
2199.96102819237,444.444444444444,4,1,0,80,1,0
3977,-100,4,1,11,50,0,1
4199,-100,4,1,1,80,0,1
18199,-100,4,1,11,60,0,0
18422,-100,4,1,1,60,0,0
32422,-100,4,2,1,50,0,0
32866,-100,4,2,11,50,0,0
33089,-100,4,2,1,50,0,0
33311,-100,4,2,11,50,0,0
33534,-100,4,2,1,50,0,0
33755,-100,4,2,11,50,0,0
33978,-100,4,2,1,50,0,0
34199,-100,4,2,11,50,0,0
34422,-100,4,2,1,50,0,0
34644,-100,4,2,11,50,0,0
34867,-100,4,2,1,50,0,0
35088,-100,4,2,11,50,0,0
35311,-100,4,2,1,50,0,0
36422,-100,4,2,11,50,0,0
36645,-100,4,2,1,50,0,0
36866,-100,4,2,11,50,0,0
37089,-100,4,2,1,50,0,0
37311,-100,4,2,11,50,0,0
37534,-100,4,2,1,50,0,0
37755,-100,4,2,11,50,0,0
37978,-100,4,2,1,50,0,0
38199,-100,4,2,11,50,0,0
38422,-100,4,2,1,50,0,0
38644,-100,4,2,11,50,0,0
38867,-100,4,2,1,50,0,0
39977,-100,4,2,11,50,0,0
40199,-100,4,2,1,50,0,0
40422,-100,4,2,11,50,0,0
40644,-100,4,2,1,50,0,0
40866,-100,4,2,11,50,0,0
41088,-100,4,2,1,50,0,0
41311,-100,4,2,11,50,0,0
41533,-100,4,2,1,50,0,0
41755,-100,4,2,11,50,0,0
41977,-100,4,2,1,50,0,0
42199,-100,4,2,11,50,0,0
42422,-100,4,2,1,50,0,0
43533,-100,4,2,11,50,0,0
43755,-100,4,2,1,50,0,0
43977,-100,4,2,11,50,0,0
44199,-100,4,2,1,50,0,0
44422,-100,4,2,11,50,0,0
44644,-100,4,2,1,50,0,0
44866,-100,4,2,11,50,0,0
45088,-100,4,2,1,50,0,0
45311,-100,4,2,11,50,0,0
45533,-100,4,2,1,50,0,0
45755,-100,4,2,11,50,0,0
45977,-100,4,2,1,50,0,0
46644,-100,4,2,2,50,0,0
47088,-100,4,2,12,30,0,0
47311,-100,4,2,2,50,0,0
47533,-100,4,2,12,30,0,0
47756,-100,4,2,2,50,0,0
47977,-100,4,2,12,30,0,0
48200,-100,4,2,2,50,0,0
48422,-100,4,2,12,30,0,0
48645,-100,4,2,2,50,0,0
48866,-100,4,2,12,30,0,0
49089,-100,4,2,2,50,0,0
49311,-100,4,2,12,30,0,0
49534,-100,4,2,2,50,0,0
50644,-100,4,2,12,30,0,0
50867,-100,4,2,2,50,0,0
51088,-100,4,2,12,30,0,0
51311,-100,4,2,2,50,0,0
51533,-100,4,2,12,30,0,0
51756,-100,4,2,2,50,0,0
51977,-100,4,2,12,30,0,0
52200,-100,4,2,2,50,0,0
52422,-100,4,2,12,30,0,0
52645,-100,4,2,2,50,0,0
52866,-100,4,2,12,30,0,0
53089,-100,4,2,2,50,0,0
53755,-100,4,2,2,60,0,0
54199,-100,4,2,12,40,0,0
54422,-100,4,2,2,60,0,0
54644,-100,4,2,12,40,0,0
54867,-100,4,2,2,60,0,0
55533,-100,4,2,2,70,0,0
55977,-100,4,2,12,50,0,0
56199,-100,4,2,2,70,0,0
56422,-100,4,2,12,50,0,0
56644,-100,4,2,2,70,0,0
57311,-100,4,2,2,80,0,0
57533,-100,4,2,12,60,0,0
59088,-100,4,2,1,80,0,0
60866,-100,4,1,11,50,0,1
61088,-100,4,1,1,80,0,1
74644,-100,4,1,1,80,0,0
75088,-100,4,1,11,50,0,1
75311,-100,4,1,1,80,0,1
88866,-100,4,1,1,80,0,0
89311,-100,4,1,11,40,0,1
89755,-100,4,1,21,80,0,1
89977,-100,4,1,1,80,0,1
90199,-100,4,1,22,80,0,1
90422,-100,4,1,1,80,0,1
91533,-100,4,1,21,80,0,1
91755,-100,4,1,1,80,0,1
91977,-100,4,1,22,80,0,1
92200,-100,4,1,1,80,0,1
92866,-100,4,1,1,80,0,1
93311,-100,4,1,21,80,0,1
93533,-100,4,1,1,80,0,1
93755,-100,4,1,22,80,0,1
93978,-100,4,1,1,80,0,1
96866,-100,4,1,21,80,0,1
97088,-100,4,1,1,80,0,1
97310,-100,4,1,22,80,0,1
97533,-100,4,1,1,80,0,1
98644,-100,4,1,21,80,0,1
98866,-100,4,1,1,80,0,1
99088,-100,4,1,22,80,0,1
99311,-100,4,1,1,80,0,1
99977,-100,4,1,1,80,0,1
100422,-100,4,1,21,80,0,1
100644,-100,4,1,1,80,0,1
100866,-100,4,1,22,80,0,1
101089,-100,4,1,1,80,0,1
103533,-100,4,1,11,80,0,0
104422,-100,4,2,0,65,0,0
105311,-100,4,2,0,50,0,0
106199,-100,4,2,0,35,0,0
107088,-100,4,2,0,20,0,0
107977,-100,4,2,0,5,0,0

[Colours]
Combo1 : 0,0,198
Combo2 : 255,131,70

[HitObjects]
256,64,3977,6,0,L|480:64,1,224,14|8,0:0|0:0,0:0:0:0:
480,160,4866,2,0,L|256:160,1,224,2|8,0:0|0:0,0:0:0:0:
256,256,5755,6,0,L|496:256,2,224,2|8|2,0:0|0:0|0:0,0:0:0:0:
368,48,7533,6,0,L|128:48,1,224,2|8,0:0|0:0,0:0:0:0:
144,128,8422,2,0,L|416:128,1,224,2|8,0:0|0:0,0:0:0:0:
368,208,9311,6,0,L|144:208,2,224,2|8|2,0:0|0:0|0:0,0:0:0:0:
144,64,11088,6,0,L|144:304,1,224,6|8,0:0|0:0,0:0:0:0:
368,64,11977,2,0,L|368:304,1,224,2|8,0:0|0:0,0:0:0:0:
144,64,12866,5,2,0:0:0:0:
368,64,13311,1,8,0:0:0:0:
144,64,13755,2,0,L|144:304,1,224,2|8,0:0|0:0,0:0:0:0:
368,64,14644,6,0,L|368:304,1,224,2|8,0:0|0:0,0:0:0:0:
144,64,15533,2,0,L|144:304,1,224,2|8,0:0|0:0,0:0:0:0:
368,64,16422,5,2,0:0:0:0:
144,64,16866,1,8,0:0:0:0:
368,64,17311,2,0,L|368:304,1,224,2|8,0:0|0:0,0:0:0:0:
144,160,18199,5,4,0:0:0:0:
256,160,18644,1,8,0:0:0:0:
368,32,19088,2,0,L|368:304,1,224,2|8,0:0|0:0,0:0:0:0:
368,320,19977,5,2,0:0:0:0:
256,320,20422,1,8,0:0:0:0:
144,320,20866,2,0,L|144:80,1,224,2|8,0:0|0:0,0:0:0:0:
144,48,21755,6,0,L|384:48,1,224,2|8,0:0|0:0,0:0:0:0:
368,144,22644,2,0,L|144:144,1,224,2|8,0:0|0:0,0:0:0:0:
144,224,23533,5,2,0:0:0:0:
256,224,23977,1,8,0:0:0:0:
144,224,24422,1,2,0:0:0:0:
368,160,25311,5,6,0:0:0:0:
256,160,25755,1,8,0:0:0:0:
144,32,26199,2,0,L|144:304,1,224,2|8,0:0|0:0,0:0:0:0:
144,320,27088,5,2,0:0:0:0:
256,320,27533,1,8,0:0:0:0:
368,320,27977,2,0,L|368:80,1,224,2|8,0:0|0:0,0:0:0:0:
368,48,28866,5,2,0:0:0:0:
256,48,29311,1,8,0:0:0:0:
144,96,29755,1,2,0:0:0:0:
256,96,30199,1,8,0:0:0:0:
368,96,30644,5,2,0:0:0:0:
144,256,31088,1,8,0:0:0:0:
368,256,31533,1,2,0:0:0:0:
32,32,32422,6,0,B|32:256|32:256|256:256|256:256|256:32|256:32|32:32|32:32|32:256|32:256|256:256|256:256|256:32,1,1568,4|8,0:0|0:0,0:0:0:0:
480,32,35977,6,0,B|480:256|480:256|256:256|256:256|256:32|256:32|480:32|480:32|480:256|480:256|256:256|256:256|256:32,1,1568,8|8,0:0|0:0,0:0:0:0:
32,32,39533,6,0,B|32:256|32:256|256:256|256:256|256:32|256:32|480:32|480:32|480:256|480:256|256:256|256:256|256:32|256:32,1,1568,8|8,0:0|0:0,0:0:0:0:
480,32,43088,6,0,B|480:256|480:256|256:256|256:256|256:32|256:32|32:32|32:32|32:256|32:256|256:256|256:256|256:32|256:32,1,1568,8|8,0:0|0:0,0:0:0:0:
32,48,46644,6,0,B|144:48|144:48|144:272|144:272|144:160|144:160|256:160|256:160|256:384|256:384|256:272|256:272|368:272|368:272|368:48|368:48|368:160|368:160|480:160|480:160|480:272,1,1568,12|8,0:1|0:0,0:0:0:0:
480,48,50199,6,0,B|368:48|368:48|368:272|368:272|368:160|368:160|256:160|256:160|256:384|256:384|256:272|256:272|144:272|144:272|144:48|144:48|144:160|144:160|32:160|32:160|32:272,1,1568,8|8,0:0|0:0,0:0:0:0:
32,48,53755,6,0,B|144:48|144:48|144:384|144:384|256:384|256:384|256:272|256:272,1,672,12|8,0:1|0:0,0:0:0:0:
256,48,55533,6,0,B|368:48|368:48|368:384|368:384|480:384|480:384|480:272|480:272,1,672,12|8,0:1|0:0,0:0:0:0:
480,48,57311,6,0,B|256:48|256:48|256:272|256:272|32:272|32:272|32:48,1,896,8|8,0:0|0:0,0:0:0:0:
256,112,60422,5,4,0:1:0:0:
32,112,60866,6,0,L|32:336,1,224,14|8,0:0|0:0,0:0:0:0:
144,96,61755,2,0,L|144:336,1,224,2|8,0:0|0:0,0:0:0:0:
368,320,62644,5,2,0:0:0:0:
144,320,63088,1,8,0:0:0:0:
368,320,63533,2,0,L|368:96,1,224,2|8,0:0|0:0,0:0:0:0:
480,112,64422,6,0,L|480:336,1,224,2|8,0:0|0:0,0:0:0:0:
256,96,65311,2,0,L|256:336,1,224,2|8,0:0|0:0,0:0:0:0:
144,320,66199,5,2,0:0:0:0:
368,320,66644,1,8,0:0:0:0:
144,320,67088,2,0,L|144:96,1,224,2|12,0:0|0:0,0:0:0:0:
32,96,67977,6,0,L|272:96,2,224,6|8|2,0:0|0:0|0:0,0:0:0:0:
144,96,69311,1,8,0:0:0:0:
256,96,69755,6,0,L|496:96,2,224,2|8|2,0:0|0:0|0:0,0:0:0:0:
368,96,71088,1,8,0:0:0:0:
480,96,71533,6,0,L|240:96,2,224,2|8|2,0:0|0:0|0:0,0:0:0:0:
368,96,72866,1,8,0:0:0:0:
256,96,73311,6,0,L|16:96,2,224,2|10|2,0:0|0:0|0:0,0:0:0:0:
144,96,74644,1,12,0:0:0:0:
256,64,75088,6,0,L|32:64,1,224,14|8,0:0|0:0,0:0:0:0:
32,160,75977,2,0,L|256:160,1,224,2|8,0:0|0:0,0:0:0:0:
256,256,76866,6,0,L|16:256,2,224,2|8|2,0:0|0:0|0:0,0:0:0:0:
144,48,78644,6,0,L|384:48,1,224,2|8,0:0|0:0,0:0:0:0:
368,128,79533,2,0,L|96:128,1,224,2|8,0:0|0:0,0:0:0:0:
144,208,80422,6,0,L|368:208,2,224,2|8|2,0:0|0:0|0:0,0:0:0:0:
368,64,82199,6,0,L|368:304,1,224,6|8,0:0|0:0,0:0:0:0:
144,64,83088,2,0,L|144:304,1,224,2|8,0:0|0:0,0:0:0:0:
368,64,83977,5,2,0:0:0:0:
144,64,84422,1,8,0:0:0:0:
368,64,84866,2,0,L|368:304,1,224,2|8,0:0|0:0,0:0:0:0:
144,64,85755,6,0,L|144:304,1,224,2|8,0:0|0:0,0:0:0:0:
368,64,86644,2,0,L|368:304,1,224,2|8,0:0|0:0,0:0:0:0:
144,64,87533,5,2,0:0:0:0:
368,64,87977,1,8,0:0:0:0:
144,64,88422,2,0,L|144:304,1,224,2|12,0:0|0:0,0:0:0:0:
368,352,89311,6,0,B|368:128|368:128|256:128|256:128|256:240|256:240|368:240|368:240|368:368|368:368,1,672,14|8,0:0|0:0,0:0:0:0:
144,352,91088,6,0,B|144:128|144:128|256:128|256:128|256:240|256:240|144:240|144:240|144:368|144:368,1,672,2|8,0:0|0:0,0:0:0:0:
368,352,92866,6,0,B|368:128|368:128|256:128|256:128|256:240|256:240|368:240|368:240|368:368|368:368,1,672,2|8,0:0|0:0,0:0:0:0:
256,192,94644,6,0,B|144:192|144:192|144:64,1,224,2|8,0:0|0:0,0:0:0:0:
256,192,95533,2,0,B|368:192|368:192|368:64,1,224,2|8,0:0|0:0,0:0:0:0:
144,352,96422,6,0,B|144:128|144:128|256:128|256:128|256:240|256:240|144:240|144:240|144:368|144:368,1,672,6|8,0:0|0:0,0:0:0:0:
368,352,98199,6,0,B|368:128|368:128|256:128|256:128|256:240|256:240|368:240|368:240|368:368|368:368,1,672,2|8,0:0|0:0,0:0:0:0:
144,352,99977,6,0,B|144:128|144:128|256:128|256:128|256:240|256:240|144:240|144:240|144:368|144:368,1,672,2|8,0:0|0:0,0:0:0:0:
256,192,101755,6,0,B|368:192|368:192|368:64,1,224,2|8,0:0|0:0,0:0:0:0:
256,192,102644,2,0,B|144:192|144:192|144:64,1,224,2|8,0:0|0:0,0:0:0:0:
368,80,103533,1,4,0:0:0:0:
256,192,103977,12,0,107977,0:0:0:0:
