osu file format v14

[General]
AudioFilename: kors k as teranoid - Bad Maniacs.mp3
AudioLeadIn: 0
PreviewTime: 86345
Countdown: 0
SampleSet: Normal
StackLeniency: 0.7
Mode: 1
LetterboxInBreaks: 0
WidescreenStoryboard: 0

[Editor]
Bookmarks: 17416,37108,55569,66646,75262,86339,106031
DistanceSpacing: 0.8
BeatDivisor: 4
GridSize: 32
TimelineZoom: 2.300001

[Metadata]
Title:Bad Maniacs
TitleUnicode:Bad Maniacs
Artist:kors k as teranoid
ArtistUnicode:kors k as teranoid
Creator:Ulqui
Version:Muzukashii
Source:beatmania IIDX 17 SIRIUS
Tags:electronic instrumental peaceful metalstream rhythm video game
BeatmapID:2225054
BeatmapSetID:1062524

[Difficulty]
HPDrainRate:6
CircleSize:5
OverallDifficulty:4
ApproachRate:10
SliderMultiplier:1.4
SliderTickRate:1

[Events]
//Background and Video events
0,0,"1c3Rig2.jpg",0,0
//Break Periods
2,66852,70345
2,106237,116652
//Storyboard Layer 0 (Background)
//Storyboard Layer 1 (Fail)
//Storyboard Layer 2 (Pass)
//Storyboard Layer 3 (Foreground)
//Storyboard Layer 4 (Overlay)
//Storyboard Sound Samples

[TimingPoints]
1422,307.692307692308,4,1,0,100,1,0
17422,307.692307692308,4,1,0,100,1,1
37114,-100,4,1,0,100,0,0
86345,-100,4,1,0,100,0,1
106037,-100,4,1,0,100,0,0
117114,-100,4,1,0,100,0,1
118345,-100,4,1,0,100,0,0

[HitObjects]
74,247,1422,5,4,0:0:0:0:
122,212,2345,1,8,0:0:0:0:
166,166,3883,1,8,0:0:0:0:
165,158,5729,1,8,0:0:0:0:
166,156,7422,1,8,0:0:0:0:
166,154,8806,1,8,0:0:0:0:
166,154,10037,1,8,0:0:0:0:
166,155,11268,1,8,0:0:0:0:
196,116,12345,1,8,0:0:0:0:
196,116,13422,1,8,0:0:0:0:
170,78,14345,1,8,0:0:0:0:
170,78,14960,1,8,0:0:0:0:
256,192,15575,12,0,16498,0:0:0:0:
83,171,17422,5,12,0:0:0:0:
83,171,17883,1,8,0:0:0:0:
83,171,18037,1,8,0:0:0:0:
148,116,18114,1,8,0:0:0:0:
83,171,18191,1,8,0:0:0:0:
83,171,18345,1,0,0:0:0:0:
83,171,18652,1,8,0:0:0:0:
194,37,18806,1,8,0:0:0:0:
83,171,18960,1,0,0:0:0:0:
83,171,19114,1,8,0:0:0:0:
83,171,19268,1,0,0:0:0:0:
83,171,19575,1,8,0:0:0:0:
83,171,19883,1,0,0:0:0:0:
171,61,20345,1,8,0:0:0:0:
171,61,20498,1,0,0:0:0:0:
173,36,20575,1,0,0:0:0:0:
171,61,20652,1,0,0:0:0:0:
177,24,20806,1,0,0:0:0:0:
171,41,21114,1,8,0:0:0:0:
237,67,21268,1,0,0:0:0:0:
165,39,21422,1,8,0:0:0:0:
172,62,21729,1,0,0:0:0:0:
162,63,21883,1,0,0:0:0:0:
166,62,22037,1,8,0:0:0:0:
165,62,22345,1,4,0:0:0:0:
216,87,22806,1,0,0:0:0:0:
216,87,22960,1,8,0:0:0:0:
196,130,23037,1,8,0:0:0:0:
216,87,23114,1,8,0:0:0:0:
216,87,23268,1,0,0:0:0:0:
198,97,23575,1,8,0:0:0:0:
192,97,23729,1,0,0:0:0:0:
195,97,23883,1,0,0:0:0:0:
195,97,24191,1,0,0:0:0:0:
192,97,24498,1,8,0:0:0:0:
192,97,24652,1,8,0:0:0:0:
195,97,24806,1,0,0:0:0:0:
147,103,25268,1,8,0:0:0:0:
147,103,25422,1,0,0:0:0:0:
200,42,25498,1,0,0:0:0:0:
147,103,25575,1,0,0:0:0:0:
147,103,25729,1,8,0:0:0:0:
141,102,26037,1,0,0:0:0:0:
141,102,26191,1,0,0:0:0:0:
141,102,26345,1,0,0:0:0:0:
141,81,26498,1,0,0:0:0:0:
143,79,26652,1,0,0:0:0:0:
141,81,26806,1,0,0:0:0:0:
141,80,26960,1,8,0:0:0:0:
141,81,27268,1,4,0:0:0:0:
183,45,27422,1,0,0:0:0:0:
183,45,27575,1,8,0:0:0:0:
175,136,27883,1,8,0:0:0:0:
175,136,28191,1,8,0:0:0:0:
151,72,28498,1,0,0:0:0:0:
151,72,28652,1,8,0:0:0:0:
151,72,28806,1,0,0:0:0:0:
184,178,28960,1,0,0:0:0:0:
184,178,29037,1,0,0:0:0:0:
164,48,29114,1,0,0:0:0:0:
164,48,29729,1,4,0:0:0:0:
164,48,29883,1,0,0:0:0:0:
164,48,30037,1,8,0:0:0:0:
171,27,30191,1,0,0:0:0:0:
171,27,30345,1,8,0:0:0:0:
171,27,30652,1,8,0:0:0:0:
177,41,30960,1,0,0:0:0:0:
171,32,31114,1,0,0:0:0:0:
177,41,31268,1,8,0:0:0:0:
208,46,31575,1,0,0:0:0:0:
198,45,31729,1,0,0:0:0:0:
191,37,32191,1,4,0:0:0:0:
155,71,32345,1,0,0:0:0:0:
155,71,32498,1,8,0:0:0:0:
142,87,32806,1,8,0:0:0:0:
142,87,33114,1,8,0:0:0:0:
141,87,33422,1,0,0:0:0:0:
156,59,33575,1,8,0:0:0:0:
142,87,33729,1,0,0:0:0:0:
151,94,33883,1,0,0:0:0:0:
142,87,34037,1,8,0:0:0:0:
141,87,34345,1,8,0:0:0:0:
160,45,34652,5,4,0:0:0:0:
155,49,34883,1,4,0:0:0:0:
155,49,35114,1,4,0:0:0:0:
155,51,35575,1,4,0:0:0:0:
155,49,35806,1,4,0:0:0:0:
155,49,36037,5,4,0:0:0:0:
155,51,36498,1,4,0:0:0:0:
174,177,37114,5,4,0:0:0:0:
179,90,37422,1,8,0:0:0:0:
179,90,37575,1,0,0:0:0:0:
179,90,37883,1,8,0:0:0:0:
171,120,38652,1,8,0:0:0:0:
171,120,38960,1,8,0:0:0:0:
171,120,39268,1,0,0:0:0:0:
212,99,39575,1,0,0:0:0:0:
212,99,39729,1,0,0:0:0:0:
141,99,39883,1,8,0:0:0:0:
141,99,40037,1,0,0:0:0:0:
141,99,40345,1,8,0:0:0:0:
171,90,41114,1,8,0:0:0:0:
171,90,41422,1,0,0:0:0:0:
171,90,41729,1,8,0:0:0:0:
206,59,42037,1,12,0:0:0:0:
207,83,42345,1,8,0:0:0:0:
207,83,42498,1,0,0:0:0:0:
207,83,42806,1,8,0:0:0:0:
194,60,43114,1,0,0:0:0:0:
194,60,43268,1,8,0:0:0:0:
194,60,43422,1,0,0:0:0:0:
213,87,43575,1,8,0:0:0:0:
213,87,43883,1,8,0:0:0:0:
213,87,44191,1,0,0:0:0:0:
194,60,44498,1,8,0:0:0:0:
213,87,44806,1,8,0:0:0:0:
213,87,44960,1,0,0:0:0:0:
213,87,45268,1,8,0:0:0:0:
203,62,45575,1,0,0:0:0:0:
187,187,46960,1,4,0:0:0:0:
198,133,47422,1,0,0:0:0:0:
198,133,47575,1,8,0:0:0:0:
181,100,47883,1,8,0:0:0:0:
181,100,48191,1,0,0:0:0:0:
181,100,48345,1,8,0:0:0:0:
181,100,48498,1,0,0:0:0:0:
181,100,48806,1,8,0:0:0:0:
170,111,49422,1,0,0:0:0:0:
170,111,49575,1,8,0:0:0:0:
170,111,49883,1,0,0:0:0:0:
170,111,50037,1,8,0:0:0:0:
170,111,50191,1,8,0:0:0:0:
170,111,50345,1,8,0:0:0:0:
170,111,50498,1,8,0:0:0:0:
170,111,50652,1,0,0:0:0:0:
184,61,50806,1,0,0:0:0:0:
170,111,50960,1,8,0:0:0:0:
170,111,51268,1,0,0:0:0:0:
170,111,51575,1,8,0:0:0:0:
170,111,51883,1,4,0:0:0:0:
172,117,52345,1,0,0:0:0:0:
172,117,52498,1,8,0:0:0:0:
172,118,52806,1,8,0:0:0:0:
172,117,53114,1,8,0:0:0:0:
172,117,53422,1,0,0:0:0:0:
172,118,53729,1,0,0:0:0:0:
172,117,54037,1,8,0:0:0:0:
169,122,54345,1,0,0:0:0:0:
172,118,54498,1,0,0:0:0:0:
170,153,54806,1,0,0:0:0:0:
140,112,54960,1,8,0:0:0:0:
140,112,55037,1,8,0:0:0:0:
140,112,55114,1,8,0:0:0:0:
141,113,55268,1,8,0:0:0:0:
175,91,56191,1,0,0:0:0:0:
175,91,56498,1,8,0:0:0:0:
175,91,56806,1,4,0:0:0:0:
231,99,56960,1,8,0:0:0:0:
179,93,57114,1,0,0:0:0:0:
179,93,57268,1,0,0:0:0:0:
179,93,57422,1,8,0:0:0:0:
179,93,57729,1,8,0:0:0:0:
190,73,58037,1,0,0:0:0:0:
186,83,58345,1,0,0:0:0:0:
186,83,58652,1,8,0:0:0:0:
201,78,59268,1,0,0:0:0:0:
211,14,59422,1,8,0:0:0:0:
186,47,59729,1,0,0:0:0:0:
188,57,59883,5,8,0:0:0:0:
186,59,60037,1,8,0:0:0:0:
186,59,60191,1,8,0:0:0:0:
186,59,60345,1,8,0:0:0:0:
186,60,60498,1,4,0:0:0:0:
213,27,60652,1,4,0:0:0:0:
186,60,60806,1,12,0:0:0:0:
178,62,61114,1,4,0:0:0:0:
213,46,61268,1,4,0:0:0:0:
178,62,61422,1,12,0:0:0:0:
178,62,61729,1,4,0:0:0:0:
186,72,62191,1,0,0:0:0:0:
176,54,62345,1,8,0:0:0:0:
183,83,62652,1,8,0:0:0:0:
183,83,62960,1,0,0:0:0:0:
183,83,63268,1,0,0:0:0:0:
183,83,63575,1,0,0:0:0:0:
183,83,63883,1,8,0:0:0:0:
183,83,64191,1,0,0:0:0:0:
196,62,64345,1,0,0:0:0:0:
183,83,64498,1,8,0:0:0:0:
183,83,64652,1,0,0:0:0:0:
183,83,64806,1,8,0:0:0:0:
187,78,64883,1,8,0:0:0:0:
183,83,64960,1,8,0:0:0:0:
183,83,65114,1,8,0:0:0:0:
163,149,65422,5,8,0:0:0:0:
163,149,65729,1,8,0:0:0:0:
163,149,66037,1,8,0:0:0:0:
163,149,66191,1,8,0:0:0:0:
163,149,66345,1,8,0:0:0:0:
160,153,66498,1,8,0:0:0:0:
164,234,66652,5,4,0:0:0:0:
184,146,71575,5,4,0:0:0:0:
191,148,72345,1,0,0:0:0:0:
193,94,72498,1,8,0:0:0:0:
202,27,72652,1,8,0:0:0:0:
201,80,72729,1,8,0:0:0:0:
188,88,74037,1,4,0:0:0:0:
176,66,74806,1,0,0:0:0:0:
200,93,74960,1,8,0:0:0:0:
200,93,75114,1,8,0:0:0:0:
217,82,75191,1,8,0:0:0:0:
171,192,76498,5,12,0:0:0:0:
183,67,77114,1,8,0:0:0:0:
191,106,77422,1,0,0:0:0:0:
165,129,77729,1,12,0:0:0:0:
219,84,78345,1,8,0:0:0:0:
189,111,78652,1,0,0:0:0:0:
166,136,78960,1,12,0:0:0:0:
214,87,79575,1,8,0:0:0:0:
189,111,79883,1,0,0:0:0:0:
173,146,80191,1,12,0:0:0:0:
214,87,80806,1,8,0:0:0:0:
189,111,81114,1,0,0:0:0:0:
181,154,81422,1,12,0:0:0:0:
178,148,82037,1,12,0:0:0:0:
172,150,82652,1,12,0:0:0:0:
172,150,83268,1,12,0:0:0:0:
172,150,83883,1,12,0:0:0:0:
185,22,84191,1,12,0:0:0:0:
172,150,84498,1,12,0:0:0:0:
172,150,84806,1,12,0:0:0:0:
256,192,85114,12,0,86037,0:0:0:0:
176,150,86345,5,4,0:0:0:0:
176,150,86498,1,0,0:0:0:0:
138,108,87114,1,0,0:0:0:0:
138,108,87268,1,8,0:0:0:0:
138,108,87345,1,8,0:0:0:0:
138,108,87422,1,8,0:0:0:0:
182,90,87575,1,0,0:0:0:0:
182,90,87729,1,0,0:0:0:0:
182,90,87883,1,8,0:0:0:0:
176,91,88037,1,0,0:0:0:0:
176,92,88345,1,0,0:0:0:0:
176,92,88498,1,8,0:0:0:0:
184,79,88806,1,8,0:0:0:0:
184,79,88960,1,8,0:0:0:0:
166,76,89575,1,0,0:0:0:0:
157,87,89729,1,8,0:0:0:0:
152,67,89806,1,8,0:0:0:0:
151,68,89883,1,8,0:0:0:0:
169,85,90037,1,0,0:0:0:0:
169,87,90345,1,8,0:0:0:0:
169,87,90498,1,0,0:0:0:0:
152,86,90806,1,0,0:0:0:0:
169,92,90960,1,8,0:0:0:0:
181,77,91268,1,4,0:0:0:0:
180,80,91422,1,0,0:0:0:0:
159,122,92037,1,0,0:0:0:0:
159,122,92191,1,8,0:0:0:0:
159,122,92268,1,8,0:0:0:0:
159,122,92345,1,8,0:0:0:0:
146,120,92498,1,0,0:0:0:0:
159,122,92652,1,0,0:0:0:0:
146,120,92806,1,8,0:0:0:0:
146,120,92960,1,0,0:0:0:0:
146,121,93268,1,0,0:0:0:0:
146,120,93422,1,8,0:0:0:0:
158,122,93729,1,8,0:0:0:0:
158,122,93883,1,8,0:0:0:0:
156,128,94498,1,0,0:0:0:0:
156,128,94652,1,8,0:0:0:0:
158,122,94729,1,8,0:0:0:0:
158,122,94806,1,8,0:0:0:0:
211,152,94960,1,0,0:0:0:0:
155,133,95114,1,0,0:0:0:0:
155,133,95268,1,8,0:0:0:0:
155,133,95422,1,0,0:0:0:0:
155,133,95575,1,0,0:0:0:0:
223,46,95729,1,0,0:0:0:0:
275,160,95883,1,8,0:0:0:0:
148,78,96191,1,4,0:0:0:0:
161,49,96345,1,0,0:0:0:0:
221,35,96806,1,0,0:0:0:0:
148,78,96960,1,0,0:0:0:0:
148,78,97114,1,8,0:0:0:0:
148,78,97191,1,8,0:0:0:0:
148,78,97268,1,8,0:0:0:0:
148,78,97422,1,0,0:0:0:0:
150,87,97729,1,8,0:0:0:0:
150,87,98037,1,0,0:0:0:0:
150,87,98191,1,0,0:0:0:0:
150,87,98345,1,8,0:0:0:0:
150,87,98652,1,8,0:0:0:0:
216,68,98806,1,8,0:0:0:0:
185,63,98960,1,0,0:0:0:0:
185,63,99268,1,0,0:0:0:0:
216,15,99422,1,0,0:0:0:0:
185,63,99575,1,8,0:0:0:0:
176,69,99652,1,8,0:0:0:0:
176,69,99729,1,8,0:0:0:0:
176,72,99883,1,0,0:0:0:0:
172,78,100191,1,8,0:0:0:0:
168,82,100345,1,0,0:0:0:0:
168,82,100498,1,0,0:0:0:0:
168,82,100652,1,0,0:0:0:0:
168,82,100806,1,8,0:0:0:0:
168,82,101114,1,0,0:0:0:0:
168,82,101268,1,0,0:0:0:0:
131,102,101729,1,0,0:0:0:0:
201,47,101883,1,0,0:0:0:0:
161,94,102037,1,8,0:0:0:0:
163,77,102114,1,8,0:0:0:0:
159,93,102191,1,8,0:0:0:0:
177,107,102345,1,0,0:0:0:0:
191,107,102652,1,8,0:0:0:0:
191,107,102960,1,0,0:0:0:0:
165,97,103114,1,0,0:0:0:0:
165,97,103268,1,8,0:0:0:0:
169,92,103575,1,8,0:0:0:0:
169,92,103729,1,8,0:0:0:0:
164,72,103883,1,0,0:0:0:0:
162,76,104191,1,0,0:0:0:0:
155,70,104345,1,0,0:0:0:0:
162,76,104498,1,8,0:0:0:0:
179,60,104575,1,8,0:0:0:0:
179,60,104652,1,8,0:0:0:0:
174,79,104806,1,0,0:0:0:0:
174,82,105114,1,8,0:0:0:0:
188,30,105268,1,0,0:0:0:0:
171,100,105422,1,0,0:0:0:0:
171,100,105575,1,0,0:0:0:0:
169,81,105729,1,8,0:0:0:0:
176,45,105883,1,8,0:0:0:0:
174,82,106037,1,4,0:0:0:0:
174,122,117114,6,0,L|240:137,16,35
