osu file format v14

[General]
AudioFilename: kors k as teranoid - Bad Maniacs.mp3
AudioLeadIn: 0
PreviewTime: 86345
Countdown: 0
SampleSet: Normal
StackLeniency: 0.7
Mode: 1
LetterboxInBreaks: 0
WidescreenStoryboard: 0

[Editor]
Bookmarks: 17416,37108,55569,66646,75262,86339,106031
DistanceSpacing: 0.8
BeatDivisor: 4
GridSize: 32
TimelineZoom: 2.8

[Metadata]
Title:Bad Maniacs
TitleUnicode:Bad Maniacs
Artist:kors k as teranoid
ArtistUnicode:kors k as teranoid
Creator:Ulqui
Version:Inner Oni
Source:beatmania IIDX 17 SIRIUS
Tags:electronic instrumental peaceful metalstream rhythm video game
BeatmapID:2225052
BeatmapSetID:1062524

[Difficulty]
HPDrainRate:6
CircleSize:5
OverallDifficulty:6
ApproachRate:10
SliderMultiplier:1.4
SliderTickRate:1

[Events]
//Background and Video events
0,0,"1c3Rig2.jpg",0,0
//Break Periods
2,106237,116652
//Storyboard Layer 0 (Background)
//Storyboard Layer 1 (Fail)
//Storyboard Layer 2 (Pass)
//Storyboard Layer 3 (Foreground)
//Storyboard Layer 4 (Overlay)
//Storyboard Sound Samples

[TimingPoints]
1422,307.692307692308,4,1,0,100,1,0
1422,-50,4,1,0,100,0,0
1498,-166.666666666667,4,1,0,100,0,0
15575,-33.3333333333333,4,1,0,100,0,0
17114,-100,4,1,0,100,0,0
17268,-95.2380952380952,4,1,0,100,0,0
17345,-90.9090909090909,4,1,0,100,0,0
17422,307.692307692308,4,1,0,100,1,1
17422,-86.9565217391304,4,1,0,100,0,1
34652,-66.6666666666667,4,1,0,100,0,1
36806,-100,4,1,0,100,0,1
36960,-111.111111111111,4,1,0,100,0,1
37114,-125,4,1,0,100,0,0
45883,-66.6666666666667,4,1,0,100,0,0
46960,-100,4,1,0,100,0,0
55575,-62.5,4,1,0,100,0,0
56191,-125,4,1,0,100,0,0
56806,-100,4,1,0,100,0,0
60498,-71.4285714285714,4,1,0,100,0,0
61114,-83.3333333333333,4,1,0,100,0,0
61729,-100,4,1,0,100,0,0
66652,-66.6666666666667,4,1,0,100,0,0
66729,-50,4,1,0,100,0,0
67883,-125,4,1,0,100,0,0
70345,-100,4,1,0,100,0,0
71268,-125,4,1,0,100,0,0
71575,-83.3333333333333,4,1,0,100,0,0
72345,-100,4,1,0,100,0,0
72806,-50,4,1,0,100,0,0
74037,-83.3333333333333,4,1,0,100,0,0
74806,-100,4,1,0,100,0,0
75268,-50,4,1,0,100,0,0
76498,-100,4,1,0,100,0,0
86345,-83.3333333333333,4,1,0,100,0,1
106037,-66.6666666666667,4,1,0,100,0,0
107268,-100,4,1,0,100,0,0
117114,-66.6666666666667,4,1,0,100,0,1
118345,-66.6666666666667,4,1,0,100,0,0

[HitObjects]
174,127,1422,5,4,0:0:0:0:
160,137,2345,1,8,0:0:0:0:
168,124,3883,1,8,0:0:0:0:
170,133,5729,1,8,0:0:0:0:
170,133,7422,1,8,0:0:0:0:
170,133,8806,1,8,0:0:0:0:
170,57,10037,1,8,0:0:0:0:
161,104,11268,1,8,0:0:0:0:
161,104,12345,1,8,0:0:0:0:
161,104,13422,1,8,0:0:0:0:
161,104,14345,1,8,0:0:0:0:
161,104,14960,1,8,0:0:0:0:
140,145,15575,2,0,L|270:148,12,105.000004005432
133,163,17191,1,0,0:0:0:0:
133,163,17268,1,0,0:0:0:0:
133,163,17345,1,0,0:0:0:0:
133,163,17422,1,12,0:0:0:0:
156,111,17575,1,0,0:0:0:0:
156,111,17729,1,8,0:0:0:0:
170,69,17883,1,0,0:0:0:0:
170,69,17960,1,0,0:0:0:0:
170,69,18037,1,8,0:0:0:0:
166,74,18114,1,8,0:0:0:0:
170,69,18191,1,0,0:0:0:0:
166,79,18345,1,8,0:0:0:0:
166,84,18498,1,0,0:0:0:0:
226,77,18575,1,0,0:0:0:0:
166,84,18652,1,8,0:0:0:0:
163,93,18806,1,8,0:0:0:0:
163,93,18960,1,0,0:0:0:0:
176,60,19037,1,0,0:0:0:0:
176,60,19114,1,0,0:0:0:0:
187,65,19191,1,0,0:0:0:0:
166,84,19268,1,8,0:0:0:0:
174,79,19422,1,0,0:0:0:0:
174,79,19575,1,8,0:0:0:0:
175,78,19652,1,8,0:0:0:0:
174,79,19729,1,8,0:0:0:0:
175,78,19806,1,8,0:0:0:0:
174,79,19883,1,0,0:0:0:0:
188,58,20037,1,0,0:0:0:0:
188,56,20191,1,8,0:0:0:0:
169,87,20345,1,0,0:0:0:0:
169,90,20422,1,0,0:0:0:0:
169,88,20498,1,0,0:0:0:0:
168,91,20575,1,8,0:0:0:0:
168,92,20652,1,0,0:0:0:0:
166,50,20806,1,8,0:0:0:0:
166,53,20960,1,0,0:0:0:0:
161,73,21037,1,0,0:0:0:0:
191,65,21114,1,8,0:0:0:0:
191,65,21268,1,8,0:0:0:0:
191,65,21422,1,0,0:0:0:0:
171,36,21575,1,0,0:0:0:0:
171,57,21729,1,0,0:0:0:0:
160,57,21883,1,0,0:0:0:0:
266,162,22037,1,8,0:0:0:0:
266,162,22088,1,8,0:0:0:0:
261,167,22139,1,8,0:0:0:0:
266,162,22191,1,8,0:0:0:0:
260,113,22268,1,8,0:0:0:0:
261,167,22345,1,4,0:0:0:0:
158,77,22498,1,0,0:0:0:0:
157,77,22652,1,8,0:0:0:0:
183,46,22806,1,0,0:0:0:0:
180,55,22883,1,0,0:0:0:0:
183,46,22960,1,8,0:0:0:0:
180,55,23037,1,8,0:0:0:0:
181,54,23114,1,8,0:0:0:0:
176,60,23268,1,8,0:0:0:0:
195,97,23422,1,0,0:0:0:0:
176,66,23498,1,0,0:0:0:0:
195,97,23575,1,8,0:0:0:0:
174,75,23729,1,0,0:0:0:0:
174,75,23883,1,8,0:0:0:0:
207,50,23960,1,0,0:0:0:0:
156,70,24037,1,8,0:0:0:0:
206,52,24114,1,8,0:0:0:0:
156,72,24191,1,0,0:0:0:0:
171,76,24345,1,0,0:0:0:0:
169,80,24498,1,8,0:0:0:0:
177,65,24575,1,8,0:0:0:0:
175,67,24652,1,8,0:0:0:0:
177,65,24729,1,8,0:0:0:0:
174,75,24806,1,0,0:0:0:0:
194,87,24960,1,0,0:0:0:0:
194,87,25114,1,8,0:0:0:0:
194,88,25268,1,0,0:0:0:0:
194,88,25345,1,0,0:0:0:0:
194,88,25422,1,8,0:0:0:0:
193,89,25498,1,8,0:0:0:0:
192,90,25575,1,0,0:0:0:0:
191,90,25652,1,0,0:0:0:0:
191,89,25729,1,8,0:0:0:0:
194,87,25883,1,0,0:0:0:0:
194,87,26037,1,8,0:0:0:0:
170,83,26191,1,8,0:0:0:0:
170,83,26345,1,0,0:0:0:0:
170,83,26498,1,0,0:0:0:0:
170,83,26652,1,0,0:0:0:0:
174,82,26806,1,0,0:0:0:0:
174,82,26960,1,8,0:0:0:0:
197,133,27011,1,8,0:0:0:0:
197,133,27063,1,8,0:0:0:0:
197,133,27114,1,8,0:0:0:0:
179,60,27191,1,8,0:0:0:0:
180,60,27268,1,4,0:0:0:0:
235,142,27422,1,0,0:0:0:0:
235,142,27575,1,8,0:0:0:0:
145,119,27729,1,0,0:0:0:0:
145,119,27806,1,0,0:0:0:0:
145,119,27883,1,8,0:0:0:0:
145,119,27960,1,8,0:0:0:0:
145,119,28037,1,8,0:0:0:0:
145,119,28191,1,8,0:0:0:0:
159,86,28345,1,0,0:0:0:0:
156,74,28422,1,0,0:0:0:0:
159,86,28498,1,8,0:0:0:0:
157,77,28652,1,0,0:0:0:0:
157,77,28806,1,8,0:0:0:0:
156,75,28883,1,0,0:0:0:0:
156,77,28960,1,0,0:0:0:0:
156,76,29037,1,0,0:0:0:0:
156,77,29114,1,8,0:0:0:0:
155,76,29422,1,8,0:0:0:0:
135,55,29498,1,8,0:0:0:0:
135,55,29575,1,8,0:0:0:0:
135,55,29652,1,8,0:0:0:0:
157,77,29729,1,4,0:0:0:0:
135,55,29883,1,0,0:0:0:0:
135,55,30037,1,8,0:0:0:0:
124,68,30191,1,0,0:0:0:0:
159,41,30268,1,0,0:0:0:0:
124,68,30345,1,0,0:0:0:0:
169,62,30422,1,8,0:0:0:0:
161,62,30498,1,8,0:0:0:0:
161,63,30652,1,8,0:0:0:0:
169,62,30806,1,0,0:0:0:0:
169,62,30960,1,8,0:0:0:0:
183,37,31037,1,0,0:0:0:0:
150,78,31114,1,8,0:0:0:0:
150,78,31191,1,8,0:0:0:0:
152,72,31268,1,0,0:0:0:0:
150,78,31422,1,0,0:0:0:0:
203,46,31498,1,0,0:0:0:0:
152,72,31575,1,8,0:0:0:0:
164,63,31729,1,0,0:0:0:0:
164,66,31883,1,8,0:0:0:0:
263,159,31934,1,8,0:0:0:0:
263,159,31986,1,8,0:0:0:0:
164,66,32037,1,8,0:0:0:0:
263,159,32088,1,8,0:0:0:0:
263,159,32139,1,8,0:0:0:0:
195,71,32191,1,4,0:0:0:0:
180,100,32345,1,0,0:0:0:0:
180,100,32498,1,8,0:0:0:0:
171,105,32652,1,0,0:0:0:0:
171,107,32729,1,0,0:0:0:0:
171,106,32806,1,8,0:0:0:0:
172,108,32883,1,8,0:0:0:0:
172,108,32960,1,8,0:0:0:0:
146,62,33114,1,8,0:0:0:0:
146,62,33268,1,0,0:0:0:0:
186,62,33345,1,0,0:0:0:0:
180,100,33422,1,8,0:0:0:0:
179,96,33575,1,8,0:0:0:0:
174,62,33729,1,0,0:0:0:0:
173,81,33806,1,0,0:0:0:0:
180,66,33883,1,0,0:0:0:0:
173,81,33960,1,0,0:0:0:0:
180,67,34037,1,8,0:0:0:0:
178,82,34191,1,0,0:0:0:0:
176,33,34345,1,8,0:0:0:0:
169,75,34422,1,8,0:0:0:0:
169,75,34498,1,8,0:0:0:0:
169,75,34575,1,8,0:0:0:0:
159,77,34652,5,4,0:0:0:0:
141,93,34883,1,4,0:0:0:0:
141,93,35114,1,4,0:0:0:0:
141,93,35345,1,4,0:0:0:0:
141,93,35575,1,4,0:0:0:0:
141,93,35806,1,4,0:0:0:0:
141,93,36037,1,4,0:0:0:0:
141,93,36268,1,4,0:0:0:0:
141,93,36498,1,12,0:0:0:0:
141,93,36806,1,8,0:0:0:0:
218,113,36832,1,8,0:0:0:0:
141,93,36960,1,0,0:0:0:0:
218,113,36986,1,0,0:0:0:0:
141,93,37114,1,0,0:0:0:0:
143,58,37191,1,0,0:0:0:0:
143,58,37268,1,0,0:0:0:0:
151,58,37345,1,0,0:0:0:0:
143,58,37422,1,8,0:0:0:0:
156,125,37575,1,0,0:0:0:0:
156,125,37729,1,0,0:0:0:0:
149,117,37806,1,0,0:0:0:0:
150,117,37883,1,8,0:0:0:0:
174,131,38037,1,0,0:0:0:0:
175,131,38114,1,0,0:0:0:0:
176,139,38191,1,0,0:0:0:0:
176,139,38268,1,0,0:0:0:0:
176,139,38345,1,0,0:0:0:0:
176,142,38498,1,0,0:0:0:0:
176,142,38652,1,8,0:0:0:0:
159,83,38960,1,8,0:0:0:0:
159,83,39268,1,0,0:0:0:0:
159,83,39575,1,0,0:0:0:0:
156,88,39652,1,0,0:0:0:0:
159,83,39729,1,0,0:0:0:0:
156,88,39806,1,0,0:0:0:0:
156,87,39883,1,8,0:0:0:0:
181,67,40037,1,0,0:0:0:0:
182,43,40191,1,0,0:0:0:0:
182,42,40268,1,0,0:0:0:0:
176,73,40345,1,8,0:0:0:0:
178,62,40498,1,0,0:0:0:0:
178,66,40575,1,0,0:0:0:0:
181,67,40652,1,0,0:0:0:0:
181,67,40729,1,0,0:0:0:0:
181,67,40806,1,0,0:0:0:0:
174,75,40960,1,0,0:0:0:0:
139,81,41114,1,8,0:0:0:0:
139,81,41422,1,0,0:0:0:0:
139,81,41729,1,8,0:0:0:0:
180,81,42037,1,8,0:0:0:0:
161,48,42114,1,0,0:0:0:0:
161,48,42191,1,0,0:0:0:0:
161,48,42268,1,0,0:0:0:0:
161,48,42345,1,0,0:0:0:0:
159,62,42498,1,0,0:0:0:0:
158,62,42652,1,8,0:0:0:0:
166,39,42729,1,0,0:0:0:0:
137,53,42806,1,0,0:0:0:0:
141,67,42960,1,0,0:0:0:0:
150,83,43037,1,0,0:0:0:0:
142,67,43114,1,0,0:0:0:0:
150,83,43191,1,0,0:0:0:0:
142,69,43268,1,8,0:0:0:0:
168,72,43422,1,0,0:0:0:0:
168,72,43575,1,0,0:0:0:0:
171,55,43883,1,8,0:0:0:0:
159,146,44191,1,0,0:0:0:0:
159,146,44498,1,8,0:0:0:0:
159,146,44575,1,0,0:0:0:0:
159,146,44652,1,0,0:0:0:0:
159,146,44729,1,0,0:0:0:0:
159,146,44806,1,0,0:0:0:0:
136,138,44960,1,0,0:0:0:0:
136,143,45114,1,8,0:0:0:0:
186,72,45191,1,0,0:0:0:0:
136,143,45268,1,0,0:0:0:0:
169,62,45422,1,0,0:0:0:0:
169,67,45498,1,0,0:0:0:0:
169,67,45575,1,0,0:0:0:0:
169,67,45652,1,0,0:0:0:0:
256,192,45883,12,0,46575,0:0:0:0:
178,70,46960,5,0,0:0:0:0:
201,89,47037,1,0,0:0:0:0:
191,85,47114,1,0,0:0:0:0:
201,89,47191,1,0,0:0:0:0:
191,85,47268,1,8,0:0:0:0:
166,67,47422,1,0,0:0:0:0:
166,67,47575,1,8,0:0:0:0:
186,54,47652,1,8,0:0:0:0:
186,45,47729,1,0,0:0:0:0:
186,45,47883,1,8,0:0:0:0:
187,46,48037,1,0,0:0:0:0:
186,47,48114,1,8,0:0:0:0:
158,66,48191,1,0,0:0:0:0:
196,52,48345,1,8,0:0:0:0:
168,78,48498,1,0,0:0:0:0:
166,79,48652,1,0,0:0:0:0:
166,79,48806,1,8,0:0:0:0:
168,94,49114,1,0,0:0:0:0:
168,94,49422,1,0,0:0:0:0:
170,92,49575,1,0,0:0:0:0:
170,92,49652,1,0,0:0:0:0:
170,92,49729,1,8,0:0:0:0:
175,94,49883,1,0,0:0:0:0:
175,95,50037,1,8,0:0:0:0:
203,103,50063,1,8,0:0:0:0:
161,77,50191,1,8,0:0:0:0:
203,103,50216,1,8,0:0:0:0:
161,77,50345,1,0,0:0:0:0:
197,37,50370,1,0,0:0:0:0:
151,53,50498,1,0,0:0:0:0:
151,53,50524,1,0,0:0:0:0:
167,53,50652,1,0,0:0:0:0:
170,92,50678,1,0,0:0:0:0:
166,58,50806,1,0,0:0:0:0:
175,94,50832,1,0,0:0:0:0:
165,60,50960,1,8,0:0:0:0:
172,90,51114,1,0,0:0:0:0:
164,95,51268,1,8,0:0:0:0:
166,72,51575,1,0,0:0:0:0:
166,73,51729,1,8,0:0:0:0:
165,73,51883,1,0,0:0:0:0:
175,70,51960,1,0,0:0:0:0:
175,70,52037,1,0,0:0:0:0:
187,58,52114,1,0,0:0:0:0:
174,69,52191,1,8,0:0:0:0:
161,72,52345,1,0,0:0:0:0:
161,73,52498,1,8,0:0:0:0:
164,96,52575,1,8,0:0:0:0:
164,96,52652,1,0,0:0:0:0:
154,64,52806,1,8,0:0:0:0:
161,83,52960,1,0,0:0:0:0:
161,83,53037,1,8,0:0:0:0:
163,91,53114,1,0,0:0:0:0:
162,47,53268,1,8,0:0:0:0:
160,81,53422,1,0,0:0:0:0:
214,83,53575,1,0,0:0:0:0:
227,117,53652,1,0,0:0:0:0:
171,61,53729,1,8,0:0:0:0:
256,90,53883,1,0,0:0:0:0:
177,51,54037,1,8,0:0:0:0:
177,53,54345,1,0,0:0:0:0:
235,80,54422,1,0,0:0:0:0:
317,97,54498,1,0,0:0:0:0:
263,97,54550,1,0,0:0:0:0:
257,95,54601,1,0,0:0:0:0:
317,97,54652,1,8,0:0:0:0:
235,80,54729,1,8,0:0:0:0:
179,66,54806,1,0,0:0:0:0:
179,66,54857,1,0,0:0:0:0:
179,67,54909,1,0,0:0:0:0:
178,67,54960,1,8,0:0:0:0:
198,77,55037,1,8,0:0:0:0:
198,77,55114,1,8,0:0:0:0:
200,77,55191,1,8,0:0:0:0:
196,78,55268,1,0,0:0:0:0:
161,73,55422,1,0,0:0:0:0:
161,75,55575,1,8,0:0:0:0:
161,75,55652,1,8,0:0:0:0:
161,75,55729,1,8,0:0:0:0:
161,75,55806,1,8,0:0:0:0:
161,75,55883,1,8,0:0:0:0:
165,83,56191,1,0,0:0:0:0:
165,86,56498,1,8,0:0:0:0:
161,62,56806,1,4,0:0:0:0:
150,125,56960,1,8,0:0:0:0:
150,125,57037,1,8,0:0:0:0:
150,125,57114,1,0,0:0:0:0:
165,86,57268,1,0,0:0:0:0:
165,86,57422,1,8,0:0:0:0:
164,46,57498,1,0,0:0:0:0:
159,68,57575,1,0,0:0:0:0:
156,77,57652,1,0,0:0:0:0:
159,68,57729,1,8,0:0:0:0:
174,69,57883,1,0,0:0:0:0:
156,80,57960,1,8,0:0:0:0:
173,69,58037,1,0,0:0:0:0:
153,73,58191,1,8,0:0:0:0:
179,72,58268,1,8,0:0:0:0:
179,72,58345,1,0,0:0:0:0:
151,86,58498,1,0,0:0:0:0:
151,89,58652,1,8,0:0:0:0:
162,70,58806,1,0,0:0:0:0:
163,67,58960,1,8,0:0:0:0:
162,70,59268,1,0,0:0:0:0:
173,79,59422,1,8,0:0:0:0:
186,82,59498,1,8,0:0:0:0:
173,79,59575,1,0,0:0:0:0:
175,94,59729,1,0,0:0:0:0:
175,94,59883,1,8,0:0:0:0:
212,103,59909,1,8,0:0:0:0:
155,76,60037,1,8,0:0:0:0:
212,103,60063,1,8,0:0:0:0:
154,78,60191,1,0,0:0:0:0:
212,103,60216,1,0,0:0:0:0:
141,86,60345,1,0,0:0:0:0:
212,103,60370,1,0,0:0:0:0:
142,85,60498,1,4,0:0:0:0:
144,83,60652,1,4,0:0:0:0:
131,76,60806,1,12,0:0:0:0:
123,66,61114,1,4,0:0:0:0:
125,67,61268,1,4,0:0:0:0:
125,67,61422,1,12,0:0:0:0:
125,67,61729,1,4,0:0:0:0:
164,77,61883,1,8,0:0:0:0:
163,67,61960,1,8,0:0:0:0:
164,77,62037,1,0,0:0:0:0:
136,89,62191,1,0,0:0:0:0:
136,89,62345,1,8,0:0:0:0:
216,75,62422,1,0,0:0:0:0:
136,89,62498,1,0,0:0:0:0:
216,75,62575,1,0,0:0:0:0:
136,89,62652,1,8,0:0:0:0:
180,85,62806,1,0,0:0:0:0:
179,84,62883,1,0,0:0:0:0:
171,52,62960,1,8,0:0:0:0:
156,92,63114,1,0,0:0:0:0:
156,92,63191,1,0,0:0:0:0:
156,91,63268,1,8,0:0:0:0:
191,38,63319,1,8,0:0:0:0:
176,58,63370,1,8,0:0:0:0:
173,80,63422,1,8,0:0:0:0:
158,71,63498,1,8,0:0:0:0:
173,80,63575,1,0,0:0:0:0:
158,69,63729,1,0,0:0:0:0:
196,82,63806,1,0,0:0:0:0:
161,57,63883,1,8,0:0:0:0:
200,79,64037,1,8,0:0:0:0:
168,63,64191,1,0,0:0:0:0:
204,83,64268,1,0,0:0:0:0:
168,63,64345,1,8,0:0:0:0:
196,78,64396,1,8,0:0:0:0:
196,78,64447,1,8,0:0:0:0:
196,78,64498,1,0,0:0:0:0:
211,72,64575,1,0,0:0:0:0:
199,81,64652,1,0,0:0:0:0:
187,41,64704,1,0,0:0:0:0:
199,81,64755,1,0,0:0:0:0:
187,41,64806,1,8,0:0:0:0:
204,83,64883,1,8,0:0:0:0:
204,83,64960,1,8,0:0:0:0:
204,83,65037,1,8,0:0:0:0:
204,83,65114,1,0,0:0:0:0:
204,83,65268,1,8,0:0:0:0:
201,86,65422,1,0,0:0:0:0:
191,62,65447,1,0,0:0:0:0:
177,37,65575,1,8,0:0:0:0:
191,62,65601,1,8,0:0:0:0:
176,37,65729,1,0,0:0:0:0:
191,61,65755,1,0,0:0:0:0:
177,37,65883,1,0,0:0:0:0:
191,61,65909,1,0,0:0:0:0:
177,37,66037,1,8,0:0:0:0:
191,61,66063,1,8,0:0:0:0:
191,61,66191,1,8,0:0:0:0:
191,62,66216,1,8,0:0:0:0:
191,62,66345,1,0,0:0:0:0:
191,62,66370,1,0,0:0:0:0:
177,37,66498,1,8,0:0:0:0:
191,62,66524,1,8,0:0:0:0:
180,64,66652,1,4,0:0:0:0:
256,192,66729,12,0,70191,0:0:0:0:
173,79,70345,5,8,0:0:0:0:
173,79,70422,1,8,0:0:0:0:
173,79,70498,1,8,0:0:0:0:
171,83,70575,1,8,0:0:0:0:
171,85,70652,1,8,0:0:0:0:
171,85,70729,1,8,0:0:0:0:
171,85,70806,1,8,0:0:0:0:
194,104,70857,1,8,0:0:0:0:
194,104,70909,1,8,0:0:0:0:
194,104,70960,1,8,0:0:0:0:
156,131,71268,1,8,0:0:0:0:
156,66,71575,1,0,0:0:0:0:
156,66,71652,1,0,0:0:0:0:
156,66,71729,1,0,0:0:0:0:
141,69,72345,1,0,0:0:0:0:
134,80,72498,1,8,0:0:0:0:
150,66,72575,1,8,0:0:0:0:
151,64,72652,1,8,0:0:0:0:
150,64,72729,1,8,0:0:0:0:
256,192,72806,12,0,73883,0:0:0:0:
185,85,74037,5,0,0:0:0:0:
185,85,74114,1,0,0:0:0:0:
185,85,74191,1,0,0:0:0:0:
173,56,74806,1,0,0:0:0:0:
173,56,74960,1,8,0:0:0:0:
176,15,75037,1,8,0:0:0:0:
173,56,75114,1,8,0:0:0:0:
173,56,75191,1,8,0:0:0:0:
256,192,75268,12,0,76191,0:0:0:0:
195,175,76498,5,8,0:0:0:0:
195,175,76575,1,0,0:0:0:0:
181,183,76652,1,8,0:0:0:0:
186,180,76729,1,0,0:0:0:0:
181,184,76806,1,8,0:0:0:0:
171,190,76960,1,0,0:0:0:0:
168,190,77037,1,8,0:0:0:0:
166,193,77114,1,0,0:0:0:0:
166,193,77191,1,8,0:0:0:0:
166,193,77268,1,0,0:0:0:0:
163,192,77422,1,8,0:0:0:0:
166,193,77498,1,8,0:0:0:0:
163,192,77575,1,0,0:0:0:0:
159,195,77652,1,0,0:0:0:0:
163,192,77729,1,8,0:0:0:0:
166,193,77806,1,0,0:0:0:0:
162,193,77883,1,8,0:0:0:0:
166,193,77960,1,0,0:0:0:0:
158,195,78037,1,8,0:0:0:0:
143,95,78191,1,0,0:0:0:0:
143,95,78268,1,8,0:0:0:0:
137,99,78345,1,0,0:0:0:0:
143,95,78422,1,8,0:0:0:0:
137,100,78498,1,0,0:0:0:0:
136,101,78652,1,8,0:0:0:0:
136,101,78729,1,8,0:0:0:0:
131,105,78806,1,0,0:0:0:0:
136,101,78883,1,0,0:0:0:0:
131,105,78960,1,8,0:0:0:0:
126,105,79037,1,0,0:0:0:0:
125,104,79114,1,8,0:0:0:0:
126,105,79191,1,0,0:0:0:0:
125,104,79268,1,8,0:0:0:0:
125,104,79422,1,0,0:0:0:0:
126,104,79498,1,8,0:0:0:0:
126,104,79575,1,0,0:0:0:0:
125,104,79652,1,8,0:0:0:0:
126,104,79729,1,0,0:0:0:0:
125,104,79883,1,8,0:0:0:0:
121,104,79960,1,8,0:0:0:0:
125,104,80037,1,0,0:0:0:0:
125,104,80114,1,0,0:0:0:0:
126,105,80191,1,8,0:0:0:0:
125,104,80268,1,0,0:0:0:0:
125,104,80345,1,8,0:0:0:0:
125,104,80422,1,0,0:0:0:0:
126,104,80498,1,8,0:0:0:0:
125,104,80652,1,0,0:0:0:0:
119,105,80729,1,8,0:0:0:0:
125,104,80806,1,0,0:0:0:0:
119,105,80883,1,8,0:0:0:0:
121,104,80960,1,0,0:0:0:0:
119,103,81114,1,8,0:0:0:0:
146,76,81191,1,8,0:0:0:0:
119,103,81268,1,0,0:0:0:0:
146,76,81345,1,0,0:0:0:0:
119,105,81422,1,8,0:0:0:0:
146,76,81498,1,0,0:0:0:0:
118,103,81575,1,8,0:0:0:0:
146,76,81652,1,8,0:0:0:0:
119,105,81729,1,0,0:0:0:0:
146,76,81883,1,8,0:0:0:0:
146,76,81960,1,0,0:0:0:0:
146,76,82037,1,8,0:0:0:0:
146,76,82191,1,8,0:0:0:0:
146,76,82268,1,0,0:0:0:0:
146,76,82345,1,8,0:0:0:0:
146,76,82422,1,8,0:0:0:0:
146,76,82498,1,0,0:0:0:0:
146,76,82652,1,8,0:0:0:0:
146,76,82729,1,8,0:0:0:0:
146,76,82806,1,8,0:0:0:0:
146,76,82883,1,0,0:0:0:0:
146,76,82960,1,8,0:0:0:0:
145,84,83037,1,8,0:0:0:0:
141,82,83114,1,0,0:0:0:0:
145,84,83191,1,0,0:0:0:0:
141,82,83268,1,8,0:0:0:0:
141,82,83422,1,8,0:0:0:0:
144,85,83498,1,0,0:0:0:0:
141,83,83575,1,8,0:0:0:0:
144,85,83652,1,8,0:0:0:0:
140,84,83729,1,0,0:0:0:0:
144,85,83883,1,8,0:0:0:0:
140,84,84037,1,0,0:0:0:0:
140,85,84191,1,8,0:0:0:0:
144,85,84345,1,0,0:0:0:0:
144,85,84498,1,8,0:0:0:0:
193,93,84601,1,0,0:0:0:0:
193,93,84704,1,0,0:0:0:0:
193,93,84806,1,8,0:0:0:0:
221,76,84909,1,0,0:0:0:0:
193,93,85011,1,0,0:0:0:0:
193,93,85114,1,8,0:0:0:0:
183,122,85191,1,0,0:0:0:0:
183,122,85268,1,0,0:0:0:0:
183,122,85345,1,0,0:0:0:0:
183,122,85422,1,8,0:0:0:0:
183,122,85498,1,0,0:0:0:0:
186,117,85575,1,0,0:0:0:0:
186,117,85652,1,0,0:0:0:0:
183,122,85729,1,8,0:0:0:0:
174,30,85806,1,8,0:0:0:0:
174,30,85883,1,8,0:0:0:0:
174,30,85960,1,8,0:0:0:0:
256,192,86037,12,0,86191,0:0:0:0:
160,121,86345,5,0,0:0:0:0:
188,104,86422,1,8,0:0:0:0:
186,104,86498,1,0,0:0:0:0:
171,74,86652,1,0,0:0:0:0:
171,74,86806,1,8,0:0:0:0:
171,74,86960,1,0,0:0:0:0:
161,38,87037,1,0,0:0:0:0:
161,38,87114,1,8,0:0:0:0:
184,44,87268,1,8,0:0:0:0:
179,46,87345,1,8,0:0:0:0:
184,44,87422,1,8,0:0:0:0:
178,47,87498,1,0,0:0:0:0:
177,47,87575,1,8,0:0:0:0:
178,47,87652,1,0,0:0:0:0:
178,47,87729,1,8,0:0:0:0:
177,47,87806,1,8,0:0:0:0:
177,47,87883,1,0,0:0:0:0:
186,31,88037,1,0,0:0:0:0:
181,34,88114,1,8,0:0:0:0:
186,31,88191,1,8,0:0:0:0:
181,34,88268,1,8,0:0:0:0:
179,34,88345,1,0,0:0:0:0:
141,27,88498,1,0,0:0:0:0:
176,52,88575,1,8,0:0:0:0:
141,27,88652,1,0,0:0:0:0:
141,27,88729,1,0,0:0:0:0:
160,57,88806,1,8,0:0:0:0:
160,57,88960,1,8,0:0:0:0:
163,46,89114,1,0,0:0:0:0:
162,47,89268,1,8,0:0:0:0:
162,47,89422,1,0,0:0:0:0:
180,36,89498,1,0,0:0:0:0:
179,36,89575,1,8,0:0:0:0:
176,49,89729,1,0,0:0:0:0:
166,52,89806,1,8,0:0:0:0:
174,52,89883,1,8,0:0:0:0:
166,52,89960,1,0,0:0:0:0:
169,55,90037,1,8,0:0:0:0:
152,29,90345,1,8,0:0:0:0:
152,29,90498,1,0,0:0:0:0:
201,82,90550,1,8,0:0:0:0:
201,82,90601,1,8,0:0:0:0:
152,29,90652,1,0,0:0:0:0:
168,88,90729,1,0,0:0:0:0:
168,88,90806,1,8,0:0:0:0:
168,88,90883,1,0,0:0:0:0:
168,88,90960,1,8,0:0:0:0:
161,52,91037,1,8,0:0:0:0:
205,103,91114,1,8,0:0:0:0:
119,69,91165,1,8,0:0:0:0:
119,69,91216,1,8,0:0:0:0:
205,103,91268,1,0,0:0:0:0:
190,75,91345,1,8,0:0:0:0:
169,43,91422,1,0,0:0:0:0:
181,83,91575,1,0,0:0:0:0:
181,83,91729,1,8,0:0:0:0:
197,32,91883,1,0,0:0:0:0:
186,75,91960,1,0,0:0:0:0:
197,32,92037,1,8,0:0:0:0:
179,59,92191,1,8,0:0:0:0:
175,61,92268,1,8,0:0:0:0:
179,59,92345,1,8,0:0:0:0:
175,61,92422,1,0,0:0:0:0:
176,60,92498,1,8,0:0:0:0:
145,82,92575,1,0,0:0:0:0:
145,82,92652,1,8,0:0:0:0:
145,82,92729,1,8,0:0:0:0:
145,82,92806,1,0,0:0:0:0:
145,82,92960,1,0,0:0:0:0:
145,82,93037,1,8,0:0:0:0:
145,82,93114,1,8,0:0:0:0:
145,82,93191,1,8,0:0:0:0:
145,82,93268,1,0,0:0:0:0:
145,82,93422,1,0,0:0:0:0:
145,82,93498,1,8,0:0:0:0:
145,82,93575,1,0,0:0:0:0:
145,82,93652,1,0,0:0:0:0:
145,82,93729,1,8,0:0:0:0:
145,82,93883,1,8,0:0:0:0:
145,82,94037,1,0,0:0:0:0:
145,82,94191,1,8,0:0:0:0:
145,82,94345,1,0,0:0:0:0:
157,80,94422,1,0,0:0:0:0:
145,82,94498,1,8,0:0:0:0:
157,80,94652,1,0,0:0:0:0:
161,78,94729,1,8,0:0:0:0:
159,82,94806,1,8,0:0:0:0:
157,80,94883,1,0,0:0:0:0:
161,78,94960,1,8,0:0:0:0:
146,100,95037,1,0,0:0:0:0:
146,99,95114,1,8,0:0:0:0:
146,100,95191,1,8,0:0:0:0:
145,99,95268,1,0,0:0:0:0:
174,17,95345,1,0,0:0:0:0:
146,99,95422,1,8,0:0:0:0:
146,99,95498,1,0,0:0:0:0:
146,99,95575,1,0,0:0:0:0:
146,99,95652,1,0,0:0:0:0:
146,99,95729,1,8,0:0:0:0:
154,30,95806,1,0,0:0:0:0:
146,100,95883,1,8,0:0:0:0:
146,100,95960,1,8,0:0:0:0:
146,100,96037,1,8,0:0:0:0:
146,99,96114,1,8,0:0:0:0:
146,100,96191,1,0,0:0:0:0:
145,99,96268,1,8,0:0:0:0:
146,99,96345,1,0,0:0:0:0:
192,46,96498,1,0,0:0:0:0:
192,46,96652,1,8,0:0:0:0:
179,53,96806,1,0,0:0:0:0:
158,19,96883,1,0,0:0:0:0:
181,55,96960,1,8,0:0:0:0:
181,55,97114,1,8,0:0:0:0:
181,55,97191,1,8,0:0:0:0:
176,41,97268,1,8,0:0:0:0:
174,42,97345,1,0,0:0:0:0:
176,41,97422,1,8,0:0:0:0:
173,43,97498,1,0,0:0:0:0:
168,60,97575,1,8,0:0:0:0:
173,43,97652,1,8,0:0:0:0:
173,43,97729,1,0,0:0:0:0:
164,81,97883,1,0,0:0:0:0:
164,80,97960,1,8,0:0:0:0:
164,81,98037,1,8,0:0:0:0:
164,81,98114,1,8,0:0:0:0:
164,81,98191,1,0,0:0:0:0:
163,73,98345,1,0,0:0:0:0:
164,81,98422,1,8,0:0:0:0:
164,81,98498,1,0,0:0:0:0:
164,81,98575,1,0,0:0:0:0:
164,81,98652,1,8,0:0:0:0:
164,81,98806,1,8,0:0:0:0:
164,80,98960,1,0,0:0:0:0:
164,81,99114,1,8,0:0:0:0:
161,80,99268,1,0,0:0:0:0:
168,86,99345,1,0,0:0:0:0:
164,81,99422,1,8,0:0:0:0:
168,87,99575,1,0,0:0:0:0:
180,74,99652,1,8,0:0:0:0:
180,74,99729,1,8,0:0:0:0:
184,65,99806,1,0,0:0:0:0:
179,74,99883,1,8,0:0:0:0:
184,66,99960,1,0,0:0:0:0:
164,81,100037,1,8,0:0:0:0:
164,81,100114,1,8,0:0:0:0:
161,80,100191,1,0,0:0:0:0:
161,87,100345,1,0,0:0:0:0:
160,87,100422,1,8,0:0:0:0:
160,90,100498,1,8,0:0:0:0:
162,87,100575,1,8,0:0:0:0:
160,90,100652,1,0,0:0:0:0:
162,87,100806,1,8,0:0:0:0:
163,84,100883,1,0,0:0:0:0:
162,87,100960,1,8,0:0:0:0:
164,81,101037,1,8,0:0:0:0:
162,87,101114,1,0,0:0:0:0:
163,84,101191,1,8,0:0:0:0:
161,87,101268,1,0,0:0:0:0:
180,101,101422,1,0,0:0:0:0:
180,101,101575,1,8,0:0:0:0:
180,101,101729,1,0,0:0:0:0:
144,82,101806,1,0,0:0:0:0:
145,77,101883,1,8,0:0:0:0:
144,83,102037,1,8,0:0:0:0:
144,83,102114,1,8,0:0:0:0:
142,87,102191,1,8,0:0:0:0:
142,87,102268,1,0,0:0:0:0:
144,82,102345,1,8,0:0:0:0:
144,82,102422,1,0,0:0:0:0:
142,87,102498,1,8,0:0:0:0:
142,87,102575,1,8,0:0:0:0:
142,87,102652,1,0,0:0:0:0:
142,87,102806,1,0,0:0:0:0:
143,86,102883,1,8,0:0:0:0:
142,87,102960,1,8,0:0:0:0:
144,83,103037,1,8,0:0:0:0:
142,87,103114,1,0,0:0:0:0:
142,87,103268,1,0,0:0:0:0:
143,90,103345,1,8,0:0:0:0:
141,91,103422,1,0,0:0:0:0:
142,87,103498,1,0,0:0:0:0:
142,87,103575,1,8,0:0:0:0:
141,92,103729,1,8,0:0:0:0:
141,92,103883,1,0,0:0:0:0:
164,52,104037,1,8,0:0:0:0:
150,72,104191,1,0,0:0:0:0:
147,71,104268,1,0,0:0:0:0:
146,68,104345,1,8,0:0:0:0:
148,72,104498,1,0,0:0:0:0:
151,72,104575,1,8,0:0:0:0:
146,77,104652,1,8,0:0:0:0:
151,72,104729,1,0,0:0:0:0:
169,99,104806,1,8,0:0:0:0:
151,72,104883,1,0,0:0:0:0:
169,99,104960,1,8,0:0:0:0:
169,99,105037,1,0,0:0:0:0:
169,99,105114,1,8,0:0:0:0:
169,99,105191,1,8,0:0:0:0:
169,99,105268,1,0,0:0:0:0:
169,99,105345,1,8,0:0:0:0:
169,99,105422,1,0,0:0:0:0:
169,99,105498,1,0,0:0:0:0:
169,99,105575,1,0,0:0:0:0:
169,99,105652,1,0,0:0:0:0:
169,99,105729,1,8,0:0:0:0:
169,99,105806,1,8,0:0:0:0:
169,99,105883,1,8,0:0:0:0:
169,99,105960,1,8,0:0:0:0:
169,99,106037,1,4,0:0:0:0:
231,194,117114,5,0,0:0:0:0:
231,194,117191,1,0,0:0:0:0:
225,193,117268,1,0,0:0:0:0:
222,193,117345,1,0,0:0:0:0:
222,194,117422,1,0,0:0:0:0:
222,194,117498,1,0,0:0:0:0:
231,194,117575,1,0,0:0:0:0:
231,194,117652,1,0,0:0:0:0:
234,201,117729,1,0,0:0:0:0:
235,208,117806,1,0,0:0:0:0:
246,215,117883,1,0,0:0:0:0:
251,236,117960,1,0,0:0:0:0:
263,198,118037,1,0,0:0:0:0:
256,244,118114,1,0,0:0:0:0:
263,198,118191,1,0,0:0:0:0:
255,248,118268,1,0,0:0:0:0:
263,198,118345,1,8,0:0:0:0:
