osu file format v14

[General]
AudioFilename: audio.mp3
AudioLeadIn: 0
PreviewTime: -56
Countdown: 1
SampleSet: Soft
StackLeniency: 0.7
Mode: 0
LetterboxInBreaks: 0
EpilepsyWarning: 1
WidescreenStoryboard: 1

[Editor]
Bookmarks: 23596
DistanceSpacing: 0.7
BeatDivisor: 4
GridSize: 4
TimelineZoom: 3.299999

[Metadata]
Title:Bad Maniacs
TitleUnicode:Bad Maniacs
Artist:kors k as teranoid
ArtistUnicode:kors k as teranoid
Creator:TecGamer_Brazil
Version:Future
Source:Beatmania IIDX
Tags:
BeatmapID:1513394
BeatmapSetID:716302

[Difficulty]
HPDrainRate:8.5
CircleSize:4
OverallDifficulty:9.7
ApproachRate:9.5
SliderMultiplier:1.83999990463257
SliderTickRate:2

[Events]
//Background and Video events
0,0,"BG.jpg",0,0
//Break Periods
2,39259,42765
2,107034,118535
//Storyboard Layer 0 (Background)
//Storyboard Layer 1 (Fail)
//Storyboard Layer 2 (Pass)
//Storyboard Layer 3 (Foreground)
//Storyboard Sound Samples

[TimingPoints]
0,666.666666666667,4,2,1,100,1,0
19366,307.7,4,2,1,100,1,0
25673,-200,4,2,1,100,0,0
26058,-100,4,2,1,100,0,0
28443,-133.333333333333,4,2,1,100,0,0
28750,-100,4,2,1,100,0,0
31058,-100,4,3,1,100,0,0
31520,-100,4,2,1,100,0,0
33212,-100,4,1,1,100,0,0
33520,-74.0740740740741,4,2,1,100,0,0
43828,-100,4,2,1,85,0,0
57520,-100,4,2,1,100,0,0
57597,-50,4,2,1,100,0,0
57674,-200,4,2,1,100,0,0
57751,-200,4,2,1,100,0,0
57905,-100,4,1,1,100,0,0
59367,-100,4,2,1,100,0,0
59443,-100,4,2,1,100,0,1
59828,-100,4,2,1,100,0,0
71075,-100,4,2,1,100,0,0
88367,-100,4,2,1,100,0,1
89888,-133.333333333333,4,2,1,100,0,1
90859,-100,4,2,1,100,0,1
100060,-100,4,2,1,100,0,0
100291,-200,4,2,1,100,0,1
100368,-100,4,2,1,100,0,1
108408,-100,4,2,1,100,0,0
118676,-100,4,2,1,100,0,1
120445,-100,4,2,1,100,0,0

[Colours]
Combo1 : 45,215,40
Combo2 : 72,56,220
Combo3 : 223,109,6
Combo4 : 0,128,64
Combo5 : 128,64,0

[HitObjects]
124,132,19442,5,0,0:0:0:0:
120,112,19519,1,0,0:0:0:0:
112,96,19596,1,0,0:0:0:0:
108,76,19673,1,0,0:0:0:0:
180,248,19828,5,0,0:0:0:0:
212,240,19905,1,0,0:0:0:0:
252,232,20058,1,0,0:0:0:0:
220,148,20212,2,0,P|280:120|344:144,1,137.999992847443
416,240,20519,2,0,L|364:164,1,91.9999952316285
432,96,20750,2,0,L|476:152,1,45.9999976158142
272,264,20904,2,0,P|240:216|280:260,1,137.999992847443
100,156,21289,1,0,0:0:0:0:
100,156,21366,5,0,0:0:0:0:
220,256,21520,1,0,0:0:0:0:
100,156,21674,1,0,0:0:0:0:
152,312,21827,1,0,0:0:0:0:
296,176,21981,1,0,0:0:0:0:
312,152,22058,5,0,0:0:0:0:
328,128,22135,1,0,0:0:0:0:
312,104,22212,1,0,0:0:0:0:
280,88,22289,1,8,0:0:0:0:
268,64,22366,1,8,0:0:0:0:
296,36,22443,1,10,0:0:0:0:
112,216,22674,6,0,P|144:168|204:168,1,91.9999952316285
216,288,22981,2,0,P|264:252|280:200,1,91.9999952316285
144,128,23289,5,0,0:0:0:0:
144,128,23366,1,0,0:0:0:0:
144,128,23443,1,0,0:0:0:0:
136,124,23520,2,0,B|184:192|184:188|192:188,1,45.9999976158142
232,180,23751,5,4,0:0:0:0:
232,180,23827,1,0,0:0:0:0:
232,180,23904,2,0,L|172:240,1,45.9999976158142
292,300,24289,6,0,L|216:272,2,45.9999976158142
108,52,24520,5,0,0:0:0:0:
172,260,24674,1,0,0:0:0:0:
416,168,24827,6,0,P|424:104|388:56,1,91.9999952316285
184,124,25135,2,0,P|136:148|136:160,1,45.9999976158142
224,208,25520,5,0,0:0:0:0:
256,220,25597,1,0,0:0:0:0:
288,240,25674,1,0,0:0:0:0:
216,104,25828,5,0,0:0:0:0:
168,92,25904,1,0,0:0:0:0:
124,84,25981,1,4,0:0:0:0:
72,188,26135,6,0,P|112:232|152:240,1,95
216,160,26443,2,0,P|284:136|336:164,1,95
232,244,26751,5,0,0:0:0:0:
216,240,26828,1,0,0:0:0:0:
196,236,26904,1,0,0:0:0:0:
268,88,27058,5,0,0:0:0:0:
304,196,27212,1,0,0:0:0:0:
212,128,27366,1,0,0:0:0:0:
320,128,27520,1,0,0:0:0:0:
228,188,27674,1,0,0:0:0:0:
16,256,27828,6,0,P|12:216|56:128,1,106.875004076958
176,176,28212,2,0,P|168:128|208:60,1,95
300,104,28597,5,0,0:0:0:0:
280,112,28674,1,0,0:0:0:0:
260,120,28751,1,0,0:0:0:0:
244,124,28828,6,0,P|240:188|260:232,1,95
168,272,29135,5,0,0:0:0:0:
144,272,29212,1,0,0:0:0:0:
120,272,29289,1,0,0:0:0:0:
100,272,29366,2,0,P|88:212|148:88,1,190
232,164,29828,5,0,0:0:0:0:
432,48,29981,1,0,0:0:0:0:
348,92,30135,2,0,P|364:152|332:204,1,95
160,92,30520,5,0,0:0:0:0:
148,96,30597,1,0,0:0:0:0:
128,104,30674,1,0,0:0:0:0:
112,112,30751,1,0,0:0:0:0:
136,224,30905,5,0,0:0:0:0:
296,148,31058,1,0,0:0:0:0:
192,152,31212,1,0,0:0:0:0:
200,140,31289,1,0,0:0:0:0:
212,120,31366,1,8,0:0:0:0:
224,108,31443,1,8,0:0:0:0:
244,96,31520,1,8,0:0:0:0:
272,80,31597,5,0,0:0:0:0:
300,60,31674,1,0,0:0:0:0:
344,48,31751,1,0,0:0:0:0:
400,68,31828,5,0,0:0:0:0:
408,96,31905,1,0,0:0:0:0:
416,116,31982,1,0,0:0:0:0:
420,136,32058,1,8,0:0:0:0:
432,168,32135,5,8,0:0:0:0:
176,164,32289,6,0,L|140:212,1,47.5
276,152,32443,2,0,P|352:136|316:212,1,190
200,240,32828,2,0,L|188:112,2,95
264,172,33289,2,0,L|316:128,3,47.5
312,152,33597,2,0,L|344:200,3,47.5
232,268,33905,6,0,P|180:244|168:212,1,95
264,192,34135,2,0,P|304:160|368:112,1,95
112,108,34366,5,0,0:0:0:0:
136,132,34443,1,0,0:0:0:0:
168,168,34520,1,0,0:0:0:0:
192,200,34597,1,0,0:0:0:0:
168,316,34751,5,0,0:0:0:0:
380,52,34905,1,0,0:0:0:0:
20,148,35059,1,0,0:0:0:0:
296,236,35212,2,0,P|352:208|380:164,1,95
200,88,35443,5,2,0:0:0:0:
200,88,35520,1,2,0:0:0:0:
200,88,35597,1,2,0:0:0:0:
172,240,35751,1,0,0:0:0:0:
380,40,35905,1,0,0:0:0:0:
368,240,36059,6,0,P|416:196|432:156,1,95
200,160,36366,2,0,L|284:148,1,47.5
328,76,36597,2,0,L|408:72,1,47.5
48,140,36828,5,0,0:0:0:0:
264,272,36982,1,0,0:0:0:0:
100,76,37136,1,0,0:0:0:0:
196,240,37289,5,8,0:0:0:0:
220,224,37366,1,8,0:0:0:0:
252,208,37443,1,8,0:0:0:0:
264,136,37597,6,0,P|288:96|364:56,1,95
408,212,37905,2,8,L|436:308,1,95
280,232,38212,2,8,P|240:196|244:152,2,95
136,184,38751,1,0,0:0:0:0:
144,164,38828,5,0,0:0:0:0:
152,136,38905,1,0,0:0:0:0:
168,112,38982,1,0,0:0:0:0:
176,92,39059,1,0,0:0:0:0:
136,80,43290,5,0,0:0:0:0:
120,136,43674,2,0,P|160:92|212:68,1,95
368,236,44520,5,0,0:0:0:0:
224,220,44905,6,0,P|200:160|200:152,1,71.2500027179719
308,144,45213,2,0,P|392:140|404:108,1,106.875004076958
316,236,45597,6,0,P|280:276|244:272,1,71.2500027179719
88,120,45982,5,0,0:0:0:0:
212,168,46136,1,0,0:0:0:0:
68,196,46290,1,0,0:0:0:0:
348,296,46443,5,0,0:0:0:0:
364,312,46520,1,0,0:0:0:0:
392,320,46597,1,0,0:0:0:0:
408,312,46674,1,0,0:0:0:0:
428,300,46751,1,0,0:0:0:0:
444,248,46828,6,0,L|472:184,1,47.4999976158143
336,36,46982,2,0,L|324:-24,1,35.6249995708466
108,232,47136,5,0,0:0:0:0:
108,232,47213,1,0,0:0:0:0:
108,232,47290,1,0,0:0:0:0:
240,284,47443,5,0,0:0:0:0:
160,128,47597,1,0,0:0:0:0:
172,316,47751,5,0,0:0:0:0:
172,316,47828,1,0,0:0:0:0:
172,316,47905,1,0,0:0:0:0:
192,204,48213,6,0,P|244:168|300:172,1,106.875004076958
400,128,48597,2,0,P|404:64|376:28,1,106.875004076958
304,16,48982,1,0,0:0:0:0:
192,92,49136,2,0,P|168:140|176:184,1,71.2500027179719
80,296,49520,5,0,0:0:0:0:
204,216,49674,1,0,0:0:0:0:
96,192,49828,1,0,0:0:0:0:
160,296,49982,1,0,0:0:0:0:
272,116,50136,5,0,0:0:0:0:
256,288,50597,1,0,0:0:0:0:
240,96,51059,5,0,0:0:0:0:
320,136,51213,1,8,0:0:0:0:
320,136,51290,1,8,0:0:0:0:
320,136,51367,1,8,0:0:0:0:
296,212,51597,6,0,P|264:264|236:280,1,71.2500027179719
176,200,51905,2,0,P|200:160|240:152,1,71.2500027179719
332,152,52213,2,0,P|372:116|372:80,1,71.2500027179719
208,136,52597,2,0,P|216:184|256:208,1,71.2500027179719
352,76,52828,6,0,P|320:20|296:8,1,71.2500027179719
288,176,53136,2,0,P|328:192|360:180,1,71.2500027179719
272,80,53444,2,0,P|228:56|188:60,1,71.2500027179719
48,216,53751,5,0,0:0:0:0:
68,216,53828,1,0,0:0:0:0:
96,216,53905,1,0,0:0:0:0:
216,132,54059,5,0,0:0:0:0:
196,120,54136,1,0,0:0:0:0:
176,112,54213,1,0,0:0:0:0:
160,108,54290,1,0,0:0:0:0:
144,104,54367,1,0,0:0:0:0:
356,152,54597,6,0,L|344:200,1,35.625001358986
264,160,54751,2,0,P|284:100|352:72,1,106.875004076958
420,164,55136,2,0,L|416:204,1,35.625001358986
348,176,55290,2,0,P|360:136|420:96,1,106.875004076958
464,184,55674,2,0,L|456:232,1,35.625001358986
344,176,55828,2,0,B|336:216|356:264|356:264|384:212,1,142.500005435944
80,128,56828,5,0,0:0:0:0:
96,144,56905,1,0,0:0:0:0:
116,168,56982,1,0,0:0:0:0:
128,188,57059,1,0,0:0:0:0:
156,216,57136,1,0,0:0:0:0:
196,160,57290,6,0,P|232:128|288:136,1,95
96,144,58059,5,0,0:0:0:0:
112,132,58136,1,0,0:0:0:0:
128,120,58213,1,0,0:0:0:0:
216,184,58367,5,0,0:0:0:0:
216,184,58444,1,0,0:0:0:0:
216,184,58521,1,0,0:0:0:0:
216,184,58598,2,0,L|272:232,1,47.5
332,176,58828,6,0,L|408:144,1,47.5
300,96,59059,2,0,B|240:80|304:28|304:28|376:32,1,142.5
392,92,59444,2,0,B|464:68|488:120|488:120|480:216,1,190
56,36,59905,5,0,0:0:0:0:
140,240,60059,1,0,0:0:0:0:
256,200,60213,2,0,P|308:160|332:72,1,142.5
36,176,60598,1,0,0:0:0:0:
36,176,60675,1,0,0:0:0:0:
44,184,60751,1,0,0:0:0:0:
44,184,60828,6,0,P|56:128|100:88,1,95
204,176,61059,6,0,B|264:228|336:192|336:192|288:168|268:140|280:100|312:72|400:64,1,332.4999833107
464,152,61752,2,0,L|440:216,1,47.5
412,264,61982,2,0,L|456:312,1,47.5
92,248,62213,6,0,B|120:192|120:116|136:88,1,142.5
188,160,62598,5,0,0:0:0:0:
204,172,62752,1,0,0:0:0:0:
316,224,62905,5,0,0:0:0:0:
208,84,63059,1,0,0:0:0:0:
316,224,63213,2,0,B|364:200|384:188|384:188|380:76,1,190
108,248,63752,6,0,P|132:184|276:64,1,237.5
252,296,64290,1,0,0:0:0:0:
364,80,64521,6,0,L|312:140,1,47.5
156,268,64752,2,0,L|228:212,1,47.5
288,40,64982,2,0,L|248:84,1,47.5
108,132,65213,5,0,0:0:0:0:
120,144,65290,1,0,0:0:0:0:
128,156,65367,1,0,0:0:0:0:
136,168,65444,2,0,B|140:212|116:272|116:272|168:256|248:268,1,237.5
256,184,65982,5,0,0:0:0:0:
264,172,66059,1,0,0:0:0:0:
272,160,66136,1,0,0:0:0:0:
256,132,66213,1,0,0:0:0:0:
232,112,66290,1,0,0:0:0:0:
240,80,66367,1,0,0:0:0:0:
268,64,66444,1,0,0:0:0:0:
160,140,66675,5,0,0:0:0:0:
136,120,66752,1,0,0:0:0:0:
108,116,66829,1,0,0:0:0:0:
80,120,66905,1,0,0:0:0:0:
56,128,66982,1,0,0:0:0:0:
24,272,67136,6,8,B|68:232|184:240|244:304,1,237.499988079071
244,156,67675,2,8,P|208:80|276:8,1,189.999990463257
136,88,68213,5,0,0:0:0:0:
184,224,68367,1,0,0:0:0:0:
184,224,68444,1,0,0:0:0:0:
184,224,68521,1,0,0:0:0:0:
256,80,68675,5,0,0:0:0:0:
256,80,68829,2,0,L|276:136,1,47.4999976158142
48,268,69136,5,0,0:0:0:0:
48,268,69213,1,0,0:0:0:0:
48,268,69290,1,0,0:0:0:0:
48,268,69367,2,0,P|96:240|88:188,1,94.9999952316285
180,176,69752,5,0,0:0:0:0:
168,168,69829,1,0,0:0:0:0:
160,160,69906,1,0,0:0:0:0:
148,152,69982,1,0,0:0:0:0:
140,148,70059,2,0,P|112:104|136:52,1,94.9999952316285
140,276,70367,5,0,0:0:0:0:
352,152,70521,1,0,0:0:0:0:
136,48,70675,1,0,0:0:0:0:
148,164,70829,2,0,P|220:136|296:152,2,142.499992847443
188,256,71444,5,0,0:0:0:0:
188,256,71521,1,0,0:0:0:0:
188,256,71598,1,0,0:0:0:0:
148,164,71752,2,0,P|220:136|296:152,2,142.499992847443
268,200,72367,5,0,0:0:0:0:
268,200,72444,1,0,0:0:0:0:
268,200,72521,1,0,0:0:0:0:
104,240,72752,5,0,0:0:0:0:
92,224,72829,1,0,0:0:0:0:
80,208,72906,1,0,0:0:0:0:
152,144,73059,5,0,0:0:0:0:
136,128,73136,1,0,0:0:0:0:
120,112,73213,1,0,0:0:0:0:
220,228,73444,6,0,B|236:172|164:184|168:192,1,47.4999976158143
324,140,73675,2,0,P|368:100|452:68,1,142.499992847443
76,260,74060,5,0,0:0:0:0:
76,260,74136,1,0,0:0:0:0:
76,260,74213,1,0,0:0:0:0:
76,260,74290,1,0,0:0:0:0:
76,260,74367,6,0,L|112:200,2,47.4999976158143
224,96,74675,6,0,L|260:152,4,47.4999976158143
112,212,75136,6,0,B|136:156|216:112|216:112|152:76|56:96,1,284.999985694885
264,232,75752,6,0,P|328:176|344:180,1,94.9999952316285
88,128,76136,5,0,0:0:0:0:
88,128,76213,1,0,0:0:0:0:
88,128,76290,1,0,0:0:0:0:
124,192,76444,6,0,L|72:108,1,94.9999952316285
364,64,76829,5,0,0:0:0:0:
264,176,76983,1,0,0:0:0:0:
360,288,77137,1,0,0:0:0:0:
196,80,77290,2,4,P|128:80|64:104,2,94.9999952316285
56,200,77906,5,0,0:0:0:0:
80,200,77983,1,0,0:0:0:0:
104,200,78060,1,0,0:0:0:0:
128,200,78137,1,0,0:0:0:0:
156,204,78213,1,0,0:0:0:0:
232,104,78367,5,8,0:0:0:0:
208,100,78444,1,8,0:0:0:0:
176,96,78521,1,8,0:0:0:0:
152,100,78598,1,8,0:0:0:0:
124,100,78675,1,8,0:0:0:0:
264,252,78983,2,0,P|324:248|344:148,1,142.499992847443
72,188,79444,5,0,0:0:0:0:
72,172,79521,1,0,0:0:0:0:
72,156,79598,1,0,0:0:0:0:
72,140,79675,1,0,0:0:0:0:
288,188,79829,21,0,0:0:0:0:
380,148,80060,5,0,0:0:0:0:
380,132,80137,1,0,0:0:0:0:
380,116,80214,1,0,0:0:0:0:
376,104,80290,1,0,0:0:0:0:
368,88,80367,1,0,0:0:0:0:
156,192,80444,6,0,P|84:204|48:228,1,94.9999952316285
336,192,80752,2,0,P|404:184|464:152,1,94.9999952316285
184,116,81060,2,0,P|128:120|60:136,1,94.9999952316285
108,232,81444,5,0,0:0:0:0:
300,116,81598,1,0,0:0:0:0:
220,212,81752,2,0,L|228:312,1,94.9999952316285
336,264,82060,5,0,0:0:0:0:
336,264,82137,1,0,0:0:0:0:
336,264,82214,1,0,0:0:0:0:
336,264,82290,2,0,P|284:228|292:188,1,94.9999952316285
284,202,82521,5,0,0:0:0:0:
284,202,82598,1,0,0:0:0:0:
284,202,82675,1,0,0:0:0:0:
128,188,82829,6,0,P|124:128|164:92,1,94.9999952316285
143,102,83060,1,0,0:0:0:0:
148,100,83137,1,0,0:0:0:0:
148,100,83214,1,0,0:0:0:0:
288,168,83444,5,0,0:0:0:0:
164,268,83598,1,0,0:0:0:0:
288,276,83752,1,0,0:0:0:0:
56,184,83906,5,0,0:0:0:0:
24,224,83983,1,0,0:0:0:0:
16,260,84060,1,0,0:0:0:0:
40,264,84137,1,0,0:0:0:0:
80,264,84214,1,0,0:0:0:0:
104,264,84291,1,0,0:0:0:0:
136,264,84367,1,0,0:0:0:0:
168,256,84444,1,0,0:0:0:0:
216,256,84521,5,0,0:0:0:0:
236,12,84598,1,0,0:0:0:0:
272,16,84675,1,0,0:0:0:0:
304,24,84752,1,0,0:0:0:0:
272,168,84906,5,0,0:0:0:0:
308,172,84983,1,0,0:0:0:0:
336,180,85060,1,0,0:0:0:0:
360,184,85137,1,0,0:0:0:0:
136,264,85291,5,0,0:0:0:0:
164,276,85367,1,0,0:0:0:0:
196,280,85444,1,0,0:0:0:0:
232,284,85521,1,0,0:0:0:0:
264,280,85598,1,0,0:0:0:0:
272,248,85675,1,0,0:0:0:0:
236,236,85752,1,0,0:0:0:0:
212,216,85829,1,0,0:0:0:0:
248,208,85906,1,0,0:0:0:0:
280,200,85983,5,0,0:0:0:0:
248,172,86060,5,0,0:0:0:0:
256,192,86291,12,0,87598,0:0:0:0:
116,248,87675,6,0,P|168:228|208:168,1,94.9999952316285
336,164,87983,2,0,P|384:128|392:68,1,94.9999952316285
128,120,88291,5,0,0:0:0:0:
144,140,88368,1,0,0:0:0:0:
156,160,88444,1,0,0:0:0:0:
168,176,88521,1,0,0:0:0:0:
184,192,88598,6,0,P|208:240|184:288,1,94.9999952316285
288,128,88906,2,0,B|308:80|280:12|280:12|396:4,1,189.999990463257
76,152,89445,5,0,0:0:0:0:
152,320,89598,1,0,0:0:0:0:
152,16,89752,1,0,0:0:0:0:
76,152,89906,1,0,0:0:0:0:
460,200,90060,1,0,0:0:0:0:
184,212,90213,5,0,0:0:0:0:
184,196,90290,1,0,0:0:0:0:
184,140,90367,2,0,L|184:204,1,35.6249995708466
304,240,90598,5,0,0:0:0:0:
296,208,90675,1,0,0:0:0:0:
304,252,90752,2,0,L|320:320,1,35.6249995708466
312,116,91368,6,0,P|320:172|280:220,1,94.9999952316285
420,232,91675,2,0,P|404:276|368:328,1,94.9999952316285
104,112,91983,5,0,0:0:0:0:
104,112,92060,1,0,0:0:0:0:
104,112,92137,1,0,0:0:0:0:
168,208,92291,1,0,0:0:0:0:
168,208,92368,1,0,0:0:0:0:
168,208,92445,1,0,0:0:0:0:
168,208,92522,6,0,B|224:172|256:196|296:156,1,94.9999952316285
56,328,92906,5,0,0:0:0:0:
256,288,93060,5,0,0:0:0:0:
32,208,93214,1,0,0:0:0:0:
280,144,93368,1,0,0:0:0:0:
32,208,93522,1,0,0:0:0:0:
256,288,93675,2,0,P|312:268|452:288,1,189.999990463257
192,128,94137,5,0,0:0:0:0:
192,128,94214,1,0,0:0:0:0:
192,128,94291,1,0,0:0:0:0:
192,128,94368,2,0,B|248:160|224:200|224:200|264:196|316:188|344:216,1,189.999990463257
322,202,94752,1,0,0:0:0:0:
322,202,94829,1,0,0:0:0:0:
322,202,94906,1,0,0:0:0:0:
92,96,95060,6,0,B|144:80|192:80|232:88|232:88|284:104,1,189.999990463257
400,148,95445,2,0,P|348:160|268:152,1,94.9999952316285
260,112,95752,2,0,P|204:104|164:108,1,94.9999952316285
76,144,96060,1,0,0:0:0:0:
164,192,96214,2,0,L|160:296,1,94.9999952316285
284,260,96522,6,0,P|352:240|380:228,3,94.9999952316285
244,116,97137,5,0,0:0:0:0:
152,180,97291,1,0,0:0:0:0:
252,228,97445,1,0,0:0:0:0:
244,116,97599,1,0,0:0:0:0:
328,180,97752,1,0,0:0:0:0:
252,228,97906,5,0,0:0:0:0:
328,180,98060,1,0,0:0:0:0:
112,100,98291,5,0,0:0:0:0:
120,128,98368,1,0,0:0:0:0:
128,160,98445,1,0,0:0:0:0:
136,192,98522,1,0,0:0:0:0:
268,176,98676,5,0,0:0:0:0:
256,200,98752,1,0,0:0:0:0:
240,228,98829,1,0,0:0:0:0:
228,248,98906,1,0,0:0:0:0:
0,224,99060,6,0,P|56:200|88:152,1,94.9999952316285
328,76,99291,2,0,P|288:116|244:136,1,94.9999952316285
128,124,99676,5,0,0:0:0:0:
180,240,99829,1,0,0:0:0:0:
228,104,99983,1,0,0:0:0:0:
128,124,100137,1,0,0:0:0:0:
184,240,100291,1,0,0:0:0:0:
128,124,100445,5,0,0:0:0:0:
304,160,100676,5,0,0:0:0:0:
320,184,100752,1,0,0:0:0:0:
332,212,100829,1,0,0:0:0:0:
352,240,100906,1,0,0:0:0:0:
184,128,101060,5,0,0:0:0:0:
184,120,101214,2,0,P|172:196|128:236,1,118.749994039536
144,236,101598,5,0,0:0:0:0:
136,292,101675,1,0,0:0:0:0:
136,292,101752,1,0,0:0:0:0:
184,288,101829,1,0,0:0:0:0:
160,288,101906,1,0,0:0:0:0:
208,300,101983,1,0,0:0:0:0:
232,312,102060,5,0,0:0:0:0:
252,336,102137,1,0,0:0:0:0:
344,264,102214,5,0,0:0:0:0:
364,252,102291,1,0,0:0:0:0:
384,244,102368,1,0,0:0:0:0:
384,224,102445,1,0,0:0:0:0:
376,208,102522,1,0,0:0:0:0:
376,184,102599,1,0,0:0:0:0:
388,152,102676,1,0,0:0:0:0:
352,128,102753,1,0,0:0:0:0:
320,100,102829,1,0,0:0:0:0:
292,76,102906,1,0,0:0:0:0:
256,56,102983,5,0,0:0:0:0:
224,40,103060,1,0,0:0:0:0:
200,48,103137,1,0,0:0:0:0:
168,52,103214,1,0,0:0:0:0:
128,64,103291,1,0,0:0:0:0:
140,212,103445,6,0,L|80:204,1,47.4999976158143
212,136,103676,2,0,P|268:140|216:156,1,142.499992847443
264,192,103983,2,0,L|232:240,1,47.4999976158143
304,116,104137,2,0,L|340:164,1,47.4999976158143
140,192,104291,5,0,0:0:0:0:
120,216,104368,1,0,0:0:0:0:
96,240,104445,1,0,0:0:0:0:
72,264,104521,1,0,0:0:0:0:
88,288,104598,5,0,0:0:0:0:
80,92,104676,5,0,0:0:0:0:
96,108,104753,1,0,0:0:0:0:
108,120,104830,1,0,0:0:0:0:
132,136,104906,1,0,0:0:0:0:
220,216,105060,5,0,0:0:0:0:
220,216,105291,1,0,0:0:0:0:
220,216,105445,2,0,B|184:248|184:248|240:272|256:280,1,94.9999952316285
300,152,105753,5,0,0:0:0:0:
312,172,105830,1,0,0:0:0:0:
324,196,105906,1,0,0:0:0:0:
336,212,105983,2,0,B|368:256|364:256|364:256|304:264,1,94.9999952316285
112,196,106214,6,0,P|148:140|204:136,1,94.9999952316285
272,192,106445,2,0,P|252:236|212:272,1,94.9999952316285
176,128,106676,2,0,P|236:144|276:200,1,94.9999952316285
112,152,119060,6,0,P|136:204|128:224,1,45.9999976158142
200,56,119214,5,0,0:0:0:0:
264,216,119291,1,0,0:0:0:0:
16,296,119445,1,0,0:0:0:0:
36,304,119522,1,0,0:0:0:0:
56,316,119599,1,0,0:0:0:0:
140,344,119676,5,0,0:0:0:0:
124,340,119753,1,0,0:0:0:0:
100,332,119830,1,0,0:0:0:0:
180,248,119906,5,0,0:0:0:0:
176,236,119983,1,0,0:0:0:0:
180,220,120060,1,0,0:0:0:0:
196,204,120137,1,0,0:0:0:0:
200,176,120214,1,0,0:0:0:0:
180,144,120291,1,0,0:0:0:0:
156,120,120368,1,0,0:0:0:0:
144,92,120445,1,0,0:0:0:0:
