osu file format v14

[General]
AudioFilename: 118. Bad Maniacs.mp3
AudioLeadIn: 0
PreviewTime: 85297
Countdown: 0
SampleSet: Normal
StackLeniency: 0.7
Mode: 0
LetterboxInBreaks: 0
WidescreenStoryboard: 0

[Editor]
DistanceSpacing: 0.9
BeatDivisor: 4
GridSize: 4
TimelineZoom: 4.049999

[Metadata]
Title:Bad Maniacs
TitleUnicode:Bad Maniacs
Artist:kors k as teranoid
ArtistUnicode:kors k as teranoid
Creator:P o M u T a
Version:Normal
Source:beatmania IIDX
Tags:REFLEC BEAT limelight bemani plus rb konami pomuta low jacob industrial Ways For Liberation EvilElvis Priti ROAD FIGHTERS 17 SIRIUS groovin'!!
BeatmapID:472916
BeatmapSetID:199244

[Difficulty]
HPDrainRate:4
CircleSize:3
OverallDifficulty:4
ApproachRate:5
SliderMultiplier:1.12
SliderTickRate:2

[Events]
//Background and Video events
0,0,"687474703a2f2f7075752e73682f6156587a352f613331383736313563362e6a7067.jpg",0,0
//Break Periods
2,36266,39789
2,70727,74250
2,105189,114866
//Storyboard Layer 0 (Background)
//Storyboard Layer 1 (Fail)
//Storyboard Layer 2 (Pass)
//Storyboard Layer 3 (Foreground)
//Storyboard Sound Samples

[TimingPoints]
16374,307.692307692308,4,1,0,75,1,0
40989,-100,4,1,0,60,0,0
45912,-100,4,1,0,70,0,0
65681,-100,4,1,0,60,0,0
65912,-100,4,1,0,55,0,0
66220,-100,4,1,0,50,0,0
66527,-100,4,1,0,45,0,0
66835,-100,4,1,0,40,0,0
67143,-100,4,1,0,35,0,0
67450,-100,4,1,0,30,0,0
67758,-100,4,1,0,25,0,0
68066,-100,4,1,0,20,0,0
68374,-100,4,1,0,25,0,0
68681,-100,4,1,0,30,0,0
68989,-100,4,1,0,35,0,0
69297,-100,4,1,0,40,0,0
69604,-100,4,1,0,45,0,0
69912,-100,4,1,0,50,0,0
70527,-100,4,1,0,70,0,0
85297,-100,4,1,0,75,0,1
104989,-100,4,1,0,75,0,0

[Colours]
Combo1 : 247,179,235
Combo2 : 129,254,191
Combo3 : 243,180,12
Combo4 : 172,172,215
Combo5 : 201,250,254

[HitObjects]
340,308,16373,6,0,P|396:318|446:298,2,112,4|8|0,0:0|0:0|0:0,0:0:0:0:
256,250,17297,1,8,0:0:0:0:
172,308,17604,2,0,P|116:318|66:298,2,112,0|8|0,0:0|0:0|0:0,0:0:0:0:
256,250,18527,2,0,L|256:194,1,56,10|0,0:0|0:0,0:0:0:0:
230,148,18835,6,0,P|182:125|130:144,1,112,4|8,0:0|0:0,0:0:0:0:
52,206,19450,2,0,P|30:154|40:100,1,112,0|8,0:0|0:0,0:0:0:0:
126,49,20066,1,0,0:0:0:0:
225,37,20374,1,8,0:0:0:0:
321,65,20681,1,0,0:0:0:0:
403,123,20989,2,0,P|404:156|415:188,1,56,10|0,0:0|0:0,0:0:0:0:
441,219,21297,6,0,P|478:260|481:322,2,112,4|8|0,0:0|0:0|0:0,0:0:0:0:
383,301,22220,2,0,P|355:311|320:306,1,56,8|0,0:0|0:0,0:0:0:0:
285,285,22527,2,0,L|296:169,2,112,0|8|0,0:0|0:0|0:0,0:0:0:0:
205,347,23450,2,0,L|142:344,1,56,8|0,0:0|0:0,0:0:0:0:
98,342,23758,6,0,P|66:294|67:239,1,112,4|8,0:0|0:0,0:0:0:0:
146,179,24374,1,0,0:0:0:0:
246,176,24681,1,8,0:0:0:0:
329,238,24989,2,0,P|377:253|440:242,1,112,2|8,0:0|0:0,0:0:0:0:
494,159,25604,2,0,P|441:144|387:154,1,112,0|10,0:0|0:0,0:0:0:0:
329,238,26220,5,4,0:0:0:0:
256,307,26527,1,8,0:0:0:0:
183,376,26835,2,0,L|67:372,1,112,0|8,0:0|0:0,0:0:0:0:
26,281,27450,2,0,L|142:285,2,112,0|8|0,0:0|0:0|0:0,0:0:0:0:
0,183,28374,2,0,P|11:157|29:133,1,56,8|0,0:0|0:0,0:0:0:0:
70,108,28681,6,0,P|118:99|181:105,1,112,4|8,0:0|0:0,0:0:0:0:
258,169,29297,2,0,P|313:175|368:165,1,112,0|8,0:0|0:0,0:0:0:0:
440,96,29912,2,0,P|465:142|461:206,2,112,0|8|0,0:0|0:0|0:0,0:0:0:0:
351,46,30835,2,0,L|279:50,1,56,10|0,0:0|0:0,0:0:0:0:
254,79,31143,6,0,B|199:89|199:89|141:80,1,112,4|8,0:0|0:0,0:0:0:0:
44,62,31758,1,0,0:0:0:0:
30,161,32066,1,8,0:0:0:0:
16,261,32374,2,0,L|74:274,1,56,0|0,0:0|0:0,0:0:0:0:
120,282,32681,2,0,P|102:334|55:370,2,112,8|0|8,0:0|0:0|0:0,0:0:0:0:
256,192,33604,12,4,36066,0:0:0:0:
256,97,40989,6,0,P|355:39|461:49,2,224,8|8|8,0:0|0:0|0:0,0:0:0:0:
195,178,42527,2,0,P|134:186|88:166,2,112,0|8|0,0:0|0:0|0:0,0:0:0:0:
295,190,43450,6,0,P|418:173|512:214,2,224,8|8|0,0:0|0:0|0:0,0:0:0:0:
61,141,45912,6,0,L|39:25,1,112,4|0,0:0|0:0,0:0:0:0:
134,66,46527,2,0,L|147:136,2,56,8|0|0,0:0|0:0|0:0,0:0:0:0:
229,33,47143,2,0,P|282:28|338:46,1,112,8|0,0:0|0:0,0:0:0:0:
422,97,47758,2,0,L|507:25,2,112,8|0|0,0:0|0:0|0:0,0:0:0:0:
369,182,48681,5,0,0:0:0:0:
275,142,48989,2,0,P|219:137|166:157,1,112,8|0,0:0|0:0,0:0:0:0:
113,241,49604,2,0,P|181:340|278:351,1,224,8|8,0:0|0:0,0:0:0:0:
375,326,50527,1,0,0:0:0:0:
424,314,50681,1,0,0:0:0:0:
473,302,50835,6,0,P|481:246|458:194,1,112,4|0,0:0|0:0,0:0:0:0:
406,110,51450,1,8,0:0:0:0:
320,163,51758,1,0,0:0:0:0:
224,129,52066,2,0,P|165:122|117:140,1,112,8|0,0:0|0:0,0:0:0:0:
135,239,52681,2,0,P|194:246|242:228,1,112,8|0,0:0|0:0,0:0:0:0:
320,163,53297,5,8,0:0:0:0:
406,110,53604,1,0,0:0:0:0:
477,181,53912,2,0,L|465:298,1,112,8|0,0:0|0:0,0:0:0:0:
384,351,54527,2,0,P|321:366|275:352,2,112,10|2|8,0:0|0:0|0:0,0:0:0:0:
328,269,55450,1,2,0:0:0:0:
231,239,55758,6,0,P|180:250|118:245,2,112,4|8|0,0:0|0:0|0:0,0:0:0:0:
307,173,56681,1,8,0:0:0:0:
382,106,56989,2,0,P|433:95|495:100,2,112,0|8|0,0:0|0:0|0:0,0:0:0:0:
307,173,57912,1,8,0:0:0:0:
231,106,58220,6,0,P|180:95|118:100,1,112,0|8,0:0|0:0,0:0:0:0:
33,149,58835,2,0,L|18:213,1,56,0|0,0:0|0:0,0:0:0:0:
16,254,59143,2,0,L|31:318,1,56,8|0,0:0|0:0,0:0:0:0:
57,350,59450,2,0,P|104:360|166:345,1,112,0|8,0:0|0:0,0:0:0:0:
232,270,60066,2,0,L|212:198,2,56,0|0|8,0:0|0:0|0:0,0:0:0:0:
273,297,60527,1,0,0:0:0:0:
320,315,60681,6,0,P|377:321|424:297,1,112,4|8,0:0|0:0,0:0:0:0:
460,202,61297,2,0,L|446:141,1,56,0|0,0:0|0:0,0:0:0:0:
431,99,61604,2,0,L|370:110,1,56,8|0,0:0|0:0,0:0:0:0:
325,103,61912,2,0,B|331:50|331:50|380:19,2,112,0|8|0,0:0|0:0|0:0,0:0:0:0:
363,196,62835,2,0,P|323:204|291:196,1,56,8|0,0:0|0:0,0:0:0:0:
263,177,63143,6,0,P|171:125|51:130,2,224,0|0|0,0:0|0:0|0:0,0:0:0:0:
250,225,64527,1,0,0:0:0:0:
228,270,64681,2,0,P|201:279|164:278,2,56,0|0|0,0:0|0:0|0:0,0:0:0:0:
268,300,65143,2,0,P|295:291|332:292,2,56,0|0|0,0:0|0:0|0:0,0:0:0:0:
256,192,65604,12,4,70527,0:0:0:0:
23,282,75450,6,0,P|8:222|20:173,1,112,4|10,0:0|0:0,0:0:0:0:
84,96,76066,1,0,0:0:0:0:
168,150,76374,2,0,L|223:112,1,56,10|0,0:0|0:0,0:0:0:0:
254,87,76681,2,0,P|307:74|362:92,2,112,4|10|0,0:0|0:0|0:0,0:0:0:0:
264,187,77604,2,0,L|275:247,1,56,8|0,0:0|0:0,0:0:0:0:
283,292,77912,6,0,P|230:305|175:287,2,112,4|10|0,0:0|0:0|0:0,0:0:0:0:
366,236,78835,2,0,L|421:265,1,56,8|0,0:0|0:0,0:0:0:0:
457,290,79143,2,0,B|449:340|449:340|393:369,2,112,4|10|0,0:0|0:0|0:0,0:0:0:0:
444,189,80066,1,8,0:0:0:0:
425,141,80220,1,0,0:0:0:0:
386,108,80374,6,0,P|330:88|276:93,1,112,4|10,0:0|0:0,0:0:0:0:
201,157,80989,2,0,L|192:270,1,112,6|10,0:0|0:0,0:0:0:0:
166,312,81450,1,2,0:0:0:0:
131,349,81604,2,0,P|75:352|23:333,1,112,4|8,0:0|0:0,0:0:0:0:
19,232,82220,2,0,L|33:118,1,112,6|8,0:0|0:0,0:0:0:0:
40,70,82681,1,2,0:0:0:0:
256,192,82835,12,4,85297,0:0:0:0:
407,183,86527,6,0,L|397:122,1,56,0|0,0:0|0:0,0:0:0:0:
367,87,86835,2,0,L|306:78,1,56,10|0,0:0|0:0,0:0:0:0:
260,74,87143,2,0,B|224:29|224:29|167:40,1,112,0|8,0:0|0:0,0:0:0:0:
126,63,87604,1,0,0:0:0:0:
85,92,87758,6,0,P|48:132|45:190,1,112,2|8,0:0|0:0,0:0:0:0:
92,276,88374,2,0,P|132:313|187:316,1,112,0|8,0:0|0:0,0:0:0:0:
276,267,88989,2,0,L|401:273,1,112,0|0,0:0|0:0,0:0:0:0:
434,253,89450,1,0,0:0:0:0:
477,227,89604,2,0,L|496:114,2,112,0|10|4,0:0|0:0|0:0,0:0:0:0:
466,327,90527,5,8,0:0:0:0:
367,349,90835,1,0,0:0:0:0:
269,322,91143,2,0,P|250:304|235:278,1,56,8|0,0:0|0:0,0:0:0:0:
249,229,91450,2,0,L|301:203,2,56,0|0|8,0:0|0:0|0:0,0:0:0:0:
153,263,92066,2,0,L|127:315,2,56,0|0|8,0:0|0:0|0:0,0:0:0:0:
160,213,92527,1,0,0:0:0:0:
145,164,92681,6,0,P|130:117|79:83,1,112,2|8,0:0|0:0,0:0:0:0:
45,178,93297,2,0,L|47:302,1,112,0|8,0:0|0:0,0:0:0:0:
131,345,93912,2,0,L|200:351,1,56,0|0,0:0|0:0,0:0:0:0:
237,350,94220,2,0,L|292:345,1,56,8|0,0:0|0:0,0:0:0:0:
343,345,94527,2,0,L|462:354,2,112,0|10|4,0:0|0:0|0:0,0:0:0:0:
285,262,95450,5,8,0:0:0:0:
303,162,95758,1,0,0:0:0:0:
393,117,96066,2,0,L|449:141,1,56,8|0,0:0|0:0,0:0:0:0:
473,180,96374,2,0,L|492:306,2,112,0|8|0,0:0|0:0|0:0,0:0:0:0:
393,117,97297,2,0,L|342:88,1,56,8|0,0:0|0:0,0:0:0:0:
300,64,97604,6,0,P|242:51|192:62,1,112,2|8,0:0|0:0,0:0:0:0:
117,130,98220,1,0,0:0:0:0:
192,195,98527,2,0,L|163:250,1,56,8|0,0:0|0:0,0:0:0:0:
145,290,98835,2,0,B|201:301|201:301|265:291,1,112,0|8,0:0|0:0,0:0:0:0:
304,281,99297,1,0,0:0:0:0:
352,267,99450,2,0,B|406:258|406:258|462:269,2,112,0|10|4,0:0|0:0|0:0,0:0:0:0:
292,184,100374,5,8,0:0:0:0:
348,96,100681,1,0,0:0:0:0:
277,23,100989,2,0,L|220:21,1,56,8|0,0:0|0:0,0:0:0:0:
170,21,101297,2,0,P|118:32|70:73,1,112,0|8,0:0|0:0,0:0:0:0:
69,169,101912,2,0,L|82:231,1,56,0|0,0:0|0:0,0:0:0:0:
129,236,102220,2,0,L|142:298,1,56,8|0,0:0|0:0,0:0:0:0:
129,340,102527,6,0,L|57:353,2,56,2|0|8,0:0|0:0|0:0,0:0:0:0:
221,297,103143,1,0,0:0:0:0:
315,331,103450,1,8,0:0:0:0:
365,334,103604,1,0,0:0:0:0:
415,334,103758,2,0,L|429:273,1,56,0|0,0:0|0:0,0:0:0:0:
441,230,104066,2,0,L|427:169,1,56,8|0,0:0|0:0,0:0:0:0:
411,127,104374,2,0,B|354:108|354:108|305:122,2,112,0|10|4,0:0|0:0|0:0,0:0:0:0:
200,95,116066,6,0,L|170:45,2,56,0|0|0,0:0|0:0|0:0,0:0:0:0:
312,95,116681,2,0,L|342:45,2,56,0|0|0,0:0|0:0|0:0,0:0:0:0:
256,192,117297,1,4,0:0:0:0:
