osu file format v14

[General]
AudioFilename: audio.mp3
AudioLeadIn: 2000
PreviewTime: 234077
Countdown: 0
SampleSet: Soft
StackLeniency: 0.5
Mode: 0
LetterboxInBreaks: 0
WidescreenStoryboard: 1

[Editor]
Bookmarks: 22680,45006,67331,89657,111982,134308,156634,178959,201285,223612,245937,268263
DistanceSpacing: 1
BeatDivisor: 4
GridSize: 8
TimelineZoom: 2.5

[Metadata]
Title:smooooch -Akiba Koubou mix- / Remixed by DJ Command
TitleUnicode:smooooch ・∀・-秋葉工房 mix- / Remixed by DJ Command
Artist:kors k
ArtistUnicode:kors k
Creator:AJT
Version:insaner
Source:beatmania IIDX 16 EMPRESS
Tags:electronic english instrumental video game trance eurobeat candy rave yokespai bloxi chanmann jounzan evilelvis evilelvisv2 natteke desu reflec beat beatstream アニムトライヴ animtribe dancedancerevolution x2 dancerush stardom hello! pop'n music 19 tune street ポップンリズミン rhythmin' jubeat saucer plus jukebeat ミライダガッキ mirai dagakki futuretomtom konami
BeatmapID:4424121
BeatmapSetID:2079191

[Difficulty]
HPDrainRate:5
CircleSize:3.6
OverallDifficulty:8
ApproachRate:8
SliderMultiplier:1.5
SliderTickRate:1

[Events]
//Background and Video events
0,0,"Oag4zeQ.jpg",0,0
//Break Periods
2,78695,86117
2,156835,164257
//Storyboard Layer 0 (Background)
//Storyboard Layer 1 (Fail)
//Storyboard Layer 2 (Pass)
//Storyboard Layer 3 (Foreground)
//Storyboard Layer 4 (Overlay)
//Storyboard Sound Samples

[TimingPoints]
-1039,348.837209302326,4,2,0,50,1,0
356,-142.857142857143,4,2,0,50,0,0
22681,-100,4,2,0,80,0,0
78844,-100,4,2,0,50,0,0
89658,-142.857142857143,4,2,0,65,0,0
100821,-100,4,2,0,80,0,0
145472,-100,4,2,0,65,0,0
167798,-142.857142857143,4,2,0,65,0,0
176867,-100,4,2,0,65,0,0
177740,-142.857142857143,4,2,0,65,0,0
178263,-100,4,2,0,65,0,0
178350,-100,4,2,0,65,0,0
178961,-100,4,2,0,80,0,0
234774,-100,4,2,0,90,0,0
273844,-100,4,2,0,5,0,0

[Colours]
Combo1 : 1,181,216
Combo2 : 255,241,192
Combo3 : 255,82,151
Combo4 : 92,225,255

[HitObjects]
78,0,356,6,0,P|90:52|96:107,1,104.999996795654,2|2,0:0|0:0,0:0:0:0:
56,137,879,1,0,3:0:0:0:
56,137,1054,2,0,P|63:168|68:205,1,52.4999983978272,2|0,0:0|0:0,0:0:0:0:
0,249,1402,2,0,P|7:280|12:317,1,52.4999983978272,0|0,3:0|0:0,0:0:0:0:
69,381,1751,6,0,P|92:379|123:373,3,52.4999983978272,2|2|0|0,0:0|0:0|3:0|3:0,0:0:0:0:
180,307,2449,2,0,P|202:308|233:314,3,52.4999983978272,2|0|2|0,0:0|3:0|0:0|3:0,0:0:0:0:
307,257,3147,6,0,P|295:193|290:145,1,104.999996795654,2|2,0:0|0:0,0:0:0:0:
375,116,3670,1,0,3:0:0:0:
375,116,3844,2,0,P|382:85|387:48,1,52.4999983978272,2|0,0:0|0:0,0:0:0:0:
238,0,4193,2,0,P|242:25|248:51,1,52.4999983978272,0|0,3:0|0:0,0:0:0:0:
194,143,4542,6,0,P|140:155|87:157,1,104.999996795654,2|0,0:0|3:0,0:0:0:0:
95,179,5065,2,0,P|147:175|199:165,1,104.999996795654,0|0,3:0|3:0,0:0:0:0:
256,256,5588,1,2,0:0:0:0:
185,326,5763,1,0,3:0:0:0:
298,384,5937,6,0,P|362:372|421:366,1,104.999996795654,2|2,0:0|0:0,0:0:0:0:
497,335,6461,1,0,3:0:0:0:
497,335,6635,2,0,P|504:304|509:267,1,52.4999983978272,2|0,0:0|0:0,0:0:0:0:
395,202,6984,2,0,P|399:227|405:253,1,52.4999983978272,0|0,3:0|0:0,0:0:0:0:
500,263,7333,6,0,P|507:232|512:195,1,52.4999983978272,2|2,0:0|0:0,0:0:0:0:
398,130,7682,2,0,P|402:155|408:181,1,52.4999983978272,0|0,3:0|3:0,0:0:0:0:
319,275,8030,2,0,P|293:269|268:265,1,52.4999983978272,2|0,0:0|3:0,0:0:0:0:
349,377,8379,2,0,P|375:372|401:367,1,52.4999983978272,2|0,0:0|3:0,0:0:0:0:
510,211,8728,1,2,0:0:0:0:
256,192,8902,12,2,10123,0:0:0:0:
224,240,10472,6,0,L|219:273,4,26.2499991989136,0|0|0|2|2,3:0|3:0|3:0|0:0|0:0,0:0:0:0:
304,224,10995,1,0,3:0:0:0:
288,144,11170,1,2,0:0:0:0:
208,160,11344,1,0,3:0:0:0:
288,144,11519,6,0,P|279:87|261:40,1,104.999996795654,0|0,1:0|3:0,0:0:0:0:
262,42,12042,1,0,3:0:0:0:
262,42,12216,1,0,1:0:0:0:
134,217,12565,1,0,3:0:0:0:
224,240,12740,2,0,P|233:297|251:344,2,104.999996795654,0|0|0,3:0|3:0|3:0,0:0:0:0:
134,217,13612,2,0,P|106:209|75:207,1,52.4999983978272,0|0,1:0|3:0,0:0:0:0:
15,248,13873,1,0,3:0:0:0:
15,248,13961,2,0,P|4:274|-1:305,1,52.4999983978272,0|0,1:0|3:0,0:0:0:0:
61,384,14309,6,0,P|108:375|165:370,2,104.999996795654,0|0|0,1:0|3:0|1:0,0:0:0:0:
0,292,15181,1,0,3:0:0:0:
224,240,15530,2,0,P|271:258|327:262,1,104.999996795654,0|0,3:0|3:0,0:0:0:0:
326,262,15966,1,0,3:0:0:0:
326,262,16054,1,0,1:0:0:0:
398,321,16228,1,0,3:0:0:0:
468,242,16402,1,0,1:0:0:0:
382,188,16577,1,0,3:0:0:0:
482,101,16751,1,0,1:0:0:0:
447,0,16926,1,2,0:0:0:0:
447,0,17013,1,2,0:0:0:0:
447,0,17100,6,0,P|441:55|429:88,1,78.7499975967408,0|0,1:0|0:0,0:0:0:0:
433,77,17449,2,0,P|392:88|363:89,1,52.4999983978272,0|0,1:0|3:0,0:0:0:0:
288,128,17798,2,0,P|294:160|310:195,1,52.4999983978272,0|0,1:0|0:0,0:0:0:0:
408,272,18147,1,0,1:0:0:0:
408,272,18234,1,2,0:0:0:0:
408,272,18321,2,0,B|459:268|526:247,2,104.999996795654,2|0|0,0:0|3:0|3:0,0:0:0:0:
323,333,19193,2,0,B|325:358|335:392,2,52.4999983978272,0|0|0,1:0|3:0|1:0,0:0:0:0:
237,294,19716,5,2,0:0:0:0:
237,294,19803,1,2,0:0:0:0:
237,294,19891,2,0,P|210:286|175:282,1,52.4999983978272,0|0,1:0|3:0,0:0:0:0:
92,200,20240,2,0,P|66:196|41:189,1,52.4999983978272,0|0,3:0|3:0,0:0:0:0:
35,324,20588,2,0,P|60:317|87:314,1,52.4999983978272,0|0,1:0|3:0,0:0:0:0:
202,187,20937,2,0,P|227:183|253:175,1,52.4999983978272,0|0,3:0|3:0,0:0:0:0:
335,104,21286,5,2,3:2:0:0:
344,271,21635,1,2,0:0:0:0:
168,113,21984,1,2,0:0:0:0:
177,280,22333,2,0,P|181:315|190:344,1,52.4999983978272,2|0,0:0|3:0,0:0:0:0:
217,362,22594,1,2,3:0:0:0:
256,384,22681,6,0,P|278:327|296:239,1,150,4|8,1:0|1:0,0:0:0:0:
383,273,23205,1,2,0:0:0:0:
371,181,23379,2,0,B|313:127|293:171|235:114,1,150,0|8,1:0|1:0,0:0:0:0:
264,26,23902,2,0,P|224:27|186:34,1,75,2|0,3:2|1:0,0:0:0:0:
299,171,24251,2,0,P|318:135|331:99,1,75,2|8,3:2|1:0,0:0:0:0:
158,131,24600,2,0,P|178:165|203:194,2,75,2|2|0,3:2|1:2|3:0,0:0:0:0:
158,131,25036,1,0,3:0:0:0:
158,131,25123,1,8,1:1:0:0:
189,33,25298,1,2,1:2:0:0:
24,89,25472,6,0,P|79:112|131:119,1,112.5,0|0,1:0|0:0,0:0:0:0:
158,131,25821,2,0,P|153:188|137:244,1,112.5,8|0,1:0|0:0,0:0:0:0:
110,259,26170,1,0,1:0:0:0:
107,293,26257,1,0,3:0:0:0:
122,324,26344,2,0,P|152:332|196:327,1,75,2|8,3:2|1:0,0:0:0:0:
243,178,26693,2,0,P|247:215|257:251,1,75,2|0,3:2|1:0,0:0:0:0:
321,380,27042,1,2,3:2:0:0:
321,380,27129,1,0,3:0:0:0:
321,380,27216,2,0,P|331:345|336:296,1,75,8|2,1:1|3:2,0:0:0:0:
434,283,27565,1,2,1:2:0:0:
341,199,27740,1,0,3:0:0:0:
434,283,27914,1,8,1:0:0:0:
512,210,28088,5,2,3:2:0:0:
512,210,28175,1,2,3:2:0:0:
512,210,28263,2,0,P|504:128|476:63,1,150,4|8,1:0|1:0,0:0:0:0:
366,0,28786,1,2,0:0:0:0:
458,135,28961,2,0,P|449:230|432:287,1,150,0|8,1:0|1:0,0:0:0:0:
419,308,29397,1,0,3:0:0:0:
419,308,29484,6,0,P|366:298|336:285,1,75,2|0,3:2|1:0,0:0:0:0:
247,367,29833,2,0,P|194:377|164:390,1,75,2|8,3:2|1:1,0:0:0:0:
115,253,30181,1,2,0:0:0:0:
238,173,30356,2,0,P|251:242|266:286,1,112.5,0|0,1:0|0:0,0:0:0:0:
264,281,30705,2,0,P|276:212|285:182,1,75,8|0,1:0|0:0,0:0:0:0:
431,192,31054,6,0,P|455:190|481:183,3,37.5,4|0|2|0,1:0|3:0|3:2|3:0,0:0:0:0:
486,157,31402,2,0,P|488:132|495:107,3,37.5,8|0|2|0,1:1|3:0|3:2|3:0,0:0:0:0:
496,95,31751,1,4,1:0:0:0:
479,72,31838,1,0,1:0:0:0:
457,57,31925,1,2,1:2:0:0:
431,51,32012,1,0,1:0:0:0:
404,56,32100,2,0,P|401:31|395:6,3,37.5,8|0|2|0,1:0|1:0|1:2|1:0,0:0:0:0:
398,76,32449,6,0,L|245:89,1,150,0|2,1:0|1:2,1:0:0:0:
248,88,32972,1,2,1:2:0:0:
148,107,33147,5,4,1:0:0:0:
185,242,33321,1,0,1:0:0:0:
148,107,33495,1,2,1:0:0:0:
185,242,33669,1,0,1:0:0:0:
320,208,33844,5,4,1:0:0:0:
320,208,34019,2,0,P|367:214|428:231,1,75,2|8,0:0|1:0,0:0:0:0:
451,148,34367,2,0,P|378:128|304:119,1,150,2|2,0:0|0:0,0:0:0:0:
225,169,34891,1,8,1:0:0:0:
225,169,35065,1,2,0:0:0:0:
148,107,35240,5,2,1:2:0:0:
274,179,35414,2,0,P|289:219|302:298,1,112.5,2|0,0:0|0:0,0:0:0:0:
301,287,35763,1,2,0:0:0:0:
143,384,35937,2,0,P|158:343|171:264,1,112.5,2|0,1:2|0:0,0:0:0:0:
170,275,36286,1,8,1:1:0:0:
24,227,36461,1,2,0:0:0:0:
0,309,36635,6,0,B|72:337|88:263|143:276,1,150,0|8,1:0|1:0,0:0:0:0:
256,192,37158,2,0,P|253:108|218:48,1,150,2|2,0:0|0:0,0:0:0:0:
160,144,37681,1,8,1:0:0:0:
82,69,37856,1,2,0:0:0:0:
291,0,38030,6,0,P|280:47|271:97,1,75,0|2,1:0|0:0,0:0:0:0:
400,224,38379,2,0,P|392:187|383:150,1,75,8|2,1:0|0:0,0:0:0:0:
512,96,38728,1,0,1:0:0:0:
512,96,39077,5,10,1:0:0:0:
383,150,39251,1,0,1:0:0:0:
274,73,39426,5,0,1:0:0:0:
274,73,39600,1,2,0:0:0:0:
274,73,39774,1,8,1:0:0:0:
383,150,39949,2,0,B|353:248|393:197|356:297,1,150,2|0,0:0|3:0,0:0:0:0:
288,384,40472,1,8,1:0:0:0:
270,369,40559,1,0,3:0:0:0:
263,348,40647,1,2,3:2:0:0:
422,363,40821,5,0,1:0:0:0:
273,248,40995,2,0,P|203:272|128:285,2,150,2|2|2,0:0|0:0|0:0,0:0:0:0:
383,150,41867,1,8,1:0:0:0:
277,95,42042,1,0,0:0:0:0:
346,8,42216,6,0,P|342:26|336:46,3,37.5,2|0|0|0,3:2|3:0|3:0|3:0,0:0:0:0:
277,95,42565,2,0,P|280:113|287:133,3,37.5,10|0|2|0,1:0|3:0|3:2|3:0,0:0:0:0:
255,86,42913,1,0,1:0:0:0:
228,79,43000,1,0,1:0:0:0:
201,81,43087,1,2,1:2:0:0:
177,93,43176,1,0,1:0:0:0:
160,113,43262,2,0,P|156:87|148:63,3,37.5,10|0|2|0,1:0|1:0|1:2|1:0,0:0:0:0:
176,192,43612,5,0,1:0:0:0:
70,292,43786,1,0,1:0:0:0:
35,151,43961,1,8,1:0:0:0:
35,151,44048,1,0,1:0:0:0:
35,151,44135,1,0,1:0:0:0:
35,151,44222,1,0,1:0:0:0:
35,151,44309,2,0,P|23:103|2:37,2,112.5,2|2|2,1:0|0:1|0:1,0:0:0:0:
21,339,45007,6,0,P|77:335|133:322,1,112.5,0|0,1:0|0:0,0:0:0:0:
131,322,45356,2,0,P|171:334|206:341,1,75,8|0,1:0|0:0,0:0:0:0:
374,266,45705,2,0,P|420:276|454:280,2,75,0|2|8,1:0|3:0|1:0,0:0:0:0:
374,266,46141,1,2,3:0:0:0:
374,266,46228,1,2,3:0:0:0:
316,384,46402,1,0,1:0:0:0:
316,384,46490,2,0,P|294:339|288:292,1,75,2|0,3:0|0:0,0:0:0:0:
248,297,46751,1,8,1:1:0:0:
332,199,46926,5,2,3:2:0:0:
332,199,47013,1,2,3:0:0:0:
332,199,47100,2,0,P|350:189|382:187,7,37.5,2|2|2|2|8|2|2|2,3:0|3:2|3:2|3:2|1:0|1:3|1:3|1:3,0:0:0:0:
377,249,47798,5,2,1:3:0:0:
377,249,47885,1,2,3:0:0:0:
377,249,47972,1,2,3:0:0:0:
377,249,48059,1,2,3:0:0:0:
377,249,48147,1,8,1:0:0:0:
408,348,48321,1,2,3:0:0:0:
508,316,48495,1,2,1:3:0:0:
477,217,48670,2,0,P|485:181|498:62,1,150,2|0,3:0|1:0,0:0:0:0:
400,0,49193,6,0,P|401:23|406:41,7,37.5,2|2|2|2|8|2|2|2,1:2|3:2|3:2|3:2|1:1|3:2|3:2|3:2,0:0:0:0:
443,58,49891,1,2,1:3:0:0:
431,83,49978,1,2,1:3:0:0:
413,103,50065,1,2,1:3:0:0:
389,115,50152,1,2,1:3:0:0:
363,116,50240,2,0,P|381:135|395:156,3,37.5,10|2|10|2,1:0|1:3|1:2|1:3,0:0:0:0:
384,178,50588,6,0,B|303:152|232:139,1,150,4|8,1:0|1:0,0:0:0:0:
46,366,51286,2,0,B|86:379|121:385,1,75,0|2,1:0|3:0,0:0:0:0:
256,336,51635,2,0,P|275:339|302:345,2,37.5,8|2|2,1:0|3:0|3:0,0:0:0:0:
155,241,51984,5,2,1:1:0:0:
228,384,52158,1,2,3:1:0:0:
289,258,52333,1,10,3:1:0:0:
77,183,52507,2,0,P|67:258|119:322,1,150,2|2,3:1|3:1,0:0:0:0:
228,384,53030,1,10,1:1:0:0:
289,258,53204,1,2,3:1:0:0:
352,336,53379,5,2,1:3:0:0:
375,332,53466,1,2,3:0:0:0:
398,328,53553,1,2,3:0:0:0:
422,325,53640,1,2,3:0:0:0:
446,322,53728,2,0,P|458:282|460:233,1,75,8|2,1:1|3:0,0:0:0:0:
378,223,54077,1,0,1:0:0:0:
512,172,54251,1,2,3:0:0:0:
394,66,54426,2,0,P|406:106|408:155,1,75,8|2,1:0|3:0,0:0:0:0:
378,223,54774,6,0,B|281:227|331:249|222:240,1,150,2|2,1:2|1:2,0:0:0:0:
160,176,55298,2,0,P|162:157|171:134,3,37.5,0|0|2|2,1:0|1:0|1:3|1:3,0:0:0:0:
0,263,55734,5,2,1:3:0:0:
22,286,55821,1,8,1:0:0:0:
26,317,55908,1,0,1:0:0:0:
32,349,55995,1,0,1:0:0:0:
54,371,56082,1,0,1:0:0:0:
50,384,56170,6,0,P|84:386|121:375,1,75,4|2,1:0|0:0,0:0:0:0:
190,272,56519,2,0,P|189:234|202:199,2,75,8|2|0,0:0|0:0|1:0,0:0:0:0:
286,384,57042,1,2,0:0:0:0:
286,384,57216,2,0,P|323:381|357:366,1,75,8|0,3:2|0:0,0:0:0:0:
422,292,57565,6,0,P|468:285|432:272,2,112.5,4|4|4,3:0|3:0|3:0,0:0:0:0:
324,240,58263,1,2,3:2:0:0:
334,219,58350,1,2,0:0:0:0:
350,202,58437,1,2,0:0:0:0:
368,185,58524,1,2,0:0:0:0:
388,177,58612,2,0,L|357:134,3,37.5,10|2|2|2,3:2|3:2|3:2|3:2,0:0:0:0:
366,146,58961,6,0,P|419:137|462:125,1,75,0|2,1:0|0:0,0:0:0:0:
288,64,59309,2,0,P|235:55|192:43,1,75,8|2,3:2|0:0,0:0:0:0:
379,62,59658,2,0,P|410:18|432:-20,1,75,0|2,1:0|0:0,0:0:0:0:
271,154,60006,2,0,P|227:185|188:207,1,75,8|2,3:2|0:0,0:0:0:0:
208,195,60269,2,0,L|217:245,3,37.5,2|2|2|2,3:2|1:2|3:2|3:2,0:0:0:0:
80,96,60705,2,0,P|94:147|101:191,1,75,8|2,3:2|0:0,0:0:0:0:
0,241,61054,5,2,3:2:0:0:
7,268,61141,1,2,0:0:0:0:
28,289,61228,1,2,0:0:0:0:
56,297,61315,1,2,0:0:0:0:
83,291,61402,2,0,L|73:329,3,37.5,10|2|2|2,3:1|3:2|3:2|3:2,0:0:0:0:
97,369,61751,5,4,1:0:0:0:
203,357,61925,1,2,0:0:0:0:
272,261,62100,1,8,3:2:0:0:
410,276,62274,1,2,0:0:0:0:
332,383,62449,1,0,1:0:0:0:
332,383,62536,1,0,1:0:0:0:
332,383,62623,1,2,3:2:0:0:
272,261,62798,2,0,P|255:217|248:177,2,75,8|2|0,3:2|0:0|1:0,0:0:0:0:
410,276,63321,5,2,3:2:0:0:
410,276,63408,1,2,3:2:0:0:
332,383,63583,1,2,3:2:0:0:
332,383,63670,1,2,3:2:0:0:
272,261,63844,2,0,P|252:271|226:273,7,37.5,2|2|2|2|10|2|2|2,3:2|0:0|0:0|0:0|3:2|3:2|3:2|3:2,0:0:0:0:
180,267,64542,5,0,1:0:0:0:
148,192,64716,1,2,0:0:0:0:
180,116,64891,1,8,3:2:0:0:
256,84,65065,1,2,0:0:0:0:
331,116,65240,1,2,3:2:0:0:
363,192,65414,1,2,0:0:0:0:
331,267,65588,1,8,3:2:0:0:
255,299,65763,1,2,3:2:0:0:
180,267,65937,6,0,P|167:235|163:184,1,75,4|2,0:0|0:0,0:0:0:0:
332,266,66286,2,0,P|345:232|349:195,1,75,12|2,0:0|0:0,0:0:0:0:
256,48,66635,5,0,1:0:0:0:
256,48,66722,1,0,1:0:0:0:
256,48,66809,2,0,L|256:96,1,37.5,0|0,1:0|1:0,0:0:0:0:
256,96,66984,2,0,L|256:208,1,112.5,0|0,1:0|1:0,3:0:0:0:
162,195,67333,6,0,P|120:190|80:165,1,75,2|2,1:2|0:0,0:0:0:0:
350,195,67681,2,0,P|391:190|431:165,1,75,10|2,1:0|0:0,0:0:0:0:
256,384,68205,1,2,0:0:0:0:
160,288,68379,1,10,1:1:0:0:
256,192,68554,1,2,0:0:0:0:
352,288,68728,5,2,1:2:0:0:
160,288,68990,5,2,1:2:0:0:
352,288,69251,5,2,1:2:0:0:
256,384,69426,5,2,1:2:0:0:
256,288,69600,1,0,1:0:0:0:
256,192,69774,2,0,L|256:112,1,75,0|0,1:0|1:0,0:0:0:0:
176,80,70123,5,2,1:2:0:0:
336,80,70298,1,2,3:2:0:0:
192,48,70472,1,10,1:0:0:0:
320,48,70647,1,2,3:2:0:0:
176,80,70821,1,2,1:2:0:0:
336,80,70996,1,2,3:2:0:0:
192,48,71170,1,10,1:0:0:0:
320,48,71345,1,2,3:2:0:0:
256,0,71519,5,2,1:2:0:0:
192,172,71693,2,0,B|160:176,4,18.75,0|0|0|0|0,1:0|1:0|1:0|1:0|1:0,3:0:0:0:
320,172,72042,2,0,B|352:176,4,18.75,0|0|0|0|0,1:0|1:0|1:0|1:0|1:0,3:0:0:0:
256,256,72391,1,0,1:0:0:0:
192,352,72565,1,0,1:0:0:0:
224,368,72652,1,0,1:0:0:0:
256,384,72739,1,0,1:0:0:0:
288,368,72826,1,0,1:0:0:0:
320,352,72914,1,0,1:0:0:0:
192,352,73088,6,0,P|206:306|213:259,1,75,2|10,0:0|1:0,0:0:0:0:
320,352,73437,2,0,P|306:306|299:259,1,75,2|0,0:0|1:0,0:0:0:0:
160,192,73786,5,2,0:0:0:0:
352,192,74135,1,2,0:0:0:0:
256,256,74309,5,2,1:2:0:0:
256,176,74484,1,2,1:2:0:0:
256,176,74571,1,2,1:2:0:0:
256,96,74745,1,2,1:2:0:0:
256,96,74833,1,2,1:2:0:0:
256,16,75007,5,2,1:3:0:0:
160,96,75181,1,2,1:3:0:0:
256,176,75356,1,2,1:3:0:0:
352,96,75530,1,2,1:3:0:0:
256,16,75705,5,2,1:2:0:0:
352,96,75879,1,2,3:2:0:0:
256,176,76054,1,10,1:0:0:0:
160,96,76228,1,2,3:2:0:0:
256,16,76402,5,0,1:0:0:0:
256,16,76489,1,0,1:0:0:0:
256,16,76576,1,2,1:2:0:0:
256,192,76751,2,0,L|256:272,2,75,10|2|0,1:0|3:2|1:0,0:0:0:0:
256,176,77187,5,0,1:0:0:0:
256,16,77362,1,0,1:0:0:0:
256,16,77449,1,0,1:0:0:0:
160,96,77623,5,0,1:0:0:0:
162,109,77711,1,0,1:0:0:0:
165,122,77798,1,0,1:0:0:0:
166,135,77885,1,0,1:0:0:0:
169,148,77972,2,0,B|174:173,4,18.75,0|0|0|0|0,1:0|1:0|1:0|1:0|1:0,3:0:0:0:
343,148,78321,2,0,B|337:173,2,18.75,0|0|0,1:0|1:0|1:0,3:0:0:0:
352,96,78495,5,4,1:0:0:0:
256,192,86867,12,2,89309,0:3:0:0:
208,224,89658,6,0,P|151:215|104:197,1,104.999996795654,6|8,1:2|0:2,0:0:0:0:
106,198,90181,1,2,0:0:0:0:
106,198,90355,1,2,3:2:0:0:
304,160,90704,1,8,3:2:0:0:
304,160,90879,2,0,P|361:169|408:187,2,104.999996795654,2|2|2,0:0|0:0|0:0,0:0:0:0:
247,70,91751,2,0,P|239:42|237:11,2,52.4999983978272,2|2|8,3:2|3:2|3:2,0:0:0:0:
183,157,92274,1,2,3:2:0:0:
183,157,92362,1,2,3:2:0:0:
183,157,92448,6,0,P|139:166|82:171,2,104.999996795654,2|8|2,3:2|3:2|3:2,0:0:0:0:
247,70,93320,1,2,0:0:0:0:
208,239,93495,1,8,0:0:0:0:
288,144,93669,2,0,P|241:126|185:122,1,104.999996795654,2|2,0:0|3:0,0:0:0:0:
186,122,94105,1,2,3:0:0:0:
186,122,94193,5,8,3:2:0:0:
64,128,94367,2,0,P|43:123|26:117,2,26.2499991989136,2|2|2,3:0|3:0|3:0,3:0:0:0:
130,196,94716,1,2,3:2:0:0:
30,283,94890,1,8,3:2:0:0:
65,384,95065,1,2,0:0:0:0:
65,384,95152,1,2,0:0:0:0:
65,384,95239,6,0,P|71:329|83:296,1,78.7499975967408,0|0,1:0|0:0,0:0:0:0:
79,307,95588,2,0,P|120:296|149:295,1,52.4999983978272,8|2,0:0|0:0,0:0:0:0:
192,224,95937,2,0,P|224:230|259:246,1,52.4999983978272,2|0,3:2|0:0,0:0:0:0:
367,384,96286,5,10,0:0:0:0:
367,384,96373,1,2,0:0:0:0:
367,384,96460,2,0,B|363:333|342:266,2,104.999996795654,2|2|2,0:0|0:0|0:0,0:0:0:0:
367,384,97332,2,0,B|420:376|474:335,1,104.999996795654,2|8,3:0|3:2,0:0:0:0:
512,253,97856,1,2,3:2:0:0:
512,253,97943,1,2,3:2:0:0:
512,253,98030,5,4,1:0:0:0:
461,137,98204,1,0,1:0:0:0:
382,256,98379,1,8,1:2:0:0:
0,253,98728,5,4,1:0:0:0:
51,137,98902,1,0,1:0:0:0:
130,256,99077,1,8,1:2:0:0:
256,80,99426,5,0,1:0:0:0:
336,144,99600,2,0,L|355:148,4,13.1249995994568,0|0|0|0|8,1:0|1:0|1:0|1:0|1:1,3:0:0:0:
176,144,99949,2,0,L|157:148,4,13.1249995994568,0|0|0|0|0,1:0|1:0|1:0|0:0|1:0,3:0:0:0:
256,288,100298,1,2,1:2:0:0:
256,192,100472,1,10,1:1:0:0:
256,152,100559,1,0,1:0:0:0:
256,112,100647,1,0,1:0:0:0:
256,72,100734,1,0,1:0:0:0:
256,32,100821,6,0,P|226:38|160:95,1,112.5,4|0,1:0|0:0,0:0:0:0:
163,89,101170,1,8,1:0:0:0:
256,144,101344,1,2,3:2:0:0:
256,32,101519,2,0,P|285:38|352:95,1,112.5,2|0,1:2|0:0,0:0:0:0:
383,153,101867,1,8,1:0:0:0:
383,153,101955,1,0,3:0:0:0:
383,153,102042,6,0,P|376:200|361:234,1,75,2|0,3:2|1:0,0:0:0:0:
307,339,102391,2,0,P|360:329|408:309,1,75,2|8,3:2|1:0,0:0:0:0:
451,268,102739,1,2,3:2:0:0:
264,257,102914,2,0,P|220:252|181:233,1,75,2|0,1:2|3:0,0:0:0:0:
112,304,103176,1,2,3:2:0:0:
112,304,103263,2,0,P|158:299|204:287,1,75,8|2,1:1|3:2,0:0:0:0:
247,169,103612,5,0,1:0:0:0:
73,193,103786,1,2,0:0:0:0:
247,169,103961,1,8,1:0:0:0:
73,193,104135,1,2,0:0:0:0:
247,169,104309,5,2,1:2:0:0:
247,169,104396,1,2,0:0:0:0:
247,169,104484,2,0,P|239:244|221:333,2,150,2|2|2,3:2|3:2|3:2,0:0:0:0:
269,148,105269,2,0,L|256:86,1,37.5,0|8,1:0|1:1,0:0:0:0:
370,38,105530,1,2,3:2:0:0:
232,117,105705,1,0,1:0:0:0:
114,18,105879,1,2,3:2:0:0:
232,117,106054,2,0,P|221:151|216:195,1,75,8|2,1:0|3:2,0:0:0:0:
254,211,106315,1,2,3:2:0:0:
281,244,106402,6,0,P|270:299|258:326,1,75,4|0,1:0|0:0,0:0:0:0:
186,351,106751,1,8,1:0:0:0:
104,275,106926,1,2,3:2:0:0:
186,351,107100,2,0,P|260:344|342:308,1,150,0|8,1:0|1:0,0:0:0:0:
375,384,107536,1,2,0:0:0:0:
375,384,107623,2,0,B|390:278|372:336|383:232,1,150,2|2,0:0|3:2,0:0:0:0:
466,157,108147,1,8,1:0:0:0:
410,243,108321,1,2,3:2:0:0:
466,157,108495,2,0,B|407:157|358:130,1,112.5,2|0,1:2|0:0,0:0:0:0:
358,130,108844,1,8,1:0:0:0:
313,49,109019,1,0,3:0:0:0:
313,49,109106,1,0,3:0:0:0:
313,49,109193,6,0,L|304:-1,3,37.5,4|0|2|0,1:0|3:0|3:2|3:0,0:0:0:0:
352,64,109542,2,0,L|402:55,3,37.5,10|0|2|0,1:1|3:0|3:2|3:0,0:0:0:0:
328,102,109891,2,0,L|337:152,3,37.5,4|0|2|0,1:0|1:0|1:2|1:0,0:0:0:0:
289,87,110240,2,0,L|239:96,3,37.5,10|0|2|0,1:1|1:0|1:2|1:0,0:0:0:0:
214,138,110588,6,0,P|225:197|271:293,1,150,0|8,1:0|1:0,3:0:0:0:
337,384,111111,1,0,1:0:0:0:
396,283,111286,5,4,1:0:0:0:
238,317,111460,1,0,1:0:0:0:
88,332,111635,1,10,1:0:0:0:
240,290,111809,1,2,0:0:0:0:
128,224,111984,6,0,P|118:177|111:97,1,112.5,4|0,1:0|0:0,0:0:0:0:
111,112,112333,2,0,P|65:98|22:88,2,75,8|2|2,1:0|3:2|1:2,0:0:0:0:
207,19,112856,2,0,P|252:5|295:-4,2,75,2|8|2,3:2|1:0|3:2,0:0:0:0:
256,192,113379,12,10,114426,3:1:0:0:
256,192,114774,5,0,1:0:0:0:
208,272,114949,5,2,0:0:0:0:
208,272,115036,1,2,0:0:0:0:
208,272,115123,2,0,L|216:315,1,37.5,8|2,1:0|3:2,0:0:0:0:
297,308,115298,2,0,L|304:272,1,37.5,2|2,3:2|3:2,0:0:0:0:
256,192,115472,1,2,1:2:0:0:
256,192,115647,6,0,P|202:175|102:153,1,150,2|0,0:0|0:0,0:0:0:0:
9,230,116170,1,2,1:2:0:0:
1,256,116257,1,2,3:2:0:0:
3,284,116344,1,2,3:2:0:0:
14,309,116431,1,2,3:2:0:0:
32,330,116518,1,8,1:0:0:0:
114,384,116693,6,0,P|206:362|280:360,1,150,2|2,3:1|3:1,0:0:0:0:
302,215,117216,1,8,1:0:0:0:
197,307,117391,1,0,1:0:0:0:
317,384,117565,6,0,P|334:289|349:234,1,150,4|8,1:0|1:1,0:0:0:0:
455,234,118088,1,2,1:2:0:0:
455,234,118176,1,0,1:0:0:0:
455,234,118263,1,0,1:0:0:0:
272,192,118437,2,0,P|266:141|251:105,1,75,2|8,3:2|1:0,0:0:0:0:
398,272,118786,6,0,B|314:218|258:278|178:215,1,225,2|8,3:2|1:0,0:0:0:0:
46,277,119484,1,0,3:0:0:0:
142,348,119658,1,0,1:0:0:0:
142,348,119745,1,2,3:2:0:0:
142,348,119833,2,0,B|134:384,2,37.5,2|2|10,3:2|3:2|1:0,0:0:0:0:
46,277,120181,1,2,3:2:0:0:
39,248,120268,1,2,3:2:0:0:
46,230,120356,6,0,B|87:222,1,37.5,2|0,1:2|3:0,0:0:0:0:
82,222,120530,2,0,B|124:214,1,37.5,0|0,3:0|3:0,0:0:0:0:
119,215,120705,2,0,B|160:207,1,37.5,10|0,1:0|3:0,0:0:0:0:
155,207,120879,2,0,B|196:199,1,37.5,0|0,3:0|3:0,0:0:0:0:
249,243,121054,6,0,B|290:234,1,37.5,2|0,1:2|1:0,0:0:0:0:
285,235,121228,2,0,B|326:226,1,37.5,2|0,1:2|1:0,0:0:0:0:
321,228,121403,2,0,B|362:219,1,37.5,10|0,1:0|1:0,0:0:0:0:
358,220,121577,2,0,B|399:211,1,37.5,2|0,1:2|1:0,0:0:0:0:
415,205,121751,1,2,1:3:0:0:
429,185,121838,1,2,1:3:0:0:
436,161,121925,1,2,1:3:0:0:
436,137,122012,1,2,1:3:0:0:
428,114,122099,1,8,1:0:0:0:
403,0,122274,5,2,3:0:0:0:
431,0,122362,1,2,3:0:0:0:
455,17,122449,5,2,3:0:0:0:
276,119,122711,5,0,1:0:0:0:
438,247,122972,5,0,1:0:0:0:
438,247,123147,6,0,P|400:262|363:262,1,75,4|0,1:0|0:0,0:0:0:0:
256,384,123495,2,0,P|294:369|331:369,1,75,8|0,1:0|0:0,0:0:0:0:
264,181,123844,1,0,1:0:0:0:
264,181,124019,2,0,P|251:226|229:269,1,75,2|8,3:0|1:0,0:0:0:0:
240,251,124280,1,2,0:0:0:0:
240,251,124367,1,2,3:0:0:0:
152,329,124542,5,0,1:0:0:0:
152,329,124629,1,2,3:0:0:0:
59,384,124804,1,2,3:0:0:0:
59,384,124891,1,8,1:0:0:0:
0,281,125065,1,2,3:2:0:0:
15,263,125152,1,2,3:0:0:0:
33,248,125240,6,0,L|97:262,1,37.5,2|2,1:3|3:2,0:0:0:0:
144,222,125414,2,0,L|80:236,1,37.5,2|2,3:2|3:2,0:0:0:0:
31,215,125588,2,0,L|95:229,1,37.5,8|2,1:0|1:3,0:0:0:0:
142,189,125762,2,0,L|78:203,1,37.5,2|2,1:3|1:3,0:0:0:0:
12,191,125937,5,2,3:0:0:0:
9,173,126024,1,2,3:0:0:0:
13,157,126111,1,2,3:0:0:0:
23,144,126198,1,2,3:0:0:0:
38,135,126285,1,8,3:1:0:0:
162,82,126461,1,2,3:0:0:0:
0,0,126635,1,2,1:3:0:0:
162,82,126809,2,0,B|222:99|240:46|317:57,1,150,2|2,3:0|3:0,0:0:0:0:
412,0,127333,6,0,L|404:47,1,37.5,2|2,1:3|3:2,0:0:0:0:
365,44,127507,2,0,L|357:91,1,37.5,2|2,3:2|3:2,0:0:0:0:
434,41,127681,2,0,L|426:88,1,37.5,10|2,1:0|3:2,0:0:0:0:
387,85,127855,2,0,L|379:132,1,37.5,2|2,3:2|3:2,0:0:0:0:
381,147,128030,1,2,1:3:0:0:
386,172,128117,1,2,1:3:0:0:
393,198,128204,1,2,1:3:0:0:
405,223,128291,1,2,1:3:0:0:
419,245,128379,2,0,L|463:226,3,37.5,10|2|10|2,1:0|1:3|1:2|1:3,0:0:0:0:
403,276,128728,6,0,P|344:265|301:261,1,75,4|0,1:0|0:0,0:0:0:0:
408,384,129077,2,0,P|446:380|481:361,1,75,8|0,1:0|0:0,0:0:0:0:
249,315,129426,2,0,P|237:274|237:224,1,75,0|2,1:0|3:0,0:0:0:0:
271,136,129775,1,8,1:0:0:0:
271,136,129862,1,2,3:0:0:0:
271,136,129949,1,2,3:0:0:0:
193,242,130123,5,2,1:1:0:0:
342,227,130298,1,2,3:1:0:0:
432,214,130472,1,10,1:1:0:0:
193,242,130647,6,0,P|118:223|40:213,1,150,2|0,3:1|0:0,0:0:0:0:
102,342,131170,1,10,1:1:0:0:
102,342,131344,1,2,0:0:0:0:
254,375,131519,1,2,1:3:0:0:
278,358,131606,1,2,3:0:0:0:
293,331,131693,1,2,3:0:0:0:
295,301,131780,1,2,3:0:0:0:
286,273,131867,1,8,1:1:0:0:
193,242,132042,2,0,P|183:193|177:142,1,75,2|2,3:0|1:3,0:0:0:0:
304,48,132391,2,0,P|313:96|319:147,1,75,2|8,0:0|1:1,0:0:0:0:
383,213,132740,1,2,3:0:0:0:
286,273,132914,6,2,P|211:255|135:247,1,150,2|8,1:2|1:1,0:0:0:0:
99,384,133437,1,2,0:0:0:0:
99,384,133524,1,2,0:0:0:0:
99,384,133612,5,2,1:3:0:0:
99,384,133699,1,2,1:3:0:0:
0,297,133873,1,2,1:3:0:0:
0,297,133960,1,8,1:0:0:0:
118,216,134135,1,0,1:0:0:0:
118,216,134222,1,0,1:0:0:0:
118,216,134309,6,0,P|128:180|133:127,1,75,4|2,1:0|0:0,0:0:0:0:
102,41,134658,1,8,0:0:0:0:
256,0,134833,2,0,P|266:35|271:89,1,75,2|0,0:0|1:0,0:0:0:0:
240,175,135182,1,2,0:0:0:0:
359,117,135356,1,8,3:2:0:0:
240,175,135530,1,2,0:0:0:0:
344,257,135705,6,0,P|405:249|461:226,2,112.5,4|4|4,3:0|3:0|3:0,0:0:0:0:
255,347,136402,1,2,3:2:0:0:
255,347,136489,1,2,0:0:0:0:
255,347,136576,1,2,0:0:0:0:
255,347,136663,1,2,0:0:0:0:
255,347,136751,2,0,L|248:396,3,37.5,10|2|2|2,1:2|3:2|3:2|3:2,0:0:0:0:
205,329,137099,5,0,1:0:0:0:
188,226,137274,1,2,0:0:0:0:
205,329,137449,1,8,3:2:0:0:
188,226,137624,1,2,0:0:0:0:
324,158,137798,1,0,1:0:0:0:
307,55,137973,1,2,0:0:0:0:
324,158,138148,1,8,3:2:0:0:
307,55,138321,1,2,3:2:0:0:
307,55,138408,1,2,3:2:0:0:
307,55,138495,2,0,L|298:-3,2,37.5,2|2|2,1:2|3:2|3:2,0:0:0:0:
163,167,138844,2,0,P|198:179|235:182,1,75,8|2,3:2|0:0,0:0:0:0:
512,87,139193,6,0,B|504:128,1,37.5,2|2,1:2|0:0,0:0:0:0:
504,123,139367,2,0,B|496:165,1,37.5,2|2,0:0|0:0,0:0:0:0:
497,160,139542,2,0,B|489:201,1,37.5,10|2,3:1|3:2,0:0:0:0:
489,196,139716,2,0,B|481:237,1,37.5,2|2,3:2|3:2,0:0:0:0:
474,267,139891,5,4,1:0:0:0:
368,255,140065,1,2,0:0:0:0:
299,159,140240,1,8,3:2:0:0:
161,174,140414,1,2,0:0:0:0:
239,281,140589,1,0,1:0:0:0:
239,281,140676,1,2,0:0:0:0:
239,281,140763,1,2,0:0:0:0:
299,159,140938,2,0,P|316:115|323:75,2,75,8|2|0,3:2|0:0|1:0,0:0:0:0:
161,174,141461,5,2,3:2:0:0:
161,174,141548,1,2,3:2:0:0:
239,281,141723,1,2,3:2:0:0:
239,281,141810,1,2,3:2:0:0:
299,159,141984,2,0,P|319:169|345:171,7,37.5,2|2|2|2|10|2|2|2,1:2|0:0|0:0|0:0|3:2|3:2|3:2|3:2,0:0:0:0:
365,200,142681,5,0,1:0:0:0:
456,210,142856,1,2,0:0:0:0:
512,137,143030,1,8,3:2:0:0:
479,52,143205,1,2,0:0:0:0:
386,41,143379,1,0,1:0:0:0:
386,41,143466,1,2,3:2:0:0:
386,41,143554,1,2,0:0:0:0:
329,111,143728,1,8,3:2:0:0:
329,111,143902,1,2,0:0:0:0:
365,200,144077,6,0,P|352:247|330:284,1,75,4|2,1:2|0:0,0:0:0:0:
173,199,144426,2,0,P|155:153|151:110,1,75,12|2,0:0|0:0,0:0:0:0:
256,0,144774,1,0,1:0:0:0:
257,20,144861,1,0,1:0:0:0:
259,41,144948,1,0,1:0:0:0:
261,63,145035,1,0,1:0:0:0:
263,78,145123,2,0,L|264:109,8,18.75,8|0|0|0|0|0|0|0|6,1:0|1:0|1:0|1:0|1:0|1:0|1:0|0:0|1:2,3:0:0:0:
256,192,145559,12,0,146693,0:0:0:0:
324,230,146867,5,8,3:0:0:0:
254,113,147129,5,8,3:0:0:0:
188,233,147391,5,8,3:0:0:0:
256,192,147565,5,8,3:0:0:0:
256,288,147740,1,8,3:0:0:0:
256,384,147914,1,8,3:0:0:0:
256,384,148263,5,2,3:2:0:0:
256,192,148350,12,2,149484,0:0:0:0:
190,226,149658,6,0,P|179:184|176:122,1,75,0|0,3:0|0:0,1:0:0:0:
322,226,150007,2,0,P|333:184|336:122,1,75,0|0,3:0|0:0,1:0:0:0:
336,152,150269,2,0,P|347:110|350:48,1,75,0|0,3:0|3:0,0:0:0:0:
350,78,150530,1,0,3:0:0:0:
176,152,150705,2,0,P|165:110|162:48,1,75,2|2,3:2|3:2,0:0:0:0:
256,16,151054,5,0,3:0:0:0:
256,192,151141,12,2,152274,0:0:0:0:
254,271,152449,5,8,3:0:0:0:
188,151,152623,1,8,3:0:0:0:
188,151,152711,1,8,3:0:0:0:
324,151,152885,1,8,3:0:0:0:
324,151,152972,1,8,3:0:0:0:
256,192,153147,5,8,3:0:0:0:
256,96,153322,1,8,3:0:0:0:
256,0,153496,1,8,3:0:0:0:
256,96,153670,1,2,0:0:0:0:
256,192,153844,5,0,3:0:0:0:
192,288,154019,1,0,3:0:0:0:
256,384,154193,1,0,3:0:0:0:
320,288,154367,1,0,3:0:0:0:
256,192,154542,5,2,3:2:0:0:
176,96,154717,1,2,3:2:0:0:
256,0,154891,1,2,3:2:0:0:
336,96,155065,1,2,3:2:0:0:
256,192,155240,5,0,1:0:0:0:
256,192,155327,2,0,L|256:144,1,37.5,0|0,1:0|1:0,0:0:0:0:
174,295,155501,1,0,1:0:0:0:
174,295,155588,2,0,L|144:272,1,37.5,0|0,1:0|1:0,0:0:0:0:
337,294,155763,1,0,1:0:0:0:
337,294,155850,1,0,1:0:0:0:
337,294,155937,2,0,L|368:272,1,37.5,0|0,1:0|1:0,0:0:0:0:
256,352,156112,2,0,B|256:384,4,18.75,0|0|0|0|0,1:0|1:0|1:0|1:0|1:0,3:0:0:0:
256,192,156461,6,0,B|256:160,4,18.75,0|0|0|0|4,1:0|1:0|1:0|0:0|1:0,3:0:0:0:
256,192,165007,12,2,167449,0:3:0:0:
150,155,167623,6,0,P|138:158|128:163,2,18.75,0|0|0,1:0|1:0|1:0,1:0:0:0:
172,161,167798,6,0,P|184:207|194:275,1,104.999996795654,4|8,1:2|0:0,0:0:0:0:
100,301,168321,1,2,0:0:0:0:
153,384,168495,2,0,P|201:379|264:362,1,104.999996795654,2|8,3:2|0:0,0:0:0:0:
336,304,169019,2,0,P|387:324|450:334,2,104.999996795654,2|2|2,0:0|0:0|0:0,0:0:0:0:
294,164,169891,2,0,P|283:192|284:218,1,52.4999983978272,0|2,3:0|0:0,0:0:0:0:
283,214,170152,1,2,0:0:0:0:
283,214,170240,1,10,0:0:0:0:
385,295,170414,5,2,3:2:0:0:
373,332,170501,1,0,3:0:0:0:
362,369,170588,2,0,P|332:381|302:384,1,52.4999983978272,2|0,3:2|0:0,0:0:0:0:
146,338,170937,2,0,P|175:325|205:322,1,52.4999983978272,8|0,0:0|0:0,0:0:0:0:
287,220,171286,1,2,0:0:0:0:
287,220,171461,2,0,B|295:150|304:107,2,104.999996795654,2|2|2,0:0|0:0|0:3,0:0:0:0:
284,233,172245,6,0,B|279:266,1,26.2499991989136,2|10,0:3|0:0,0:0:0:0:
385,295,172507,2,2,B|390:262,1,26.2499991989136,2|2,0:3|0:3,0:0:0:0:
395,229,172681,2,0,B|400:196,2,26.2499991989136,2|2|2,0:3|0:0|0:0,0:0:0:0:
310,384,173030,1,8,3:2:0:0:
195,321,173205,5,2,3:2:0:0:
195,321,173292,1,2,3:2:0:0:
195,321,173379,2,0,P|132:315|88:304,1,104.999996795654,2|8,1:2|0:0,0:0:0:0:
224,165,173902,1,2,0:0:0:0:
224,165,174077,2,0,P|161:171|117:182,1,104.999996795654,2|10,3:2|0:0,0:0:0:0:
112,192,174513,1,2,0:0:0:0:
112,192,174600,6,0,P|89:159|81:83,2,104.999996795654,2|2|0,0:0|0:0|3:0,0:0:0:0:
171,271,175385,1,0,3:0:0:0:
171,271,175472,2,0,P|164:306|153:337,2,52.4999983978272,2|2|8,3:2|0:0|3:2,0:0:0:0:
63,284,175995,1,2,3:2:0:0:
63,284,176082,1,2,3:2:0:0:
63,284,176169,5,0,1:0:0:0:
140,336,176343,1,0,1:0:0:0:
0,384,176518,1,8,1:2:0:0:
449,284,176867,5,0,1:0:0:0:
372,336,177041,1,0,1:0:0:0:
512,384,177216,1,8,1:2:0:0:
256,304,177565,5,0,1:0:0:0:
336,240,177740,2,0,L|355:236,4,13.1249995994568,0|0|0|0|8,1:0|1:0|1:0|1:0|1:0,3:0:0:0:
176,240,178088,2,0,L|157:236,4,13.1249995994568,0|0|0|0|0,1:0|1:0|1:0|0:0|1:0,3:0:0:0:
256,304,178437,1,0,1:0:0:0:
256,192,178611,1,10,1:0:0:0:
272,160,178698,1,0,1:0:0:0:
240,128,178786,1,0,1:0:0:0:
272,96,178873,1,0,1:0:0:0:
240,64,178961,6,0,B|184:70|122:82,1,112.5,4|0,1:0|0:0,0:0:0:0:
128,80,179309,1,8,1:0:0:0:
0,128,179484,1,2,3:2:0:0:
103,219,179658,2,0,B|61:231|21:248,1,75,2|2,1:2|0:0,0:0:0:0:
32,243,179920,1,0,0:0:0:0:
32,243,180007,1,8,1:0:0:0:
0,384,180181,6,0,B|29:374|72:366,1,75,2|0,3:2|1:0,0:0:0:0:
234,327,180530,2,0,B|205:317|161:310,2,75,2|8|2,3:2|1:0|3:2,0:0:0:0:
393,384,181054,1,2,1:2:0:0:
336,272,181228,1,0,3:0:0:0:
336,272,181315,1,2,3:2:0:0:
336,272,181402,2,0,B|347:243|357:201,1,75,8|2,1:1|3:2,0:0:0:0:
265,57,181751,6,0,P|272:107|289:155,1,75,0|0,1:0|0:0,0:0:0:0:
407,117,182100,1,8,1:0:0:0:
245,221,182274,1,2,0:0:0:0:
362,341,182449,1,2,1:2:0:0:
362,341,182623,2,0,P|454:315|515:288,2,150,2|2|2,3:2|3:2|3:2,0:0:0:0:
354,337,183408,1,0,3:0:0:0:
347,331,183495,2,0,P|340:295|334:241,1,75,8|2,1:1|3:2,0:0:0:0:
447,209,183844,1,0,1:0:0:0:
319,153,184019,1,2,3:2:0:0:
435,15,184193,2,0,P|445:64|447:104,1,75,8|2,1:0|3:2,0:0:0:0:
446,88,184455,1,2,3:2:0:0:
446,88,184542,5,4,1:0:0:0:
66,88,184891,1,8,1:0:0:0:
6,191,185065,1,2,3:2:0:0:
99,260,185240,2,0,P|173:254|245:226,1,150,0|8,1:0|1:0,0:0:0:0:
268,176,185676,1,2,0:0:0:0:
319,153,185763,2,0,P|363:168|401:192,2,75,2|2|2,0:0|1:2|3:2,0:0:0:0:
256,32,186286,5,8,1:0:0:0:
256,32,186461,1,2,3:2:0:0:
188,154,186635,2,0,P|152:166|115:171,1,75,2|0,1:2|0:0,0:0:0:0:
324,230,186984,2,0,P|359:217|396:212,1,75,8|0,1:0|3:0,0:0:0:0:
404,216,187245,1,0,3:0:0:0:
411,222,187333,6,0,L|416:279,1,37.5,4|0,1:0|3:0,0:0:0:0:
421,338,187507,2,0,L|424:375,1,37.5,2|0,3:2|3:0,0:0:0:0:
506,365,187681,2,0,L|503:328,1,37.5,10|0,3:1|3:0,0:0:0:0:
496,249,187855,2,0,L|493:212,1,37.5,2|0,3:2|3:0,0:0:0:0:
491,169,188030,6,0,L|486:112,1,37.5,4|0,1:0|1:0,0:0:0:0:
481,53,188204,2,0,L|477:15,1,37.5,2|0,1:2|1:0,0:0:0:0:
395,25,188378,2,0,L|398:62,1,37.5,10|0,1:1|1:0,0:0:0:0:
405,141,188554,2,0,L|408:178,1,37.5,2|0,1:2|1:0,0:0:0:0:
411,222,188728,6,0,B|334:201|373:226|286:198,1,112.5,0|0,1:0|1:0,3:0:0:0:
300,202,189077,1,0,1:0:0:0:
278,343,189251,1,0,1:0:0:0:
192,288,189426,5,4,1:0:0:0:
355,263,189600,1,0,1:0:0:0:
377,384,189774,1,2,1:0:0:0:
377,384,190123,5,4,1:0:0:0:
474,279,190298,2,0,P|488:240|494:200,1,75,2|8,0:0|1:0,0:0:0:0:
350,73,190647,2,0,P|353:120|377:193,1,112.5,2|0,0:0|0:0,0:0:0:0:
372,183,190995,2,0,P|325:190|289:209,2,75,2|8|2,0:0|1:0|0:0,0:0:0:0:
469,91,191519,5,0,1:0:0:0:
469,91,191693,1,2,0:0:0:0:
377,384,192042,1,2,0:0:0:0:
377,384,192216,1,0,1:0:0:0:
468,323,192391,1,2,0:0:0:0:
377,384,192565,1,8,1:0:0:0:
468,323,192739,1,2,0:0:0:0:
403,233,192914,6,0,P|349:237|293:258,1,112.5,0|0,1:0|0:0,0:0:0:0:
294,257,193263,1,8,1:0:0:0:
170,384,193437,2,0,P|191:341|208:266,1,112.5,2|0,0:0|0:0,0:0:0:0:
207,279,193785,2,0,P|168:250|130:237,2,75,2|8|2,0:0|1:0|0:0,0:0:0:0:
353,282,194309,5,0,1:0:0:0:
418,158,194483,1,2,0:0:0:0:
446,253,194658,1,8,1:0:0:0:
324,187,194832,1,2,0:0:0:0:
353,282,195007,2,0,P|347:319|336:354,2,75,0|2|10,1:0|0:0|1:0,0:0:0:0:
472,197,195530,1,0,1:0:0:0:
365,71,195705,5,0,1:0:0:0:
365,71,195879,2,0,P|410:55|446:50,1,75,2|8,0:0|1:0,0:0:0:0:
324,187,196228,2,0,P|241:180|178:145,1,150,2|2,0:0|0:0,0:0:0:0:
191,0,196751,5,8,1:0:0:0:
145,169,196926,1,2,0:0:0:0:
0,120,197100,1,0,1:0:0:0:
124,189,197274,2,0,P|128:240|141:270,1,75,2|8,0:0|1:0,0:0:0:0:
109,384,197623,2,0,P|161:360|228:348,1,112.5,2|0,0:0|0:0,0:0:0:0:
240,336,197972,2,0,P|280:348|316:362,2,75,2|8|2,0:0|1:0|0:0,0:0:0:0:
224,208,198495,6,0,L|228:158,1,37.5,2|0,1:2|3:0,0:0:0:0:
320,128,198670,2,0,L|316:178,1,37.5,0|0,3:0|3:0,0:0:0:0:
248,229,198844,2,0,L|252:179,1,37.5,10|0,1:1|3:0,0:0:0:0:
344,149,199019,2,0,L|340:199,1,37.5,2|0,3:2|3:0,0:0:0:0:
392,302,199193,6,0,L|396:252,1,37.5,0|0,1:0|1:0,0:0:0:0:
488,222,199368,2,0,L|484:272,1,37.5,2|0,1:2|1:0,0:0:0:0:
416,323,199542,2,0,L|420:273,1,37.5,10|0,1:0|1:0,0:0:0:0:
512,243,199717,2,0,L|508:293,1,37.5,2|0,1:2|1:0,0:0:0:0:
407,352,199891,6,0,P|370:363|325:366,1,75,0|0,1:0|1:0,0:0:0:0:
191,241,200240,1,8,1:0:0:0:
184,278,200327,1,0,1:0:0:0:
191,316,200414,1,0,1:0:0:0:
207,351,200501,1,0,1:0:0:0:
232,378,200588,5,2,1:0:0:0:
351,266,200850,5,2,3:1:0:0:
294,122,201112,5,2,0:1:0:0:
351,266,201286,6,0,P|448:246|508:225,1,150,4|8,1:0|1:1,0:0:0:0:
496,229,201809,1,2,3:2:0:0:
427,114,201984,2,0,P|437:78|443:41,1,75,2|2,1:2|0:0,0:0:0:0:
294,122,202333,1,8,1:0:0:0:
351,266,202507,1,2,0:0:0:0:
256,192,202594,12,10,203728,3:1:0:0:
256,192,204077,5,0,1:0:0:0:
309,110,204251,1,2,3:2:0:0:
303,87,204339,1,2,3:2:0:0:
291,65,204426,2,0,L|332:58,3,37.5,8|2|2|2,1:0|3:2|3:2|3:2,0:0:0:0:
344,33,204774,1,2,1:2:0:0:
138,0,204950,6,0,P|143:40|166:126,1,112.5,2|0,3:2|0:0,0:0:0:0:
160,109,205298,2,0,P|196:108|238:120,1,75,2|2,3:2|1:2,0:0:0:0:
269,143,205559,1,2,3:2:0:0:
286,182,205646,2,0,P|280:206|273:221,2,37.5,2|2|8,3:2|3:2|1:0,0:0:0:0:
512,82,205996,2,0,P|440:89|360:112,1,150,2|2,3:1|0:1,0:0:0:0:
179,205,206519,1,8,1:2:0:0:
294,309,206694,1,0,1:0:0:0:
146,378,206867,6,0,P|74:370|-5:347,1,150,4|8,1:0|1:0,0:0:0:0:
71,266,207391,1,2,3:2:0:0:
71,266,207565,2,0,P|75:314|85:342,1,75,2|2,1:2|3:2,0:0:0:0:
193,239,207914,2,0,P|189:191|179:163,1,75,8|2,1:0|3:2,0:0:0:0:
256,192,208176,12,0,208786,0:0:0:0:
256,256,208961,6,0,L|256:293,7,37.5,2|2|2|2|10|2|2|2,1:2|3:2|0:0|0:0|3:1|3:2|0:0|0:0,0:0:0:0:
270,180,209658,6,0,L|277:144,1,37.5,2|0,1:2|3:0,0:0:0:0:
192,64,209833,2,0,L|199:100,1,37.5,0|0,3:0|3:0,0:0:0:0:
242,180,210007,6,0,L|235:143,1,37.5,10|0,1:0|3:0,0:0:0:0:
320,63,210181,2,0,L|313:100,1,37.5,0|0,3:0|3:0,0:0:0:0:
199,181,210356,6,0,L|192:144,1,37.5,2|0,1:2|1:0,0:0:0:0:
313,181,210531,2,0,L|320:144,1,37.5,2|0,1:2|1:0,0:0:0:0:
352,224,210705,6,0,L|345:260,1,37.5,10|0,1:0|1:0,0:0:0:0:
160,224,210879,2,0,L|167:260,1,37.5,2|0,1:2|1:0,0:0:0:0:
256,336,211054,5,0,1:0:0:0:
341,379,211228,2,0,L|364:384,4,18.75,0|0|0|0|8,1:0|1:0|1:0|0:0|1:0,3:0:0:0:
171,379,211577,2,0,L|148:384,4,18.75,0|0|0|0|0,1:0|1:0|1:0|0:0|1:0,3:0:0:0:
256,336,211926,1,0,1:0:0:0:
256,192,212100,1,8,1:0:0:0:
216,192,212187,1,0,1:0:0:0:
176,192,212275,1,0,1:0:0:0:
136,192,212362,1,0,1:0:0:0:
96,192,212449,6,0,P|102:222|159:288,1,112.5,4|0,1:0|0:0,0:0:0:0:
152,284,212798,1,8,1:0:0:0:
255,333,212972,1,2,3:2:0:0:
416,192,213147,2,0,P|410:222|353:288,1,112.5,0|0,1:0|0:0,0:0:0:0:
359,284,213495,1,8,1:0:0:0:
288,240,213670,5,2,3:2:0:0:
208,160,213844,1,0,1:0:0:0:
304,160,214019,5,2,3:2:0:0:
224,240,214193,1,8,1:0:0:0:
288,240,214367,5,2,3:2:0:0:
152,95,214542,2,0,P|187:82|225:79,1,75,0|2,1:0|3:2,0:0:0:0:
256,64,214804,1,0,1:0:0:0:
287,79,214891,2,0,P|331:84|370:103,1,75,8|2,1:1|3:2,0:0:0:0:
416,192,215240,5,0,1:0:0:0:
400,288,215414,1,0,0:0:0:0:
256,192,215589,1,8,1:0:0:0:
256,272,215763,1,0,0:0:0:0:
96,192,215937,1,0,1:0:0:0:
112,288,216111,1,2,3:2:0:0:
96,192,216286,1,8,1:1:0:0:
65,327,216461,6,0,P|97:336|153:346,1,75,2|0,3:2|1:0,0:0:0:0:
256,272,216809,1,2,3:2:0:0:
256,272,216897,1,0,3:0:0:0:
256,272,216984,1,8,1:1:0:0:
256,384,217158,1,2,3:2:0:0:
447,327,217333,2,0,P|415:336|359:346,1,75,0|2,1:0|3:2,0:0:0:0:
222,308,217682,6,0,P|211:274|206:230,1,75,8|2,1:0|3:2,0:0:0:0:
256,192,217943,1,2,3:2:0:0:
305,235,218030,2,0,P|301:272|289:308,1,75,4|0,1:0|0:0,0:0:0:0:
160,240,218379,6,0,P|149:206|144:162,1,75,8|2,1:0|3:2,0:0:0:0:
367,167,218728,2,0,P|363:204|352:240,1,75,0|0,1:0|3:0,0:0:0:0:
256,384,219077,1,8,1:0:0:0:
256,384,219164,1,0,3:0:0:0:
255,384,219251,2,0,B|265:277|250:336|256:231,1,150,2|2,0:0|3:2,0:0:0:0:
368,144,219775,1,8,1:0:0:0:
256,80,219949,1,2,3:2:0:0:
144,144,220123,2,0,B|144:203|171:252,1,112.5,0|0,1:0|0:0,0:0:0:0:
170,251,220472,1,8,1:0:0:0:
38,300,220647,1,2,3:2:0:0:
38,300,220734,1,0,3:0:0:0:
38,300,220821,6,0,L|-12:291,3,37.5,4|0|2|0,1:0|3:0|3:2|3:0,0:0:0:0:
53,339,221170,2,0,L|44:389,3,37.5,10|0|2|0,1:1|3:0|3:2|3:0,0:0:0:0:
91,315,221519,2,0,L|141:324,3,37.5,4|0|2|0,1:0|1:0|1:2|1:0,0:0:0:0:
76,276,221868,2,0,L|85:226,3,37.5,10|0|2|0,1:1|1:0|1:2|1:0,0:0:0:0:
0,194,222216,5,0,1:0:0:0:
64,128,222391,2,0,B|58:79,2,37.5,0|0|2,1:0|1:0|1:0,0:0:0:0:
135,227,222740,1,0,1:0:0:0:
135,227,222827,1,0,1:0:0:0:
135,227,222914,1,4,1:0:0:0:
321,203,223088,1,0,1:0:0:0:
135,227,223263,1,2,1:0:0:0:
321,203,223437,1,0,1:0:0:0:
113,266,223612,5,4,1:0:0:0:
113,266,223786,2,0,P|95:232|93:185,1,75,2|8,0:0|1:0,0:0:0:0:
367,131,224135,2,0,P|364:210|335:275,1,150,2|2,0:0|0:0,0:0:0:0:
257,383,224658,2,0,P|249:346|246:309,1,75,8|2,1:0|0:0,0:0:0:0:
145,326,225007,5,0,1:0:0:0:
339,304,225181,1,2,0:0:0:0:
339,304,225356,1,8,1:0:0:0:
331,209,225530,1,2,0:0:0:0:
137,231,225704,1,0,1:0:0:0:
137,231,225879,1,0,3:0:0:0:
122,136,226054,1,8,1:0:0:0:
316,114,226228,1,2,3:2:0:0:
122,136,226402,6,0,P|125:76|143:22,1,112.5,0|0,1:0|0:0,0:0:0:0:
140,26,226751,1,8,1:0:0:0:
0,209,226926,2,0,B|63:220|68:167|154:183,1,150,2|2,0:0|0:0,0:0:0:0:
224,271,227449,1,8,1:0:0:0:
184,384,227623,1,0,0:0:0:0:
261,278,227798,5,0,1:0:0:0:
113,328,227972,1,2,0:0:0:0:
298,287,228147,1,8,1:0:0:0:
144,181,228321,1,2,0:0:0:0:
184,384,228495,5,0,1:0:0:0:
329,256,228670,1,2,0:0:0:0:
144,181,228844,1,10,1:0:0:0:
184,384,229019,1,0,1:0:0:0:
379,316,229193,5,0,1:0:0:0:
379,316,229367,2,0,P|391:274|399:213,1,75,2|8,0:0|1:0,0:0:0:0:
463,384,229716,2,0,B|394:394|384:337|310:349,1,150,2|2,0:0|0:0,0:0:0:0:
240,176,230240,2,0,P|246:212|257:248,1,75,8|2,1:0|0:0,0:0:0:0:
446,253,230588,5,0,1:0:0:0:
446,253,230763,2,0,P|457:215|462:176,1,75,2|8,0:0|1:0,0:0:0:0:
186,92,231112,2,0,P|200:169|222:244,1,150,2|2,0:0|0:0,0:0:0:0:
66,350,231635,2,0,P|104:369|146:377,1,75,8|2,1:0|0:0,0:0:0:0:
391,286,231984,5,2,1:2:0:0:
391,276,232071,1,0,3:0:0:0:
392,267,232158,1,0,3:0:0:0:
392,257,232245,1,0,3:0:0:0:
393,248,232332,1,10,1:0:0:0:
394,239,232420,1,0,3:0:0:0:
394,229,232507,1,2,3:2:0:0:
396,220,232594,1,0,3:0:0:0:
396,210,232681,1,0,1:0:0:0:
397,201,232768,1,0,1:0:0:0:
398,192,232856,1,2,1:2:0:0:
398,182,232943,1,0,1:0:0:0:
399,173,233030,1,10,1:0:0:0:
401,164,233117,1,0,1:0:0:0:
402,154,233204,1,2,1:2:0:0:
402,145,233292,1,0,1:0:0:0:
403,136,233379,5,0,1:0:0:0:
256,32,233553,1,0,1:0:0:0:
208,208,233728,2,0,L|202:165,1,37.5,8|0,1:0|1:0,0:0:0:0:
309,170,233902,2,0,L|304:208,1,37.5,0|0,1:0|1:0,0:0:0:0:
256,304,234076,5,2,1:0:0:0:
256,304,234338,5,2,0:1:0:0:
256,304,234600,5,2,0:1:0:0:
158,376,234774,6,0,P|143:321|137:264,1,112.5,0|0,1:0|0:0,0:0:0:0:
137,265,235123,2,0,P|112:231|94:200,1,75,8|0,1:0|0:0,0:0:0:0:
196,73,235472,2,0,P|206:27|210:-7,2,75,0|2|8,1:0|3:0|1:0,0:0:0:0:
99,102,235908,1,2,3:0:0:0:
99,102,235995,1,2,3:0:0:0:
261,228,236169,1,0,1:0:0:0:
261,228,236257,1,2,3:0:0:0:
346,173,236431,1,2,3:0:0:0:
346,173,236519,2,0,P|357:129|357:83,1,75,8|2,1:0|3:0,0:0:0:0:
370,96,236780,1,2,3:0:0:0:
394,107,236867,6,0,L|446:98,1,37.5,2|2,1:3|3:2,0:0:0:0:
430,100,237042,2,0,L|482:91,1,37.5,2|2,3:2|3:2,0:0:0:0:
466,93,237216,2,0,L|475:145,1,37.5,8|2,1:0|1:3,0:0:0:0:
473,129,237391,2,0,L|482:181,1,37.5,2|2,1:3|1:3,0:0:0:0:
487,189,237565,5,2,1:3:0:0:
476,213,237652,1,2,3:0:0:0:
458,232,237739,1,2,3:0:0:0:
432,240,237826,1,2,3:0:0:0:
406,236,237914,2,0,P|411:289|427:326,1,75,8|2,1:0|3:0,0:0:0:0:
251,384,238262,1,2,1:3:0:0:
251,384,238437,2,0,P|265:348|278:232,1,150,2|2,3:0|0:0,0:0:0:0:
177,200,238960,6,0,L|138:204,7,37.5,2|2|2|2|10|2|2|2,1:2|3:2|3:2|3:2|1:0|3:2|3:2|3:2,0:0:0:0:
138,195,239658,1,2,1:3:0:0:
137,185,239745,1,2,1:3:0:0:
136,176,239832,1,2,1:3:0:0:
134,167,239919,1,2,1:3:0:0:
133,157,240006,1,10,1:0:0:0:
131,148,240094,1,2,1:3:0:0:
130,139,240181,1,10,1:2:0:0:
128,130,240268,1,2,1:3:0:0:
125,119,240355,6,0,B|209:102|275:96,1,150,4|8,1:0|1:0,0:0:0:0:
440,0,241054,2,0,B|425:40|411:70,1,75,0|2,1:0|3:0,0:0:0:0:
512,172,241402,1,8,1:0:0:0:
512,172,241490,1,2,3:0:0:0:
512,172,241577,1,2,3:0:0:0:
416,304,241751,6,0,L|367:297,1,37.5,2|0,1:1|3:0,0:0:0:0:
302,286,241926,2,0,L|253:279,1,37.5,2|0,3:1|3:0,0:0:0:0:
438,308,242100,1,10,3:1:0:0:
234,384,242274,2,0,P|221:318|192:223,1,150,2|2,3:1|3:1,0:0:0:0:
71,299,242797,1,10,1:1:0:0:
208,226,242971,1,2,3:1:0:0:
109,169,243146,5,2,1:3:0:0:
113,146,243233,1,2,3:0:0:0:
117,123,243320,1,2,3:0:0:0:
120,99,243407,1,2,3:0:0:0:
123,75,243495,2,0,P|163:63|212:61,1,75,8|2,1:1|3:0,0:0:0:0:
302,237,243844,1,0,1:0:0:0:
353,103,244018,1,2,3:0:0:0:
459,221,244193,2,0,P|419:209|370:207,1,75,8|2,1:0|3:0,0:0:0:0:
302,237,244541,6,0,B|206:256|259:270|150:278,1,150,2|8,1:2|1:0,0:0:0:0:
95,348,245065,2,0,P|97:367|106:390,3,37.5,0|0|2|2,1:0|1:0|1:3|1:3,0:0:0:0:
14,262,245501,1,2,1:3:0:0:
14,262,245588,2,0,P|5:245|0:221,3,37.5,8|0|0|0,1:0|1:0|1:0|1:0,0:0:0:0:
48,160,245937,6,0,P|103:145|160:139,1,112.5,0|0,1:0|0:0,0:0:0:0:
158,139,246286,2,0,P|200:132|238:122,1,75,8|0,1:0|0:0,0:0:0:0:
357,0,246635,2,0,P|364:42|374:80,1,75,2|2,1:3|3:0,0:0:0:0:
512,131,246984,1,8,1:0:0:0:
512,131,247071,1,2,3:0:0:0:
512,131,247158,1,2,3:0:0:0:
407,210,247332,1,0,1:0:0:0:
407,210,247420,1,2,3:0:0:0:
299,210,247594,1,2,3:0:0:0:
299,210,247682,1,8,1:1:0:0:
222,270,247856,1,2,3:0:0:0:
222,270,247943,1,2,3:0:0:0:
222,270,248030,6,0,L|231:322,1,37.5,2|2,1:3|3:2,0:0:0:0:
228,306,248205,2,0,L|237:358,1,37.5,2|2,3:2|3:2,0:0:0:0:
143,384,248379,2,0,L|134:332,1,37.5,8|2,1:0|1:3,0:0:0:0:
136,348,248554,2,0,L|127:296,1,37.5,2|2,1:3|1:3,0:0:0:0:
125,295,248728,5,2,1:3:0:0:
114,271,248815,1,2,1:3:0:0:
96,252,248902,1,2,1:3:0:0:
70,244,248989,1,2,1:3:0:0:
44,248,249077,2,0,P|49:195|65:158,1,75,8|2,1:1|3:3,0:0:0:0:
0,62,249425,1,2,1:3:0:0:
153,0,249600,2,0,P|167:36|180:152,1,150,2|2,3:2|0:3,0:0:0:0:
288,224,250123,6,0,L|340:215,1,37.5,2|2,1:3|3:2,0:0:0:0:
324,218,250298,2,0,L|376:209,1,37.5,2|2,3:2|3:2,0:0:0:0:
368,128,250472,2,0,L|420:119,1,37.5,10|2,1:0|3:2,0:0:0:0:
404,121,250647,2,0,L|456:112,1,37.5,2|2,3:2|3:2,0:0:0:0:
512,176,250821,1,2,1:3:0:0:
511,186,250908,1,2,1:3:0:0:
510,195,250995,1,2,1:3:0:0:
508,204,251082,1,2,1:3:0:0:
507,214,251169,1,10,1:0:0:0:
505,223,251257,1,2,1:3:0:0:
504,232,251344,1,10,1:2:0:0:
502,241,251431,1,2,1:3:0:0:
499,250,251518,6,0,B|415:267|349:273,1,150,4|8,1:0|1:0,0:0:0:0:
258,384,252042,1,0,3:0:0:0:
258,384,252217,2,0,B|245:342|238:311,1,75,0|2,1:0|3:0,0:0:0:0:
156,273,252478,1,0,3:0:0:0:
156,273,252565,2,0,P|136:277|112:287,2,37.5,8|2|2,1:1|3:2|3:2,0:0:0:0:
350,272,252914,6,0,L|357:223,1,37.5,2|0,1:1|3:0,0:0:0:0:
368,158,253089,1,2,3:1:0:0:
371,140,253176,1,0,3:0:0:0:
373,121,253263,2,0,L|380:72,1,37.5,10|0,1:1|3:0,0:0:0:0:
380,66,253437,2,0,B|270:24|344:89|232:40,1,150,2|0,3:1|0:0,0:0:0:0:
190,236,253961,2,0,P|184:201|170:154,1,75,10|0,1:1|0:0,0:0:0:0:
0,0,254309,5,2,1:3:0:0:
4,23,254396,1,2,3:0:0:0:
8,46,254483,1,2,3:0:0:0:
11,70,254570,1,2,3:0:0:0:
14,94,254658,2,0,P|54:106|103:108,1,75,8|2,1:1|3:0,0:0:0:0:
270,323,255007,1,0,1:0:0:0:
219,189,255181,1,2,3:0:0:0:
88,322,255356,1,8,1:1:0:0:
190,236,255530,1,0,0:0:0:0:
270,323,255704,6,2,B|365:343|312:357|421:365,1,150,2|8,1:3|1:0,0:0:0:0:
412,364,256228,6,0,P|414:343|422:319,1,37.5,2|0,1:2|3:0,0:0:0:0:
498,305,256402,1,2,1:3:0:0:
501,314,256489,1,2,1:3:0:0:
504,323,256576,1,0,1:3:0:0:
506,332,256664,1,2,1:3:0:0:
508,341,256751,1,8,1:0:0:0:
509,351,256838,1,2,3:0:0:0:
510,360,256925,1,2,1:3:0:0:
511,369,257012,1,2,1:3:0:0:
511,379,257100,1,4,1:0:0:0:
