osu file format v14

[General]
AudioFilename: audio.mp3
AudioLeadIn: 2000
PreviewTime: 234077
Countdown: 0
SampleSet: Soft
StackLeniency: 0.7
Mode: 0
LetterboxInBreaks: 0
WidescreenStoryboard: 1

[Editor]
Bookmarks: 11519,22681,35065,45007,56170,67333,78495,89658,100821,111984,123147,134309,145472,156635,167798,178961,190123,201286,223612,234774,257100
DistanceSpacing: 1.1
BeatDivisor: 4
GridSize: 8
TimelineZoom: 2.5

[Metadata]
Title:smooooch -Akiba Koubou mix- / Remixed by DJ Command
TitleUnicode:smooooch ・∀・-秋葉工房 mix- / Remixed by DJ Command
Artist:kors k
ArtistUnicode:kors k
Creator:AJT
Version:chanmann's hard
Source:beatmania IIDX 16 EMPRESS
Tags:electronic english instrumental video game trance eurobeat candy rave yokespai bloxi chanmann jounzan evilelvis evilelvisv2 natteke desu reflec beat beatstream アニムトライヴ animtribe dancedancerevolution x2 dancerush stardom hello! pop'n music 19 tune street ポップンリズミン rhythmin' jubeat saucer plus jukebeat ミライダガッキ mirai dagakki futuretomtom konami
BeatmapID:4463275
BeatmapSetID:2079191

[Difficulty]
HPDrainRate:5
CircleSize:3.6
OverallDifficulty:6
ApproachRate:8
SliderMultiplier:1.7
SliderTickRate:1

[Events]
//Background and Video events
0,0,"Oag4zeQ.jpg",0,0
//Break Periods
2,78695,83327
2,156835,161466
//Storyboard Layer 0 (Background)
//Storyboard Layer 1 (Fail)
//Storyboard Layer 2 (Pass)
//Storyboard Layer 3 (Foreground)
//Storyboard Layer 4 (Overlay)
//Storyboard Sound Samples

[TimingPoints]
-1039,348.837209302326,4,2,0,50,1,0
22681,-100,4,2,0,80,0,0
78844,-100,4,2,0,50,0,0
89658,-166.666666666667,4,2,0,65,0,0
95240,-111.111111111111,4,2,0,65,0,0
100821,-100,4,2,0,80,0,0
145472,-111.111111111111,4,2,0,65,0,0
167798,-166.666666666667,4,2,0,65,0,0
173728,-111.111111111111,4,2,0,65,0,0
178786,-100,4,2,0,80,0,0
203379,-90.9090909090909,4,2,0,80,0,0
204077,-100,4,2,0,80,0,0
208961,-90.9090909090909,4,2,0,80,0,0
209658,-100,4,2,0,80,0,0
234774,-100,4,2,0,90,0,0
273844,-100,4,2,0,5,0,0

[Colours]
Combo1 : 1,181,216
Combo2 : 255,241,192
Combo3 : 255,82,151
Combo4 : 92,225,255

[HitObjects]
93,142,22681,6,0,P|116:109|181:110,1,85,4|0,1:2|0:0,0:0:0:0:
214,171,23030,1,8,1:0:0:0:
171,244,23205,1,2,0:0:0:0:
214,171,23379,2,0,L|30:146,1,170,2|8,1:2|1:0,0:0:0:0:
62,67,23902,5,2,3:2:0:0:
62,67,24251,1,2,3:2:0:0:
232,93,24600,5,2,3:2:0:0:
232,93,24774,1,2,1:2:0:0:
173,154,24949,6,0,L|170:187,3,28.3333333333333,2|0|0|8,3:2|3:0|3:0|1:0,0:0:0:0:
254,184,25298,1,2,1:2:0:0:
173,154,25472,6,0,P|167:217|164:249,1,85,2|0,1:2|0:0,0:0:0:0:
213,306,25821,2,0,P|255:307|289:282,1,85,8|0,1:0|0:0,0:0:0:0:
152,366,26170,1,2,1:2:0:0:
152,366,26344,2,0,P|108:343|51:323,1,85,2|8,3:2|1:0,0:0:0:0:
35,252,26693,5,2,3:2:0:0:
35,252,27042,2,0,L|86:246,3,28.3333333333333,2|2|2|8,3:2|3:0|3:0|1:1,0:0:0:0:
115,181,27391,1,2,3:2:0:0:
183,229,27565,1,2,1:2:0:0:
238,163,27740,1,2,3:0:0:0:
304,215,27914,1,8,1:0:0:0:
357,148,28088,1,2,3:2:0:0:
434,184,28263,6,0,P|433:236|422:268,1,85,4|0,1:0|0:0,0:0:0:0:
345,298,28612,1,8,1:0:0:0:
386,372,28786,1,2,3:2:0:0:
345,298,28961,2,0,L|159:286,1,170,0|8,1:0|1:0,0:0:0:0:
115,349,29484,5,2,3:2:0:0:
115,349,29833,1,2,3:2:0:0:
52,191,30181,5,2,3:2:0:0:
52,191,30356,2,0,P|38:244|206:269,1,255,2|0,1:2|0:0,0:0:0:0:
258,252,31054,5,4,1:2:0:0:
346,262,31228,1,2,3:2:0:0:
383,182,31402,1,8,1:1:0:0:
319,123,31577,1,2,3:2:0:0:
243,166,31751,1,6,1:2:0:0:
155,178,31926,1,2,1:2:0:0:
115,100,32100,1,8,1:0:0:0:
177,39,32274,1,2,1:2:0:0:
255,78,32449,1,6,1:2:0:0:
140,292,32798,5,8,1:0:0:0:
212,246,32972,1,2,3:2:0:0:
140,292,33147,2,0,L|55:299,1,85,4|0,1:0|1:0,0:0:0:0:
286,278,33495,2,0,L|371:271,1,85,0|0,1:0|1:0,0:0:0:0:
219,332,33844,5,6,1:2:0:0:
212,246,34019,2,0,L|204:161,1,85,2|0,3:2|0:0,0:0:0:0:
193,77,34367,2,0,P|167:149|55:163,2,170,2|2|2,3:2|3:2|3:2,0:2:0:0:
107,85,35240,6,0,P|108:44|144:6,1,85,0|0,1:2|0:0,0:0:0:0:
193,77,35588,2,0,P|222:48|275:47,1,85,8|0,1:0|0:0,0:0:0:0:
259,132,35937,2,0,P|300:133|338:169,1,85,0|0,1:2|0:0,0:0:0:0:
266,217,36286,2,0,P|294:246|295:299,1,85,8|0,1:1|0:0,0:0:0:0:
220,324,36635,6,0,P|178:319|135:316,1,85,2|0,1:2|0:0,0:0:0:0:
68,262,36984,1,8,1:0:0:0:
83,174,37158,2,0,P|109:102|221:88,2,170,2|2|2,3:2|3:2|3:2,0:0:0:0:
169,166,38030,6,0,P|168:207|132:245,1,85,0|0,1:0|0:0,0:0:0:0:
243,225,38379,2,0,P|271:254|272:307,1,85,8|0,1:0|0:0,0:0:0:0:
337,213,38728,2,0,P|378:215|411:241,1,85,0|0,1:0|0:0,0:0:0:0:
395,138,39077,2,0,P|425:109|466:105,1,85,8|0,1:0|1:0,0:0:0:0:
468,190,39426,5,4,1:2:0:0:
395,138,39600,2,0,L|405:53,1,85,2|0,3:2|0:0,0:0:0:0:
326,86,39949,2,0,P|244:93|191:11,1,170,2|2,3:2|3:2,0:0:0:0:
33,91,40647,1,2,3:2:0:0:
100,142,40821,6,0,P|90:208|82:239,1,85,0|0,1:0|0:0,0:0:0:0:
69,309,41170,2,0,P|131:323|166:327,1,85,8|0,1:0|0:0,0:0:0:0:
236,337,41519,2,0,P|242:295|252:253,1,85,0|0,1:0|0:0,0:0:0:0:
274,171,41867,2,0,P|232:164|190:154,1,85,8|0,1:0|0:0,0:0:0:0:
100,142,42216,6,0,L|93:198,7,42.5,0|0|0|0|8|0|0|0,3:2|1:0|1:0|1:0|1:0|1:0|1:2|3:0,0:0:0:0:
127,211,42914,2,0,L|121:254,7,42.5,4|0|0|0|8|0|0|0,1:0|1:0|1:2|1:0|1:0|1:0|1:2|1:0,0:0:0:0:
144,288,43612,6,0,L|228:296,1,85,0|0,1:0|1:0,0:0:0:0:
313,304,43961,1,8,1:0:0:0:
312,321,44048,1,0,1:0:0:0:
310,338,44135,1,0,1:0:0:0:
398,309,44309,1,0,1:0:0:0:
22,121,45007,6,0,L|106:131,1,85,6|0,1:2|0:0,0:0:0:0:
191,143,45356,2,0,L|201:58,1,85,8|0,1:0|0:0,0:0:0:0:
281,156,45705,1,2,1:2:0:0:
281,156,45879,2,0,L|365:166,1,85,2|8,3:2|1:0,0:0:0:0:
450,171,46228,1,2,3:2:0:0:
505,106,46402,6,0,L|499:63,1,42.5,0|2,1:0|3:2,0:0:0:0:
422,26,46664,2,0,L|417:69,1,42.5,2|8,3:2|1:1,0:0:0:0:
342,109,46926,1,2,3:2:0:0:
277,51,47100,6,0,B|186:39|186:39|121:68|121:68|30:57,1,255,0|0,1:0|1:3,0:0:0:0:
25,153,47798,2,0,L|30:195,3,42.5,2|2|0|0,1:2|3:2|0:2|0:2,0:2:0:0:
20,218,48147,2,0,L|104:207,1,85,8|2,1:0|3:2,0:0:0:0:
117,299,48495,1,2,1:2:0:0:
209,284,48670,2,0,L|293:273,1,85,2|8,3:2|1:0,0:0:0:0:
308,365,49019,1,2,3:2:0:0:
402,354,49193,6,0,B|393:262|393:262|351:205|351:205|343:113,1,255,2|2,1:2|3:2,0:0:0:0:
435,98,49891,2,0,L|437:140,2,42.5,2|2|2,1:2|3:2|3:2,0:0:0:0:
373,27,50240,1,8,1:0:0:0:
291,53,50414,5,8,1:2:0:0:
291,53,50501,1,0,1:0:0:0:
291,53,50588,2,0,L|301:137,1,85,4|0,1:0|0:0,0:0:0:0:
216,149,50937,2,0,L|131:159,1,85,8|0,1:0|1:0,0:0:0:0:
50,168,51286,1,2,1:2:0:0:
50,168,51461,2,0,L|60:252,1,85,2|8,3:2|1:0,0:0:0:0:
71,336,51809,1,2,3:2:0:0:
147,290,51984,5,2,1:2:0:0:
163,380,52158,1,2,3:2:0:0:
247,366,52333,1,8,3:1:0:0:
331,354,52507,2,0,P|319:279|304:180,1,170,2|2,3:2|3:2,0:0:0:0:
290,102,53030,1,8,1:1:0:0:
357,49,53205,1,2,3:2:0:0:
447,68,53379,6,0,L|489:62,3,42.5,2|2|0|0,1:2|3:2|0:0|0:0,0:0:0:0:
504,48,53728,2,0,L|493:132,1,85,8|2,1:1|3:2,0:0:0:0:
478,216,54077,1,0,1:2:0:0:
399,185,54251,1,2,3:0:0:0:
346,252,54426,1,8,1:0:0:0:
265,224,54600,1,2,3:2:0:0:
346,252,54774,6,0,P|250:265|68:302,1,255,0|0,1:2|1:0,0:0:0:0:
48,223,55472,2,0,L|52:155,1,42.5,0|0,1:3|1:3,0:0:0:0:
157,178,55734,2,0,L|129:147,1,42.5,0|8,1:3|1:0,0:0:0:0:
202,69,55995,1,0,1:0:0:0:
180,67,56083,1,0,1:0:0:0:
159,66,56170,6,0,P|198:62|241:11,1,85,6|0,1:2|0:2,0:2:0:0:
301,91,56519,2,0,P|343:97|367:149,1,85,10|0,0:2|0:2,0:2:0:0:
455,86,56867,1,2,1:2:0:0:
455,86,57042,1,2,0:2:0:0:
455,86,57216,1,10,0:2:0:0:
455,86,57391,1,2,0:2:0:0:
507,160,57565,6,2,B|447:164|447:164|402:218,2,127.5,2|2|2,3:2|3:2|3:2,0:2:0:0:
484,242,58263,5,2,1:2:0:0:
421,299,58437,1,2,0:2:0:0:
339,272,58612,1,10,0:2:0:0:
339,272,58961,6,0,P|306:306|254:305,1,85,2|0,1:2|0:2,0:2:0:0:
205,263,59309,1,10,0:2:0:0:
205,263,59484,1,0,0:2:0:0:
277,217,59658,1,2,1:2:0:0:
277,217,59833,1,0,0:2:0:0:
339,272,60007,1,10,0:2:0:0:
270,310,60181,1,2,0:2:0:0:
268,326,60269,1,2,3:2:0:0:
267,342,60356,6,0,P|230:342|170:354,1,85,0|0,1:2|3:2,0:2:0:0:
105,314,60705,1,8,0:2:0:0:
174,264,60879,1,0,0:2:0:0:
97,226,61054,2,0,L|86:166,3,42.5,0|0|0|0,3:2|3:2|3:2|3:2,3:2:0:0:
94,176,61402,1,8,3:2:0:0:
100,165,61490,1,2,3:2:0:0:
105,156,61577,1,2,3:2:0:0:
30,104,61751,6,0,P|18:70|52:35,1,85,4|0,1:2|0:2,0:2:0:0:
128,64,62100,2,0,P|151:36|198:49,1,85,8|0,0:2|0:2,0:2:0:0:
255,126,62449,1,0,1:2:0:0:
255,126,62623,1,0,3:2:0:0:
255,126,62798,1,8,0:2:0:0:
255,126,62972,1,0,0:2:0:0:
332,88,63147,6,0,B|366:117|366:117|415:108,1,85,2|2,1:2|0:2,0:2:0:0:
408,88,63408,1,2,0:2:0:0:
486,133,63583,1,2,0:2:0:0:
483,147,63670,1,2,0:2:0:0:
396,200,63844,5,2,1:2:0:0:
340,265,64019,1,2,0:2:0:0:
391,339,64193,1,10,0:2:0:0:
391,339,64542,6,0,P|350:346|297:370,1,85,2|0,1:2|0:0,0:0:0:0:
238,315,64891,1,10,0:0:0:0:
238,315,65065,1,0,0:0:0:0:
170,366,65240,1,2,1:2:0:0:
170,366,65414,1,0,0:0:0:0:
117,299,65588,2,0,P|77:315|35:322,1,85,10|0,0:2|0:0,0:0:0:0:
5,243,65937,6,0,B|49:146|523:316,1,510,4|0,0:0|0:0,0:0:0:0:
340,368,67333,6,0,L|340:264,1,85,4|0,1:0|0:0,0:0:0:0:
340,200,67681,2,0,L|340:96,2,85,8|0|0,1:0|0:0|1:0,0:0:0:0:
340,283,68205,1,0,0:0:0:0:
256,284,68379,1,8,1:0:0:0:
172,283,68554,1,0,0:0:0:0:
88,284,68728,5,4,1:0:0:0:
88,156,68990,5,0,1:0:0:0:
88,284,69251,5,0,1:0:0:0:
172,283,69426,6,0,L|172:371,1,85,0|0,1:0|0:0,0:0:0:0:
256,284,69774,2,0,L|256:199,1,85,8|0,1:0|0:0,0:0:0:0:
256,108,70123,6,0,L|152:108,1,85,4|0,1:0|0:0,0:0:0:0:
88,108,70472,2,0,L|-16:108,5,85,8|0|0|0|8|0,1:0|0:0|1:0|0:0|1:0|0:0,0:0:0:0:
4,192,71519,5,4,1:0:0:0:
172,192,71867,1,4,1:0:0:0:
88,360,72216,5,4,1:0:0:0:
88,192,72565,2,0,L|88:140,3,42.5,4|0|0|0,1:0|1:0|1:0|1:0,0:0:0:0:
88,112,72914,6,0,L|192:112,1,85,4|0,1:0|0:0,0:0:0:0:
256,108,73263,2,0,L|256:193,1,85,8|0,1:0|0:0,0:0:0:0:
339,112,73612,2,0,L|424:112,1,85,0|0,1:0|0:0,0:0:0:0:
256,193,73961,2,0,L|256:108,1,85,8|0,1:0|0:0,0:0:0:0:
256,24,74309,5,0,1:0:0:0:
340,24,74484,1,0,1:0:0:0:
360,24,74571,1,0,1:0:0:0:
444,24,74745,1,0,1:0:0:0:
464,24,74833,1,0,1:0:0:0:
477,108,75007,6,0,P|443:154|387:159,1,85,0|0,1:0|1:0,0:0:0:0:
339,112,75356,1,0,1:0:0:0:
257,137,75530,1,0,1:0:0:0:
173,112,75705,6,0,L|88:112,1,85,0|0,1:0|0:0,0:0:0:0:
257,137,76054,2,0,L|257:222,1,85,8|0,1:0|0:0,0:0:0:0:
359,128,76402,1,0,1:0:0:0:
348,120,76490,1,0,3:0:0:0:
339,112,76577,2,0,L|424:112,2,85,2|8|0,3:2|1:0|0:0,0:0:0:0:
287,169,77100,5,2,1:2:0:0:
287,169,77274,1,2,1:2:0:0:
287,169,77449,1,10,1:2:0:0:
287,169,77623,1,2,1:2:0:0:
287,169,77798,1,2,1:2:0:0:
287,169,77972,1,2,1:2:0:0:
287,169,78147,1,10,1:2:0:0:
287,169,78321,1,2,1:2:0:0:
287,169,78495,1,6,1:2:0:0:
256,192,84077,12,0,89309,0:0:0:0:
84,148,89658,6,0,P|112:296|298:21,2,815.999975097657,4|0|4,1:2|1:2|0:0,0:0:0:0:
84,148,95588,2,0,P|113:171|156:172,1,76.4999976654053,0|2,0:0|0:0,0:0:0:0:
186,104,95937,2,0,P|166:72|131:58,1,76.4999976654053,0|2,0:0|0:0,0:0:0:0:
46,69,96286,5,0,0:0:0:0:
46,69,96461,1,2,0:0:0:0:
179,144,96809,1,0,0:0:0:0:
312,219,97158,1,0,0:0:0:0:
445,294,97507,1,0,0:0:0:0:
374,166,97856,5,0,1:0:0:0:
374,166,97943,1,0,1:0:0:0:
374,166,98030,2,0,L|457:157,1,76.4999976654053,4|0,1:2|1:0,0:0:0:0:
375,354,98554,5,2,0:0:0:0:
375,354,98728,2,0,L|292:363,1,76.4999976654053,4|0,1:0|1:0,0:0:0:0:
159,232,99251,5,2,0:0:0:0:
159,232,99426,2,0,P|203:176|285:189,3,152.999995330811,0|0|0|0,1:0|1:0|1:0|1:0,0:0:0:0:
221,295,100647,5,0,1:0:0:0:
228,311,100734,1,0,1:0:0:0:
220,327,100821,2,0,L|127:340,1,85,6|0,1:2|0:0,0:0:0:0:
78,276,101170,1,8,1:0:0:0:
159,232,101344,1,2,3:2:0:0:
78,276,101519,2,0,P|24:222|58:126,1,170,2|8,1:2|1:0,0:0:0:0:
101,74,102042,5,2,3:2:0:0:
101,74,102391,1,2,3:2:0:0:
255,141,102740,5,2,3:2:0:0:
255,141,102914,1,2,1:2:0:0:
338,116,103088,6,0,L|344:163,3,28.3333333333333,2|2|2|8,3:0|3:0|3:0|1:0,0:0:0:0:
426,131,103437,1,2,3:2:0:0:
338,116,103612,6,0,L|349:203,1,85,0|0,1:0|0:0,0:0:0:0:
427,262,103961,2,0,P|465:240|513:250,1,85,8|0,1:0|0:0,0:0:0:0:
384,348,104309,1,2,1:2:0:0:
384,348,104484,2,0,P|344:331|299:308,1,85,2|8,0:0|1:0,0:0:0:0:
242,367,104833,1,2,0:0:0:0:
89,294,105181,6,0,L|136:300,3,28.3333333333333,0|0|0|8,1:0|3:0|3:0|1:0,0:0:0:0:
145,216,105530,1,2,3:2:0:0:
218,260,105705,1,2,1:2:0:0:
251,181,105879,1,2,0:2:0:0:
326,222,106054,1,8,1:0:0:0:
360,143,106228,1,2,1:2:0:0:
435,183,106402,6,0,P|422:235|423:267,1,85,4|0,1:0|0:0,0:0:0:0:
490,319,106751,1,8,1:0:0:0:
508,235,106926,1,2,3:2:0:0:
490,319,107100,2,0,P|436:366|334:324,1,170,0|8,1:0|1:0,0:0:0:0:
336,260,107623,5,2,3:2:0:0:
336,260,107972,1,2,3:2:0:0:
186,337,108321,5,2,3:2:0:0:
186,337,108495,2,0,L|446:288,1,255,2|0,1:2|0:0,0:0:0:0:
446,198,109193,5,4,1:2:0:0:
457,116,109367,1,2,3:2:0:0:
380,150,109542,1,8,1:0:0:0:
305,113,109716,1,0,3:2:0:0:
314,197,109891,1,4,1:2:0:0:
255,257,110065,1,0,3:2:0:0:
338,274,110240,1,8,1:0:0:0:
377,349,110414,1,0,3:2:0:0:
436,289,110588,1,4,1:2:0:0:
177,324,110937,5,8,1:0:0:0:
241,380,111112,1,0,1:0:0:0:
177,324,111286,2,0,L|92:317,1,85,4|0,1:0|1:0,0:0:0:0:
317,338,111635,2,0,L|402:345,1,85,0|0,1:0|1:0,0:0:0:0:
253,283,111984,6,0,L|260:198,1,85,4|0,1:2|0:0,0:0:0:0:
176,209,112333,2,0,L|183:124,1,85,8|0,1:0|0:0,0:0:0:0:
171,122,112594,1,0,1:2:0:0:
159,119,112681,1,2,1:2:0:0:
82,83,112856,2,0,L|75:168,1,85,2|8,3:2|1:0,0:0:0:0:
11,222,113205,2,0,P|57:297|157:301,1,170,2|0,3:2|3:0,0:0:0:0:
213,279,113728,2,0,P|217:235|213:183,1,85,8|0,1:0|3:0,0:0:0:0:
296,167,114077,5,0,1:0:0:0:
310,250,114251,1,2,1:2:0:0:
388,285,114426,2,0,P|431:283|469:244,1,85,8|2,1:0|3:2,0:0:0:0:
418,185,114774,6,0,L|425:100,1,85,2|0,1:2|0:0,0:0:0:0:
341,88,115123,2,0,L|347:24,2,42.5,8|2|2,1:0|0:0|3:2,0:0:0:0:
252,88,115472,1,2,1:2:0:0:
252,88,115647,2,0,L|245:173,1,85,2|8,3:2|1:0,0:0:0:0:
161,161,115995,1,2,3:2:0:0:
84,152,116170,5,0,1:0:0:0:
84,152,116257,1,0,1:0:0:0:
84,152,116344,2,0,L|42:155,1,42.5,0|0,3:2|0:0,0:0:0:0:
22,156,116519,1,8,1:0:0:0:
5,244,116693,2,0,P|44:242|89:263,1,85,2|0,3:2|1:0,0:0:0:0:
130,333,117042,1,2,3:2:0:0:
207,368,117216,1,8,1:0:0:0:
293,363,117391,1,0,1:0:0:0:
331,286,117565,6,0,L|246:279,1,85,4|0,1:0|0:0,0:0:0:0:
252,193,117914,2,0,L|337:200,1,85,8|0,1:0|0:0,0:0:0:0:
342,188,118176,1,0,1:0:0:0:
347,177,118263,1,0,0:0:0:0:
375,94,118437,2,0,L|290:87,1,85,0|8,0:0|1:0,0:0:0:0:
227,30,118786,2,0,P|158:20|117:115,1,170
172,158,119309,2,0,P|167:207|167:251,1,85,8|0,1:0|0:0,0:0:0:0:
116,311,119658,5,0,1:0:0:0:
186,359,119833,1,2,1:2:0:0:
268,339,120007,2,0,P|309:298|308:257,1,85,8|2,1:0|0:0,0:0:0:0:
257,208,120356,6,0,L|263:152,7,42.5,0|0|0|0|8|0|0|0,1:0|1:0|1:0|1:0|1:0|1:0|1:0|1:0,1:0:0:0:
269,123,121054,2,0,L|324:129,7,42.5,4|0|0|0|8|0|0|0,1:0|1:0|1:0|1:0|1:0|1:0|1:0|1:0,1:0:0:0:
352,137,121751,5,4,1:0:0:0:
444,154,121926,1,0,1:0:0:0:
444,154,122013,1,0,1:0:0:0:
444,154,122100,1,8,1:0:0:0:
429,252,122274,1,0,1:0:0:0:
429,252,122362,1,0,1:0:0:0:
429,252,122449,2,0,B|455:265|455:265|443:377,2,127.5,4|2|0,1:2|3:2|0:0,0:0:0:0:
359,315,123147,6,0,L|263:303,1,85,6|0,1:2|0:0,0:0:0:0:
194,352,123495,2,0,L|110:341,1,85,8|0,1:0|0:0,0:0:0:0:
122,251,123844,1,2,1:2:0:0:
122,251,124019,2,0,L|134:155,1,85,2|8,3:0|1:0,0:0:0:0:
222,191,124367,1,2,3:2:0:0:
301,140,124542,6,0,L|295:84,1,42.5,0|2,1:0|3:2,0:0:0:0:
203,85,124804,2,0,L|197:42,1,42.5,2|8,3:2|1:1,0:0:0:0:
110,7,125065,1,2,3:2:0:0:
59,85,125240,6,0,B|29:155|67:214|100:189|138:247|109:318,1,255,0|0,1:0|1:3,0:0:0:0:
195,359,125937,2,0,L|237:353,3,42.5,2|2|0|0,1:2|3:2|0:2|0:2,0:2:0:0:
255,363,126286,2,0,L|266:279,1,85,8|2,1:0|3:2,0:0:0:0:
358,292,126635,1,2,1:2:0:0:
374,200,126809,2,0,L|385:116,1,85,2|8,3:2|1:0,0:0:0:0:
478,119,127158,1,2,3:2:0:0:
428,39,127333,6,0,B|357:9|298:47|323:80|265:118|194:89,1,255,2|2,1:2|3:2,0:0:0:0:
111,49,128030,2,0,L|113:7,2,42.5,2|2|2,1:2|3:2|3:2,0:0:0:0:
26,88,128379,1,8,1:0:0:0:
107,153,128554,5,8,1:2:0:0:
107,153,128641,1,0,1:0:0:0:
107,153,128728,2,0,L|96:237,1,85,4|0,1:0|0:0,0:0:0:0:
186,214,129077,2,0,L|270:225,1,85,8|0,1:0|1:0,0:0:0:0:
350,273,129426,1,0,1:0:0:0:
350,273,129600,2,0,L|361:189,1,85,2|8,1:2|1:0,0:0:0:0:
452,205,129949,1,2,3:2:0:0:
460,112,130123,5,2,1:2:0:0:
380,61,130298,1,2,3:2:0:0:
290,87,130472,1,8,3:1:0:0:
240,166,130647,2,0,P|227:250|279:329,1,170,2|2,3:2|3:2,0:0:0:0:
356,353,131170,1,8,1:1:0:0:
446,330,131344,1,2,3:2:0:0:
481,248,131519,2,0,L|475:206,3,42.5,2|2|0|0,1:2|3:2|0:0|0:0,0:0:0:0:
475,188,131867,2,0,L|391:199,1,85,8|2,1:1|3:2,0:0:0:0:
298,183,132216,1,0,1:2:0:0:
210,216,132391,1,2,3:0:0:0:
122,247,132565,1,8,1:0:0:0:
33,277,132740,1,2,3:2:0:0:
122,247,132914,6,0,P|156:321|344:357,1,255,0|0,1:2|1:0,0:0:0:0:
392,321,133612,2,0,L|384:261,1,42.5,0|0,1:3|1:3,0:0:0:0:
296,257,133873,2,0,L|332:209,1,42.5,0|8,1:3|1:0,0:0:0:0:
273,143,134135,1,0,1:0:0:0:
294,140,134222,1,0,1:0:0:0:
315,137,134309,6,0,P|336:100|296:45,1,85,6|0,1:2|0:2,0:2:0:0:
410,25,134658,2,0,P|454:26|479:71,1,85,10|0,0:2|0:2,0:2:0:0:
435,140,135007,1,2,1:2:0:0:
435,140,135181,1,2,0:2:0:0:
435,140,135356,1,10,0:2:0:0:
435,140,135530,1,2,0:2:0:0:
348,104,135705,6,2,B|308:55|308:55|250:83,2,127.5,2|2|2,3:2|3:2|3:2,0:2:0:0:
284,172,136402,5,2,1:2:0:0:
192,149,136577,1,2,0:2:0:0:
101,125,136751,1,10,0:2:0:0:
101,125,137100,6,0,P|111:178|116:219,1,85,2|0,1:2|0:2,0:2:0:0:
54,280,137449,1,10,0:2:0:0:
54,280,137623,1,0,0:2:0:0:
141,301,137798,1,2,1:2:0:0:
141,301,137972,1,0,0:2:0:0:
202,238,138147,1,10,0:2:0:0:
114,208,138321,1,2,0:2:0:0:
110,190,138408,1,2,3:2:0:0:
108,173,138495,6,0,P|70:183|24:188,1,85,0|0,1:2|3:2,0:2:0:0:
19,102,138844,1,8,0:2:0:0:
103,90,139019,1,0,0:2:0:0:
187,84,139193,2,0,L|190:153,3,42.5,0|0|0|0,3:2|3:2|3:2|3:2,3:2:0:0:
201,124,139542,1,8,3:2:0:0:
212,119,139629,1,2,3:2:0:0:
223,115,139716,1,2,3:2:0:0:
270,193,139891,6,0,P|304:223|351:222,1,85,4|0,1:2|0:2,0:2:0:0:
401,163,140240,2,0,P|435:193|482:192,1,85,8|0,0:2|0:2,0:2:0:0:
464,110,140588,1,0,1:2:0:0:
464,110,140763,1,0,3:2:0:0:
464,110,140937,1,8,0:2:0:0:
464,110,141112,1,0,0:2:0:0:
383,55,141286,6,0,B|380:74|380:74|306:84,1,85,2|2,1:2|0:2,0:2:0:0:
298,85,141548,1,2,0:2:0:0:
236,143,141722,1,2,0:2:0:0:
218,145,141809,1,2,0:2:0:0:
134,99,141984,5,2,1:2:0:0:
77,162,142158,1,2,0:2:0:0:
129,235,142333,1,10,0:2:0:0:
129,235,142681,6,0,P|171:261|187:302,1,85,2|0,1:2|0:0,0:0:0:0:
143,376,143030,1,10,0:0:0:0:
143,376,143205,1,0,0:0:0:0:
66,340,143379,1,2,1:2:0:0:
66,340,143554,1,0,0:0:0:0:
27,261,143728,2,0,P|29:218|61:172,1,85,10|0,0:2|0:0,0:0:0:0:
115,240,144077,6,0,B|426:-36|478:348|478:348,1,510,4|0,0:0|0:0,0:0:0:0:
328,345,145472,6,0,L|328:192,1,152.999995330811,4|0,1:0|1:0,0:0:0:0:
328,40,146170,1,0,1:0:0:0:
328,192,146519,1,0,1:0:0:0:
184,192,146867,6,0,L|64:192,2,114.749996498108,0|2|2,1:0|0:0|0:0,0:0:0:0:
188,280,147565,1,0,1:0:0:0:
188,280,147740,1,2,0:0:0:0:
188,280,147914,1,0,1:0:0:0:
328,345,148263,6,0,L|328:192,3,152.999995330811,0|0|0|0,1:0|1:0|1:0|1:0,0:0:0:0:
332,40,149658,6,0,L|179:40,1,152.999995330811,0|0,1:0|1:0,0:0:0:0:
176,192,150356,1,0,1:0:0:0:
328,192,150705,1,0,1:0:0:0:
335,359,151054,5,0,1:0:0:0:
335,359,151402,1,0,1:0:0:0:
176,359,151751,1,0,1:0:0:0:
176,359,152100,1,0,1:0:0:0:
256,192,152449,5,0,1:0:0:0:
260,270,152623,1,2,0:0:0:0:
260,270,152711,1,2,0:0:0:0:
260,349,152885,1,2,0:0:0:0:
260,349,152972,1,2,0:0:0:0:
340,347,153147,2,0,L|340:270,2,76.4999976654053,0|2|0,1:0|0:0|1:0,0:0:0:0:
172,192,153844,6,0,L|172:268,1,76.4999976654053,0|2,1:0|0:0,0:0:0:0:
172,344,154193,2,0,L|96:344,1,76.4999976654053,0|2,1:0|0:0,0:0:0:0:
20,348,154542,2,0,L|20:272,1,76.4999976654053,0|2,1:0|0:0,0:0:0:0:
20,196,154891,1,0,1:0:0:0:
252,188,155240,5,2,1:2:0:0:
252,188,155414,1,2,1:2:0:0:
252,188,155588,1,10,1:2:0:0:
252,188,155763,1,2,1:2:0:0:
252,188,155937,1,2,1:2:0:0:
252,188,156112,1,2,1:2:0:0:
252,188,156286,1,10,1:2:0:0:
252,188,156461,1,2,1:2:0:0:
252,188,156635,1,6,1:2:0:0:
256,192,162216,12,0,167449,0:0:0:0:
84,236,167798,6,0,P|112:88|298:363,2,815.999975097657,4|0|4,1:2|1:2|0:0,0:0:0:0:
84,236,173728,2,0,P|113:213|156:212,1,76.4999976654053,0|2,0:0|0:0,0:0:0:0:
186,280,174077,2,0,P|166:312|131:326,1,76.4999976654053,0|2,0:0|0:0,0:0:0:0:
46,315,174426,5,0,0:0:0:0:
46,315,174600,1,2,0:0:0:0:
179,240,174949,1,0,0:0:0:0:
312,165,175298,1,0,0:0:0:0:
445,90,175647,1,0,0:0:0:0:
269,83,175995,5,0,1:0:0:0:
269,83,176083,1,0,1:0:0:0:
269,83,176170,2,0,L|186:92,2,76.4999976654053,4|0|2,1:2|1:0|0:0,0:0:0:0:
193,180,176693,5,2,0:0:0:0:
193,180,176867,2,0,L|276:171,2,76.4999976654053,4|0|2,1:2|1:0|0:0,0:0:0:0:
289,254,177391,5,2,0:0:0:0:
289,254,177565,2,0,P|245:310|163:297,3,152.999995330811,0|0|0|0,1:0|1:0|1:0|1:0,0:0:0:0:
78,276,178786,5,0,0:0:0:0:
67,262,178873,1,0,0:0:0:0:
64,248,178961,2,0,P|87:215|152:216,1,85,4|0,1:2|0:0,0:0:0:0:
210,231,179309,1,8,1:0:0:0:
237,150,179484,1,2,0:0:0:0:
210,231,179658,2,0,P|299:246|392:254,1,170,2|8,1:2|1:0,0:0:0:0:
381,342,180181,5,2,3:2:0:0:
381,342,180530,1,2,3:2:0:0:
215,332,180879,5,2,3:2:0:0:
215,332,181054,1,2,1:2:0:0:
136,273,181228,6,0,L|133:240,3,28.3333333333333,2|0|0|8,3:2|3:0|3:0|1:0,0:0:0:0:
217,243,181577,1,2,1:2:0:0:
136,273,181751,6,0,P|130:210|127:178,1,85,2|0,1:2|0:0,0:0:0:0:
198,118,182100,2,0,P|231:142|273:141,1,85,8|0,1:0|0:0,0:0:0:0:
123,73,182449,1,2,1:2:0:0:
123,73,182623,2,0,P|73:89|22:116,1,85,2|8,3:2|1:0,0:0:0:0:
43,194,182972,5,2,3:2:0:0:
43,194,183321,2,0,L|94:188,3,28.3333333333333,2|2|2|8,3:2|3:0|3:0|1:1,0:0:0:0:
136,250,183670,1,2,3:2:0:0:
204,202,183844,1,2,1:2:0:0:
259,268,184019,1,2,3:0:0:0:
325,216,184193,1,8,1:0:0:0:
378,283,184367,1,2,3:2:0:0:
442,215,184542,6,0,P|454:174|453:132,1,85,4|0,1:0|0:0,0:0:0:0:
384,81,184891,1,8,1:0:0:0:
454,34,185065,1,2,3:2:0:0:
384,81,185240,2,0,L|198:69,1,170,0|8,1:0|1:0,0:0:0:0:
131,63,185763,5,2,3:2:0:0:
131,63,186112,1,2,3:2:0:0:
204,207,186461,5,2,3:2:0:0:
204,207,186635,2,0,P|202:134|358:129,1,255,2|0,1:2|0:0,0:0:0:0:
280,164,187333,5,4,1:2:0:0:
344,223,187507,1,2,3:2:0:0:
307,303,187682,1,8,0:2:0:0:
219,293,187856,1,2,3:2:0:0:
204,207,188030,1,4,1:2:0:0:
216,119,188205,1,0,1:2:0:0:
138,80,188379,1,8,0:2:0:0:
76,141,188554,1,0,1:0:0:0:
116,219,188728,1,4,1:2:0:0:
265,318,189077,5,8,1:0:0:0:
339,286,189251,1,2,3:2:0:0:
265,318,189426,2,0,L|180:311,1,85,4|0,1:0|1:0,0:0:0:0:
410,332,189774,2,0,L|495:339,1,85,0|0,1:0|1:0,0:0:0:0:
332,372,190123,5,6,1:2:0:0:
339,286,190298,2,0,L|347:201,1,85,2|0,3:2|0:0,0:0:0:0:
427,170,190647,2,0,P|409:102|311:92,2,170,2|2|2,3:2|3:2|3:2,0:2:0:0:
347,201,191519,6,0,L|339:286,1,85,0|0,1:0|0:0,0:0:0:0:
261,219,191867,2,0,L|196:273,1,85,8|0,1:0|0:0,0:0:0:0:
188,170,192216,2,0,L|104:162,1,85,0|0,1:0|0:0,0:0:0:0:
172,83,192565,2,0,L|118:17,1,85,8|0,1:0|0:0,0:0:0:0:
47,93,192914,6,0,P|18:122|14:164,1,85,2|0,1:2|0:0,0:0:0:0:
65,232,193263,1,8,1:0:0:0:
146,202,193437,2,0,P|223:220|324:238,2,170,2|2|2,3:2|3:2|3:2,0:0:0:0:
65,232,194309,6,0,P|66:273|102:311,1,85,0|0,1:0|0:0,0:0:0:0:
166,348,194658,2,0,P|203:367|253:355,1,85,8|0,1:0|0:0,0:0:0:0:
317,318,195007,2,0,P|353:296|367:246,1,85,0|0,1:0|0:0,0:0:0:0:
367,172,195356,2,0,P|366:130|330:93,1,85,8|0,1:0|0:0,0:0:0:0:
264,56,195705,5,4,1:2:0:0:
187,88,195879,2,0,L|197:173,1,85,2|8,3:2|1:0,0:0:0:0:
133,229,196228,2,0,P|52:236|12:164,1,170,2|2,3:2|3:2,0:0:0:0:
120,35,196926,1,0,0:0:0:0:
186,88,197100,6,0,P|188:131|196:173,1,85,0|0,1:0|0:0,0:0:0:0:
159,258,197449,2,0,P|202:256|244:248,1,85,8|0,1:0|0:0,0:0:0:0:
329,285,197798,2,0,P|327:242|319:200,1,85,0|0,1:0|0:0,0:0:0:0:
356,115,198147,2,0,P|313:117|271:125,1,85,8|0,1:0|0:0,0:0:0:0:
184,110,198495,6,0,P|185:131|189:152,7,42.5,4|0|0|0|8|0|0|0,1:0|1:0|1:0|1:0|1:0|1:0|1:0|1:0,0:0:0:0:
151,171,199193,2,0,P|155:191|156:213,7,42.5,4|0|0|0|8|0|0|0,1:0|1:0|1:0|1:0|1:0|1:0|1:0|1:0,0:0:0:0:
125,234,199891,6,0,L|209:226,1,85,0|0,1:0|1:0,0:0:0:0:
287,262,200240,1,8,1:0:0:0:
288,279,200327,1,0,1:0:0:0:
290,296,200414,1,0,1:0:0:0:
375,240,200588,1,4,1:0:0:0:
490,121,201286,6,0,L|406:131,1,85,6|0,1:2|0:0,0:0:0:0:
321,143,201635,2,0,L|311:58,1,85,8|0,1:0|0:0,0:0:0:0:
230,70,201984,1,0,1:0:0:0:
230,70,202158,2,0,L|146:80,1,85,2|8,0:2|1:0,0:0:0:0:
73,35,202507,2,0,L|53:203,1,170,2|0,0:2|0:0,0:0:0:0:
43,288,203030,1,8,1:0:0:0:
43,288,203379,6,0,B|73:322|73:322|161:273|161:273|200:315,1,187.000005706787,0|8,1:0|1:0,0:0:0:0:
247,376,203902,1,0,1:0:0:0:
324,339,204077,6,0,P|326:293|324:247,1,85,0|0,1:0|3:0,0:0:0:0:
401,216,204426,2,0,P|400:193|401:170,3,42.5,8|2|2|2,1:0|0:0|0:0|0:0,0:0:0:0:
378,165,204774,1,0,1:2:0:0:
319,103,204949,2,0,P|291:135|230:143,1,85,2|8,3:2|1:0,0:0:0:0:
167,130,205298,1,2,3:2:0:0:
97,178,205472,5,0,1:0:0:0:
97,178,205559,1,2,0:0:0:0:
97,178,205647,2,0,L|103:229,1,42.5,2|0,0:0|0:0,0:0:0:0:
118,232,205821,1,8,1:0:0:0:
77,306,205995,2,0,L|180:318,1,85,2|0,3:2|1:0,0:0:0:0:
228,369,206344,1,2,3:2:0:0:
296,318,206519,1,8,1:0:0:0:
276,235,206693,1,0,1:0:0:0:
191,235,206867,6,0,L|181:151,1,85,6|0,1:2|0:0,0:0:0:0:
265,141,207216,2,0,L|350:131,1,85,8|0,1:0|0:0,0:0:0:0:
438,129,207565,1,0,1:0:0:0:
438,129,207740,2,0,L|448:213,1,85,2|8,0:2|1:0,0:0:0:0:
410,290,208088,2,0,L|242:310,1,170,2|0,0:2|0:0,0:0:0:0:
155,320,208612,1,8,1:0:0:0:
155,320,208961,6,0,B|121:290|121:290|170:201|170:201|128:163,1,187.000005706787,0|8,1:0|1:0,0:0:0:0:
55,132,209484,1,0,1:0:0:0:
123,68,209658,6,0,L|194:76,7,42.5,4|0|0|0|8|0|0|0,1:0|1:0|1:0|1:0|1:0|1:0|1:0|1:0,0:0:0:0:
195,107,210356,2,0,L|266:115,7,42.5,4|0|0|0|8|0|0|0,1:0|1:0|1:0|1:0|1:0|1:0|1:0|1:0,0:0:0:0:
256,72,211054,5,4,1:2:0:0:
472,192,211402,5,4,1:2:0:0:
256,312,211751,5,4,1:2:0:0:
40,192,212100,5,4,1:2:0:0:
91,264,212274,5,0,1:0:0:0:
84,280,212362,1,0,1:0:0:0:
92,296,212449,2,0,L|185:309,1,85,6|0,1:2|0:0,0:0:0:0:
234,245,212798,1,8,1:0:0:0:
153,201,212972,1,2,3:2:0:0:
234,245,213147,2,0,P|288:191|254:95,1,170,2|8,1:2|1:0,0:0:0:0:
198,68,213670,5,2,3:2:0:0:
29,92,214019,1,2,3:2:0:0:
135,224,214367,5,2,3:2:0:0:
123,140,214542,1,2,1:2:0:0:
219,165,214716,6,0,L|247:161,3,28.3333333333333,2|2|2|8,3:0|3:0|3:0|1:0,0:0:0:0:
201,88,215065,1,2,3:2:0:0:
219,165,215240,6,0,L|230:252,1,85,0|0,1:0|0:0,0:0:0:0:
358,275,215588,2,0,P|342:231|294:237,1,85,8|0,1:0|0:0,0:0:0:0:
278,323,215937,1,2,1:2:0:0:
348,365,216112,2,0,P|386:354|431:338,1,85,2|8,0:0|1:0,0:0:0:0:
504,269,216461,1,2,0:0:0:0:
504,269,216809,6,0,L|457:263,3,28.3333333333333,0|0|0|8,1:0|3:0|3:0|1:0,0:0:0:0:
430,193,217158,1,2,3:2:0:0:
368,252,217333,1,2,1:2:0:0:
300,200,217507,1,2,0:2:0:0:
237,257,217681,1,8,1:0:0:0:
176,197,217856,1,2,1:2:0:0:
100,254,218030,6,0,P|93:199|94:155,1,85,4|0,1:0|0:0,0:0:0:0:
19,136,218379,1,8,1:0:0:0:
19,220,218554,1,2,3:2:0:0:
19,136,218728,2,0,P|61:83|171:70,1,170,0|8,1:0|1:0,0:0:0:0:
237,96,219251,5,2,0:0:0:0:
418,73,219600,1,2,3:2:0:0:
481,257,219949,5,2,3:2:0:0:
485,165,220123,2,0,P|355:203|219:211,1,255,2|0,1:2|0:0,0:0:0:0:
150,207,220821,5,6,1:2:0:0:
170,126,220995,1,2,3:0:0:0:
87,149,221170,1,8,1:0:0:0:
106,68,221344,1,2,3:2:0:0:
22,87,221519,5,6,1:2:0:0:
106,68,221693,1,2,3:0:0:0:
170,126,221867,1,8,1:0:0:0:
150,207,222042,1,2,3:2:0:0:
87,149,222216,5,4,1:2:0:0:
84,268,222565,5,8,1:0:0:0:
174,300,222740,1,2,3:2:0:0:
84,268,222914,2,0,L|-1:275,1,85,4|0,1:0|1:0,0:0:0:0:
244,249,223263,2,0,L|329:242,1,85,0|0,1:0|1:0,0:0:0:0:
163,208,223612,5,6,1:2:0:0:
84,268,223786,2,0,L|77:183,1,85,2|8,3:2|0:1,0:0:0:0:
26,114,224135,1,2,3:2:0:0:
176,35,224484,1,2,3:2:0:0:
321,122,224833,1,2,3:2:0:0:
396,83,225007,6,0,P|439:101|461:147,1,85,0|0,1:2|0:0,0:0:0:0:
384,184,225356,2,0,P|401:227|384:275,1,85,8|0,1:0|0:0,0:0:0:0:
304,246,225705,2,0,P|286:289|240:311,1,85,0|0,1:2|0:0,0:0:0:0:
203,233,226054,1,8,1:1:0:0:
124,265,226228,1,0,0:0:0:0:
54,216,226402,6,0,L|61:131,1,85,2|0,1:2|0:0,0:0:0:0:
144,114,226751,1,8,1:0:0:0:
152,29,226926,1,2,3:2:0:0:
321,40,227274,1,2,3:2:0:0:
310,209,227623,1,2,3:2:0:0:
395,207,227798,6,0,P|397:137|398:106,1,85,0|0,1:0|0:0,0:0:0:0:
310,209,228147,2,0,P|250:172|224:155,1,85,8|0,1:0|0:0,0:0:0:0:
269,283,228495,2,0,P|207:316|180:330,1,85,0|0,1:0|0:0,0:0:0:0:
312,355,228844,1,8,1:0:0:0:
397,350,229019,1,0,1:0:0:0:
394,263,229193,5,4,1:2:0:0:
478,257,229367,2,0,L|471:172,1,85,2|8,3:2|1:0,0:0:0:0:
402,121,229716,5,2,3:2:0:0:
244,186,230065,1,2,3:2:0:0:
257,16,230414,1,2,3:2:0:0:
231,97,230588,6,0,P|191:105|119:109,1,85,0|0,1:0|0:0,0:0:0:0:
114,187,230937,2,0,P|140:217|180:277,1,85,8|0,1:0|0:0,0:0:0:0:
250,243,231286,2,0,P|263:204|295:140,1,85,0|0,1:0|0:0,0:0:0:0:
231,97,231635,1,8,1:0:0:0:
147,108,231809,1,0,0:0:0:0:
100,179,231984,6,0,L|106:231,7,42.5,4|0|0|0|8|0|0|0,1:0|1:0|1:0|1:0|1:0|1:0|1:0|1:0,0:0:0:0:
70,245,232681,2,0,L|76:297,7,42.5,4|0|0|0|8|0|0|0,1:0|1:0|1:0|1:0|1:0|1:0|1:0|1:0,0:0:0:0:
60,308,233379,6,0,L|145:301,1,85,0|0,1:0|1:0,0:0:0:0:
222,354,233728,1,8,1:0:0:0:
241,352,233815,1,0,1:0:0:0:
259,350,233902,2,0,L|313:346,1,42.5,0|0,1:0|0:0,0:0:0:0:
316,325,234077,1,4,1:0:0:0:
22,121,234774,6,0,L|106:131,1,85,6|0,1:2|0:0,0:0:0:0:
191,143,235123,2,0,L|201:58,1,85,8|0,1:0|0:0,0:0:0:0:
276,152,235472,2,0,L|360:162,1,85,2|2,1:2|3:0,0:0:0:0:
452,181,235821,1,8,1:0:0:0:
452,181,235908,1,0,3:0:0:0:
452,181,235995,1,2,3:2:0:0:
494,107,236170,6,0,L|488:64,1,42.5,0|2,1:0|3:2,0:0:0:0:
400,31,236431,2,0,L|405:74,1,42.5,2|8,3:2|1:1,0:0:0:0:
329,129,236693,1,2,3:2:0:0:
277,51,236867,6,0,B|186:39|186:39|121:68|121:68|30:57,1,255,0|0,1:0|1:3,0:0:0:0:
25,153,237565,5,2,3:2:0:0:
25,153,237652,1,2,3:2:0:0:
25,153,237740,2,0,L|30:195,1,42.5,2|2,3:2|3:2,0:2:0:0:
20,218,237914,2,0,L|104:207,1,85,8|2,1:0|3:2,0:0:0:0:
117,299,238263,1,2,1:2:0:0:
209,284,238437,2,0,L|293:273,1,85,2|8,3:2|1:0,0:0:0:0:
308,365,238786,1,2,3:2:0:0:
402,354,238961,6,0,B|393:262|393:262|351:205|351:205|343:113,1,255,2|2,1:2|3:2,0:0:0:0:
435,98,239658,2,0,L|437:140,2,42.5,2|2|2,1:2|3:2|3:2,0:0:0:0:
373,27,240007,1,8,1:0:0:0:
291,53,240181,5,8,1:2:0:0:
291,53,240269,1,0,1:0:0:0:
291,53,240356,2,0,L|301:137,1,85,4|0,1:0|0:0,0:0:0:0:
216,148,240705,2,0,L|131:158,1,85,8|0,1:0|1:0,0:0:0:0:
46,167,241054,2,0,L|56:251,1,85,0|0,1:0|3:0,0:0:0:0:
72,343,241402,1,8,1:0:0:0:
72,343,241490,1,2,3:2:0:0:
72,343,241577,1,2,3:2:0:0:
147,290,241751,5,2,1:2:0:0:
162,373,241926,1,2,3:2:0:0:
246,362,242100,1,8,3:1:0:0:
232,278,242274,2,0,P|220:203|205:104,1,170,2|2,3:2|3:2,0:0:0:0:
289,91,242798,1,8,1:1:0:0:
304,174,242972,1,2,3:2:0:0:
375,126,243147,5,2,3:2:0:0:
375,126,243234,1,2,3:2:0:0:
375,126,243321,2,0,L|417:120,1,42.5,2|2,3:2|3:2,0:0:0:0:
442,104,243495,2,0,L|431:188,1,85,8|2,1:1|3:2,0:0:0:0:
487,251,243844,1,0,1:2:0:0:
437,319,244019,1,2,3:0:0:0:
354,296,244193,1,8,1:0:0:0:
302,363,244367,1,2,3:2:0:0:
354,296,244542,6,0,P|258:283|76:246,1,255,0|0,1:2|1:0,0:0:0:0:
100,175,245240,5,0,1:0:0:0:
100,175,245327,1,0,1:0:0:0:
100,175,245414,2,0,L|166:168,1,42.5,0|0,1:0|1:0,0:0:0:0:
170,150,245588,5,8,1:0:0:0:
170,150,245676,1,0,1:0:0:0:
170,150,245763,2,0,L|236:143,1,42.5,0|0,1:0|1:0,0:0:0:0:
235,109,245937,6,0,L|319:99,1,85,6|0,1:2|0:0,0:0:0:0:
403,87,246286,2,0,L|413:172,1,85,8|0,1:0|0:0,0:0:0:0:
423,256,246635,2,0,L|339:266,1,85,2|2,1:2|3:0,0:0:0:0:
261,281,246984,1,8,1:0:0:0:
261,281,247071,1,0,3:0:0:0:
261,281,247158,1,2,3:2:0:0:
201,341,247333,6,0,L|207:384,1,42.5,0|2,1:0|3:2,0:0:0:0:
123,367,247594,2,0,L|118:324,1,42.5,2|8,3:2|1:1,0:0:0:0:
33,331,247856,1,2,3:2:0:0:
26,246,248030,6,0,B|117:234|117:234|182:263|182:263|273:252,1,255,0|0,1:0|1:3,0:0:0:0:
366,267,248728,5,2,3:2:0:0:
366,267,248815,1,2,3:2:0:0:
366,267,248902,2,0,L|361:309,1,42.5,2|2,3:2|3:2,0:2:0:0:
372,328,249077,2,0,L|456:317,1,85,8|2,1:0|3:2,0:0:0:0:
496,238,249426,1,2,1:2:0:0:
450,165,249600,2,0,L|366:176,1,85,2|8,3:2|1:0,0:0:0:0:
281,189,249949,1,2,3:2:0:0:
306,107,250123,6,0,B|315:199|315:199|357:256|357:256|365:348,1,255,2|2,1:2|3:2,0:0:0:0:
279,348,250821,2,0,L|277:306,2,42.5,2|2|2,1:2|3:2|3:2,0:0:0:0:
194,357,251170,1,8,1:0:0:0:
183,281,251344,5,8,1:2:0:0:
183,281,251431,1,0,1:0:0:0:
183,281,251519,2,0,L|173:197,1,85,4|0,1:0|0:0,0:0:0:0:
258,191,251867,2,0,L|343:181,1,85,8|0,1:0|1:0,0:0:0:0:
426,168,252216,2,0,L|416:84,1,85,0|0,1:0|3:0,0:0:0:0:
338,97,252565,1,8,1:0:0:0:
338,97,252652,1,2,3:2:0:0:
338,97,252740,1,2,3:2:0:0:
269,40,252914,5,2,1:2:0:0:
221,110,253088,1,2,3:2:0:0:
136,95,253263,1,8,3:1:0:0:
182,24,253437,2,0,P|194:99|209:198,1,170,2|2,3:2|3:2,0:0:0:0:
142,246,253961,1,8,1:1:0:0:
201,307,254135,1,2,3:2:0:0:
141,366,254309,5,2,3:2:0:0:
141,366,254397,1,2,3:2:0:0:
141,366,254484,2,0,L|99:372,1,42.5,2|2,3:2|3:2,0:0:0:0:
78,369,254658,2,0,L|67:285,1,85,8|2,1:1|3:2,0:0:0:0:
50,201,255007,1,0,1:2:0:0:
130,227,255181,1,2,3:0:0:0:
174,154,255356,1,8,1:0:0:0:
243,202,255530,1,2,3:2:0:0:
174,154,255705,6,0,P|270:141|452:104,1,255,0|0,1:2|1:0,0:0:0:0:
473,193,256402,5,0,1:0:0:0:
473,193,256490,1,0,1:0:0:0:
473,193,256577,2,0,L|406:199,1,42.5,0|0,1:0|1:0,0:0:0:0:
403,227,256751,5,8,1:0:0:0:
403,227,256838,1,0,1:0:0:0:
403,227,256926,2,0,L|336:233,1,42.5,0|0,1:0|1:0,0:0:0:0:
338,259,257100,5,4,1:2:0:0:
