osu file format v14

[General]
AudioFilename: audio.mp3
AudioLeadIn: 2000
PreviewTime: 234077
Countdown: 0
SampleSet: Soft
StackLeniency: 0.5
Mode: 0
LetterboxInBreaks: 0
WidescreenStoryboard: 1

[Editor]
Bookmarks: 22680,45006,67331,89657,111982,134308,156634,178959,201285,223612,245937,268263
DistanceSpacing: 1
BeatDivisor: 4
GridSize: 16
TimelineZoom: 2

[Metadata]
Title:smooooch -Akiba Koubou mix- / Remixed by DJ Command
TitleUnicode:smooooch ・∀・-秋葉工房 mix- / Remixed by DJ Command
Artist:kors k
ArtistUnicode:kors k
Creator:AJT
Version:bloxi's normal
Source:beatmania IIDX 16 EMPRESS
Tags:electronic english instrumental video game trance eurobeat candy rave yokespai bloxi chanmann jounzan evilelvis evilelvisv2 natteke desu reflec beat beatstream アニムトライヴ animtribe dancedancerevolution x2 dancerush stardom hello! pop'n music 19 tune street ポップンリズミン rhythmin' jubeat saucer plus jukebeat ミライダガッキ mirai dagakki futuretomtom konami
BeatmapID:4420486
BeatmapSetID:2079191

[Difficulty]
HPDrainRate:3
CircleSize:4
OverallDifficulty:4
ApproachRate:5
SliderMultiplier:0.959999999999999
SliderTickRate:1

[Events]
//Background and Video events
0,0,"Oag4zeQ.jpg",0,0
//Break Periods
2,78695,88458
2,156835,166598
//Storyboard Layer 0 (Background)
//Storyboard Layer 1 (Fail)
//Storyboard Layer 2 (Pass)
//Storyboard Layer 3 (Foreground)
//Storyboard Layer 4 (Overlay)
//Storyboard Sound Samples

[TimingPoints]
-1039,348.837209302326,4,2,0,50,1,0
356,-142.857142857143,4,2,0,50,0,0
22681,-100,4,2,0,80,0,0
78495,-111.111111111111,4,2,0,80,0,0
78844,-111.111111111111,4,2,0,50,0,0
89658,-111.111111111111,4,2,0,65,0,0
100821,-100,4,2,0,80,0,0
145472,-111.111111111111,4,2,0,65,0,0
167798,-111.111111111111,4,2,0,65,0,0
178961,-100,4,2,0,80,0,0
212449,-95.2380952380952,4,2,0,80,0,0
234774,-100,4,2,0,90,0,0
273844,-100,4,2,0,5,0,0

[Colours]
Combo1 : 1,181,216
Combo2 : 255,241,192
Combo3 : 255,82,151
Combo4 : 92,225,255

[HitObjects]
460,335,22681,6,0,P|476:291|461:246,1,95.9999999999999,4|8,1:0|1:0,0:0:0:0:
416,230,23205,1,2,0:0:0:0:
419,182,23379,2,0,L|269:205,1,144,0|2,1:0|3:2,0:0:0:0:
229,287,24251,1,2,3:2:0:0:
143,325,24600,1,2,3:2:0:0:
143,325,24774,1,2,1:2:0:0:
50,297,25123,6,0,B|42:276|21:261|21:261|34:237|26:200,1,95.9999999999999,8|0,1:1|1:0,0:0:0:0:
104,154,25821,1,8,1:0:0:0:
99,58,26170,2,0,L|160:50,1,48,0|2,1:0|3:2,0:0:0:0:
228,1,26693,2,0,L|316:37,1,95.9999999999999,2|2,3:2|3:2,0:0:0:0:
364,32,27216,2,0,P|374:53|373:77,1,48,8|2,1:1|3:2,0:0:0:0:
416,98,27565,2,0,P|426:119|425:143,1,48,2|0,1:2|3:0,0:0:0:0:
412,189,27914,1,8,1:0:0:0:
374,277,28263,6,0,L|263:261,1,95.9999999999999,4|8,1:0|1:0,0:0:0:0:
240,292,28787,1,2,0:0:0:0:
204,324,28961,2,0,L|93:340,1,95.9999999999999,0|8,1:0|1:0,0:0:0:0:
61,344,29484,1,2,3:2:0:0:
20,256,29833,1,2,3:2:0:0:
99,200,30182,1,2,0:0:0:0:
99,200,30356,1,0,1:0:0:0:
55,114,30705,1,8,1:0:0:0:
80,21,31054,6,0,P|134:25|159:57,1,95.9999999999999,4|8,1:0|1:1,0:0:0:0:
204,41,31577,1,2,3:2:0:0:
250,28,31751,2,0,P|285:69|280:109,1,95.9999999999999,4|8,1:0|1:0,0:0:0:0:
239,195,32449,1,0,1:0:0:0:
303,266,32798,1,2,1:2:0:0:
386,219,33147,2,0,L|446:211,1,48,4|0,1:0|1:0,0:0:0:0:
456,255,33495,2,0,L|516:247,1,48,2|0,1:0|1:0,0:0:0:0:
511,296,33844,6,0,B|486:359|434:311|395:370,1,144,4|2,1:0|0:0,0:0:0:0:
318,312,34716,1,2,0:0:0:0:
238,366,35065,2,0,B|207:295|56:360|113:273|184:244|184:244|145:208|145:148,1,336,2|8,0:0|1:1,0:0:0:0:
155,102,36461,1,2,0:0:0:0:
144,55,36635,6,0,P|186:64|236:44,1,95.9999999999999,0|8,1:0|1:0,0:0:0:0:
276,22,37158,1,2,0:0:0:0:
365,55,37507,1,2,0:0:0:0:
359,150,37856,2,0,B|288:286|166:89|54:237,1,336,2|10,0:0|1:0,0:0:0:0:
52,274,39251,1,0,1:0:0:0:
64,321,39426,6,0,B|210:288,1,144,0|2,1:0|0:0,0:0:0:0:
273,355,40298,1,2,3:2:0:0:
323,273,40647,2,0,B|314:181|227:182|210:116|210:116|272:53|336:109,1,336,2|8,3:2|1:0,0:0:0:0:
371,132,42043,1,0,3:0:0:0:
415,150,42217,6,0,P|449:116|469:59,1,95.9999999999999,2|10,3:2|1:0,0:0:0:0:
481,26,42740,1,2,3:2:0:0:
389,0,43089,1,2,1:2:0:0:
294,15,43437,1,2,1:2:0:0:
294,15,43612,2,0,L|270:79,1,48,0|0,1:0|1:0,0:0:0:0:
230,48,43961,2,0,L|206:112,1,48,8|0,1:0|1:0,0:0:0:0:
185,132,44309,2,0,B|212:138|233:160|233:160|252:157,2,71.9999999999999,2|2|2,1:0|0:1|0:1,0:0:0:0:
144,158,45007,5,0,1:0:0:0:
76,90,45356,1,8,1:0:0:0:
2,152,45705,2,0,L|13:204,1,48,0|2,1:0|3:0,0:0:0:0:
2,246,46054,1,8,1:0:0:0:
39,275,46228,2,0,P|105:248|182:246,1,144,2|8,3:0|1:1,0:0:0:0:
239,318,47100,2,0,P|257:332|281:335,1,48,2|2,3:0|3:2,0:0:0:0:
329,336,47449,2,0,P|352:330|371:316,1,48,8|2,1:0|1:3,0:0:0:0:
402,279,47798,6,0,L|419:179,1,95.9999999999999,2|8,1:3|1:0,3:0:0:0:
435,93,48495,1,2,1:3:0:0:
435,93,48670,2,0,B|396:58|396:58|331:67,1,95.9999999999999,2|0,3:0|1:0,0:0:0:0:
307,80,49193,2,0,L|324:180,1,95.9999999999999,2|8,1:2|1:1,0:0:0:0:
252,240,49891,1,2,1:3:0:0:
180,192,50240,1,10,1:0:0:0:
180,192,50414,1,10,1:2:0:0:
180,192,50588,6,0,P|139:170|98:192,1,95.9999999999999,4|8,1:0|1:0,0:0:0:0:
72,286,51286,1,0,1:0:0:0:
72,286,51461,1,2,3:0:0:0:
151,349,51809,1,2,3:0:0:0:
151,349,51984,2,0,P|159:333|163:296,2,48,2|2|10,1:1|3:1|3:1,0:0:0:0:
184,384,52507,2,0,P|225:354|234:256,1,144,2|10,3:1|1:1,0:0:0:0:
215,173,53379,5,2,1:3:0:0:
263,91,53727,1,8,1:1:0:0:
263,91,53902,2,0,B|312:73|312:73|369:102,1,95.9999999999999,2|2,3:0|3:0,0:0:0:0:
386,125,54426,2,0,P|393:144|379:177,1,48,8|2,1:0|3:0,0:0:0:0:
359,209,54774,1,2,1:2:0:0:
434,267,55123,1,2,1:2:0:0:
379,345,55472,2,0,L|318:362,1,48,2|0,1:3|1:0,0:0:0:0:
294,328,55821,2,0,L|233:345,1,48,8|0,1:0|1:0,0:0:0:0:
219,379,56170,5,4,1:0:0:0:
138,326,56519,1,8,0:0:0:0:
64,265,56867,2,0,B|45:241|45:241|59:206|59:206|51:159,1,95.9999999999999,0|8,1:0|3:2,0:0:0:0:
31,85,57565,5,4,3:0:0:0:
84,36,57827,5,4,3:0:0:0:
143,84,58088,5,4,3:0:0:0:
143,84,58263,2,0,L|205:76,1,48,2|2,3:2|0:0,0:0:0:0:
218,38,58612,2,0,L|280:46,1,48,10|2,3:2|3:2,0:0:0:0:
307,67,58961,6,0,P|323:111|312:156,1,95.9999999999999,0|8,1:0|3:2,0:0:0:0:
228,204,59658,2,0,P|211:248|222:293,1,95.9999999999999,0|8,1:0|3:2,0:0:0:0:
287,365,60356,1,2,1:2:0:0:
382,361,60705,1,8,3:2:0:0:
461,306,61054,2,0,B|468:284|468:284|467:254,1,48,2|2,3:2|0:0,0:0:0:0:
434,224,61402,2,0,B|427:202|427:202|428:172,1,48,10|2,3:1|3:2,0:0:0:0:
458,140,61751,5,4,1:0:0:0:
508,58,62100,1,8,3:2:0:0:
425,8,62449,2,0,B|399:22|399:22|352:76,1,95.9999999999999,0|8,1:0|3:2,0:0:0:0:
318,161,63147,5,0,1:0:0:0:
256,198,63408,5,2,3:2:0:0:
203,150,63670,5,2,3:2:0:0:
203,150,63844,2,0,P|179:148|157:138,1,48,2|2,3:2|0:0,0:0:0:0:
113,158,64193,2,0,P|102:136|100:112,1,48,10|2,3:2|3:2,0:0:0:0:
78,70,64542,6,0,L|185:40,1,95.9999999999999,0|8,1:0|3:2,0:0:0:0:
264,64,65240,2,0,L|371:34,1,95.9999999999999,2|8,3:2|3:2,0:0:0:0:
429,100,65937,1,4,0:0:0:0:
392,189,66286,1,12,0:0:0:0:
476,234,66635,2,0,B|482:286,1,48,0|0,1:0|1:0,0:0:0:0:
458,324,66984,2,0,B|410:329,1,48,0|0,1:0|1:0,3:0:0:0:
370,302,67332,5,2,1:2:0:0:
284,344,67681,1,10,1:0:0:0:
193,310,68030,2,0,P|151:332|104:327,1,95.9999999999999,0|10,1:0|1:1,0:0:0:0:
22,276,68728,5,2,1:2:0:0:
58,214,68989,5,2,1:2:0:0:
40,145,69251,5,2,1:2:0:0:
40,145,69425,2,0,P|42:121|54:100,1,48,2|0,1:2|1:0,0:0:0:0:
102,101,69774,2,0,P|113:122|115:145,1,48,0|0,1:0|1:0,0:0:0:0:
151,177,70123,6,0,P|193:198|208:248,1,95.9999999999999,2|10,1:2|1:0,0:0:0:0:
303,242,70821,2,0,P|318:198|360:177,1,95.9999999999999,2|10,1:2|1:0,0:0:0:0:
426,246,71519,1,2,1:2:0:0:
504,190,71867,1,0,1:0:0:0:
488,95,72216,1,0,1:0:0:0:
395,74,72565,6,0,P|368:61|338:51,1,48,0|0,1:0|1:0,0:0:0:0:
306,36,72914,1,0,1:0:0:0:
260,50,73088,2,0,L|161:79,1,95.9999999999999,2|2,0:0|0:0,0:0:0:0:
79,37,73786,2,0,L|54:137,1,95.9999999999999,2|2,0:0|0:0,0:0:0:0:
79,172,74309,5,2,1:2:0:0:
27,222,74570,5,2,1:2:0:0:
71,285,74832,5,2,1:2:0:0:
71,285,75006,2,0,P|95:283|118:273,1,48,2|2,1:3|1:3,0:0:0:0:
159,250,75356,2,0,P|183:252|206:262,1,48,2|2,1:3|1:3,0:0:0:0:
224,305,75705,1,2,1:2:0:0:
302,359,76054,1,10,1:0:0:0:
437,311,76577,2,0,L|427:254,1,48,2|10,1:2|1:0,0:0:0:0:
409,219,76926,1,2,3:2:0:0:
446,188,77100,6,0,B|460:143|460:143|425:100,1,95.9999999999999,0|0,1:0|1:0,0:0:0:0:
344,58,77798,2,0,B|322:55|322:55|299:68,1,48,0|0,1:0|1:0,0:0:0:0:
256,89,78147,2,0,B|234:92|234:92|211:79,1,48,0|0,1:0|1:0,0:0:0:0:
173,60,78495,1,4,1:0:0:0:
30,19,89658,6,0,B|89:25|104:103|168:115,1,172.799994726562,6|2,1:2|3:2,0:0:0:0:
208,198,90705,1,8,3:2:0:0:
208,198,90879,2,0,P|205:239|178:292,1,86.3999973632812,2|2,0:0|0:0,0:0:0:0:
116,329,91577,2,0,L|71:320,1,43.1999986816406,2|2,0:0|3:2,0:0:0:0:
70,234,92100,2,0,L|25:225,1,43.1999986816406,8|2,3:2|3:2,0:0:0:0:
1,191,92449,6,0,B|1:167|-2:148|-2:148|17:130|23:113,1,86.3999973632812,2|8,3:2|3:2,0:0:0:0:
79,48,93147,1,2,3:2:0:0:
79,48,93321,1,2,0:0:0:0:
147,101,93670,1,2,0:0:0:0:
263,43,94193,2,0,P|283:36|304:37,1,43.1999986816406,8|2,3:2|3:0,0:0:0:0:
334,69,94542,2,0,P|354:61|375:62,1,43.1999986816406,2|2,3:0|3:2,0:0:0:0:
417,73,94891,1,8,3:2:0:0:
484,126,95240,6,0,L|454:219,1,86.3999973632812,0|8,1:0|0:0,0:0:0:0:
415,220,95763,1,2,0:0:0:0:
401,261,95937,2,0,P|360:249|316:257,1,86.3999973632812,2|10,3:2|0:0,0:0:0:0:
279,278,96461,1,2,0:0:0:0:
203,319,96809,1,2,0:0:0:0:
124,355,97158,1,2,0:0:0:0:
124,355,97333,1,2,3:0:0:0:
59,298,97681,1,8,3:2:0:0:
3,232,98030,6,0,L|29:149,1,86.3999973632812,4|8,1:0|1:2,0:0:0:0:
112,123,98728,2,0,L|85:40,1,86.3999973632812,4|8,1:0|1:2,0:0:0:0:
163,3,99426,1,0,1:0:0:0:
240,40,99774,1,8,1:1:0:0:
255,125,100123,2,0,P|254:149|241:175,1,43.1999986816406,0|2,1:0|1:2,0:0:0:0:
218,199,100472,2,0,P|219:223|232:249,1,43.1999986816406,10|0,1:1|1:0,0:0:0:0:
260,273,100821,6,0,P|298:278|358:299,1,95.9999999999999,4|8,1:0|1:0,0:0:0:0:
384,333,101345,1,2,3:2:0:0:
424,358,101519,2,0,L|447:208,1,144,2|2,1:2|3:2,0:0:0:0:
464,121,102391,1,2,3:2:0:0:
397,58,102740,1,2,3:2:0:0:
397,58,102914,1,2,1:2:0:0:
320,115,103263,6,0,B|299:123|284:144|284:144|260:131|223:139,1,95.9999999999999,8|0,1:1|1:0,0:0:0:0:
169,205,103961,1,8,1:0:0:0:
77,174,104310,2,0,P|67:151|69:113,1,48,2|2,1:2|3:2,0:0:0:0:
81,33,104833,2,0,B|131:46|131:46|187:34,1,95.9999999999999,2|2,3:2|3:2,0:0:0:0:
221,28,105356,2,0,B|228:49|228:49|246:66,1,48,8|2,1:1|3:2,0:0:0:0:
231,111,105705,2,0,B|238:132|238:132|256:149,1,48,0|2,1:0|3:2,0:0:0:0:
298,173,106054,1,8,1:0:0:0:
394,171,106403,6,0,L|378:282,1,95.9999999999999,4|8,1:0|1:0,0:0:0:0:
339,292,106927,1,2,3:2:0:0:
351,338,107101,2,0,P|393:358|439:347,1,95.9999999999999,0|8,1:0|1:0,0:0:0:0:
481,324,107624,1,2,0:0:0:0:
507,231,107973,1,2,3:2:0:0:
494,139,108322,1,2,3:2:0:0:
494,139,108496,1,2,1:2:0:0:
426,71,108845,1,8,1:0:0:0:
330,59,109194,6,0,L|292:154,1,95.9999999999999,4|8,1:0|1:1,0:0:0:0:
304,196,109717,1,2,3:2:0:0:
312,243,109891,2,0,L|274:338,1,95.9999999999999,4|8,1:0|1:1,0:0:0:0:
191,376,110589,1,0,1:0:0:0:
116,315,110938,1,8,1:0:0:0:
20,322,111287,2,0,P|11:301|12:262,1,48,4|0,1:0|1:0,0:0:0:0:
20,229,111635,2,0,P|41:220|80:221,1,48,10|2,1:0|0:0,0:0:0:0:
114,213,111984,6,0,B|147:189|147:158|147:158|137:128,1,95.9999999999999,4|8,1:0|1:0,0:0:0:0:
87,54,112681,1,2,1:2:0:0:
87,54,112856,1,2,3:2:0:0:
178,24,113205,2,0,B|211:10|246:2|246:2|285:9|313:27,1,144,2|8,3:2|1:0,0:0:0:0:
361,110,114077,2,0,L|421:94,1,48,2|2,3:2|3:2,0:0:0:0:
453,85,114426,1,10,3:1:0:0:
488,174,114774,5,0,1:0:0:0:
424,245,115123,2,0,P|404:295|381:337,1,95.9999999999999,8|2,1:0|1:2,0:0:0:0:
347,363,115647,1,2,0:0:0:0:
253,342,115995,2,0,B|233:325|233:325|192:334|192:334|171:315,1,95.9999999999999,2|2,0:0|3:2,0:0:0:0:
128,291,116519,2,0,L|134:235,1,48,8|2,1:0|3:1,0:0:0:0:
40,244,117042,1,2,3:1:0:0:
40,244,117216,2,0,L|46:188,1,48,8|0,1:0|1:0,0:0:0:0:
11,161,117565,6,0,B|6:129|6:129|21:107|54:84,1,95.9999999999999,4|8,1:0|1:1,0:0:0:0:
146,122,118262,1,0,3:0:0:0:
146,122,118437,1,2,3:2:0:0:
231,166,118786,2,0,B|230:205|205:233|205:233|230:265|226:298,1,144,2|8,3:2|1:0,0:0:0:0:
311,341,119658,2,0,P|334:345|357:337,1,48,0|2,1:0|3:2,0:0:0:0:
389,301,120007,2,0,P|412:305|435:297,1,48,10|2,1:0|3:2,0:0:0:0:
461,256,120356,5,2,1:2:0:0:
412,173,120705,1,10,1:0:0:0:
493,120,121054,1,2,1:2:0:0:
493,120,121228,1,2,1:2:0:0:
441,45,121577,1,2,1:2:0:0:
441,45,121751,2,0,L|346:70,1,95.9999999999999,2|8,1:3|1:0,0:0:0:0:
268,14,122449,2,0,L|245:63,1,48,2|0,3:0|1:0,0:0:0:0:
200,66,122798,2,0,L|177:115,1,48,10|0,1:0|1:0,0:0:0:0:
158,152,123147,5,4,1:0:0:0:
64,133,123495,1,8,1:0:0:0:
11,214,123844,1,0,1:0:0:0:
11,214,124019,1,2,3:0:0:0:
33,307,124368,2,0,B|66:321|101:329|101:329|140:322|168:304,1,144,2|8,3:0|1:0,0:0:0:0:
250,253,125240,2,0,B|270:239|270:239|293:237,1,48,2|2,1:3|3:2,0:0:0:0:
335,262,125589,1,8,1:0:0:0:
399,332,125937,5,2,3:0:0:0:
493,348,126286,2,0,P|499:300|487:254,1,95.9999999999999,8|2,3:1|1:3,0:0:0:0:
466,210,126810,1,2,3:0:0:0:
502,121,127158,2,0,B|484:101|440:131|409:109,1,95.9999999999999,2|2,3:0|3:2,0:0:0:0:
375,75,127682,2,0,P|351:70|328:75,1,48,10|2,1:0|3:2,0:0:0:0:
291,107,128030,1,2,1:3:0:0:
260,202,128379,1,10,1:0:0:0:
260,202,128554,1,10,1:2:0:0:
260,202,128728,6,0,P|241:253|270:290,1,95.9999999999999,4|8,1:0|1:0,0:0:0:0:
210,367,129425,1,0,1:0:0:0:
210,367,129600,1,2,3:0:0:0:
121,342,129949,1,2,3:0:0:0:
121,342,130123,2,0,L|54:332,1,48,2|2,1:1|3:1,0:0:0:0:
53,291,130472,2,0,L|-14:301,1,48,10|2,1:1|3:1,0:0:0:0:
43,209,130995,2,0,P|4:198|-11:182,2,48,2|10|2,0:0|1:1|0:0,0:0:0:0:
87,189,131519,6,0,P|107:147|94:98,1,95.9999999999999,2|8,1:3|1:1,0:0:0:0:
63,64,132042,1,2,3:0:0:0:
142,10,132391,2,0,L|198:20,1,48,2|8,0:0|1:1,0:0:0:0:
219,55,132740,1,2,3:0:0:0:
248,93,132914,2,2,L|349:74,1,95.9999999999999,2|8,1:2|1:1,0:0:0:0:
431,112,133612,2,0,P|428:135|414:155,1,48,2|2,1:3|1:3,0:0:0:0:
392,198,133961,2,0,P|394:221|408:241,1,48,8|0,1:0|1:0,0:0:0:0:
451,262,134310,5,4,1:0:0:0:
420,352,134658,1,8,0:0:0:0:
328,323,135006,2,0,B|298:315|298:315|272:343|272:343|226:356,1,95.9999999999999,0|8,1:0|3:2,0:0:0:0:
150,367,135704,5,4,3:0:0:0:
78,376,135966,5,4,3:0:0:0:
6,381,136227,5,4,3:0:0:0:
6,381,136402,2,0,L|0:333,1,48,2|2,3:2|0:0,0:0:0:0:
0,285,136751,2,0,L|8:223,1,48,10|2,1:2|3:2,0:0:0:0:
21,190,137100,6,0,P|65:175|109:191,1,95.9999999999999,0|8,1:0|3:2,0:0:0:0:
193,237,137798,2,0,P|237:252|281:236,1,95.9999999999999,0|8,1:0|3:2,0:0:0:0:
343,163,138495,1,2,1:2:0:0:
319,69,138844,1,8,3:2:0:0:
246,5,139193,2,0,B|224:-2|224:-2|194:-1,1,48,2|2,1:2|0:0,0:0:0:0:
169,36,139541,2,0,B|147:43|147:43|117:42,1,48,10|2,3:1|3:2,0:0:0:0:
84,12,139890,5,4,1:0:0:0:
9,73,140239,1,8,3:2:0:0:
74,143,140588,2,0,B|82:171|82:171|77:242,1,95.9999999999999,0|8,1:0|3:2,0:0:0:0:
63,332,141286,5,0,1:0:0:0:
119,375,141547,5,2,3:2:0:0:
186,345,141809,5,2,3:2:0:0:
186,345,141983,2,0,P|210:347|232:357,1,48,2|2,1:2|0:0,0:0:0:0:
269,326,142333,2,0,P|293:328|315:338,1,48,10|2,3:2|3:2,0:0:0:0:
350,368,142681,6,0,L|444:324,1,95.9999999999999,0|8,1:0|3:2,0:0:0:0:
508,262,143379,2,0,L|414:218,1,95.9999999999999,0|8,1:0|3:2,0:0:0:0:
338,171,144076,1,4,1:2:0:0:
417,116,144425,1,12,0:0:0:0:
495,59,144774,2,0,L|501:7,1,48,0|0,1:0|1:0,0:0:0:0:
453,0,145123,2,0,L|401:6,1,48,8|0,1:0|1:0,3:0:0:0:
379,40,145472,6,0,L|406:134,2,86.3999973632812,6|2|2,1:2|0:0|0:0,0:0:0:0:
299,75,146519,1,2,0:0:0:0:
224,31,146867,2,0,P|188:8|145:11,1,86.3999973632812,8|8,3:0|0:3,0:0:0:0:
74,60,147565,2,0,P|71:82|77:112,1,43.1999986816406,8|8,3:0|3:0,0:0:0:0:
100,136,147914,1,8,3:0:0:0:
100,222,148263,6,0,L|91:277,2,43.1999986816406,2|2|2,3:2|0:0|3:2,0:0:0:0:
184,239,148961,2,0,L|175:294,2,43.1999986816406,2|2|2,3:2|0:0|3:2,0:0:0:0:
262,203,149658,2,0,P|303:212|332:244,1,86.3999973632812,0|0,3:0|3:0,0:0:0:0:
368,322,150356,1,0,3:0:0:0:
303,377,150705,6,0,B|263:362|263:362|211:356,1,86.3999973632812,2|0,3:2|3:0,0:0:0:0:
178,369,151228,1,2,0:0:0:0:
92,383,151577,1,2,0:0:0:0:
28,324,151926,1,2,0:0:0:0:
24,241,152274,1,2,0:0:0:0:
24,241,152449,6,0,B|64:226|64:226|116:220,1,86.3999973632812,8|8,3:0|0:3,0:0:0:0:
190,196,153147,2,0,B|193:216|193:216|189:243,2,43.1999986816406,8|8|8,3:0|3:0|3:0,0:0:0:0:
141,124,153844,1,0,3:0:0:0:
215,80,154193,1,0,3:0:0:0:
165,9,154542,2,0,B|125:24|125:24|73:30,2,86.3999973632812,2|2|0,3:2|3:2|1:0,0:0:0:0:
256,192,155327,12,4,156635,1:0:0:0:
468,7,167798,6,0,B|480:87|389:84|411:166,1,172.799994726562,4|2,1:2|3:2,0:0:0:0:
468,225,168845,1,8,0:0:0:0:
468,225,169019,2,0,P|465:266|438:319,1,86.3999973632812,2|2,0:0|0:0,0:0:0:0:
382,365,169717,2,0,L|337:374,1,43.1999986816406,2|0,0:0|3:0,0:0:0:0:
278,312,170240,2,0,L|233:303,1,43.1999986816406,10|2,0:0|3:2,0:0:0:0:
200,279,170588,6,0,P|203:238|230:185,1,86.3999973632812,2|8,3:2|0:0,0:0:0:0:
305,168,171287,1,2,0:0:0:0:
305,168,171461,1,2,0:0:0:0:
281,84,171810,1,2,0:0:0:0:
171,14,172333,2,0,P|149:12|129:18,1,43.1999986816406,10|2,0:0|0:3,0:0:0:0:
86,8,172681,2,0,P|69:21|60:40,1,43.1999986816406,2|2,0:3|0:0,0:0:0:0:
51,83,173031,1,8,3:2:0:0:
48,168,173380,6,0,P|88:185|130:196,1,86.3999973632812,0|8,1:0|0:0,0:0:0:0:
172,186,173903,1,2,0:0:0:0:
197,151,174077,2,0,P|236:134|278:123,1,86.3999973632812,2|10,3:2|0:0,0:0:0:0:
320,132,174601,1,2,0:0:0:0:
301,216,174949,1,2,0:0:0:0:
375,269,175298,1,0,3:0:0:0:
375,269,175473,1,2,3:2:0:0:
333,344,175821,1,8,3:2:0:0:
247,333,176170,6,0,L|164:359,1,86.3999973632812,0|8,1:0|1:2,0:0:0:0:
78,346,176868,2,0,P|73:302|94:261,1,86.3999973632812,0|8,1:0|1:2,0:0:0:0:
172,234,177566,1,0,1:0:0:0:
125,161,177914,1,8,1:0:0:0:
60,103,178263,2,0,P|61:79|74:53,1,43.1999986816406,0|0,1:0|1:0,0:0:0:0:
92,25,178612,2,0,P|116:26|142:39,1,43.1999986816406,10|0,1:0|1:0,0:0:0:0:
171,63,178961,6,0,L|269:37,1,95.9999999999999,4|8,1:0|1:0,0:0:0:0:
299,70,179485,1,2,3:2:0:0:
345,60,179659,2,0,P|344:130|322:210,1,144,2|2,1:2|3:2,0:0:0:0:
382,278,180531,1,2,3:2:0:0:
476,250,180880,1,2,3:2:0:0:
476,250,181054,1,2,1:2:0:0:
501,157,181403,6,0,B|493:136|472:121|472:121|485:97|477:60,1,95.9999999999999,8|0,1:1|1:0,0:0:0:0:
403,13,182101,1,8,1:0:0:0:
323,67,182450,2,0,P|300:77|262:75,1,48,2|2,1:2|3:2,0:0:0:0:
191,35,182973,2,0,B|141:22|141:22|85:34,1,95.9999999999999,2|2,3:2|3:2,0:0:0:0:
60,62,183496,2,0,B|69:81|69:81|69:106,1,48,8|2,1:1|3:2,0:0:0:0:
111,128,183845,2,0,B|120:147|120:147|120:172,1,48,0|2,1:0|3:2,0:0:0:0:
108,219,184194,1,8,1:0:0:0:
79,310,184542,6,0,L|190:326,1,95.9999999999999,4|8,1:0|1:0,0:0:0:0:
200,365,185065,1,2,3:2:0:0:
246,353,185240,2,0,P|266:311|255:265,1,95.9999999999999,0|8,1:0|1:0,0:0:0:0:
232,223,185764,1,2,0:0:0:0:
262,132,186113,1,2,3:2:0:0:
360,150,186462,1,2,3:2:0:0:
360,150,186636,1,2,1:2:0:0:
391,240,186985,1,8,1:0:0:0:
344,323,187334,6,0,L|232:320,1,95.9999999999999,4|10,1:0|3:1,0:0:0:0:
200,318,187857,1,2,3:2:0:0:
152,314,188031,2,0,L|190:219,1,95.9999999999999,4|10,1:0|1:1,0:0:0:0:
118,158,188729,1,0,1:0:0:0:
33,113,189078,1,0,1:0:0:0:
55,19,189427,2,0,P|76:10|115:11,1,48,4|0,1:0|1:0,0:0:0:0:
147,15,189774,2,0,P|168:24|207:23,1,48,2|0,1:0|0:0,0:0:0:0:
240,17,190123,6,0,B|303:42|255:94|314:133,1,144,4|2,1:0|0:0,0:0:0:0:
403,164,190995,1,2,0:0:0:0:
447,248,191344,2,0,B|376:279|441:430|354:373|325:302|325:302|289:341|229:341,1,336,2|8,0:0|1:0,0:0:0:0:
183,335,192740,1,2,0:0:0:0:
140,313,192914,6,0,L|155:202,1,95.9999999999999,0|8,1:0|1:0,0:0:0:0:
164,171,193437,1,2,0:0:0:0:
255,140,193786,1,2,0:0:0:0:
339,93,194135,2,0,B|268:-43|146:154|34:6,1,336,2|10,0:0|1:0,0:0:0:0:
16,56,195530,1,0,1:0:0:0:
0,101,195705,6,0,P|-6:179|39:229,1,144,0|2,1:0|0:0,0:0:0:0:
120,267,196577,1,2,0:0:0:0:
215,257,196926,2,0,B|307:266|306:353|372:370|372:370|386:267|443:257,1,336,2|8,0:0|1:0,0:0:0:0:
485,261,198322,1,2,0:0:0:0:
507,218,198496,6,0,P|507:169|480:115,1,95.9999999999999,2|10,1:2|1:1,0:0:0:0:
451,96,199019,1,2,3:2:0:0:
359,123,199368,1,2,1:2:0:0:
305,49,199716,1,2,1:2:0:0:
305,49,199891,2,0,L|241:25,1,48,0|0,1:0|1:0,0:0:0:0:
213,45,200240,2,0,L|149:21,1,48,8|0,1:0|1:0,0:0:0:0:
124,48,200588,2,0,B|117:89|117:89|132:120,2,71.9999999999999,2|2|2,1:0|3:1|0:1,0:0:0:0:
84,20,201286,5,4,1:0:0:0:
1,69,201635,1,8,1:1:0:0:
0,165,201984,2,0,P|27:157|52:154,1,48,2|2,1:2|0:0,0:0:0:0:
79,189,202333,1,8,1:0:0:0:
126,182,202507,2,0,P|153:248|110:316,1,144,2|8,0:0|1:0,0:0:0:0:
191,374,203379,2,0,P|218:382|243:385,1,48,0|0,1:0|0:0,0:0:0:0:
277,357,203728,2,0,P|304:365|329:368,1,48,10|2,3:1|0:2,0:0:0:0:
369,381,204077,6,0,P|365:330|386:281,1,95.9999999999999,0|8,1:0|1:0,0:0:0:0:
477,265,204774,1,2,1:2:0:0:
477,265,204949,2,0,B|512:226|512:226|503:161,1,95.9999999999999,2|2,3:2|3:2,0:0:0:0:
479,142,205472,2,0,L|379:159,1,95.9999999999999,2|8,1:2|1:0,0:0:0:0:
304,104,206170,1,0,1:0:0:0:
217,131,206519,1,8,1:0:0:0:
217,131,206693,1,0,1:0:0:0:
217,131,206867,6,0,P|195:172|217:213,1,95.9999999999999,4|8,1:0|1:0,0:0:0:0:
295,267,207565,2,0,L|313:368,1,95.9999999999999,2|8,1:2|1:0,0:0:0:0:
217,380,208263,2,0,P|200:374|171:351,1,48,0|0,1:0|0:0,0:0:0:0:
164,309,208612,1,8,1:0:0:0:
123,283,208786,2,0,B|111:229|163:192|150:128,1,144,2|10,0:0|3:1,0:0:0:0:
112,56,209658,5,2,1:2:0:0:
15,57,210007,2,0,P|-3:104|19:151,1,95.9999999999999,10|2,1:0|1:2,0:0:0:0:
40,183,210530,1,2,1:2:0:0:
67,222,210705,2,0,L|119:229,1,48,10|2,1:0|1:2,0:0:0:0:
161,235,211053,1,0,1:0:0:0:
229,167,211402,1,8,1:0:0:0:
324,163,211751,2,0,L|341:102,1,48,0|0,1:0|1:0,0:0:0:0:
307,78,212100,2,0,L|324:17,1,48,8|0,1:0|1:0,0:0:0:0:
359,0,212449,6,0,L|457:26,1,100.799996923828,4|8,1:0|1:0,0:0:0:0:
475,72,212973,1,2,3:2:0:0:
446,112,213147,2,0,P|434:187|437:262,1,151.199995385742,0|2,1:0|3:2,0:0:0:0:
497,344,214019,1,2,3:2:0:0:
406,382,214368,1,2,3:2:0:0:
406,382,214542,1,0,1:0:0:0:
329,316,214891,6,0,B|308:308|293:287|293:287|269:300|232:292,1,100.799996923828,8|0,1:1|1:0,0:0:0:0:
152,343,215589,1,8,1:0:0:0:
54,319,215938,2,0,P|44:296|46:258,1,50.3999984619141,0|2,1:0|3:2,0:0:0:0:
101,188,216461,2,0,B|114:136|114:136|101:90,1,100.799996923828,2|2,3:2|3:2,0:0:0:0:
79,45,216984,2,0,B|139:36,1,50.3999984619141,8|2,1:1|3:2,0:0:0:0:
169,7,217333,2,0,B|229:16,1,50.3999984619141,0|2,1:0|3:2,0:0:0:0:
244,57,217682,1,8,1:0:0:0:
277,152,218031,6,0,P|280:194|228:230,1,100.799996923828,4|8,1:0|1:0,0:0:0:0:
206,268,218555,1,2,3:2:0:0:
214,317,218729,2,0,L|323:304,1,100.799996923828,0|8,1:0|1:0,0:0:0:0:
338,349,219252,1,2,0:0:0:0:
436,369,219601,1,2,3:2:0:0:
506,297,219950,1,2,3:2:0:0:
506,297,220124,1,0,1:0:0:0:
465,204,220473,1,8,1:0:0:0:
372,164,220822,6,0,P|322:156|277:177,1,100.799996923828,4|10,1:0|1:1,0:0:0:0:
234,149,221345,1,2,3:2:0:0:
189,125,221519,2,0,P|157:164|152:213,1,100.799996923828,4|10,1:0|1:1,0:0:0:0:
69,271,222217,1,0,1:0:0:0:
2,194,222566,1,2,1:0:0:0:
7,93,222915,2,0,P|28:83|67:85,1,50.3999984619141,4|0,1:0|1:0,0:0:0:0:
98,110,223263,2,0,L|150:75,1,50.3999984619141,2|0,1:0|1:0,0:0:0:0:
153,33,223612,6,0,B|193:26|205:57|264:37,1,100.799996923828,4|8,1:0|1:0,0:0:0:0:
298,20,224135,1,2,0:0:0:0:
382,74,224484,1,2,0:0:0:0:
473,116,224833,2,0,B|465:204|344:182|311:251|311:251|368:283|354:366,1,352.799989233398,2|8,0:0|1:0,0:0:0:0:
306,383,226229,1,2,3:2:0:0:
262,357,226403,6,0,B|221:337|221:337|161:350,1,100.799996923828,0|8,1:0|1:0,0:0:0:0:
123,375,226926,1,2,0:0:0:0:
45,310,227275,1,2,0:0:0:0:
31,210,227624,2,0,B|156:249|156:139|156:139|156:42|281:73,1,352.799989233398,0|10,0:0|1:0,0:0:0:0:
331,87,229019,1,0,1:0:0:0:
380,97,229194,6,0,B|343:259,1,151.199995385742,0|2,1:0|0:0,0:0:0:0:
433,295,230066,1,2,0:0:0:0:
349,351,230415,2,0,B|257:342|258:255|192:238|192:238|129:300|51:295,1,352.799989233398,2|8,0:0|1:0,0:0:0:0:
20,257,231809,1,2,0:0:0:0:
11,207,231984,6,0,P|26:164|71:137,1,100.799996923828,2|10,1:2|1:0,0:0:0:0:
121,126,232508,1,2,3:2:0:0:
221,137,232857,1,2,1:2:0:0:
250,237,233205,1,2,1:2:0:0:
250,237,233379,2,0,L|318:230,1,50.3999984619141,0|0,1:0|1:0,0:0:0:0:
333,271,233728,2,0,L|401:277,1,50.3999984619141,8|0,1:0|1:0,0:0:0:0:
425,248,234077,2,0,P|423:211|401:172,2,75.5999976928711,2|2|2,1:0|0:1|0:1,0:0:0:0:
467,269,234775,5,0,1:0:0:0:
451,363,235123,1,8,1:0:0:0:
359,375,235472,1,0,1:0:0:0:
359,375,235647,1,2,3:0:0:0:
273,330,235996,2,0,B|259:297|251:262|251:262|258:223|276:195,1,144,2|8,3:0|1:0,0:0:0:0:
225,112,236868,2,0,P|245:98|268:96,1,48,2|2,1:3|3:2,0:0:0:0:
297,58,237216,2,0,P|321:62|338:77,1,48,8|2,1:0|1:3,0:0:0:0:
363,118,237565,5,2,1:3:0:0:
453,150,237914,2,0,P|452:108|465:38,1,95.9999999999999,8|2,1:0|1:3,0:0:0:0:
480,10,238438,1,2,3:0:0:0:
384,12,238786,2,0,P|331:10|279:-3,1,95.9999999999999,2|2,0:0|3:2,0:0:0:0:
240,0,239310,1,10,1:0:0:0:
160,52,239658,1,2,1:3:0:0:
200,149,240007,1,10,1:0:0:0:
200,149,240182,1,10,1:2:0:0:
200,149,240356,6,0,B|213:194|213:194|190:237,1,95.9999999999999,4|8,1:0|1:0,0:0:0:0:
127,311,241053,1,0,1:0:0:0:
127,311,241228,1,2,3:0:0:0:
195,384,241577,1,2,3:0:0:0:
195,384,241751,2,0,L|262:374,1,48,2|2,1:1|3:1,0:0:0:0:
288,361,242100,2,0,L|312:297,1,48,10|2,3:1|3:1,0:0:0:0:
387,267,242623,2,0,B|405:286|405:286|441:294,2,48,2|10|2,3:1|1:1|3:1,0:0:0:0:
379,219,243147,6,0,B|396:181|396:181|386:128,1,95.9999999999999,2|8,1:3|1:1,0:0:0:0:
360,86,243670,1,2,3:0:0:0:
271,47,244019,2,0,P|244:48|215:57,1,48,2|8,3:0|1:0,0:0:0:0:
197,93,244368,1,2,3:0:0:0:
175,135,244542,2,0,P|127:143|74:116,1,95.9999999999999,2|8,1:2|1:0,0:0:0:0:
17,194,245240,2,0,B|20:217|20:217|34:237,1,48,2|0,1:3|1:0,0:0:0:0:
56,280,245589,2,0,B|54:303|54:303|40:323,1,48,8|0,1:0|1:0,0:0:0:0:
15,365,245938,5,0,1:0:0:0:
109,382,246286,1,8,1:0:0:0:
205,360,246635,1,2,1:3:0:0:
205,360,246810,1,2,3:0:0:0:
259,281,247159,2,0,B|297:278|328:291|328:291|363:277|399:283,1,144,2|8,3:0|1:1,0:0:0:0:
483,236,248031,2,0,P|487:211|479:190,1,48,2|2,1:3|3:2,0:0:0:0:
502,148,248379,2,0,P|488:127|467:118,1,48,8|2,1:0|1:3,0:0:0:0:
419,113,248728,5,2,1:3:0:0:
342,171,249077,2,0,P|303:154|245:112,1,95.9999999999999,8|2,1:1|1:3,0:0:0:0:
228,86,249601,1,2,3:2:0:0:
153,146,249949,2,0,L|176:245,1,95.9999999999999,2|2,0:3|3:2,0:0:0:0:
188,285,250473,1,10,1:0:0:0:
105,333,250821,1,2,1:3:0:0:
30,289,251170,1,10,1:0:0:0:
30,289,251345,1,10,1:2:0:0:
30,289,251519,6,0,B|17:244|17:244|40:201,1,95.9999999999999,4|8,1:0|1:0,0:0:0:0:
3,117,252216,1,0,1:0:0:0:
3,117,252391,1,2,3:0:0:0:
69,47,252740,1,2,3:2:0:0:
69,47,252914,2,0,L|136:57,1,48,2|2,1:1|3:1,0:0:0:0:
142,94,253263,2,0,L|209:104,1,48,10|2,1:1|3:1,0:0:0:0:
228,188,253786,2,0,L|295:178,2,48,2|10|0,0:0|1:1|0:0,0:0:0:0:
204,230,254310,6,0,P|196:269|223:318,1,95.9999999999999,2|8,1:3|1:1,0:0:0:0:
261,345,254833,1,2,3:0:0:0:
348,305,255181,2,0,P|372:300|396:297,2,48,2|8|0,3:0|1:1|0:0,0:0:0:0:
325,262,255705,2,2,B|332:202|380:175|380:175|367:125,1,144,2|2,1:3|1:2,0:0:0:0:
340,102,256402,2,0,P|316:107|292:110,1,48,2|0,1:3|1:3,0:0:0:0:
263,72,256751,2,0,P|239:77|215:80,1,48,8|2,1:0|1:3,0:0:0:0:
182,114,257100,5,4,1:0:0:0:
