osu file format v14

[General]
AudioFilename: audio.mp3
AudioLeadIn: 2000
PreviewTime: 234077
Countdown: 0
SampleSet: Soft
StackLeniency: 0.5
Mode: 0
LetterboxInBreaks: 0
WidescreenStoryboard: 1

[Editor]
Bookmarks: 22680,45006,67331,89657,111982,134308,156634,178959,201285,223612,245937,268263
DistanceSpacing: 0.9
BeatDivisor: 4
GridSize: 16
TimelineZoom: 3.599999

[Metadata]
Title:smooooch -Akiba Koubou mix- / Remixed by DJ Command
TitleUnicode:smooooch ・∀・-秋葉工房 mix- / Remixed by DJ Command
Artist:kors k
ArtistUnicode:kors k
Creator:AJT
Version:(* V* )
Source:beatmania IIDX 16 EMPRESS
Tags:electronic english instrumental video game trance eurobeat candy rave yokespai bloxi chanmann jounzan evilelvis evilelvisv2 natteke desu reflec beat beatstream アニムトライヴ animtribe dancedancerevolution x2 dancerush stardom hello! pop'n music 19 tune street ポップンリズミン rhythmin' jubeat saucer plus jukebeat ミライダガッキ mirai dagakki futuretomtom konami
BeatmapID:4353816
BeatmapSetID:2079191

[Difficulty]
HPDrainRate:5
CircleSize:4
OverallDifficulty:8
ApproachRate:8
SliderMultiplier:1.9
SliderTickRate:1

[Events]
//Background and Video events
0,0,"Oag4zeQ.jpg",0,0
//Break Periods
2,78695,86117
2,156835,164257
//Storyboard Layer 0 (Background)
//Storyboard Layer 1 (Fail)
//Storyboard Layer 2 (Pass)
//Storyboard Layer 3 (Foreground)
//Storyboard Layer 4 (Overlay)
//Storyboard Sound Samples

[TimingPoints]
-1039,348.837209302326,4,2,0,50,1,0
356,-142.857142857143,4,2,0,50,0,0
22681,-100,4,2,0,80,0,0
78844,-100,4,2,0,50,0,0
89658,-142.857142857143,4,2,0,65,0,0
100821,-100,4,2,0,80,0,0
145472,-100,4,2,0,65,0,0
167798,-142.857142857143,4,2,0,65,0,0
176867,-100,4,2,0,65,0,0
177740,-142.857142857143,4,2,0,65,0,0
178263,-100,4,2,0,65,0,0
178350,-100,4,2,0,65,0,0
178961,-100,4,2,0,80,0,0
234774,-100,4,2,0,90,0,0
257100,-100,4,2,0,90,0,0
273844,-100,4,2,0,5,0,0

[Colours]
Combo1 : 1,181,216
Combo2 : 255,241,192
Combo3 : 255,82,151
Combo4 : 92,225,255

[HitObjects]
78,384,356,6,0,P|90:320|100:246,1,133,2|2,0:0|0:0,0:0:0:0:
20,152,879,1,0,3:0:0:0:
20,152,1054,2,0,P|13:183|8:220,1,66.4999999999999,2|0,0:0|0:0,0:0:0:0:
128,354,1402,2,0,P|135:323|140:286,1,66.4999999999999,0|0,3:0|0:0,0:0:0:0:
256,184,1751,6,0,P|288:186|332:195,1,66.4999999999999,2|2,0:0|0:0,0:0:0:0:
504,261,2100,2,0,P|474:246|442:235,1,66.4999999999999,0|0,3:0|3:0,0:0:0:0:
389,81,2449,2,0,P|391:113|400:157,1,66.4999999999999,2|0,0:0|3:0,0:0:0:0:
335,348,2798,1,2,0:0:0:0:
465,274,2972,1,0,3:0:0:0:
434,384,3147,6,0,P|422:320|412:246,1,133,2|2,0:0|0:0,0:0:0:0:
492,152,3670,1,0,3:0:0:0:
492,152,3844,2,0,P|499:183|504:220,1,66.4999999999999,2|0,0:0|0:0,0:0:0:0:
384,354,4193,2,0,P|377:323|372:286,1,66.4999999999999,0|0,3:0|0:0,0:0:0:0:
501,152,4542,6,0,P|489:121|473:92,2,66.4999999999999,2|2|0,0:0|0:0|3:0,0:0:0:0:
421,315,5065,2,0,P|406:287|392:252,2,66.4999999999999,0|2|0,3:0|0:0|3:0,0:0:0:0:
512,384,5588,1,2,0:0:0:0:
341,376,5763,1,0,3:0:0:0:
336,200,5937,6,0,P|272:212|198:222,1,133,2|2,0:0|0:0,0:0:0:0:
104,142,6461,1,0,3:0:0:0:
104,142,6635,2,0,P|135:135|172:130,1,66.4999999999999,2|0,0:0|0:0,0:0:0:0:
306,250,6984,2,0,P|275:257|238:262,1,66.4999999999999,0|0,3:0|0:0,0:0:0:0:
306,40,7333,6,0,P|313:71|318:108,1,66.4999999999999,2|2,0:0|0:0,0:0:0:0:
198,242,7681,2,0,P|191:211|186:174,1,66.4999999999999,0|0,3:0|3:0,0:0:0:0:
408,242,8030,2,0,P|377:249|340:254,1,66.4999999999999,2|0,0:0|3:0,0:0:0:0:
233,134,8379,5,2,0:0:0:0:
215,260,8554,1,0,3:0:0:0:
194,384,8728,1,2,0:0:0:0:
256,192,8902,12,2,10123,0:0:0:0:
53,9,10472,6,0,L|59:46,4,33.25,0|0|0|2|2,3:0|3:0|3:0|0:0|0:0,0:0:0:0:
59,42,10995,1,0,3:0:0:0:
25,171,11170,1,2,0:0:0:0:
135,118,11344,1,0,3:0:0:0:
137,235,11519,6,0,P|205:225|258:188,1,133,0|0,1:0|3:0,0:0:0:0:
235,47,12042,1,0,3:0:0:0:
92,39,12216,2,0,P|119:102|168:144,1,133,0|0,1:0|3:0,0:0:0:0:
356,150,12740,6,0,P|348:206|337:252,1,99.7499999999999,0|0,3:0|0:0,0:0:0:0:
338,247,13088,2,0,P|280:289|219:274,1,133,0|0,3:0|3:0,0:0:0:0:
137,235,13612,1,0,1:0:0:0:
196,360,13786,1,0,3:0:0:0:
196,360,13873,1,0,3:0:0:0:
196,360,13961,1,0,1:0:0:0:
70,384,14135,1,0,3:0:0:0:
0,258,14309,6,0,P|11:190|31:114,2,133,0|0|0,1:0|3:0|1:0,0:0:0:0:
196,360,15181,1,0,3:0:0:0:
316,24,15530,2,0,P|327:92|347:168,1,133,0|0,3:0|3:0,0:0:0:0:
342,154,15966,1,0,3:0:0:0:
342,154,16054,5,0,1:0:0:0:
226,168,16228,1,0,3:0:0:0:
359,206,16402,1,0,1:0:0:0:
259,308,16577,1,0,3:0:0:0:
388,326,16751,1,0,1:0:0:0:
173,384,16926,1,2,0:0:0:0:
173,384,17013,1,2,0:0:0:0:
173,384,17100,6,0,P|162:316|150:271,1,99.7499969558717,0|0,1:0|0:0,0:0:0:0:
154,286,17449,2,0,P|113:275|76:273,1,66.4999979705811,0|0,1:0|3:0,0:0:0:0:
204,86,17798,2,0,P|212:127|223:154,1,66.4999979705811,0|0,1:0|0:0,0:0:0:0:
312,107,18147,5,0,1:0:0:0:
312,107,18234,1,2,0:0:0:0:
312,107,18321,1,2,0:0:0:0:
255,256,18495,1,0,1:0:0:0:
383,330,18670,2,0,B|451:309|529:297,1,132.999995941162,0|0,3:0|3:0,0:0:0:0:
512,299,19193,1,0,1:0:0:0:
390,225,19367,1,0,3:0:0:0:
408,124,19542,1,0,1:0:0:0:
390,225,19716,5,2,0:0:0:0:
390,225,19803,1,2,0:0:0:0:
390,225,19891,1,0,1:0:0:0:
408,124,20065,1,0,3:0:0:0:
360,33,20239,1,0,3:0:0:0:
259,15,20414,1,0,3:0:0:0:
198,230,20588,5,0,1:0:0:0:
299,273,20763,1,0,3:0:0:0:
390,225,20937,1,0,3:0:0:0:
408,124,21112,1,0,3:0:0:0:
360,33,21286,5,2,3:2:0:0:
97,88,21635,1,2,0:0:0:0:
152,351,21984,1,2,0:0:0:0:
415,296,22333,1,2,0:0:0:0:
335,368,22507,6,0,L|338:388,2,16.6249994926453,0|0|0,3:0|3:0|3:0,3:0:0:0:
348,359,22681,6,0,P|329:299|304:149,1,190,4|8,1:0|1:0,0:0:0:0:
512,105,23205,1,2,0:0:0:0:
511,0,23379,2,0,P|492:60|467:210,1,190,0|8,1:0|1:0,0:0:0:0:
353,282,23902,6,0,P|306:275|260:262,1,95,2|0,3:2|1:0,0:0:0:0:
129,231,24251,2,0,P|158:193|193:160,1,95,2|8,3:2|1:0,0:0:0:0:
285,62,24600,2,0,P|303:107|314:153,2,95,2|2|0,3:2|1:2|3:0,0:0:0:0:
285,62,25036,1,0,3:0:0:0:
285,62,25123,1,8,1:1:0:0:
400,212,25298,1,2,1:2:0:0:
512,0,25472,6,0,P|503:70|490:140,1,142.5,0|0,1:0|0:0,0:0:0:0:
400,212,25821,2,0,P|413:254|424:325,1,95,8|2,1:0|0:0,0:0:0:0:
512,384,26170,1,0,1:0:0:0:
512,384,26257,1,0,3:0:0:0:
512,384,26344,2,0,P|455:357|367:351,1,142.5,2|0,3:2|0:0,0:0:0:0:
296,296,26693,2,0,P|254:309|183:320,1,95,2|0,3:2|1:0,0:0:0:0:
144,384,27042,5,2,3:2:0:0:
144,384,27129,1,0,3:0:0:0:
144,384,27216,1,8,1:1:0:0:
230,222,27391,1,2,3:2:0:0:
21,275,27565,1,2,1:2:0:0:
144,384,27740,1,0,3:0:0:0:
230,222,27914,1,8,1:0:0:0:
105,192,28088,5,2,3:2:0:0:
105,192,28175,1,2,3:2:0:0:
105,192,28263,2,0,P|64:100|56:12,1,190,4|8,1:0|1:0,0:0:0:0:
256,0,28786,1,2,0:0:0:0:
455,11,28961,2,0,P|446:106|407:192,1,190,0|8,1:0|1:0,0:0:0:0:
344,248,29397,1,0,3:0:0:0:
344,248,29484,6,0,P|291:238|243:218,1,95,2|0,3:2|1:0,0:0:0:0:
150,103,29833,2,0,P|202:112|250:132,1,95,2|8,3:2|1:1,0:0:0:0:
344,248,30181,1,2,0:0:0:0:
181,308,30356,2,0,P|194:239|220:175,1,95,0|0,1:0|0:0,0:0:0:0:
373,51,30705,2,0,P|361:120|335:184,1,95,8|0,1:0|0:0,0:0:0:0:
132,336,31054,6,0,L|141:386,3,47.5,4|0|2|0,1:0|3:0|3:2|3:0,0:0:0:0:
51,220,31402,2,0,L|60:170,3,47.5,8|0|2|0,1:1|3:0|3:2|3:0,0:0:0:0:
0,307,31751,5,4,1:0:0:0:
46,311,31838,1,0,1:0:0:0:
92,297,31925,1,2,1:2:0:0:
134,275,32012,1,0,1:0:0:0:
175,251,32099,1,8,1:0:0:0:
218,231,32187,1,0,1:0:0:0:
264,219,32274,1,2,1:2:0:0:
311,218,32361,1,0,1:0:0:0:
331,241,32449,6,0,L|325:274,8,23.75,0|0|0|0|0|0|0|0|2,1:0|1:0|1:0|1:0|1:0|1:0|1:0|1:0|1:2,1:0:0:0:
360,328,32972,1,2,1:2:0:0:
432,264,33147,5,4,1:0:0:0:
381,132,33321,1,0,1:0:0:0:
512,0,33495,1,2,1:0:0:0:
381,132,33669,1,0,1:0:0:0:
208,76,33844,5,4,1:0:0:0:
208,76,34019,2,0,P|214:123|231:184,1,95,2|8,0:0|1:0,0:0:0:0:
360,328,34367,2,0,P|375:282|388:221,1,95,2|0,0:0|1:0,0:0:0:0:
149,293,34716,2,0,P|159:339|174:384,2,95,2|8|2,0:0|1:0|0:0,0:0:0:0:
243,73,35240,5,2,1:2:0:0:
246,234,35414,2,0,P|269:175|287:59,1,142.5,2|0,0:0|0:0,0:0:0:0:
243,73,35763,1,2,0:0:0:0:
74,191,35937,2,0,P|97:250|115:366,1,142.5,2|0,1:2|0:0,0:0:0:0:
0,384,36286,1,8,1:1:0:0:
150,356,36461,1,2,0:0:0:0:
282,327,36635,6,0,P|274:228|201:169,1,190,0|8,1:0|1:0,0:0:0:0:
512,222,37158,2,0,P|504:321|431:380,1,190,2|2,0:0|0:0,0:0:0:0:
397,281,37681,1,8,1:0:0:0:
397,281,37856,1,2,0:0:0:0:
397,281,38030,6,0,P|408:234|417:184,1,95,0|2,1:0|0:0,0:0:0:0:
295,0,38379,2,0,P|306:46|315:96,1,95,8|2,1:0|0:0,0:0:0:0:
512,175,38728,1,0,1:0:0:0:
512,175,39077,1,10,1:0:0:0:
307,309,39251,1,0,1:0:0:0:
170,118,39426,5,0,1:0:0:0:
282,159,39600,1,2,0:0:0:0:
170,118,39774,1,8,1:0:0:0:
74,206,39949,2,0,P|97:285|140:384,1,190,2|0,0:0|3:0,0:0:0:0:
307,309,40472,1,8,1:0:0:0:
307,309,40559,1,0,3:0:0:0:
307,309,40647,1,2,3:2:0:0:
456,349,40821,5,0,1:0:0:0:
307,309,40995,2,0,P|330:250|348:134,1,142.5,2|0,0:0|0:0,0:0:0:0:
345,172,41344,2,0,P|322:113|314:58,1,95,2|0,0:0|1:0,0:0:0:0:
355,10,41606,1,2,0:0:0:0:
355,10,41693,1,2,0:0:0:0:
449,93,41867,1,8,1:0:0:0:
253,178,42042,1,0,0:0:0:0:
150,0,42216,6,0,L|158:55,3,47.5,2|0|0|0,3:2|3:0|3:0|3:0,0:0:0:0:
253,178,42565,2,0,L|261:123,3,47.5,10|0|2|0,1:0|3:0|3:2|3:0,0:0:0:0:
119,138,42914,6,0,L|174:130,1,47.5,0|0,1:0|1:0,0:0:0:0:
297,35,43088,2,0,L|242:27,1,47.5,2|0,1:2|1:0,0:0:0:0:
75,75,43263,2,0,L|130:83,1,47.5,10|0,1:0|1:0,0:0:0:0:
205,184,43437,2,0,L|253:178,1,47.5,2|0,1:2|1:0,0:0:0:0:
414,87,43612,5,0,1:0:0:0:
512,252,43786,1,0,1:0:0:0:
325,362,43961,1,8,1:0:0:0:
325,362,44048,1,0,1:0:0:0:
325,362,44135,1,0,1:0:0:0:
325,362,44222,1,0,1:0:0:0:
325,362,44309,2,0,P|263:373|176:383,2,142.5,2|2|2,1:0|0:1|0:1,0:0:0:0:
205,184,45007,6,0,P|135:176|65:163,1,142.5,0|0,1:0|0:0,0:0:0:0:
64,163,45356,2,0,P|28:197|22:247,1,95,8|0,1:0|0:0,0:0:0:0:
184,382,45705,2,0,P|186:336|159:297,1,95,0|2,1:0|3:0,0:0:0:0:
0,384,46054,1,8,1:0:0:0:
0,384,46141,1,2,3:0:0:0:
0,384,46228,1,2,3:0:0:0:
86,218,46402,1,0,1:0:0:0:
86,218,46490,2,0,P|131:240|193:248,1,95,2|0,3:0|0:0,0:0:0:0:
253,211,46751,1,8,1:1:0:0:
303,341,46926,5,2,3:2:0:0:
303,341,47013,1,2,3:0:0:0:
303,341,47100,2,0,P|320:349|350:348,3,47.5,2|2|2|2,3:0|3:2|3:2|3:2,0:0:0:0:
381,321,47449,1,8,1:0:0:0:
403,284,47536,1,2,1:3:0:0:
405,240,47623,1,2,1:3:0:0:
375,210,47710,1,2,1:3:0:0:
333,197,47798,2,0,B|340:150,3,47.5,2|2|2|2,1:3|3:0|3:0|3:0,3:0:0:0:
377,135,48147,5,8,1:0:0:0:
219,53,48321,1,2,3:0:0:0:
137,211,48495,1,2,1:3:0:0:
295,293,48670,2,0,P|311:353|328:397,2,95,2|8|0,3:0|1:0|1:0,0:0:0:0:
377,135,49193,6,0,L|385:86,3,47.5,2|2|2|2,1:2|3:2|3:2|3:2,0:0:0:0:
502,185,49542,2,0,L|510:234,3,47.5,8|2|2|2,1:1|3:2|3:2|3:2,0:0:0:0:
412,295,49891,1,2,1:3:0:0:
370,272,49978,1,2,1:3:0:0:
325,256,50065,1,2,1:3:0:0:
278,247,50152,1,2,1:3:0:0:
231,245,50239,1,10,1:0:0:0:
191,270,50327,2,0,L|199:319,2,47.5,2|10|2,1:3|1:2|1:3,0:0:0:0:
96,264,50588,6,0,B|57:195|49:74,1,190,4|8,1:0|1:0,0:0:0:0:
190,0,51112,1,0,1:0:0:0:
190,0,51286,2,0,P|181:40|172:113,1,95,0|2,1:0|3:0,0:0:0:0:
278,247,51635,1,8,1:0:0:0:
278,247,51722,2,0,L|280:277,2,23.75,2|0|2,3:0|3:0|3:0,0:0:0:0:
398,232,51984,5,2,1:1:0:0:
212,140,52158,1,2,3:1:0:0:
214,357,52333,1,10,3:1:0:0:
493,289,52507,2,0,P|487:199|420:129,1,190,2|2,3:1|3:1,0:0:0:0:
278,247,53030,1,10,1:1:0:0:
493,289,53204,1,2,3:1:0:0:
331,384,53379,5,2,1:3:0:0:
324,336,53466,1,2,3:0:0:0:
317,290,53553,1,2,3:0:0:0:
310,242,53640,1,2,3:0:0:0:
304,195,53727,1,8,1:1:0:0:
379,0,53902,6,0,P|429:7|508:126,1,190,2|2,3:0|3:0,0:0:0:0:
293,296,54426,2,0,P|277:247|263:187,1,95,8|2,1:0|3:0,0:0:0:0:
159,0,54774,2,0,P|143:49|129:109,2,95,2|2|2,1:2|0:0|1:2,0:0:0:0:
469,127,55298,5,0,1:0:0:0:
466,152,55385,1,0,1:0:0:0:
463,178,55472,1,2,1:3:0:0:
461,204,55559,1,2,1:3:0:0:
393,287,55734,5,2,1:3:0:0:
353,262,55821,1,8,1:0:0:0:
306,266,55908,1,0,1:0:0:0:
259,269,55995,1,0,1:0:0:0:
219,244,56082,1,0,1:0:0:0:
219,244,56170,6,0,P|204:195|208:137,1,95,4|2,1:0|0:0,0:0:0:0:
353,0,56519,1,8,0:0:0:0:
292,188,56693,1,2,0:0:0:0:
132,107,56867,1,0,1:0:0:0:
292,188,57042,2,0,P|338:174|397:163,2,95,2|8|0,0:0|3:2|0:0,0:0:0:0:
215,0,57565,5,4,3:0:0:0:
137,292,57827,1,4,3:0:0:0:
360,258,58088,1,4,3:0:0:0:
141,296,58263,5,2,3:2:0:0:
159,281,58350,1,2,0:0:0:0:
180,270,58437,1,2,0:0:0:0:
202,262,58524,1,2,0:0:0:0:
224,260,58612,2,0,L|202:202,3,47.5,10|2|2|2,3:2|3:2|3:2|3:2,0:0:0:0:
264,290,58961,6,0,P|255:343|239:399,1,95,0|2,1:0|0:0,0:0:0:0:
248,94,59309,2,0,P|257:41|273:-15,1,95,8|2,3:2|0:0,0:0:0:0:
119,154,59658,5,0,1:0:0:0:
367,254,59832,1,2,0:0:0:0:
237,333,60007,1,8,3:2:0:0:
367,254,60181,5,2,0:0:0:0:
367,254,60269,1,2,3:2:0:0:
367,254,60356,2,0,L|414:262,2,47.5,2|2|2,1:2|3:2|3:2,0:0:0:0:
293,142,60705,2,0,P|302:89|318:33,1,95,8|2,3:2|0:0,0:0:0:0:
181,223,61054,5,2,3:2:0:0:
137,240,61141,1,2,0:0:0:0:
90,234,61228,1,2,0:0:0:0:
53,205,61315,1,2,0:0:0:0:
35,162,61402,1,10,3:1:0:0:
35,162,61490,2,0,L|45:98,2,47.5,2|2|2,3:2|3:2|3:2,0:0:0:0:
0,289,61751,6,0,P|43:270|90:263,1,95,4|2,1:0|0:0,0:0:0:0:
291,357,62100,2,0,P|247:377|201:384,1,95,8|2,3:2|0:0,0:0:0:0:
127,157,62449,5,0,1:0:0:0:
127,157,62536,1,0,1:0:0:0:
127,157,62623,1,2,3:2:0:0:
100,319,62798,2,0,P|144:336|191:341,1,95,8|2,3:2|0:0,0:0:0:0:
358,237,63147,5,0,1:0:0:0:
301,90,63321,1,2,3:2:0:0:
301,90,63408,1,2,3:2:0:0:
154,147,63583,1,2,3:2:0:0:
154,147,63670,1,2,3:2:0:0:
211,294,63844,6,0,L|272:283,1,47.5,2|2,3:2|0:0,0:0:0:0:
257,285,64019,2,0,L|318:274,1,47.5,2|2,0:0|0:0,0:0:0:0:
303,276,64193,2,0,L|364:265,1,47.5,10|2,3:2|3:2,0:0:0:0:
349,267,64368,2,0,L|410:256,1,47.5,2|2,3:2|3:2,0:0:0:0:
479,319,64542,5,0,1:0:0:0:
506,183,64716,1,2,0:0:0:0:
351,88,64891,1,8,3:2:0:0:
378,224,65065,1,2,0:0:0:0:
238,189,65240,5,2,3:2:0:0:
247,328,65414,1,2,0:0:0:0:
421,380,65589,1,8,3:2:0:0:
360,255,65763,1,2,3:2:0:0:
360,255,65850,1,0,3:0:0:0:
360,255,65937,6,0,B|348:209,1,47.5,4|0,0:0|0:0,0:0:0:0:
460,169,66112,2,0,B|512:184,1,47.5,2|0,0:0|0:0,0:0:0:0:
392,255,66286,2,0,B|404:301,1,47.5,12|0,0:0|0:0,0:0:0:0:
292,341,66461,2,0,B|240:326,1,47.5,2|0,0:0|0:0,0:0:0:0:
102,384,66635,5,0,1:0:0:0:
55,379,66722,1,0,1:0:0:0:
17,351,66809,1,0,1:0:0:0:
0,307,66896,1,0,1:0:0:0:
8,261,66984,6,0,L|3:220,6,23.75,0|0|0|0|0|0|0,1:0|1:0|1:0|1:0|1:0|1:0|1:0,3:0:0:0:
90,290,67333,6,0,P|105:242|111:198,1,95,2|2,1:2|0:0,0:0:0:0:
228,0,67681,2,0,P|243:48|249:92,1,95,10|2,1:0|0:0,0:0:0:0:
106,68,68030,1,0,1:0:0:0:
206,260,68205,1,2,0:0:0:0:
284,115,68379,1,10,1:1:0:0:
69,240,68554,1,2,0:0:0:0:
0,0,68728,5,2,1:2:0:0:
69,240,68990,1,2,1:2:0:0:
284,115,69251,1,2,1:2:0:0:
333,220,69426,5,2,1:2:0:0:
228,269,69600,1,0,1:0:0:0:
228,269,69687,2,0,L|225:292,2,23.75,0|0|8,1:0|1:0|1:0,0:0:0:0:
179,164,69949,1,0,1:0:0:0:
351,147,70123,5,2,1:2:0:0:
300,287,70298,1,2,3:2:0:0:
160,236,70472,1,10,1:0:0:0:
211,96,70646,1,2,3:2:0:0:
371,234,70821,5,2,1:2:0:0:
214,307,70996,1,2,3:2:0:0:
140,150,71170,1,10,1:0:0:0:
298,76,71344,1,2,3:2:0:0:
371,234,71519,1,2,1:2:0:0:
371,234,71693,6,0,B|403:230,4,23.75,0|0|0|0|0,1:0|1:0|1:0|1:0|1:0,3:0:0:0:
140,150,72042,2,0,B|108:146,4,23.75,0|0|0|0|0,1:0|1:0|1:0|1:0|1:0,3:0:0:0:
298,76,72391,1,0,1:0:0:0:
127,314,72565,1,0,1:0:0:0:
150,355,72652,1,0,1:0:0:0:
189,380,72739,1,0,1:0:0:0:
236,384,72826,1,0,1:0:0:0:
279,365,72913,1,0,1:0:0:0:
278,365,73088,6,0,P|292:319|299:272,1,95,2|10,0:0|1:0,0:0:0:0:
73,110,73437,2,0,P|78:157|90:203,1,95,2|0,0:0|1:0,0:0:0:0:
329,125,73786,2,0,P|340:79|346:31,2,95,2|10|2,0:0|1:0|0:0,0:0:0:0:
214,307,74309,5,2,1:2:0:0:
382,225,74484,1,2,1:2:0:0:
382,225,74571,1,2,1:2:0:0:
158,146,74745,1,2,1:2:0:0:
158,146,74833,1,2,1:2:0:0:
386,99,75007,5,2,1:3:0:0:
120,215,75181,1,2,1:3:0:0:
418,295,75356,1,2,1:3:0:0:
171,324,75530,1,2,1:3:0:0:
327,384,75705,5,2,1:2:0:0:
171,324,75879,1,2,3:2:0:0:
256,192,76054,1,10,1:0:0:0:
458,284,76228,1,2,3:2:0:0:
458,284,76402,5,0,1:0:0:0:
458,284,76489,1,0,1:0:0:0:
458,284,76576,1,2,1:2:0:0:
256,192,76751,1,10,1:0:0:0:
327,384,76925,1,2,3:2:0:0:
419,173,77100,5,0,1:0:0:0:
419,173,77187,1,0,1:0:0:0:
171,324,77362,5,0,1:0:0:0:
171,324,77449,1,0,1:0:0:0:
399,299,77623,5,0,1:0:0:0:
396,314,77711,1,0,1:0:0:0:
393,330,77798,1,0,1:0:0:0:
391,345,77885,1,0,1:0:0:0:
388,361,77972,2,0,B|382:392,4,23.75,0|0|0|0|0,1:0|1:0|1:0|1:0|1:0,3:0:0:0:
507,130,78321,2,0,B|501:98,2,23.75,0|0|0,1:0|1:0|1:0,3:0:0:0:
511,153,78495,5,4,1:0:0:0:
256,192,86867,12,2,89309,0:3:0:0:
137,149,89658,6,0,P|205:159|258:196,1,133,6|8,1:2|0:2,0:0:0:0:
235,337,90181,1,2,0:0:0:0:
64,320,90356,2,0,P|116:275|178:259,1,133,2|8,3:2|3:2,0:0:0:0:
356,234,90879,6,0,P|369:177|382:77,2,132.999995941162,2|2|2,0:0|0:0|0:0,0:0:0:0:
235,337,91751,1,2,3:2:0:0:
329,384,91926,2,0,L|357:379,4,16.6249994926453,2|2|2|2|8,3:2|3:2|3:2|3:2|3:2,3:0:0:0:
235,337,92274,1,2,3:2:0:0:
235,337,92362,1,2,3:2:0:0:
235,337,92448,6,0,P|167:326|91:306,2,133,2|8|2,3:2|3:2|3:2,0:0:0:0:
356,234,93321,2,0,P|369:177|382:77,2,132.999995941162,2|2|2,0:0|0:0|3:0,0:0:0:0:
356,234,94106,6,0,L|384:239,2,16.6249994926453,2|2|10,3:0|3:0|3:2,0:0:0:0:
231,368,94367,2,0,L|203:373,2,16.6249994926453,2|2|2,3:0|3:0|3:0,3:0:0:0:
273,360,94542,1,2,0:0:0:0:
273,360,94629,1,0,3:0:0:0:
273,360,94716,1,2,3:2:0:0:
92,289,94890,1,8,3:2:0:0:
226,108,95065,5,2,0:0:0:0:
226,108,95152,1,2,0:0:0:0:
226,108,95239,2,0,P|215:176|203:221,1,99.7499969558717,0|0,1:0|0:0,0:0:0:0:
207,206,95588,2,0,P|166:217|129:219,1,66.4999979705811,8|2,0:0|0:0,0:0:0:0:
383,353,95937,2,0,P|391:312|402:285,1,66.4999979705811,2|0,3:2|0:0,0:0:0:0:
368,186,96286,5,10,0:0:0:0:
368,186,96373,1,2,0:0:0:0:
368,186,96460,1,2,0:0:0:0:
274,384,96634,1,4,0:0:0:0:
512,384,96809,2,0,B|502:313|480:237,1,132.999995941162,2|2,0:0|0:0,0:0:0:0:
368,186,97333,2,0,B|380:144|385:109,2,66.4999979705811,2|2|8,3:0|0:0|3:2,0:0:0:0:
211,279,97856,5,2,3:2:0:0:
211,279,97943,1,2,3:2:0:0:
211,279,98030,1,4,1:0:0:0:
375,231,98204,1,0,1:0:0:0:
240,130,98379,1,8,1:2:0:0:
321,350,98554,1,2,3:2:0:0:
375,231,98728,5,4,1:0:0:0:
139,269,98902,1,0,1:0:0:0:
308,99,99077,1,8,1:2:0:0:
272,335,99251,1,2,3:2:0:0:
162,123,99426,1,0,1:0:0:0:
375,231,99600,6,0,L|403:226,4,16.6249994926453,0|0|0|0|8,1:0|1:0|1:0|1:0|1:1,3:0:0:0:
251,340,99949,6,0,L|223:345,2,16.6249994926453,0|0|0,1:0|1:0|1:0,3:0:0:0:
272,335,100123,1,0,1:0:0:0:
265,86,100298,1,2,1:2:0:0:
116,236,100472,1,10,1:1:0:0:
116,236,100559,1,0,1:0:0:0:
116,236,100647,1,0,1:0:0:0:
116,236,100734,1,0,1:0:0:0:
115,236,100821,6,0,P|104:187|97:143,1,95,4|0,1:0|0:0,0:0:0:0:
296,124,101170,1,8,1:0:0:0:
164,0,101344,1,2,3:2:0:0:
433,49,101519,2,0,P|416:143|396:235,1,190,2|8,1:2|1:0,0:0:0:0:
336,293,101955,1,0,0:0:0:0:
336,293,102042,6,0,P|283:283|235:263,1,95,2|0,3:2|1:0,0:0:0:0:
78,49,102391,2,0,P|131:59|179:79,1,95,2|8,3:2|1:0,0:0:0:0:
389,141,102739,1,2,3:2:0:0:
191,228,102914,2,0,P|196:274|208:320,1,95,2|0,1:2|3:0,0:0:0:0:
152,384,103176,1,0,3:0:0:0:
152,384,103263,2,0,P|106:379|60:367,1,95,8|2,1:1|3:2,0:0:0:0:
337,260,103612,5,0,1:0:0:0:
449,302,103786,1,2,0:0:0:0:
322,221,103961,1,8,1:0:0:0:
454,164,104135,1,2,0:0:0:0:
307,320,104309,5,2,1:2:0:0:
307,320,104396,1,2,0:0:0:0:
307,320,104484,2,0,P|299:245|286:180,1,142.5,2|0,3:2|0:0,0:0:0:0:
366,123,104833,2,0,P|379:72|387:26,1,95,2|0,3:2|1:0,0:0:0:0:
204,253,105181,5,2,3:2:0:0:
204,253,105269,2,0,L|209:288,2,23.75,0|0|8,1:0|1:0|1:1,0:0:0:0:
388,214,105530,1,2,3:2:0:0:
199,105,105705,1,0,1:0:0:0:
38,241,105879,1,2,3:2:0:0:
165,384,106054,2,0,P|180:337|186:276,1,95,8|2,1:0|3:2,0:0:0:0:
295,305,106315,1,2,3:2:0:0:
295,305,106402,6,0,P|288:231|252:149,1,142.5,4|0,1:0|0:0,0:0:0:0:
199,105,106751,1,8,1:0:0:0:
333,230,106926,1,2,3:2:0:0:
199,105,107100,2,0,P|273:112|355:148,1,142.5,0|0,1:0|0:0,0:0:0:0:
386,74,107449,5,8,1:0:0:0:
386,74,107536,1,2,0:0:0:0:
386,74,107623,2,0,P|436:143|468:246,1,190,2|2,0:0|3:2,0:0:0:0:
356,313,108147,1,8,1:0:0:0:
512,192,108321,1,2,3:2:0:0:
356,313,108495,2,0,B|305:319|259:285,1,95,2|0,1:2|0:0,0:0:0:0:
142,158,108844,1,8,1:0:0:0:
313,49,109019,1,0,3:0:0:0:
313,49,109106,1,0,3:0:0:0:
313,49,109193,6,0,L|304:-1,3,47.5,4|0|2|0,1:0|3:0|3:2|3:0,0:0:0:0:
448,192,109541,2,0,L|439:242,3,47.5,8|0|2|0,1:1|3:0|3:2|3:0,0:0:0:0:
499,105,109890,5,4,1:0:0:0:
453,101,109977,1,0,1:0:0:0:
407,115,110064,1,2,1:2:0:0:
365,137,110151,1,0,1:0:0:0:
324,161,110240,1,8,1:1:0:0:
281,181,110326,1,0,1:0:0:0:
235,193,110413,1,2,1:2:0:0:
188,194,110500,1,0,1:0:0:0:
168,171,110588,6,0,L|174:138,8,23.75,0|0|0|0|0|0|0|0|8,1:0|1:0|1:0|1:0|1:0|1:0|1:0|1:0|1:0,3:0:0:0:
152,56,111111,1,0,1:0:0:0:
80,120,111286,5,4,1:0:0:0:
131,252,111460,1,0,1:0:0:0:
0,384,111635,1,10,1:0:0:0:
131,252,111809,1,2,0:0:0:0:
305,318,111984,6,0,P|315:271|328:154,1,142.5,4|0,1:0|0:0,0:0:0:0:
393,134,112333,2,0,P|380:88|365:43,1,95,8|2,1:0|3:2,0:0:0:0:
80,120,112681,1,2,1:2:0:0:
293,189,112856,1,2,3:2:0:0:
88,298,113030,6,0,P|135:291|181:278,1,95,8|2,1:0|3:2,0:0:0:0:
248,0,113379,2,0,P|230:37|219:84,1,95,0|0,1:0|0:0,0:0:0:0:
431,284,113728,2,0,P|402:247|367:213,1,95,8|0,1:0|0:0,0:0:0:0:
242,358,114077,5,2,3:2:0:0:
242,358,114164,1,2,3:2:0:0:
242,358,114251,2,2,B|245:388,4,23.75,2|2|2|2|10,3:2|3:2|3:2|3:2|3:1,3:2:0:0:
367,213,114600,2,2,B|364:243,2,23.75,2|2|2,3:2|3:2|3:2,3:2:0:0:
411,178,114774,5,0,1:0:0:0:
159,38,114949,1,2,0:0:0:0:
160,62,115036,1,2,0:0:0:0:
165,86,115123,1,8,1:0:0:0:
171,111,115210,1,2,3:2:0:0:
177,135,115297,1,2,3:2:0:0:
187,158,115385,1,2,3:2:0:0:
198,180,115472,1,2,1:2:0:0:
135,280,115647,6,0,P|189:297|309:318,1,142.5,2|0,0:0|0:0,0:0:0:0:
272,314,115995,2,0,P|294:269|305:211,1,95,2|2,0:0|1:2,0:0:0:0:
361,160,116257,1,2,3:2:0:0:
361,160,116344,2,0,L|417:170,2,47.5,2|2|8,3:2|3:2|1:0,0:0:0:0:
0,262,116693,6,0,P|92:240|187:233,1,190,2|2,3:1|3:1,0:0:0:0:
340,384,117216,1,8,1:0:0:0:
475,219,117391,1,0,1:0:0:0:
357,0,117565,6,0,P|340:95|304:186,1,190,4|8,1:0|1:1,0:0:0:0:
242,358,118088,1,2,3:2:0:0:
242,358,118176,2,0,B|245:388,2,23.75,0|0|0,1:0|3:0|1:0,0:0:0:0:
392,291,118437,2,0,P|443:297|492:316,2,95,2|8|2,3:2|1:0|3:2,0:0:0:0:
133,269,118961,6,0,P|221:234|314:218,1,190,0|8,1:0|1:0,0:0:0:0:
330,384,119484,1,0,3:0:0:0:
490,316,119658,1,0,1:0:0:0:
490,316,119745,1,2,3:2:0:0:
490,316,119833,2,0,B|518:307,4,23.75,2|2|2|0|10,3:2|3:2|3:2|0:0|1:0,0:0:0:0:
340,134,120181,2,0,B|368:125,2,23.75,2|2|2,3:2|3:2|3:2,0:0:0:0:
322,124,120356,6,0,B|333:78,1,47.5,2|0,1:2|3:0,0:0:0:0:
190,260,120530,2,0,B|179:306,1,47.5,0|0,3:0|3:0,0:0:0:0:
190,124,120705,2,0,B|179:78,1,47.5,10|0,1:0|3:0,0:0:0:0:
322,260,120879,2,0,B|333:306,1,47.5,0|0,3:0|3:0,0:0:0:0:
338,107,121054,6,0,B|352:49,1,47.5,2|0,1:2|1:0,0:0:0:0:
173,277,121228,2,0,B|159:334,1,47.5,2|0,1:2|1:0,0:0:0:0:
173,107,121403,2,0,B|159:49,1,47.5,10|0,1:0|1:0,0:0:0:0:
338,277,121577,2,0,B|352:334,1,47.5,2|0,1:2|1:0,0:0:0:0:
231,0,121751,5,2,1:3:0:0:
227,23,121838,1,2,1:3:0:0:
223,46,121925,1,2,1:3:0:0:
220,70,122012,1,2,1:3:0:0:
216,93,122099,1,8,1:0:0:0:
321,347,122274,5,2,3:0:0:0:
359,347,122362,1,2,3:0:0:0:
391,324,122449,1,2,3:0:0:0:
222,147,122623,5,0,1:0:0:0:
189,132,122710,1,0,1:0:0:0:
154,129,122797,1,10,1:0:0:0:
119,137,122884,1,0,1:0:0:0:
89,156,122971,1,0,1:0:0:0:
66,183,123059,1,0,1:0:0:0:
54,216,123147,6,0,P|63:266|80:309,1,95,4|0,1:0|0:0,0:0:0:0:
259,121,123495,2,0,P|214:105|167:98,1,95,8|0,1:0|0:0,0:0:0:0:
252,351,123844,1,0,1:0:0:0:
252,351,124019,2,0,P|289:321|319:284,1,95,2|8,3:0|1:0,0:0:0:0:
318,284,124280,1,2,0:0:0:0:
318,284,124367,1,2,3:0:0:0:
489,113,124542,5,0,1:0:0:0:
476,67,124629,1,2,3:0:0:0:
311,236,124804,1,2,3:0:0:0:
357,247,124891,1,8,1:0:0:0:
278,16,125065,1,2,3:2:0:0:
260,31,125152,1,2,3:0:0:0:
245,49,125240,6,0,L|259:113,1,47.5,2|2,1:3|3:2,0:0:0:0:
357,247,125414,2,0,L|371:183,1,47.5,2|2,3:2|3:2,0:0:0:0:
476,67,125588,2,0,L|462:131,1,47.5,8|2,1:0|1:3,0:0:0:0:
318,284,125763,2,0,L|304:220,1,47.5,2|2,1:3|1:3,0:0:0:0:
287,222,125937,5,2,3:0:0:0:
254,217,126024,1,2,3:0:0:0:
223,225,126111,1,2,3:0:0:0:
197,244,126198,1,2,3:0:0:0:
180,272,126285,1,8,3:1:0:0:
354,384,126461,1,2,3:0:0:0:
80,312,126635,1,2,1:3:0:0:
354,384,126809,2,0,P|383:291|395:194,1,190,2|2,3:0|3:0,0:0:0:0:
169,31,127333,6,0,L|227:16,1,47.5,2|2,1:3|3:2,0:0:0:0:
208,90,127507,2,0,L|222:148,1,47.5,2|2,3:2|3:2,0:0:0:0:
148,130,127681,2,0,L|89:144,1,47.5,10|2,1:0|3:2,0:0:0:0:
109,70,127855,2,0,L|94:11,1,47.5,2|2,3:2|3:2,0:0:0:0:
388,69,128030,1,2,1:3:0:0:
390,95,128117,1,2,1:3:0:0:
390,122,128204,1,2,1:3:0:0:
385,149,128291,1,2,1:3:0:0:
377,174,128378,1,10,1:0:0:0:
366,198,128466,1,2,1:3:0:0:
351,221,128553,1,10,1:2:0:0:
333,241,128640,1,2,1:3:0:0:
313,259,128728,6,0,P|254:270|205:273,1,95,4|0,1:0|0:0,0:0:0:0:
349,0,129077,2,0,P|407:7|455:19,1,95,8|0,1:0|0:0,0:0:0:0:
146,200,129426,2,0,P|135:141|132:92,1,95,0|2,1:0|3:0,0:0:0:0:
405,236,129775,1,8,1:0:0:0:
399,283,129862,1,2,3:0:0:0:
389,329,129949,1,2,3:0:0:0:
107,228,130123,5,2,1:1:0:0:
99,195,130210,1,0,3:0:0:0:
94,161,130297,1,2,3:1:0:0:
90,127,130384,1,0,3:0:0:0:
87,93,130471,1,10,1:1:0:0:
0,302,130647,6,0,P|73:280|188:261,1,190,2|0,3:1|0:0,0:0:0:0:
405,236,131170,1,10,1:1:0:0:
228,384,131344,1,2,0:0:0:0:
285,172,131519,5,2,1:3:0:0:
294,129,131606,1,2,3:0:0:0:
302,86,131693,1,2,3:0:0:0:
307,43,131780,1,2,3:0:0:0:
309,0,131867,1,8,1:1:0:0:
405,236,132042,2,0,P|360:257|315:282,1,95,2|2,3:0|1:3,0:0:0:0:
228,384,132391,5,2,0:0:0:0:
192,164,132565,1,8,1:1:0:0:
228,384,132740,1,2,3:0:0:0:
429,332,132914,6,2,P|451:259|470:144,1,190,2|8,1:2|1:1,0:0:0:0:
256,0,133437,1,2,0:0:0:0:
256,0,133524,1,2,0:0:0:0:
256,0,133612,5,2,1:3:0:0:
228,25,133699,1,2,1:3:0:0:
215,60,133786,1,2,1:3:0:0:
220,97,133873,1,2,1:3:0:0:
230,134,133960,1,8,1:0:0:0:
233,172,134048,1,2,1:3:0:0:
223,208,134135,1,0,1:0:0:0:
201,239,134222,1,0,1:0:0:0:
173,264,134309,5,4,1:0:0:0:
359,227,134484,1,2,0:0:0:0:
235,84,134658,1,8,0:0:0:0:
276,299,134833,5,2,0:0:0:0:
339,120,135008,1,0,1:0:0:0:
152,156,135182,1,2,0:0:0:0:
359,227,135356,1,8,3:2:0:0:
173,264,135530,1,2,0:0:0:0:
382,384,135705,6,0,P|444:358|507:315,2,142.5,4|4|4,3:0|3:0|3:0,0:0:0:0:
173,264,136402,5,2,3:2:0:0:
151,254,136489,1,2,0:0:0:0:
137,237,136576,1,2,0:0:0:0:
133,214,136663,1,2,0:0:0:0:
133,190,136750,1,10,1:2:0:0:
128,168,136838,1,2,3:2:0:0:
115,148,136925,1,2,3:2:0:0:
97,134,137012,1,2,3:2:0:0:
75,124,137099,5,0,1:0:0:0:
230,196,137274,1,2,0:0:0:0:
46,229,137449,5,8,3:2:0:0:
230,196,137624,1,2,0:0:0:0:
373,118,137798,5,0,1:0:0:0:
182,75,137973,1,2,0:0:0:0:
139,266,138147,1,8,3:2:0:0:
330,309,138321,1,2,3:2:0:0:
330,309,138408,1,2,3:2:0:0:
330,309,138495,2,0,L|338:372,2,47.5,2|2|2,1:2|3:2|3:2,0:0:0:0:
444,58,138844,2,0,P|398:38|346:31,1,95,8|2,3:2|0:0,0:0:0:0:
66,78,139193,5,2,1:2:0:0:
88,94,139280,1,2,0:0:0:0:
72,116,139367,1,2,0:0:0:0:
94,133,139454,1,2,0:0:0:0:
78,155,139541,1,10,3:1:0:0:
100,171,139629,1,2,3:2:0:0:
84,194,139716,1,2,3:2:0:0:
106,210,139803,1,2,3:2:0:0:
91,224,139891,6,0,P|100:283|114:330,1,95,4|2,1:0|0:0,0:0:0:0:
421,160,140240,2,0,P|411:100|397:53,1,95,8|2,3:2|0:0,0:0:0:0:
288,357,140588,1,0,1:0:0:0:
334,349,140675,1,2,0:0:0:0:
380,337,140762,1,2,0:0:0:0:
224,27,140937,2,0,P|164:36|117:50,1,95,8|2,3:2|0:0,0:0:0:0:
211,294,141286,5,0,1:0:0:0:
358,237,141460,1,2,3:2:0:0:
358,237,141547,1,2,3:2:0:0:
301,90,141722,1,2,3:2:0:0:
301,90,141809,1,2,3:2:0:0:
154,147,141983,6,0,L|165:208,1,47.5,2|2,1:2|0:0,0:0:0:0:
163,193,142158,2,0,L|174:254,1,47.5,2|2,0:0|0:0,0:0:0:0:
172,239,142332,2,0,L|183:300,1,47.5,10|2,3:2|3:2,0:0:0:0:
181,285,142507,2,0,L|192:346,1,47.5,2|2,3:2|3:2,0:0:0:0:
256,384,142681,5,0,1:0:0:0:
381,350,142856,1,2,0:0:0:0:
417,225,143030,1,8,3:2:0:0:
328,131,143205,1,2,0:0:0:0:
200,165,143379,1,0,1:0:0:0:
200,165,143466,1,2,3:2:0:0:
200,165,143554,1,2,0:0:0:0:
164,288,143728,1,8,3:2:0:0:
164,288,143815,1,0,3:0:0:0:
164,288,143902,1,2,0:0:0:0:
256,384,144077,6,0,B|314:370,1,47.5,4|0,1:2|0:0,0:0:0:0:
381,350,144251,2,0,B|397:292,1,47.5,2|0,0:0|0:0,0:0:0:0:
417,225,144426,2,0,B|375:181,1,47.5,12|0,0:0|0:0,0:0:0:0:
328,131,144600,2,0,B|269:145,1,47.5,2|0,0:0|0:0,0:0:0:0:
184,228,144774,1,0,1:0:0:0:
181,275,144861,1,0,1:0:0:0:
191,321,144948,1,0,1:0:0:0:
213,363,145035,1,0,1:0:0:0:
256,384,145123,2,0,L|290:377,6,23.75,8|0|0|0|0|0|0,1:0|1:0|1:0|1:0|1:0|1:0|1:0,3:0:0:0:
306,354,145472,5,6,1:2:0:0:
256,192,145559,12,0,146693,0:0:0:0:
352,138,146867,5,8,3:0:0:0:
254,302,147129,5,8,3:0:0:0:
162,134,147391,5,8,3:0:0:0:
350,248,147565,5,8,3:0:0:0:
159,245,147740,1,8,3:0:0:0:
258,82,147914,1,8,3:0:0:0:
350,248,148088,1,2,0:0:0:0:
94,314,148263,6,0,P|77:273|68:217,3,95,2|2|2|2,3:2|0:0|3:2|0:0,0:0:0:0:
418,314,148961,2,0,P|434:273|443:217,3,95,2|2|2|2,3:2|0:0|3:2|0:0,0:0:0:0:
156,384,149658,2,0,P|139:343|130:287,1,95,0|0,3:0|0:0,1:0:0:0:
381,293,150007,2,0,P|373:339|356:384,1,95,0|0,3:0|0:0,1:0:0:0:
355,384,150269,1,0,3:0:0:0:
256,192,150443,1,0,3:0:0:0:
256,192,150530,1,0,3:0:0:0:
366,190,150705,5,2,3:2:0:0:
253,81,150879,1,2,3:2:0:0:
145,194,151054,1,0,3:0:0:0:
258,302,151228,2,0,P|334:292|444:260,1,190,2|2,0:0|0:0,0:0:0:0:
253,81,151926,2,0,P|177:91|67:123,1,190,2|2,0:0|0:0,0:0:0:0:
256,384,152449,5,8,3:0:0:0:
192,288,152623,1,8,3:0:0:0:
192,288,152711,1,8,3:0:0:0:
320,288,152885,1,8,3:0:0:0:
320,288,152972,1,8,3:0:0:0:
243,187,153147,5,8,3:0:0:0:
260,179,153322,1,8,3:0:0:0:
268,196,153496,1,8,3:0:0:0:
251,204,153670,1,2,0:0:0:0:
211,287,153844,5,0,3:0:0:0:
351,236,154019,1,0,3:0:0:0:
300,96,154193,1,0,3:0:0:0:
160,147,154367,1,0,3:0:0:0:
298,307,154542,5,2,3:2:0:0:
371,150,154717,1,2,3:2:0:0:
214,76,154891,1,2,3:2:0:0:
140,234,155065,1,2,3:2:0:0:
298,307,155240,5,0,1:0:0:0:
298,307,155327,1,0,1:0:0:0:
214,76,155501,5,0,1:0:0:0:
214,76,155588,1,0,1:0:0:0:
64,193,155763,5,0,1:0:0:0:
71,240,155850,1,0,1:0:0:0:
99,277,155937,1,0,1:0:0:0:
142,297,156024,1,0,1:0:0:0:
189,293,156112,2,0,B|197:262,4,23.75,0|0|0|0|0,1:0|1:0|1:0|1:0|1:0,3:0:0:0:
4,361,156461,2,0,B|-1:385,2,23.75,0|0|0,1:0|1:0|1:0,3:0:0:0:
9,341,156635,5,4,1:0:0:0:
256,192,165007,12,2,167449,0:3:0:0:
142,323,167623,6,0,B|137:347,2,23.75,0|0|0,1:0|1:0|1:0,1:0:0:0:
128,304,167798,6,0,P|80:309|-19:331,1,132.999995941162,4|8,1:2|0:0,0:0:0:0:
107,174,168321,1,2,0:0:0:0:
107,174,168495,2,0,P|155:179|242:203,1,132.999995941162,2|8,3:2|0:0,0:0:0:0:
415,325,169019,2,0,P|440:273|439:197,2,132.999995941162,2|2|2,0:0|0:0|0:0,0:0:0:0:
340,280,169891,2,0,P|355:250|354:206,1,66.4999979705811,0|2,3:0|0:0,0:0:0:0:
356,217,170152,1,2,0:0:0:0:
356,217,170240,1,10,0:0:0:0:
164,130,170414,5,2,3:2:0:0:
164,130,170501,1,0,3:0:0:0:
164,130,170588,2,0,P|165:162|180:192,1,66.4999979705811,0|0,3:0|0:0,0:0:0:0:
398,244,170937,2,0,P|413:215|415:182,1,66.4999979705811,8|0,0:0|0:0,0:0:0:0:
263,384,171286,1,2,0:0:0:0:
137,301,171461,2,0,B|67:309|6:323,2,132.999995941162,2|2|2,0:0|0:0|0:3,0:0:0:0:
137,301,172245,6,0,B|132:277,2,16.6249994926453,2|2|10,3:3|3:3|3:2,0:0:0:0:
398,244,172507,2,2,B|404:211,1,33.2499989852906,2|2,0:3|0:3,0:0:0:0:
445,288,172681,1,2,0:3:0:0:
445,288,172769,1,2,0:0:0:0:
445,288,172856,1,2,0:0:0:0:
263,384,173030,1,8,3:2:0:0:
450,151,173205,5,0,3:0:0:0:
471,181,173292,1,0,3:0:0:0:
478,217,173379,2,0,P|472:280|454:353,1,132.999995941162,0|8,1:0|0:0,0:0:0:0:
256,272,173902,1,2,0:0:0:0:
56,347,174077,2,0,P|40:283|34:217,1,132.999995941162,2|10,3:2|0:0,0:0:0:0:
112,192,174513,1,2,0:0:0:0:
112,192,174600,6,0,P|104:155|92:110,2,66.4999979705811,2|4|2,0:0|0:0|0:0,0:0:0:0:
256,272,175123,1,8,0:0:0:0:
400,192,175297,1,0,3:0:0:0:
400,192,175385,1,0,3:0:0:0:
400,192,175472,2,0,P|408:155|420:110,2,66.4999979705811,2|2|8,3:2|0:0|3:2,0:0:0:0:
337,334,175995,5,0,3:0:0:0:
337,334,176082,1,0,3:0:0:0:
337,334,176169,1,0,1:0:0:0:
154,222,176343,1,0,1:0:0:0:
350,144,176518,1,8,1:2:0:0:
181,384,176693,1,2,3:2:0:0:
79,126,176867,5,0,1:0:0:0:
262,238,177041,1,0,1:0:0:0:
66,316,177216,1,8,1:2:0:0:
235,76,177390,1,2,3:2:0:0:
0,0,177565,1,0,1:0:0:0:
235,76,177740,6,0,L|263:71,4,16.6249994926453,0|0|0|0|8,1:0|1:0|1:0|1:0|1:0,3:0:0:0:
58,131,178089,6,0,L|30:136,2,16.6249994926453,0|0|0,1:0|1:0|1:0,3:0:0:0:
79,126,178263,1,0,1:0:0:0:
272,224,178438,1,0,1:0:0:0:
48,375,178612,1,10,1:0:0:0:
83,383,178699,1,0,1:0:0:0:
117,378,178786,1,0,1:0:0:0:
149,365,178873,1,0,1:0:0:0:
175,342,178961,6,0,B|173:293|159:201,1,142.5,4|0,1:0|0:0,0:0:0:0:
79,126,179309,1,8,1:0:0:0:
220,228,179484,1,2,3:2:0:0:
0,324,179658,2,0,B|31:314|95:302,1,95,2|2,1:2|0:0,0:0:0:0:
92,302,179920,1,0,0:0:0:0:
92,302,180007,1,8,1:0:0:0:
322,320,180181,6,0,B|310:284|298:212,1,95,2|0,3:2|1:0,0:0:0:0:
189,63,180530,2,0,B|201:99|213:171,1,95,2|8,3:2|1:0,0:0:0:0:
92,303,180879,1,2,3:2:0:0:
361,162,181054,1,2,1:2:0:0:
215,384,181228,1,0,3:0:0:0:
215,384,181315,1,2,3:2:0:0:
215,384,181402,1,8,1:1:0:0:
82,182,181577,1,2,3:2:0:0:
82,182,181751,6,0,P|89:232|115:296,1,95,0|0,1:0|0:0,0:0:0:0:
215,384,182100,1,8,1:0:0:0:
388,329,182274,1,2,0:0:0:0:
251,220,182449,1,2,1:2:0:0:
251,220,182623,2,0,P|155:227|56:248,2,190,2|2|2,3:2|3:2|3:2,0:0:0:0:
251,220,183408,1,0,3:0:0:0:
251,220,183495,1,8,1:1:0:0:
399,171,183670,1,2,3:2:0:0:
352,21,183844,1,0,1:0:0:0:
202,70,184019,1,2,3:2:0:0:
251,220,184193,6,0,P|261:171|264:94,1,95,8|2,1:0|3:2,0:0:0:0:
238,92,184455,1,2,3:2:0:0:
202,70,184542,2,0,P|154:77|106:91,1,95,4|0,1:0|0:0,0:0:0:0:
72,234,184891,1,8,1:0:0:0:
192,330,185065,1,2,3:2:0:0:
192,330,185240,2,0,P|279:332|366:238,1,190,0|8,1:0|1:0,0:0:0:0:
353,181,185676,1,2,0:0:0:0:
353,181,185763,2,0,P|376:140|390:73,2,95,2|2|2,0:0|1:2|3:2,0:0:0:0:
172,0,186286,5,8,1:0:0:0:
295,109,186461,1,2,3:2:0:0:
112,192,186635,2,0,P|124:257|168:324,1,142.5,2|0,1:2|0:0,0:0:0:0:
164,321,186984,1,8,1:0:0:0:
428,357,187158,1,0,3:0:0:0:
428,357,187245,1,0,3:0:0:0:
428,357,187333,6,0,L|355:375,1,47.5,4|0,1:0|3:0,0:0:0:0:
378,283,187507,2,0,L|360:210,1,47.5,2|0,3:2|3:0,0:0:0:0:
453,233,187681,2,0,L|526:215,1,47.5,10|0,3:1|3:0,0:0:0:0:
501,307,187855,2,0,L|519:380,1,47.5,2|0,3:2|3:0,0:0:0:0:
164,320,188030,1,4,1:0:0:0:
155,289,188117,1,0,1:0:0:0:
149,255,188204,1,2,1:2:0:0:
150,221,188291,1,0,1:0:0:0:
155,189,188378,1,10,1:1:0:0:
162,156,188466,1,0,1:0:0:0:
177,124,188553,1,2,1:2:0:0:
194,96,188640,1,0,1:0:0:0:
215,87,188728,6,0,L|226:118,6,23.75,0|0|0|0|0|0|0,1:0|1:0|1:0|1:0|1:0|1:0|1:0,3:0:0:0:
184,0,189077,1,0,1:0:0:0:
184,0,189251,1,0,1:0:0:0:
143,97,189426,5,4,1:0:0:0:
393,141,189600,1,0,1:0:0:0:
230,336,189774,1,2,1:0:0:0:
230,336,190123,5,4,1:0:0:0:
63,240,190298,2,0,P|106:218|153:214,1,95,2|8,0:0|1:0,0:0:0:0:
310,1,190647,2,0,P|307:48|287:91,1,95,2|0,0:0|1:0,0:0:0:0:
393,334,190995,2,0,P|354:307|326:269,1,95,2|8,0:0|1:0,0:0:0:0:
467,90,191344,1,2,0:0:0:0:
310,2,191519,5,0,1:0:0:0:
208,112,191693,1,2,0:0:0:0:
352,176,191867,1,8,1:0:0:0:
467,90,192042,2,0,P|456:43|435:1,2,95,2|0|0,0:0|1:0|0:0,0:0:0:0:
352,176,192565,1,8,1:0:0:0:
194,116,192739,1,2,0:0:0:0:
221,283,192914,6,0,P|174:307|80:308,1,142.5,0|0,1:0|0:0,0:0:0:0:
85,309,193263,1,8,1:0:0:0:
258,384,193437,2,0,P|265:285|303:200,1,190,2|2,0:0|0:0,0:0:0:0:
400,176,193961,1,8,1:0:0:0:
400,176,194135,1,0,0:0:0:0:
301,77,194309,5,0,1:0:0:0:
384,302,194483,1,2,0:0:0:0:
508,119,194658,1,8,1:0:0:0:
349,306,194833,1,2,0:0:0:0:
488,384,195007,2,0,P|508:343|511:288,1,95,0|2,1:0|0:0,0:0:0:0:
417,49,195356,1,10,1:0:0:0:
256,192,195530,1,0,1:0:0:0:
95,49,195705,5,0,1:0:0:0:
338,167,195879,2,0,P|333:218|311:259,1,95,2|8,0:0|1:0,0:0:0:0:
133,384,196228,2,0,P|89:291|87:201,1,190,2|2,0:0|0:0,0:0:0:0:
134,84,196751,5,8,1:0:0:0:
256,192,196926,1,2,0:0:0:0:
379,84,197100,1,0,1:0:0:0:
174,167,197274,2,0,P|178:218|200:259,1,95,2|8,0:0|1:0,0:0:0:0:
379,384,197623,2,0,P|412:311|414:241,1,142.5,2|0,0:0|0:0,0:0:0:0:
426,205,197972,2,0,P|465:178|522:163,2,95,2|8|2,0:0|1:0|0:0,0:0:0:0:
285,384,198495,5,2,1:2:0:0:
281,346,198582,1,0,3:0:0:0:
261,314,198669,1,0,3:0:0:0:
228,297,198756,1,0,3:0:0:0:
193,285,198843,1,10,1:1:0:0:
161,264,198931,1,0,3:0:0:0:
137,235,199018,1,2,3:2:0:0:
124,199,199105,1,0,3:0:0:0:
121,162,199193,6,0,L|72:153,1,47.5,0|0,1:0|1:0,0:0:0:0:
226,327,199367,2,0,L|217:373,1,47.5,2|0,1:2|1:0,0:0:0:0:
320,288,199542,2,0,L|369:297,1,47.5,10|0,1:0|1:0,0:0:0:0:
352,128,199716,2,0,L|361:79,1,47.5,2|0,1:2|1:0,0:0:0:0:
432,0,199891,5,0,1:0:0:0:
256,192,200065,1,0,1:0:0:0:
80,0,200240,1,8,1:0:0:0:
75,30,200327,1,0,1:0:0:0:
80,60,200414,1,0,1:0:0:0:
93,88,200501,1,0,1:0:0:0:
113,110,200588,1,2,1:0:0:0:
366,296,200850,5,2,3:1:0:0:
366,296,200937,1,8,1:1:0:0:
208,332,201112,1,2,0:1:0:0:
55,384,201286,6,0,P|14:295|-1:200,1,190,4|8,1:0|1:1,0:0:0:0:
1,80,201809,1,2,3:2:0:0:
80,0,201984,1,2,1:2:0:0:
190,29,202158,1,2,0:0:0:0:
219,138,202333,1,8,1:0:0:0:
139,218,202507,1,2,0:0:0:0:
30,189,202681,1,0,1:0:0:0:
256,192,202769,12,10,203728,3:1:0:0:
408,184,203902,5,2,0:2:0:0:
193,295,204077,1,0,1:0:0:0:
353,346,204252,1,2,3:2:0:0:
352,322,204339,1,2,3:2:0:0:
347,298,204426,1,8,1:0:0:0:
341,273,204513,1,2,3:2:0:0:
335,249,204600,1,2,3:2:0:0:
325,226,204688,1,2,3:2:0:0:
314,204,204775,1,2,1:2:0:0:
377,104,204950,6,0,P|323:87|203:66,1,142.5,2|0,3:2|0:0,0:0:0:0:
240,70,205298,2,0,P|218:115|207:173,1,95,2|2,3:2|1:2,0:0:0:0:
148,202,205559,1,2,3:2:0:0:
154,226,205646,1,2,3:2:0:0:
164,249,205734,1,2,3:2:0:0:
175,271,205821,1,8,1:0:0:0:
512,122,205996,6,0,P|420:144|325:151,1,190,2|2,3:1|0:1,0:0:0:0:
172,0,206519,1,8,1:2:0:0:
309,230,206694,1,0,1:0:0:0:
155,384,206868,6,0,P|172:289|208:198,1,190,4|8,1:0|1:0,0:0:0:0:
57,53,207391,1,2,3:2:0:0:
230,232,207565,1,2,1:2:0:0:
42,333,207740,2,0,P|90:329|149:313,1,95,2|8,3:2|1:0,0:0:0:0:
236,85,208088,1,2,3:2:0:0:
256,192,208176,12,0,208786,0:0:0:0:
214,382,208961,5,2,1:2:0:0:
220,354,209048,1,2,3:2:0:0:
226,326,209135,1,2,0:0:0:0:
232,299,209222,1,2,0:0:0:0:
240,273,209309,1,10,3:1:0:0:
247,245,209397,1,2,3:2:0:0:
255,217,209484,1,2,0:0:0:0:
264,189,209571,1,2,0:0:0:0:
279,164,209658,6,0,L|352:150,1,47.5,2|0,1:2|3:0,0:0:0:0:
284,215,209833,2,0,L|298:288,1,47.5,0|0,3:0|3:0,0:0:0:0:
233,220,210007,2,0,L|160:234,1,47.5,10|0,1:0|3:0,0:0:0:0:
228,169,210181,2,0,L|214:96,1,47.5,0|0,3:0|3:0,0:0:0:0:
304,128,210356,6,0,L|377:114,1,47.5,2|0,1:2|1:0,0:0:0:0:
320,240,210530,2,0,L|334:313,1,47.5,2|0,1:2|1:0,0:0:0:0:
208,256,210705,2,0,L|135:270,1,47.5,10|0,1:0|1:0,0:0:0:0:
192,144,210879,2,0,L|178:71,1,47.5,2|0,1:2|1:0,0:0:0:0:
328,95,211054,5,0,1:0:0:0:
168,23,211228,2,0,L|160:-13,2,23.75,0|0|0,1:0|1:0|1:0,3:0:0:0:
328,95,211402,1,8,1:0:0:0:
328,95,211577,6,0,L|364:87,2,23.75,0|0|0,1:0|1:0|1:0,3:0:0:0:
216,111,211751,1,0,1:0:0:0:
296,273,211926,1,0,1:0:0:0:
127,369,212100,1,8,1:0:0:0:
127,369,212187,1,0,1:0:0:0:
127,369,212274,1,0,1:0:0:0:
127,369,212362,1,0,1:0:0:0:
127,369,212449,6,0,P|68:297|82:201,1,190,4|8,1:0|1:0,0:0:0:0:
256,192,212972,1,2,3:2:0:0:
256,192,213147,2,0,P|248:148|215:103,1,95,0|2,1:0|3:2,0:0:0:0:
34,8,213495,1,8,1:0:0:0:
34,8,213583,1,0,3:0:0:0:
34,8,213670,6,0,P|14:83|-1:200,2,190,2|2|2,3:2|3:2|3:2,0:0:0:0:
219,107,214542,1,0,1:0:0:0:
104,190,214716,1,2,3:2:0:0:
104,190,214804,2,0,B|95:160,2,23.75,0|0|8,1:0|1:0|1:1,0:0:0:0:
256,277,215065,1,2,3:2:0:0:
424,224,215240,6,0,B|488:128|435:40,2,190,0|8|0,1:0|1:0|1:0,0:0:0:0:
156,225,216112,2,0,P|160:272|179:323,1,95,2|8,3:2|1:1,0:0:0:0:
376,384,216461,2,0,B|489:361|513:261,1,190,2|2,3:2|3:2,0:0:0:0:
512,267,216897,1,0,3:0:0:0:
512,267,216984,5,8,1:1:0:0:
336,192,217158,1,2,3:2:0:0:
512,131,217333,1,0,1:0:0:0:
402,293,217507,1,2,3:2:0:0:
224,161,217681,2,0,P|229:208|255:256,1,95,8|2,1:0|3:2,0:0:0:0:
288,336,217943,1,2,3:2:0:0:
288,336,218030,6,0,B|170:374|245:326|89:369,1,190,4|8,1:0|1:0,0:0:0:0:
193,216,218554,1,2,3:2:0:0:
0,154,218728,2,0,P|6:201|33:249,1,95,0|0,1:0|3:0,0:0:0:0:
151,312,219077,1,8,1:0:0:0:
186,270,219164,1,0,3:0:0:0:
193,216,219251,6,0,B|259:253|316:202|384:259,1,190,2|2,0:0|3:2,0:0:0:0:
382,384,219774,2,0,P|399:338|410:282,1,95,8|2,1:0|3:2,0:0:0:0:
512,241,220123,1,0,1:0:0:0:
312,328,220298,1,0,3:0:0:0:
449,331,220472,1,8,1:0:0:0:
276,247,220646,1,2,3:2:0:0:
276,247,220734,1,0,3:0:0:0:
276,247,220822,5,4,1:0:0:0:
257,222,220909,1,0,3:0:0:0:
230,209,220996,1,2,3:2:0:0:
200,211,221083,1,0,3:0:0:0:
170,216,221170,1,10,1:1:0:0:
140,216,221258,1,0,3:0:0:0:
112,205,221345,1,2,3:2:0:0:
88,186,221432,1,0,3:0:0:0:
72,163,221519,5,4,1:0:0:0:
103,165,221606,1,0,1:0:0:0:
130,153,221693,1,2,1:2:0:0:
148,129,221780,1,0,1:0:0:0:
163,103,221867,1,10,1:1:0:0:
184,80,221955,1,0,1:0:0:0:
210,67,222042,1,2,1:2:0:0:
241,61,222129,1,0,1:0:0:0:
270,64,222216,5,0,1:0:0:0:
242,320,222391,2,0,B|236:369,2,47.5,0|0|2,1:0|1:0|1:0,0:0:0:0:
416,192,222740,5,0,1:0:0:0:
416,192,222827,1,0,1:0:0:0:
416,192,222914,1,4,1:0:0:0:
161,224,223088,1,0,1:0:0:0:
416,192,223263,1,2,1:0:0:0:
161,224,223437,1,0,1:0:0:0:
320,384,223612,5,4,1:0:0:0:
320,384,223786,2,0,P|342:341|345:280,1,95,2|8,0:0|1:0,0:0:0:0:
104,135,224135,2,0,P|107:238|145:321,1,190,2|2,0:0|0:0,0:0:0:0:
512,192,224658,2,0,L|520:140,2,47.5,8|2|2,1:0|0:0|0:0,0:0:0:0:
368,80,225007,5,0,1:0:0:0:
402,301,225181,1,2,0:0:0:0:
480,272,225356,1,8,1:0:0:0:
512,192,225530,5,2,0:0:0:0:
291,158,225704,1,0,1:0:0:0:
437,101,225879,1,0,3:0:0:0:
224,0,226054,1,8,1:0:0:0:
256,240,226228,1,2,3:2:0:0:
256,240,226315,1,0,3:0:0:0:
256,240,226402,6,0,P|184:247|111:283,1,142.5,0|0,1:0|0:0,0:0:0:0:
120,276,226751,1,8,1:0:0:0:
264,384,226926,1,2,0:0:0:0:
264,384,227274,5,2,0:0:0:0:
352,206,227449,1,8,1:0:0:0:
352,206,227623,1,0,0:0:0:0:
216,39,227798,5,0,1:0:0:0:
352,206,227972,1,2,0:0:0:0:
488,90,228147,1,8,1:0:0:0:
194,137,228321,1,2,0:0:0:0:
320,304,228495,1,0,1:0:0:0:
459,199,228670,1,2,0:0:0:0:
320,304,228844,1,10,1:0:0:0:
127,191,229019,1,0,1:0:0:0:
297,108,229193,5,0,1:0:0:0:
200,320,229367,1,2,0:0:0:0:
0,190,229542,1,8,1:0:0:0:
76,384,229716,2,0,B|162:397|174:326|268:341,1,190,2|2,0:0|0:0,0:0:0:0:
341,205,230240,1,8,1:0:0:0:
289,384,230414,1,2,0:0:0:0:
465,321,230588,5,0,1:0:0:0:
465,321,230763,2,0,P|460:274|438:223,1,95,2|8,0:0|1:0,0:0:0:0:
342,0,231112,2,0,P|283:65|240:162,1,190,2|2,0:0|0:0,0:0:0:0:
39,308,231635,2,0,P|81:327|137:334,1,95,8|2,1:0|0:0,0:0:0:0:
512,192,231984,5,2,1:2:0:0:
473,188,232071,1,0,3:0:0:0:
438,202,232158,1,0,3:0:0:0:
415,231,232245,1,0,3:0:0:0:
397,263,232332,1,10,1:0:0:0:
370,290,232420,1,0,3:0:0:0:
337,308,232507,1,2,3:2:0:0:
299,314,232594,1,0,3:0:0:0:
277,346,232681,5,0,1:0:0:0:
255,310,232768,1,0,1:0:0:0:
223,289,232855,1,2,1:2:0:0:
187,286,232942,1,0,1:0:0:0:
149,289,233029,1,10,1:0:0:0:
111,284,233117,1,0,1:0:0:0:
77,268,233204,1,2,1:2:0:0:
50,238,233292,1,0,1:0:0:0:
36,202,233379,5,0,1:0:0:0:
231,0,233553,1,0,1:0:0:0:
476,182,233728,1,8,1:0:0:0:
455,224,233815,1,0,1:0:0:0:
418,251,233902,1,0,1:0:0:0:
371,259,233989,1,0,1:0:0:0:
326,245,234076,5,2,1:0:0:0:
281,384,234338,1,2,0:1:0:0:
208,152,234600,1,2,0:1:0:0:
48,352,234774,6,0,P|114:353|195:317,1,142.5,0|0,1:0|0:0,0:0:0:0:
184,324,235123,2,0,P|215:291|232:228,1,95,8|0,1:0|0:0,0:0:0:0:
91,43,235472,2,0,P|94:89|116:130,1,95,0|2,1:0|3:0,0:0:0:0:
352,208,235821,1,8,1:0:0:0:
352,208,235908,1,2,3:0:0:0:
352,208,235995,1,2,3:0:0:0:
100,264,236169,1,0,1:0:0:0:
100,264,236257,1,2,3:0:0:0:
184,71,236431,1,2,3:0:0:0:
184,71,236519,1,8,1:0:0:0:
53,312,236693,5,2,3:0:0:0:
53,312,236780,1,2,3:0:0:0:
53,312,236868,1,2,1:3:0:0:
89,321,236955,1,2,3:2:0:0:
125,312,237042,1,2,3:2:0:0:
153,287,237129,1,2,3:2:0:0:
178,258,237216,1,8,1:0:0:0:
208,234,237304,1,2,1:3:0:0:
243,223,237391,1,2,1:3:0:0:
281,223,237478,1,2,1:3:0:0:
318,233,237565,6,0,L|324:177,1,47.5,2|2,1:3|3:0,3:0:0:0:
194,151,237740,2,0,L|188:207,1,47.5,2|2,3:0|3:0,0:0:0:0:
347,54,237914,1,8,1:0:0:0:
164,329,238088,1,2,3:0:0:0:
393,283,238263,1,2,1:3:0:0:
118,99,238437,2,0,B|182:147|229:94|305:157,1,190,2|2,3:0|0:0,0:0:0:0:
158,355,238961,5,2,1:2:0:0:
158,355,239048,1,2,3:2:0:0:
158,355,239135,2,0,P|146:329|143:302,1,47.5,2|2,3:2|3:2,0:0:0:0:
438,266,239309,1,10,1:0:0:0:
438,266,239396,1,2,3:2:0:0:
438,266,239483,2,0,P|435:291|426:318,1,47.5,2|2,3:2|3:2,0:0:0:0:
294,384,239658,5,2,1:3:0:0:
307,338,239745,1,2,1:3:0:0:
313,291,239832,1,2,1:3:0:0:
310,243,239919,1,2,1:3:0:0:
300,197,240006,1,10,1:0:0:0:
283,153,240094,1,2,1:3:0:0:
258,113,240181,1,10,1:2:0:0:
227,77,240268,1,2,1:3:0:0:
190,46,240356,6,0,P|178:97|172:142,1,95,4|0,1:0|0:0,0:0:0:0:
478,312,240705,2,0,P|468:260|457:216,1,95,8|0,1:0|0:0,0:0:0:0:
123,384,241054,1,0,1:0:0:0:
256,192,241228,1,2,3:0:0:0:
32,272,241402,1,8,1:0:0:0:
32,272,241490,1,2,3:0:0:0:
32,272,241577,2,0,L|-1:261,2,23.75,2|2|2,3:0|3:0|3:0,0:0:0:0:
77,295,241751,5,2,1:1:0:0:
123,305,241838,1,0,3:0:0:0:
170,299,241925,1,2,3:1:0:0:
209,273,242012,1,0,3:0:0:0:
236,234,242099,1,10,3:1:0:0:
38,0,242274,2,0,P|44:90|111:160,1,190,2|2,3:1|3:1,0:0:0:0:
123,384,242798,2,0,P|171:373|215:346,1,95,10|2,1:1|3:1,0:0:0:0:
447,58,243147,5,2,1:3:0:0:
442,106,243234,1,2,3:0:0:0:
428,151,243321,1,2,3:0:0:0:
408,194,243408,1,2,3:0:0:0:
381,233,243495,1,8,1:1:0:0:
136,295,243670,1,2,3:0:0:0:
391,384,243844,1,0,1:0:0:0:
336,128,244019,1,2,3:0:0:0:
336,128,244106,1,0,3:0:0:0:
336,128,244193,2,0,P|347:81|352:19,1,95,8|2,1:0|3:0,0:0:0:0:
86,209,244542,6,0,P|98:295|148:385,1,190,2|8,1:2|1:0,0:0:0:0:
373,214,245065,1,0,1:0:0:0:
410,185,245152,1,0,1:0:0:0:
430,142,245239,1,2,1:3:0:0:
430,95,245326,1,2,1:3:0:0:
182,13,245501,1,2,1:3:0:0:
171,59,245588,1,8,1:0:0:0:
172,106,245675,1,0,1:0:0:0:
185,152,245762,1,0,1:0:0:0:
209,192,245849,1,0,1:0:0:0:
242,226,245937,6,0,P|228:280|200:321,1,95,0|0,1:0|0:0,0:0:0:0:
512,384,246286,2,0,P|487:343|477:297,1,95,8|0,1:0|0:0,0:0:0:0:
512,168,246635,1,2,1:3:0:0:
256,58,246809,2,0,P|264:113|288:157,1,95,2|8,3:0|1:0,0:0:0:0:
281,147,247071,1,2,3:0:0:0:
281,147,247158,1,2,3:0:0:0:
384,272,247333,1,0,1:0:0:0:
384,272,247420,1,2,3:0:0:0:
147,250,247594,1,2,3:0:0:0:
147,250,247681,1,8,1:1:0:0:
381,384,247856,5,2,3:0:0:0:
381,384,247943,1,2,3:0:0:0:
381,384,248030,1,2,1:3:0:0:
411,361,248118,1,2,3:2:0:0:
427,327,248205,1,2,3:2:0:0:
425,290,248292,1,2,3:2:0:0:
418,252,248379,1,8,1:0:0:0:
418,214,248467,1,2,1:3:0:0:
432,179,248554,1,2,1:3:0:0:
456,150,248641,1,2,1:3:0:0:
486,128,248728,5,2,1:3:0:0:
461,106,248815,1,2,1:3:0:0:
428,102,248902,1,2,1:3:0:0:
397,112,248989,1,2,1:3:0:0:
373,134,249076,1,8,1:1:0:0:
139,250,249251,1,2,3:3:0:0:
198,75,249425,1,2,1:3:0:0:
288,384,249600,2,0,P|325:311|343:200,1,190,2|2,3:2|0:3,0:0:0:0:
123,2,250123,5,2,1:3:0:0:
83,27,250210,1,2,3:2:0:0:
50,62,250297,1,2,3:2:0:0:
27,103,250384,1,2,3:2:0:0:
13,148,250471,1,10,1:0:0:0:
11,196,250559,1,2,3:2:0:0:
20,242,250646,1,2,3:2:0:0:
40,286,250733,1,2,3:2:0:0:
69,323,250820,1,2,1:3:0:0:
106,353,250907,1,2,1:3:0:0:
149,373,250995,1,2,1:3:0:0:
195,382,251082,1,2,1:3:0:0:
242,381,251169,1,10,1:0:0:0:
288,368,251256,1,2,1:3:0:0:
329,345,251343,1,10,1:2:0:0:
364,313,251431,1,2,1:3:0:0:
364,313,251519,6,0,P|383:268|389:211,1,95,4|0,1:0|0:0,0:0:0:0:
148,71,251867,2,0,P|149:119|168:174,1,95,8|0,1:0|0:0,0:0:0:0:
69,323,252216,1,0,1:0:0:0:
294,253,252391,1,2,3:0:0:0:
32,192,252565,1,8,1:1:0:0:
32,192,252652,2,0,L|-6:184,2,23.75,2|2|2,3:2|3:2|3:2,0:0:0:0:
279,384,252914,5,2,1:1:0:0:
305,362,253001,1,0,3:0:0:0:
325,335,253088,1,2,3:1:0:0:
337,303,253175,1,0,3:0:0:0:
342,269,253262,1,10,1:1:0:0:
337,235,253350,1,0,3:0:0:0:
323,203,253437,2,0,P|243:169|139:153,1,190,2|0,3:1|0:0,0:0:0:0:
0,294,253961,2,0,P|3:343|25:389,1,95,10|0,1:1|0:0,0:0:0:0:
392,310,254309,5,2,1:3:0:0:
432,285,254396,1,2,3:0:0:0:
456,245,254483,1,2,3:0:0:0:
460,198,254570,1,2,3:0:0:0:
441,155,254657,1,8,1:1:0:0:
233,0,254833,2,0,P|236:49|250:96,1,95,2|0,3:0|1:0,0:0:0:0:
347,384,255181,5,2,3:0:0:0:
512,73,255355,1,8,1:1:0:0:
145,154,255530,1,0,0:0:0:0:
346,384,255705,6,2,P|383:274|404:148,1,237.5,2|2,1:3|0:0,0:0:0:0:
388,95,256227,1,2,1:2:0:0:
388,95,256314,1,0,3:0:0:0:
388,95,256402,5,2,1:3:0:0:
351,59,256489,1,2,1:3:0:0:
298,44,256576,1,0,1:3:0:0:
247,54,256663,1,2,1:3:0:0:
193,68,256750,1,8,1:0:0:0:
139,77,256838,1,2,3:0:0:0:
85,65,256925,1,2,1:3:0:0:
40,39,257012,1,2,1:3:0:0:
1,2,257099,5,4,1:0:0:0:
