osu file format v14

[General]
AudioFilename: 12 - Ultra Hardcore (P-Light Remix).mp3
AudioLeadIn: 0
PreviewTime: 134622
Countdown: 1
SampleSet: Normal
StackLeniency: 0.3
Mode: 0
LetterboxInBreaks: 1
WidescreenStoryboard: 0

[Editor]
Bookmarks: 119798
DistanceSpacing: 1
BeatDivisor: 4
GridSize: 16
TimelineZoom: 2

[Metadata]
Title:Ultra Hardcore (P*Light Remix)
TitleUnicode:Ultra Hardcore (P*Light Remix)
Artist:kors k
ArtistUnicode:斎藤広祐
Creator:Hakurei Yoru
Version:Last Nightmare
Source:jubeat
Tags:LET'S_DO_IT_NOW!!
BeatmapID:674327
BeatmapSetID:300672

[Difficulty]
HPDrainRate:6
CircleSize:4.3
OverallDifficulty:8.5
ApproachRate:9.5
SliderMultiplier:1.7
SliderTickRate:1

[Events]
//Background and Video events
0,0,"wow.jpg",0,0
//Break Periods
//Storyboard Layer 0 (Background)
//Storyboard Layer 1 (Fail)
//Storyboard Layer 2 (Pass)
//Storyboard Layer 3 (Foreground)
//Storyboard Sound Samples

[TimingPoints]
-907,352.941176470588,4,2,1,60,1,0
504,-133.333333333333,4,2,1,60,0,0
4563,-133.333333333333,4,2,1,60,0,0
5798,-66.6666666666667,4,2,1,60,0,0
6857,-133.333333333333,4,2,1,60,0,0
8622,-66.6666666666667,4,2,1,60,0,0
8975,-133.333333333333,4,2,1,60,0,0
10210,-133.333333333333,4,2,1,60,0,0
11445,-66.6666666666667,4,1,1,30,0,0
11798,-100,4,1,1,30,0,0
16298,-83.3333333333333,4,1,1,30,0,0
16563,-100,4,1,1,30,0,0
17445,-83.3333333333333,4,1,1,50,0,0
18151,-83.3333333333333,4,1,1,50,0,0
23092,-133.333333333333,4,2,1,50,0,0
24328,-133.333333333333,4,2,1,5,0,0
25034,-133.333333333333,4,2,1,50,0,0
25210,-133.333333333333,4,2,1,5,0,0
25387,-200,4,2,1,50,0,0
25563,-200,4,2,1,5,0,0
25916,-200,4,2,1,50,0,0
26269,-200,4,2,1,5,0,0
26445,-133.333333333333,4,2,1,50,0,0
26622,-133.333333333333,4,2,1,5,0,0
26798,-133.333333333333,4,2,1,50,0,0
27151,-133.333333333333,4,2,1,5,0,0
27857,-133.333333333333,4,2,1,50,0,0
28210,-100,4,2,1,50,0,0
28740,-66.6666666666667,4,2,1,50,0,0
28916,-66.6666666666667,4,2,1,5,0,0
29269,-133.333333333333,4,2,1,50,0,0
29445,-133.333333333333,4,2,1,5,0,0
29622,-133.333333333333,4,2,1,50,0,0
29798,-200,4,2,1,50,0,0
30151,-200,4,2,1,5,0,0
30681,-133.333333333333,4,2,1,50,0,0
30857,-133.333333333333,4,2,1,5,0,0
31034,-100,4,2,1,50,0,0
31210,-100,4,2,1,5,0,0
31563,-100,4,2,1,50,0,0
31740,-100,4,2,1,5,0,0
32092,-133.333333333333,4,2,1,50,0,0
32269,-133.333333333333,4,2,1,5,0,0
32622,-133.333333333333,4,2,1,50,0,0
32975,-133.333333333333,4,2,1,5,0,0
33151,-133.333333333333,4,2,1,50,0,0
33328,-133.333333333333,4,2,1,5,0,0
33681,-200,4,2,1,25,0,0
34387,-100,4,2,1,55,0,0
35798,-100,4,2,1,5,0,0
36328,-100,4,2,1,55,0,0
37563,-100,4,2,1,5,0,0
37740,-100,4,2,1,55,0,0
37916,-100,4,2,1,5,0,0
38092,-100,4,2,1,55,0,0
38975,-100,4,2,1,5,0,0
39151,-100,4,2,1,55,0,0
41445,-100,4,2,1,5,0,0
41975,-100,4,2,1,55,0,0
42151,-100,4,2,1,5,0,0
42328,-100,4,2,1,55,0,0
42504,-100,4,2,1,5,0,0
42857,-100,4,2,1,55,0,0
44975,-200,4,1,1,35,0,0
45151,-200,4,1,1,5,0,0
45328,-200,4,1,1,45,0,0
45504,-200,4,1,1,5,0,0
45681,-100,4,1,1,55,0,0
56269,-66.6666666666667,4,1,1,55,0,0
56975,-50,4,1,1,25,0,0
57328,-83.3333333333333,4,1,1,25,0,0
57681,-100,4,1,1,25,0,0
58034,-83.3333333333333,4,1,1,45,0,0
59092,-100,4,1,1,45,0,0
59445,-83.3333333333333,4,1,1,45,0,0
60504,-100,4,1,1,45,0,0
60857,-83.3333333333333,4,1,1,45,0,0
64034,-66.6666666666667,4,1,1,55,0,0
66857,-50,4,1,1,55,0,0
67210,-66.6666666666667,4,1,1,55,0,0
68975,-50,4,1,1,55,0,0
69328,-66.6666666666667,4,1,1,55,0,0
69681,-50,4,1,1,55,0,0
70034,-66.6666666666667,4,1,1,55,0,0
70387,-50,4,1,1,55,0,0
73563,-66.6666666666667,4,1,1,55,0,0
75328,-50,4,1,1,55,0,0
78151,-66.6666666666667,4,1,1,55,0,0
78504,-50,4,1,1,55,0,0
79210,-66.6666666666667,4,1,1,55,0,0
80975,-50,4,1,1,55,0,0
81328,-66.6666666666667,4,1,1,55,0,0
81681,-50,4,1,1,55,0,0
84151,-66.6666666666667,4,1,1,55,0,0
84504,-50,4,1,1,55,0,0
89798,-50,4,1,1,5,0,0
90151,-100,4,1,1,35,0,0
90857,-100,4,2,1,35,0,0
103563,-66.6666666666667,4,2,1,35,0,0
107798,-66.6666666666667,4,1,0,35,0,0
111328,-66.6666666666667,4,1,1,35,0,0
113092,-200,4,2,1,35,0,0
113445,-100,4,2,1,35,0,0
124475,-66.6666666666667,4,2,1,35,0,0
124740,-100,4,2,1,35,0,0
129681,-66.6666666666667,4,2,1,35,0,0
130034,-66.6666666666667,4,2,1,75,0,0
130387,-100,4,2,1,35,0,0
133210,-66.6666666666667,4,2,1,35,0,0
133916,-58.8235294117647,4,2,1,35,0,0
134269,-52.6315789473684,4,2,1,65,0,0
134622,-200,4,2,1,35,0,0
134975,-200,4,2,1,5,0,0
135681,-100,4,2,1,35,0,0
136034,-83.3333333333333,4,1,1,75,0,1
141328,-66.6666666666667,4,2,1,75,0,1
141681,-83.3333333333333,4,1,1,85,0,1
144504,-83.3333333333333,4,1,1,75,0,1
146975,-66.6666666666667,4,2,1,75,0,1
147328,-83.3333333333333,4,1,1,75,0,1
152622,-66.6666666666667,4,1,1,75,0,1
152975,-83.3333333333333,4,1,1,75,0,1
155798,-133.333333333333,4,1,1,75,0,1
157916,-133.333333333333,4,2,1,75,0,0
164269,-133.333333333333,4,2,1,35,0,0
169210,-100,4,2,1,35,0,0
169563,-66.6666666666667,4,2,1,35,0,0
169916,-100,4,2,1,35,0,0
171681,-66.6666666666667,4,2,1,35,0,0
172740,-100,4,2,1,35,0,0
173798,-50,4,2,1,35,0,0
174857,-66.6666666666667,4,2,1,35,0,0
175563,-100,4,2,1,55,0,0
177328,-66.6666666666667,4,2,1,55,0,0
179092,-100,4,2,1,55,0,0
181210,-100,4,1,1,95,0,0
186857,-66.6666666666667,4,1,1,95,0,0
187210,-100,4,1,1,95,0,0
192504,-100,4,1,1,95,0,0
199563,-66.6666666666667,4,1,1,55,0,0
203798,-66.6666666666667,4,1,1,55,0,1
205210,-50,4,1,1,55,0,1
205916,-66.6666666666667,4,1,1,55,0,1
215445,-50,4,1,1,55,0,1
215798,-66.6666666666667,4,1,1,55,0,1
217916,-100,4,1,1,55,0,1
220034,-66.6666666666667,4,1,1,55,0,1
220740,-100,4,1,1,55,0,1
224269,-76.9230769230769,4,1,1,55,0,1
224975,-133.333333333333,4,1,1,55,0,0
226387,-76.9230769230769,4,1,1,55,0,1
227798,-50,4,1,1,55,0,1
228151,-66.6666666666667,4,1,1,55,0,1
230622,-100,4,1,1,55,0,1
231151,-66.6666666666667,4,1,1,55,0,1
233445,-50,4,1,1,55,0,1
233798,-66.6666666666667,4,1,1,55,0,1
235828,-58.8235294117647,4,1,1,55,0,1
236092,-50,4,1,1,55,0,1
236975,-66.6666666666667,4,1,1,55,0,1
247563,-133.333333333333,4,1,1,55,0,0
248975,-133.333333333333,4,1,0,55,0,0
254269,-66.6666666666667,4,1,0,55,0,0
254622,-100,4,1,0,55,0,0
256034,-133.333333333333,4,1,0,55,0,0
257092,-66.6666666666667,4,1,0,55,0,0
257445,-100,4,1,0,55,0,0
258857,-133.333333333333,4,1,0,55,0,0
259563,-100,4,1,0,55,0,0
262740,-66.6666666666667,4,1,0,55,0,0
263092,-100,4,1,0,55,0,0
265563,-66.6666666666667,4,1,0,55,0,0
265916,-66.6666666666667,4,1,1,55,0,0
270151,-100,4,2,1,25,0,0
271563,-100,4,2,1,5,0,0

[Colours]
Combo1 : 128,128,255
Combo2 : 13,215,205
Combo3 : 18,124,255
Combo4 : 128,0,128

[HitObjects]
444,213,504,5,0,0:0:0:0:
387,293,681,1,0,0:0:0:0:
456,224,857,2,0,L|448:140,1,63.7500024318696
328,144,1210,1,0,0:0:0:0:
272,204,1387,1,0,0:0:0:0:
304,276,1563,1,0,0:0:0:0:
387,293,1740,1,0,0:0:0:0:
312,264,1916,5,0,0:0:0:0:
240,328,2092,1,0,0:0:0:0:
156,312,2269,2,0,L|164:232,1,63.7500024318696
64,212,2622,1,0,0:0:0:0:
296,132,2798,1,0,0:0:0:0:
288,144,2887,1,0,0:0:0:0:
280,156,2975,1,0,0:0:0:0:
64,212,3151,1,0,0:0:0:0:
272,168,3328,6,0,L|264:92,1,63.7500024318696
392,104,3681,1,0,0:0:0:0:
472,136,3857,1,0,0:0:0:0:
392,104,4034,2,0,L|400:28,1,63.7500024318696
497,103,4387,1,0,0:0:0:0:
452,164,4563,6,0,B|408:168|408:168|388:176|388:176|336:176,1,95.6250036478044
324,168,4916,1,0,0:0:0:0:
464,244,5092,2,0,L|524:240,1,31.8750012159348
340,256,5269,1,0,0:0:0:0:
476,324,5445,2,0,L|536:320,1,31.8750012159348
356,344,5622,1,0,0:0:0:0:
340,352,5710,1,0,0:0:0:0:
324,360,5798,6,0,B|296:368|272:356|272:356|248:360|248:360|212:340|168:348,1,127.500004863739
148,200,6151,1,0,0:0:0:0:
264,156,6328,1,0,0:0:0:0:
272,244,6504,1,0,0:0:0:0:
216,316,6681,1,0,0:0:0:0:
284,236,6857,2,0,L|364:232,1,63.7500024318696
392,136,7210,1,0,0:0:0:0:
448,208,7387,1,0,0:0:0:0:
344,64,7563,1,0,0:0:0:0:
348,48,7740,5,0,0:0:0:0:
280,108,7916,2,0,L|272:152,1,31.8750012159348
264,32,8092,1,0,0:0:0:0:
196,88,8269,2,0,L|188:132,1,31.8750012159348
180,12,8445,1,0,0:0:0:0:
156,12,8534,1,0,0:0:0:0:
132,12,8622,2,0,B|104:28|104:28|72:136,1,127.500004863739
200,224,8975,6,0,L|120:240,1,63.7500024318696
312,224,9328,1,0,0:0:0:0:
292,148,9504,1,0,0:0:0:0:
312,224,9681,2,0,L|392:240,1,63.7500024318696
273,298,10034,1,0,0:0:0:0:
200,344,10210,6,0,B|196:312|196:312|204:288|204:288|196:236,1,95.6250036478044
196,216,10563,1,0,0:0:0:0:
196,112,10740,1,0,0:0:0:0:
116,200,10916,2,0,L|112:144,1,31.8750012159348
108,92,11092,1,0,0:0:0:0:
36,184,11269,2,0,L|32:128,1,31.8750012159348
32,76,11445,2,0,B|88:52|120:72|120:72|148:60|148:60|196:72|252:56,1,191.250007295609
384,40,11798,6,0,P|388:84|444:112,1,85,4|0,2:0|0:0,0:0:0:0:
272,176,12063,2,0,P|308:150|304:88,1,85
460,208,12328,2,0,P|419:189|368:216,1,85
416,260,12592,1,0,0:0:0:0:
416,260,12681,1,0,0:0:0:0:
240,320,12857,2,0,L|316:324,1,42.5
424,272,13034,2,0,L|381:274,1,42.5
232,324,13210,5,0,0:0:0:0:
116,236,13387,1,0,0:0:0:0:
108,228,13475,1,0,0:0:0:0:
100,220,13563,2,0,L|104:272,1,42.5
116,152,13740,1,0,0:0:0:0:
100,220,13916,5,0,0:0:0:0:
168,208,14004,1,0,0:0:0:0:
192,140,14092,1,0,0:0:0:0:
144,84,14181,1,0,0:0:0:0:
72,96,14269,2,0,P|88:132|112:148,1,42.5
168,208,14445,2,0,P|200:208|216:204,1,42.5
344,160,14622,6,0,L|464:164,1,85
416,332,14887,1,0,0:0:0:0:
400,320,14975,2,0,L|484:317,1,85
192,232,15328,1,0,0:0:0:0:
180,220,15416,1,0,0:0:0:0:
168,208,15504,1,0,0:0:0:0:
72,96,15681,2,0,L|76:172,1,42.5
196,280,15857,2,0,L|192:204,1,42.5
76,84,16034,6,0,L|72:-4,1,85,2|0,0:0|0:0,0:0:0:0:
152,124,16298,2,0,L|148:20,1,101.999996887207,2|0,0:0|0:0,0:0:0:0:
232,96,16563,2,0,L|228:0,1,85,2|0,0:0|0:0,0:0:0:0:
304,120,16828,1,2,0:0:0:0:
244,168,16916,1,2,0:0:0:0:
256,240,17004,1,2,0:0:0:0:
308,288,17092,2,2,P|320:264|328:240,1,42.5
240,312,17269,2,2,P|228:336|220:360,1,42.5
348,180,17445,5,10,0:2:0:0:
380,184,17534,1,8,0:2:0:0:
412,188,17622,1,8,0:2:0:0:
444,192,17710,1,8,0:2:0:0:
468,216,17798,2,8,L|472:148,1,50.9999984436036,8|8,0:2|0:2,0:2:0:0:
432,96,17975,2,8,L|436:28,1,50.9999984436036,8|8,0:2|0:2,0:2:0:0:
296,64,18151,5,8,0:2:0:0:
248,44,18240,1,8,0:2:0:0:
196,44,18328,1,8,0:2:0:0:
156,76,18416,1,8,0:2:0:0:
144,124,18504,5,8,0:2:0:0:
160,172,18592,1,8,0:2:0:0:
196,208,18681,1,8,0:2:0:0:
244,224,18769,1,8,0:2:0:0:
296,216,18857,6,8,L|368:212,1,50.9999984436036,8|8,0:2|0:2,0:2:0:0:
416,220,19034,2,8,L|488:216,1,50.9999984436036,8|8,0:2|0:2,0:2:0:0:
308,296,19210,6,8,L|380:292,1,50.9999984436036,8|8,0:2|0:2,0:2:0:0:
428,300,19387,2,8,L|500:296,1,50.9999984436036,8|8,0:2|0:2,0:2:0:0:
320,372,19563,6,8,L|404:368,1,50.9999984436036,8|8,0:2|0:2,0:2:0:0:
376,192,19740,1,8,0:2:0:0:
396,208,19828,1,8,0:2:0:0:
416,220,19916,2,8,L|360:228,1,50.9999984436036,8|8,0:2|0:2,0:2:0:0:
248,348,20092,2,8,L|192:352,1,50.9999984436036,8|8,0:2|0:2,0:2:0:0:
84,296,20269,6,8,L|92:212,1,50.9999984436036,8|8,0:2|0:2,0:2:0:0:
148,156,20445,1,8,0:2:0:0:
152,116,20534,1,8,0:2:0:0:
156,76,20622,2,8,L|164:-8,1,50.9999984436036,8|8,0:2|0:2,0:2:0:0:
248,64,20798,6,8,L|252:13,1,50.9999984436036,8|8,0:2|0:2,0:2:0:0:
235,186,20975,2,8,L|240:136,1,50.9999984436036,8|8,0:2|0:2,0:2:0:0:
332,172,21151,1,8,0:2:0:0:
336,132,21240,1,8,0:2:0:0:
340,92,21328,2,8,L|348:8,1,50.9999984436036,8|8,0:2|0:2,0:2:0:0:
444,48,21504,1,8,0:2:0:0:
444,48,21592,1,8,0:2:0:0:
444,48,21681,6,8,L|440:88,1,25.4999992218018,12|8,0:2|0:2,0:2:0:0:
344,252,22740,6,0,L|312:256,1,25.4999992218018,4|0,0:0|0:0,0:0:0:0:
344,252,23092,6,0,B|292:256|292:256|320:116,1,191.250007295609,2|0,0:0|0:0,0:0:0:0:
420,248,23975,1,0,0:0:0:0:
420,248,24151,6,0,L|404:328,1,63.7500024318696,2|0,0:0|0:0,0:0:0:0:
348,276,25034,6,0,L|332:356,1,63.7500024318696,2|0,0:0|0:0,0:0:0:0:
280,240,25387,2,0,L|272:284,1,42.5,2|0,0:0|0:0,0:0:0:0:
208,244,25916,6,0,L|188:332,1,85,2|0,0:0|0:0,0:0:0:0:
140,216,26445,6,0,L|124:288,1,63.7500024318696,2|0,0:0|0:0,0:0:0:0:
64,224,26798,1,2,0:0:0:0:
64,224,26975,6,0,L|48:296,1,63.7500024318696,2|0,0:0|0:0,0:0:0:0:
240,148,27857,6,0,L|224:228,1,63.7500024318696,2|0,0:0|0:0,0:0:0:0:
316,168,28210,6,0,L|296:256,1,85,2|0,0:0|0:0,0:0:0:0:
437,232,28740,6,0,L|464:108,1,127.500004863739,2|0,0:0|0:0,0:0:0:0:
379,118,29269,6,0,L|392:56,1,63.7500024318696,2|0,0:0|0:0,0:0:0:0:
300,84,29622,1,2,0:0:0:0:
283,167,29798,6,0,L|300:84,1,85,2|0,0:0|0:0,0:0:0:0:
200,148,30681,6,0,L|216:72,1,63.7500024318696,2|0,0:0|0:0,0:0:0:0:
120,168,31034,6,0,L|144:64,1,85,2|0,0:0|0:0,0:0:0:0:
228,248,31563,6,0,L|208:330,1,85,2|0,0:0|0:0,0:0:0:0:
304,280,32092,6,0,L|288:348,1,63.7500024318696,2|0,0:0|0:0,0:0:0:0:
392,256,32622,6,0,L|360:380,1,127.500004863739,2|0,0:0|0:0,0:0:0:0:
472,280,33151,2,0,L|452:360,1,63.7500024318696,2|0,0:0|0:0,0:0:0:0:
184,180,33681,6,0,B|216:192|256:180|256:180|300:168|344:184,1,148.75,2|0,0:0|0:0,0:0:0:0:
288,252,34387,6,0,P|292:296|224:336,1,127.5,12|0,1:0|0:0,0:0:0:0:
200,328,34740,1,2,0:0:0:0:
184,180,34916,2,0,B|204:132|204:132|136:116|76:136,1,170,2|0,0:0|0:0,0:0:0:0:
104,280,35445,2,0,B|84:328|84:328|152:344|212:324,1,170,2|0,0:0|0:0,0:0:0:0:
336,240,36328,2,0,B|340:184|400:164|400:164|452:168|488:212,1,170,2|2,0:0|0:0,0:0:0:0:
408,240,37210,6,0,B|408:184|408:184|424:148|424:148|420:48,1,170,2|0,0:0|0:0,0:0:0:0:
324,88,37740,2,0,P|280:96|228:88,1,85,2|0,0:0|0:0,0:0:0:0:
280,20,38092,1,0,0:0:0:0:
172,92,38269,6,0,P|144:136|100:0,1,340,2|0,0:0|0:0,0:0:0:0:
96,76,39151,2,0,B|88:108|88:108|96:136|96:136|96:196,1,85,2|0,0:0|0:0,0:0:0:0:
184,312,39504,2,0,B|192:280|192:280|184:252|184:252|184:192,1,85,2|0,0:0|0:0,0:0:0:0:
104,264,39857,1,0,0:0:0:0:
296,312,40034,6,0,P|319:233|263:247,1,170,2|0,0:0|0:0,0:0:0:0:
296,312,40563,2,0,L|412:328,1,85,2|0,0:0|0:0,0:0:0:0:
412,192,40916,1,2,0:0:0:0:
480,80,41092,2,0,B|504:116|484:168|484:168|440:200|384:188,1,170,2|0,0:0|0:0,0:0:0:0:
208,108,41975,6,0,B|252:92|252:92|304:120,1,85,2|0,0:0|0:0,0:0:0:0:
304,276,42328,2,0,B|260:292|260:292|208:264,1,85,2|0,0:0|0:0,0:0:0:0:
152,144,42857,6,0,P|144:80|232:44,1,170,2|0,0:0|0:0,0:0:0:0:
152,144,43387,2,0,P|100:182|25:124,1,170,2|0,0:0|0:0,0:0:0:0:
152,144,43916,2,0,P|211:169|198:263,1,170,2|0,0:0|0:0,0:0:0:0:
156,212,44445,2,0,B|224:196|224:196|252:200|252:200|328:180,1,170,2|0,0:0|0:0,0:0:0:0:
364,252,44975,6,0,L|312:272,1,42.5,2|0,0:0|0:0,0:0:0:0:
280,116,45328,6,6,P|308:108|332:108,1,42.5
352,92,45681,6,0,B|356:160|356:160|304:196|240:176,1,170,14|8,1:0|0:0,0:0:0:0:
120,76,46210,2,0,P|180:36|204:112,1,170
36,124,46740,1,8,0:0:0:0:
240,320,47622,2,0,B|200:316|200:316|136:324,1,85,0|8,0:0|0:0,0:0:0:0:
88,208,47975,2,0,B|128:212|128:212|192:204,1,85
300,248,48504,6,0,B|328:268|336:304|336:304|360:316|360:316|376:356|448:360,1,170,0|8,0:0|0:0,0:0:0:0:
356,196,49034,2,0,B|340:168|340:168|280:148|248:184,1,127.5
224,176,49387,1,0,0:0:0:0:
412,252,49563,2,0,L|504:260,1,85,8|0,0:0|0:0,0:0:0:0:
340,76,50445,6,0,L|255:68,1,85,0|8,0:0|0:0,0:0:0:0:
255,68,50798,1,0,0:0:0:0:
388,194,50975,2,0,P|373:180|368:160,1,42.5,8|0,0:0|0:0,0:0:0:0:
380,318,51151,2,0,P|400:312|421:318,1,42.5
287,254,51328,2,0,P|282:274|267:289,1,42.5
52,132,51681,5,8,0:0:0:0:
52,232,51857,2,0,B|44:308|44:308|96:284|120:236,1,170
264,256,52387,2,0,P|300:312|200:332,1,170,8|0,0:0|0:0,0:0:0:0:
352,196,53269,6,0,B|384:184|384:184|456:196,1,85,0|8,0:0|0:0,0:0:0:0:
464,88,53622,2,0,B|432:100|432:100|360:88,1,85,0|8,0:0|0:0,0:0:0:0:
292,80,53975,1,0,0:0:0:0:
352,196,54151,2,0,B|296:200|296:200|272:188|272:188|204:192,1,127.5
196,188,54504,1,8,0:0:0:0:
292,80,54681,6,0,L|196:84,1,85
124,52,55034,1,0,0:0:0:0:
228,268,55210,2,0,L|132:272,1,85,8|0,0:0|0:0,0:0:0:0:
76,216,55563,1,0,0:0:0:0:
228,268,55740,6,0,B|200:304|200:304|156:320|56:304,1,170
100,132,56269,6,0,B|128:144|128:144|232:136,1,127.500004863739,2|0,0:0|0:0,0:0:0:0:
376,144,56622,6,0,P|400:164|336:176,1,127.500004863739,2|0,0:0|0:0,0:0:0:0:
384,72,56975,6,0,B|448:88|464:144|464:144|472:192|504:160|496:120,1,170,2|0,0:0|0:0,0:0:0:0:
484,236,57240,1,2,0:0:0:0:
476,252,57328,2,0,B|464:304|508:356|524:320|492:304|448:336,1,101.999996887207,8|0,0:0|0:0,0:0:0:0:
396,332,57592,1,0,0:0:0:0:
408,352,57681,2,0,L|356:348,1,42.5
248,316,57857,2,0,L|300:312,1,42.5
352,252,58034,2,0,B|324:232|324:232|216:236,1,101.999996887207,8|0,0:0|0:0,0:0:0:0:
176,272,58298,1,0,0:0:0:0:
168,288,58387,6,0,B|152:320|176:364|176:364|108:348,1,101.999996887207,2|0,0:0|0:0,0:0:0:0:
64,344,58651,1,2,0:0:0:0:
52,332,58740,2,0,P|56:260|72:220,1,101.999996887207,8|2,0:0|0:0,0:0:0:0:
144,172,59004,1,0,0:0:0:0:
160,168,59092,2,0,L|208:164,1,42.5
304,108,59269,2,0,L|256:104,1,42.5,2|0,0:0|0:0,0:0:0:0:
176,88,59445,2,0,B|192:44|220:28|220:28|168:40|164:32,1,101.999996887207,10|0,0:0|0:0,0:0:0:0:
136,20,59710,1,2,0:0:0:0:
121,30,59798,6,0,P|169:42|229:22,1,101.999996887207,0|2,0:0|0:0,0:0:0:0:
304,108,60063,1,0,0:0:0:0:
312,120,60151,2,0,P|360:106|409:118,1,101.999996887207,10|0,0:0|0:0,0:0:0:0:
436,204,60416,1,2,0:0:0:0:
448,204,60504,2,0,L|492:228,1,42.5
300,216,60681,2,0,L|337:195,1,42.5,2|0,0:0|0:0,0:0:0:0:
396,268,60857,2,0,B|432:292|476:276|476:276|464:312,1,101.999996887207,8|2,0:0|0:0,0:0:0:0:
400,352,61122,1,0,0:0:0:0:
408,360,61210,6,0,P|336:344|308:296,1,101.999996887207,2|0,0:0|0:0,0:0:0:0:
296,236,61475,1,2,0:0:0:0:
300,216,61563,2,0,P|261:184|211:180,1,101.999996887207,8|2,0:0|0:0,0:0:0:0:
100,160,61828,1,0,0:0:0:0:
112,188,61916,2,0,P|79:197|40:196,1,50.9999984436036,2|2,0:0|0:0,0:0:0:0:
104,272,62092,2,0,P|128:294|146:330,1,50.9999984436036
188,228,62269,2,0,P|195:195|217:161,1,50.9999984436036,6|0,0:0|0:0,0:0:0:0:
292,136,62445,5,0,0:0:0:0:
304,140,62534,1,0,0:0:0:0:
312,144,62622,2,0,B|324:164|324:164|320:196,1,50.9999984436036
288,256,62798,2,0,B|276:276|276:276|280:308,1,50.9999984436036
420,336,62975,2,0,B|432:316|432:316|432:256,1,50.9999984436036
440,200,63151,2,0,B|428:180|428:180|428:120,1,50.9999984436036
440,68,63328,6,0,B|408:72|408:72|380:68,1,50.9999984436036
292,48,63504,2,0,B|260:44|260:44|232:24,1,50.9999984436036
292,136,63681,2,0,B|260:136|260:136|212:152,1,50.9999984436036
176,84,63857,2,0,B|144:84|144:84|96:68,1,50.9999984436036
128,172,64034,6,0,B|96:176|96:176|48:208,1,63.7500024318696
56,328,64210,2,0,B|88:324|88:324|114:306,1,63.7500024318696
267,242,64387,6,0,L|204:248,1,63.7500024318696
272,340,64563,2,0,L|335:345,1,63.7500024318696
315,254,64740,6,0,L|252:260,1,63.7500024318696
317,351,64916,2,0,L|380:356,1,63.7500024318696
359,262,65092,6,0,L|296:268,1,63.7500024318696
361,363,65269,2,0,L|424:368,1,63.7500024318696
424,204,65445,5,8,2:0:0:0:
428,172,65534,1,8,2:0:0:0:
432,140,65622,1,8,2:0:0:0:
436,108,65710,1,8,2:0:0:0:
408,92,65798,5,8,2:0:0:0:
380,60,65887,1,8,2:0:0:0:
336,64,65975,1,8,2:0:0:0:
296,40,66063,1,8,2:0:0:0:
252,36,66151,5,8,2:0:0:0:
248,72,66240,1,8,2:0:0:0:
208,32,66328,5,8,2:0:0:0:
208,68,66417,1,8,2:0:0:0:
164,36,66504,5,8,2:0:0:0:
172,76,66593,1,8,2:0:0:0:
124,48,66681,5,8,2:0:0:0:
136,88,66770,1,8,2:0:0:0:
88,64,66857,6,0,B|64:68|64:68|48:68|48:68|48:88|48:88|36:96|16:120,1,85,2|0,0:0|0:0,0:0:0:0:
72,168,67034,6,0,B|64:188|64:188|68:212|88:208|88:208|88:240,1,85,2|0,0:0|0:0,0:0:0:0:
56,304,67210,6,0,B|128:324|164:256|164:256|180:284|200:296|240:288|235:240|212:232|188:264,1,255.000009727478,2|0,0:0|0:0,0:0:0:0:
196,240,67916,6,0,L|236:236,1,31.8750012159348,4|0,0:0|0:0,0:0:0:0:
280,256,68269,6,0,B|204:216|204:216|196:160|272:108,1,191.250007295609
472,100,68622,2,0,P|472:132|456:164,1,63.7500024318696
320,84,68798,2,0,P|320:52|336:20,1,63.7500024318696
392,144,68975,2,0,B|380:168|392:196|392:196|348:224|372:260|384:304|432:248|392:224,1,170
480,144,69240,1,0,0:0:0:0:
480,160,69328,2,0,L|472:88,1,63.7500024318696
320,84,69504,2,0,L|312:12,1,63.7500024318696
216,52,69681,6,0,B|184:72|180:156|180:156|144:108|108:88|88:156|108:168|136:136,1,255.000009727478
224,216,70034,2,0,P|256:168|248:140,1,63.7500024318696
108,264,70210,2,0,P|112:296|144:336,1,63.7500024318696
349,347,70387,6,0,B|406:338|406:338|340:333|320:276,1,170
374,21,70740,2,0,B|318:31|318:31|384:36|404:93,1,170
396,264,71092,6,0,B|375:209|326:203|326:203|297:199|285:173|285:173|298:133|328:105|328:105|245:95,1,255
201,44,71445,6,0,B|217:44|217:44|224:44|224:44|217:37|217:37|225:36|225:36|305:36,1,85
374,21,71622,2,0,B|390:21|390:21|397:21|397:21|390:28|390:28|398:29|398:29|478:29,1,85
480,152,71798,6,0,L|428:168,1,42.5
468,196,71886,2,0,L|416:212,1,42.5
448,248,71975,2,0,L|396:264,1,42.5
436,296,72063,2,0,L|384:312,1,42.5
248,332,72151,5,0,0:0:0:0:
172,308,72240,1,0,0:0:0:0:
172,232,72328,1,0,0:0:0:0:
248,212,72416,1,0,0:0:0:0:
296,268,72504,6,0,B|312:288|320:312|320:312|348:336,1,85
224,376,72681,2,0,B|208:356|200:332|200:332|172:308,1,85
112,352,72857,2,0,B|80:320|100:264|100:264|116:224|136:272|72:292|64:272,1,170
44,212,73122,1,0,0:0:0:0:
56,192,73210,2,0,P|100:168|168:188,1,85
224,100,73387,6,0,L|220:156,1,42.5
268,96,73475,2,0,L|264:152,1,42.5
308,96,73563,2,0,B|308:168|308:168|380:136|380:136|384:56,1,191.250007295609
420,48,73916,6,0,B|420:152|420:152|456:180|456:180|452:200|452:200|420:168,1,191.250007295609
464,272,74269,2,0,P|416:264|392:236,1,63.7500024318696
300,308,74445,2,0,P|264:296|216:304,1,63.7500024318696
136,340,74622,2,0,B|144:296|144:296|136:248|136:248|144:192|144:192,1,127.500004863739
88,160,74887,1,0,0:0:0:0:
80,140,74975,2,0,L|64:216,1,63.7500024318696
224,156,75151,2,0,L|235:93,1,63.7500024318696
168,124,75328,6,0,B|180:168|244:168|244:168|296:160|324:88|288:72|280:176,1,255
368,144,75681,2,0,P|376:96|348:48,1,85
348,224,75857,2,0,P|348:264|376:300,1,85
479,149,76034,6,0,B|484:252|416:240|416:240|432:200,1,170
272,256,76387,2,0,B|140:264|140:264|174:297,1,170
214,346,76740,6,0,B|285:342|285:342|267:343|267:343|324:341|324:341|294:342|294:342|300:342|300:342|422:336,1,255
384,316,77092,5,0,0:0:0:0:
426,309,77181,1,0,0:0:0:0:
392,284,77269,1,0,0:0:0:0:
434,277,77358,1,0,0:0:0:0:
396,256,77445,6,0,L|452:248,1,42.5
416,188,77534,2,0,L|468:184,1,42.5
432,124,77622,2,0,L|488:120,1,42.5
448,64,77710,2,0,L|504:60,1,42.5
352,52,77798,5,0,0:0:0:0:
276,52,77887,1,0,0:0:0:0:
204,52,77975,1,0,0:0:0:0:
128,52,78063,1,0,0:0:0:0:
84,112,78151,6,0,P|136:124|164:116,1,63.7500024318696
292,212,78328,2,0,P|240:200|212:208,1,63.7500024318696
108,280,78504,6,0,P|44:268|116:228,1,170
248,276,78769,1,0,0:0:0:0:
256,288,78857,2,0,P|296:288|352:276,1,85
432,192,79034,6,0,L|440:248,1,42.5
440,152,79122,2,0,L|448:208,1,42.5
452,104,79210,2,0,L|464:236,1,127.500004863739
376,112,79563,6,0,B|372:48|436:24|436:24|388:40|328:36,1,191.250007295609
280,32,79916,2,0,P|232:28|192:44,1,63.7500024318696
144,96,80092,2,0,P|120:80|76:80,1,63.7500024318696
144,160,80269,2,0,B|200:164|212:96|212:96|236:128,1,127.500004863739
300,112,80534,1,0,0:0:0:0:
308,120,80622,2,0,B|336:120|336:120|352:124|352:124|392:124,1,63.7500024318696
496,40,80798,2,0,B|476:40|476:40|460:44|460:44|432:44,1,63.7500024318696
452,144,80975,6,0,B|480:172|464:220|464:220|484:268|528:244|528:284|484:280,1,170
432,328,81240,1,0,0:0:0:0:
432,328,81328,2,0,P|388:328|328:312,1,63.7500024318696
312,184,81504,2,0,P|352:188|392:208,1,63.7500024318696
244,304,81681,6,0,B|188:332|188:332|232:284|228:184,1,170
0,96,82034,2,0,B|56:68|56:68|12:116|16:216,1,170
72,308,82387,6,0,B|152:256|100:180|100:180|80:140|136:108|104:88|124:164|148:144,1,255
228,128,82740,2,0,B|272:128|272:128|312:88,1,85
512,144,82916,2,0,B|468:144|468:144|428:184,1,85
416,192,83092,6,0,L|404:132,1,42.5
376,224,83181,2,0,L|368:168,1,42.5
340,256,83269,2,0,L|328:200,1,42.5
304,284,83357,2,0,L|292:224,1,42.5
448,264,83445,5,0,0:0:0:0:
496,204,83534,1,0,0:0:0:0:
464,132,83622,1,0,0:0:0:0:
388,116,83710,1,0,0:0:0:0:
340,172,83798,6,0,L|356:256,1,85
296,384,83975,2,0,L|280:300,1,85
136,280,84151,2,0,P|116:324|176:312,1,127.500004863739
64,216,84416,1,0,0:0:0:0:
56,188,84504,2,0,P|52:152|36:104,1,85
84,52,84681,6,0,L|72:8,1,42.5
128,56,84769,2,0,L|116:12,1,42.5
168,56,84857,2,0,B|156:8|156:8|216:24|216:24|240:104,1,170
340,168,85210,6,0,B|384:140|392:92|392:92|380:36|336:52|320:80|368:108|452:104,1,255
480,160,85563,2,0,P|504:108|492:56,1,85
416,232,85740,2,0,P|432:272|484:304,1,85
484,232,85916,2,0,P|432:164|348:248,1,170
320,276,86181,1,0,0:0:0:0:
320,276,86269,2,0,B|272:276|272:276|224:296,1,85
108,220,86445,2,0,B|156:220|156:220|204:200,1,85
112,144,86622,6,0,B|12:164|20:260|84:288|84:288|70:303|52:301|36:285|76:344,1,255
160,288,86975,2,0,L|248:292,1,85
232,372,87151,2,0,L|147:368,1,85
320,276,87328,2,0,B|367:285|432:276|432:276|390:261|386:221,1,170
182,107,87681,2,0,B|134:97|70:107|70:107|112:122|116:162,1,170
136,216,88034,5,0,0:0:0:0:
96,244,88122,1,0,0:0:0:0:
56,272,88210,1,0,0:0:0:0:
16,300,88298,1,0,0:0:0:0:
20,248,88387,5,0,0:0:0:0:
24,196,88475,1,0,0:0:0:0:
28,144,88563,1,0,0:0:0:0:
36,92,88651,1,0,0:0:0:0:
48,40,88740,6,0,L|116:40,1,42.5,2|0,0:0|0:0,0:0:0:0:
100,47,88828,2,0,L|168:47,1,42.5,2|0,0:0|0:0,0:0:0:0:
154,42,88916,2,0,L|222:42,1,42.5,2|0,0:0|0:0,0:0:0:0:
207,48,89004,2,0,L|275:48,1,42.5,2|0,0:0|0:0,0:0:0:0:
261,44,89092,6,0,B|289:56|325:48|325:48|305:72,1,85
440,120,89269,2,0,B|412:108|376:116|376:116|396:92,1,85
488,68,89445,6,0,B|532:116|504:164|464:196|464:196|392:168|344:196|344:196|375:222|440:212,1,340
405,214,90151,5,0,0:0:0:0:
376,176,90240,1,0,0:0:0:0:
330,166,90328,1,0,0:0:0:0:
286,183,90416,1,0,0:0:0:0:
267,225,90504,2,0,L|278:338,1,85
337,127,90857,6,0,B|449:139|449:139|521:99,1,170
332,212,91387,2,0,L|448:224,1,85
496,232,91740,1,0,0:0:0:0:
292,272,91916,2,0,L|207:263,1,85
124,252,92269,1,0,0:0:0:0:
176,180,92445,1,0,0:0:0:0:
76,320,92622,6,0,L|160:328,1,85
252,340,92975,1,0,0:0:0:0:
336,204,93151,1,0,0:0:0:0:
328,336,93328,1,0,0:0:0:0:
368,272,93504,1,0,0:0:0:0:
400,336,93681,6,0,L|500:332,1,85
296,272,94034,1,0,0:0:0:0:
404,208,94210,2,0,L|504:204,1,85
304,140,94563,1,0,0:0:0:0:
224,272,94740,2,0,L|139:275,1,85
220,140,95092,1,0,0:0:0:0:
296,272,95269,1,0,0:0:0:0:
304,140,95445,6,0,L|196:140,1,85
336,208,95798,1,0,0:0:0:0:
276,72,95975,1,0,0:0:0:0:
264,208,96151,1,0,0:0:0:0:
348,72,96328,1,0,0:0:0:0:
408,208,96504,6,0,L|416:116,1,85
312,8,96857,1,0,0:0:0:0:
264,208,97034,2,0,L|272:116,1,85
144,64,97387,1,0,0:0:0:0:
188,248,97563,2,0,L|196:156,1,85
228,36,97916,1,0,0:0:0:0:
332,168,98092,1,0,0:0:0:0:
56,96,98269,6,0,L|48:180,1,85
168,328,98622,1,0,0:0:0:0:
188,248,98798,1,0,0:0:0:0:
92,328,98975,1,0,0:0:0:0:
260,244,99151,1,0,0:0:0:0:
304,324,99328,6,0,L|424:312,1,85
356,236,99592,2,0,L|320:240,1,21.25
236,328,99857,1,0,0:0:0:0:
356,236,100034,2,0,L|476:224,1,85
408,148,100387,2,0,L|372:152,1,21.25
288,160,100563,1,0,0:0:0:0:
408,148,100740,6,0,L|528:136,1,85
460,56,101004,2,0,L|424:60,1,21.25
340,68,101269,1,0,0:0:0:0:
336,76,101445,2,0,L|272:84,1,42.5
220,88,101622,2,0,L|192:92,4,21.25
96,104,102151,5,0,0:0:0:0:
172,204,102328,1,0,0:0:0:0:
130,225,102416,1,0,0:0:0:0:
83,229,102504,1,0,0:0:0:0:
31,52,102681,1,0,0:0:0:0:
69,26,102769,1,0,0:0:0:0:
115,27,102857,5,0,0:0:0:0:
154,51,102945,1,0,0:0:0:0:
179,90,103034,1,0,0:0:0:0:
222,107,103122,1,0,0:0:0:0:
268,101,103210,1,0,0:0:0:0:
327,28,103387,1,0,0:0:0:0:
284,196,103563,5,0,0:0:0:0:
356,336,103740,1,0,0:0:0:0:
425,330,103828,1,0,0:0:0:0:
494,324,103916,1,0,0:0:0:0:
284,196,104092,1,0,0:0:0:0:
245,196,104181,1,0,0:0:0:0:
206,198,104269,5,0,0:0:0:0:
167,199,104357,1,0,0:0:0:0:
128,198,104445,5,0,0:0:0:0:
89,199,104533,1,0,0:0:0:0:
50,199,104622,5,0,0:0:0:0:
216,92,104798,1,0,0:0:0:0:
379,162,104975,5,0,0:0:0:0:
435,321,105151,1,0,0:0:0:0:
496,46,105240,1,0,0:0:0:0:
317,107,105504,1,0,0:0:0:0:
300,141,105592,1,0,0:0:0:0:
298,179,105681,5,0,0:0:0:0:
313,213,105769,1,0,0:0:0:0:
343,236,105857,1,0,0:0:0:0:
379,247,105946,1,0,0:0:0:0:
416,243,106034,1,0,0:0:0:0:
356,351,106210,1,0,0:0:0:0:
322,333,106298,1,0,0:0:0:0:
283,330,106387,5,0,0:0:0:0:
15,203,106563,1,0,0:0:0:0:
49,221,106651,1,0,0:0:0:0:
88,224,106740,5,0,0:0:0:0:
221,35,106916,1,0,0:0:0:0:
183,28,107004,1,0,0:0:0:0:
150,47,107092,5,0,0:0:0:0:
138,83,107181,1,0,0:0:0:0:
155,117,107269,1,0,0:0:0:0:
191,129,107357,1,0,0:0:0:0:
228,120,107445,2,0,P|282:109|321:113,1,63.7500024318696
318,67,107622,5,0,0:0:0:0:
290,109,107710,1,0,0:0:0:0:
307,150,107798,5,2,0:0:0:0:
345,173,107887,1,0,0:0:0:0:
388,165,107975,1,0,0:0:0:0:
418,132,108063,1,0,0:0:0:0:
421,87,108151,5,2,0:0:0:0:
418,132,108240,1,0,0:0:0:0:
421,176,108328,1,0,0:0:0:0:
422,220,108416,1,0,0:0:0:0:
456,290,108504,6,0,L|529:300,1,63.7500024318696
270,322,108681,6,0,L|343:332,1,63.7500024318696
182,175,108857,6,0,L|255:185,1,63.7500024318696
66,333,109034,6,0,L|139:343,1,63.7500024318696
303,239,109210,5,2,0:0:0:0:
329,203,109298,1,0,0:0:0:0:
327,158,109387,1,0,0:0:0:0:
303,120,109475,1,0,0:0:0:0:
262,101,109563,5,2,0:0:0:0:
303,120,109651,1,0,0:0:0:0:
348,119,109740,1,0,0:0:0:0:
387,98,109828,1,0,0:0:0:0:
414,63,109916,6,0,P|408:24|386:-13,1,63.7500024318696
431,209,110092,6,0,P|418:238|415:270,1,63.7500024318696
197,155,110269,6,0,P|184:126|181:95,1,63.7500024318696
300,259,110445,6,0,P|296:290|284:320,1,63.7500024318696
180,94,110622,6,0,L|144:22,1,63.7500024318696,2|0,0:0|0:0,0:0:0:0:
64,14,110798,6,0,L|-8:50,1,63.7500024318696,2|0,0:0|0:0,0:0:0:0:
8,138,110975,6,0,L|44:210,1,63.7500024318696,2|0,0:0|0:0,0:0:0:0:
128,202,111151,6,0,L|200:166,1,63.7500024318696,2|0,0:0|0:0,0:0:0:0:
192,348,111328,5,0,0:0:0:0:
126,321,111416,1,0,0:0:0:0:
100,256,111504,5,0,0:0:0:0:
126,191,111592,1,0,0:0:0:0:
191,164,111681,5,0,0:0:0:0:
256,191,111769,1,0,0:0:0:0:
283,256,111857,5,0,0:0:0:0:
255,321,111945,1,0,0:0:0:0:
192,348,112034,6,0,B|127:228|168:128|268:164|284:240|248:292|204:272|192:192,1,318.750012159348,4|0,0:2|0:0,0:0:0:0:
216,228,112563,6,0,L|248:224,1,31.8750012159348
236,256,112651,2,0,L|268:252,1,31.8750012159348
275,335,112740,5,0,0:0:0:0:
408,256,112916,1,0,0:0:0:0:
400,380,113092,2,0,L|424:336,1,42.5
484,332,113445,6,0,L|384:324,1,85
332,236,113798,2,0,P|300:180|256:168,1,85
176,200,114151,2,0,L|168:308,1,85
48,368,114504,2,0,L|44:264,1,85
64,112,114857,6,0,L|20:128,3,42.5
160,112,115210,2,0,L|128:156,3,42.5
252,84,115563,2,0,L|244:132,3,42.5
336,36,115916,2,0,L|352:80,3,42.5
424,40,116269,6,0,P|436:104|412:136,1,85
352,200,116622,2,0,L|240:212,1,85
132,224,116975,2,0,P|116:276|152:320,1,85
264,312,117328,2,0,L|180:260,1,85
60,208,117681,6,0,P|48:240|44:272,3,42.5
192,176,118034,2,0,P|204:144|204:112,3,42.5
132,228,118387,6,0,P|180:252|240:232,1,85
268,76,118651,1,0,0:0:0:0:
268,76,118740,2,0,P|220:52|160:64,1,85
304,140,119092,5,0,0:0:0:0:
304,140,119445,6,0,L|392:132,2,56.6666666666667
340,200,119798,6,0,L|428:192,2,56.6666666666667
376,260,120151,6,0,L|464:252,2,56.6666666666667
468,312,120504,6,0,L|411:317,1,56.6666666666667
344,320,120740,1,0,0:0:0:0:
344,320,120857,6,0,P|316:308|276:304,1,56.6666666666667
200,340,121092,1,0,0:0:0:0:
200,340,121210,6,0,P|164:344|132:336,1,56.6666666666667
84,248,121445,1,0,0:0:0:0:
84,248,121563,6,0,P|98:214|121:191,1,56.6666666666667
212,188,121798,1,0,0:0:0:0:
168,260,121916,5,0,0:0:0:0:
252,260,122034,1,0,0:0:0:0:
324,232,122151,1,0,0:0:0:0:
300,104,122269,2,0,L|228:116,2,56.6666666666667
240,236,122622,5,0,0:0:0:0:
316,224,122740,1,0,0:0:0:0:
392,208,122857,1,0,0:0:0:0:
360,88,122975,2,0,L|288:100,2,56.6666666666667
236,228,123328,5,0,0:0:0:0:
312,216,123446,1,0,0:0:0:0:
388,200,123563,1,0,0:0:0:0:
424,76,123681,2,0,L|352:88,2,56.6666666666667
232,220,124034,2,0,B|304:200|304:200|336:208|336:208|436:184,1,170
440,144,124475,6,0,L|368:168,2,63.7500024318696
360,240,124740,6,0,L|276:268,1,85
156,320,125092,2,0,P|120:280|124:220,1,85
152,128,125445,2,0,L|232:101,1,85
336,40,125798,2,0,P|368:80|368:140,1,85
448,152,126151,6,0,L|472:104,3,42.5
412,251,126504,2,0,L|456:221,3,42.5
332,320,126857,2,0,L|385:316,3,42.5
232,344,127210,2,0,L|280:368,3,42.5
128,344,127563,6,0,L|132:252,1,85
108,168,127916,2,0,L|112:76,1,85
424,292,128269,1,0,0:0:0:0:
332,320,128445,1,0,0:0:0:0:
232,344,128622,2,0,L|236:252,1,85
336,216,128975,5,0,0:0:0:0:
224,180,129151,1,0,0:0:0:0:
116,144,129328,2,0,L|120:52,1,85
216,200,129592,1,0,0:0:0:0:
224,180,129681,6,0,L|228:104,1,63.7500024318696
280,196,129857,2,0,L|284:120,1,63.7500024318696
336,216,130034,2,0,L|340:140,1,63.7500024318696
388,236,130210,2,0,L|392:160,1,63.7500024318696
480,56,130387,6,0,L|476:140,1,85
388,236,130740,2,0,L|384:320,1,85
280,196,131092,1,0,0:0:0:0:
384,128,131269,1,0,0:0:0:0:
272,204,131445,2,0,L|268:288,1,85
160,232,131798,5,0,0:0:0:0:
192,124,131975,1,0,0:0:0:0:
152,240,132151,2,0,L|148:324,1,85
48,372,132504,2,0,L|51:287,1,85
72,60,132857,1,0,0:0:0:0:
60,208,133034,1,0,0:0:0:0:
192,124,133210,6,0,L|196:48,1,63.7500024318696
288,96,133387,2,0,L|292:20,1,63.7500024318696
384,136,133563,2,0,L|388:60,1,63.7500024318696
480,116,133740,2,0,L|484:40,1,63.7500024318696
444,276,133916,6,0,L|448:188,1,72.2500013780594
296,272,134092,2,0,L|300:184,1,72.2500013780594
368,336,134269,2,0,L|372:240,1,80.7499978437424
208,320,134445,2,0,L|212:224,1,80.7499978437424
288,96,134622,6,0,L|292:8,1,85
288,96,135681,2,0,L|292:56,1,21.25
456,284,136034,6,0,P|448:224|340:192,1,152.999995330811,4|0,0:0|0:0,0:0:0:0:
376,264,136387,2,0,L|368:92,1,152.999995330811,8|0,0:0|0:0,0:0:0:0:
368,111,136740,1,0,0:0:0:0:
248,28,136916,1,0,0:0:0:0:
316,168,137092,2,0,P|392:184|440:152,1,101.999996887207,8|0,0:0|0:0,0:0:0:0:
464,36,137445,6,0,L|360:24,1,101.999996887207
376,264,137798,2,0,L|274:275,1,101.999996887207,8|0,0:0|0:0,0:0:0:0:
176,312,138063,1,0,0:0:0:0:
168,324,138151,2,0,L|66:335,1,101.999996887207
80,180,138416,1,0,0:0:0:0:
152,160,138504,2,0,P|196:176|224:224,1,101.999996887207,8|0,0:0|0:0,0:0:0:0:
52,252,138769,1,0,0:0:0:0:
48,260,138857,6,0,L|52:104,1,152.999995330811,4|0,0:0|0:0,0:0:0:0:
169,33,139210,2,0,P|197:89|133:165,1,152.999995330811,8|0,0:0|0:0,0:0:0:0:
88,32,139563,1,0,0:0:0:0:
224,196,139740,2,0,P|176:232|108:232,1,101.999996887207,0|8,0:0|0:0,0:0:0:0:
28,80,140092,1,0,0:0:0:0:
136,236,140269,6,0,L|244:248,1,101.999996887207
248,96,140622,2,0,L|349:84,1,101.999996887207,8|0,0:0|0:0,0:0:0:0:
388,164,140887,1,0,0:0:0:0:
396,184,140975,2,0,L|508:192,1,101.999996887207
484,348,141240,1,0,0:0:0:0:
456,344,141328,6,0,L|340:336,1,63.7500024318696,2|0,0:0|0:0,0:0:0:0:
336,260,141504,2,0,L|399:264,1,63.7500024318696,2|0,0:0|0:0,0:0:0:0:
268,336,141681,6,0,L|108:324,1,152.999995330811,4|0,0:0|0:0,0:0:0:0:
100,240,142034,2,0,P|168:260|184:360,1,152.999995330811,8|0,0:0|0:0,0:0:0:0:
32,312,142387,1,0,0:0:0:0:
100,240,142563,1,0,0:0:0:0:
188,288,142740,2,0,P|204:232|168:136,1,152.999995330811,8|0,0:0|0:0,0:0:0:0:
144,68,143092,6,0,P|156:116|132:180,1,101.999996887207
368,316,143445,2,0,P|356:268|380:204,1,101.999996887207,8|0,0:0|0:0,0:0:0:0:
440,180,143710,1,0,0:0:0:0:
440,180,143798,2,0,P|444:248|420:272,1,101.999996887207
228,324,144063,1,0,0:0:0:0:
264,320,144151,2,0,L|384:316,1,101.999996887207,8|0,0:0|0:0,0:0:0:0:
440,180,144504,6,0,L|280:184,1,152.999995330811,4|0,0:0|0:0,0:0:0:0:
152,176,144857,2,0,P|148:100|216:36,1,152.999995330811,8|0,0:0|0:0,0:0:0:0:
152,176,145210,1,0,0:0:0:0:
320,56,145387,1,0,0:0:0:0:
243,92,145563,2,0,P|184:110|132:70,1,101.999996887207,8|0,0:0|0:0,0:0:0:0:
84,16,145916,6,0,L|64:132,1,101.999996887207
240,104,146269,2,0,L|244:224,1,101.999996887207,8|0,0:0|0:0,0:0:0:0:
372,260,146534,1,0,0:0:0:0:
372,260,146622,2,0,L|392:376,1,101.999996887207
316,348,146887,1,0,0:0:0:0:
316,348,146975,6,0,L|303:280,1,63.7500024318696,2|0,0:0|0:0,0:0:0:0:
444,260,147151,2,0,L|457:327,1,63.7500024318696,2|0,0:0|0:0,0:0:0:0:
174,369,147328,6,0,L|146:183,1,152.999995330811,4|0,0:0|0:0,0:0:0:0:
228,176,147681,2,0,P|296:156|312:68,1,152.999995330811,8|0,0:0|0:0,0:0:0:0:
308,64,148034,1,0,0:0:0:0:
224,16,148210,1,0,0:0:0:0:
248,104,148387,2,0,P|288:132|352:116,1,101.999996887207,8|0,0:0|0:0,0:0:0:0:
452,76,148740,6,0,L|444:212,1,101.999996887207
364,240,149092,2,0,L|368:360,1,101.999996887207,8|0,0:0|0:0,0:0:0:0:
432,252,149357,1,0,0:0:0:0:
432,252,149445,2,0,P|432:212|376:172,1,101.999996887207
300,224,149710,1,0,0:0:0:0:
300,224,149798,2,0,P|300:264|356:304,1,101.999996887207,8|0,0:0|0:0,0:0:0:0:
389,173,150151,6,0,L|220:184,1,152.999995330811
108,340,150504,2,0,P|140:268|88:180,1,152.999995330811,8|0,0:0|0:0,0:0:0:0:
115,202,150857,1,0,0:0:0:0:
28,336,151034,1,0,0:0:0:0:
192,176,151210,2,0,P|156:128|80:136,1,101.999996887207,8|0,0:0|0:0,0:0:0:0:
176,256,151563,6,0,L|308:264,1,101.999996887207
272,152,151916,2,0,L|401:125,1,101.999996887207,8|0,0:0|0:0,0:0:0:0:
348,48,152181,1,0,0:0:0:0:
348,48,152269,2,0,L|466:-11,1,101.999996887207
276,16,152534,1,0,0:0:0:0:
276,16,152622,2,8,P|272:55|284:92,1,63.7500024318696,8|8,0:2|0:2,0:2:0:0:
428,184,152798,2,8,P|416:136|392:100,1,63.7500024318696,8|8,0:2|0:2,0:2:0:0:
196,24,152975,6,0,L|32:72,1,152.999995330811,4|0,0:0|0:0,0:0:0:0:
128,180,153328,2,0,P|140:252|92:344,1,152.999995330811,8|0,0:0|0:0,0:0:0:0:
88,340,153681,1,0,0:0:0:0:
32,240,153857,1,0,0:0:0:0:
164,100,154034,2,0,P|208:136|208:200,1,101.999996887207,8|0,0:0|0:0,0:0:0:0:
328,296,154387,6,0,L|216:304,1,101.999996887207
392,224,154740,2,0,L|291:174,1,101.999996887207,8|0,0:0|0:0,0:0:0:0:
468,168,155004,1,0,0:0:0:0:
468,168,155092,2,0,L|405:75,1,101.999996887207,8|0,0:0|0:0,0:0:0:0:
292,24,155357,1,0,0:0:0:0:
292,24,155445,2,0,P|236:32|208:148,1,152.999995330811,8|0,0:0|0:0,0:0:0:0:
236,180,155798,6,0,L|228:220,3,31.8750012159348
292,296,156151,2,0,L|284:252,3,31.8750012159348
200,360,156504,6,0,L|204:316,3,31.8750012159348
112,356,156857,2,0,L|116:312,3,31.8750012159348
24,348,157210,6,0,L|28:308,1,31.8750012159348
76,252,157387,2,0,L|80:228,10,15.9375006079674
148,256,157916,1,0,0:0:0:0:
168,248,158004,1,0,0:0:0:0:
188,240,158092,1,0,0:0:0:0:
208,232,158181,1,0,0:0:0:0:
240,260,158269,5,0,0:0:0:0:
280,260,158357,1,0,0:0:0:0:
320,260,158445,1,0,0:0:0:0:
360,260,158534,1,0,0:0:0:0:
380,296,158622,6,0,L|488:312,2,95.6250036478044,2|0|0,0:0|0:0|0:0,0:0:0:0:
376,108,159504,1,0,0:0:0:0:
304,104,159681,1,0,0:0:0:0:
284,172,159857,1,0,0:0:0:0:
344,220,160034,6,0,L|456:240,2,95.6250036478044,2|0|0,0:0|0:0|0:0,0:0:0:0:
216,196,160916,1,0,0:0:0:0:
164,132,161092,1,0,0:0:0:0:
88,168,161269,1,0,0:0:0:0:
104,248,161445,6,0,L|208:288,2,95.6250036478044,2|0|0,0:0|0:0|0:0,0:0:0:0:
164,132,162328,1,0,0:0:0:0:
208,64,162504,1,0,0:0:0:0:
148,4,162681,1,0,0:0:0:0:
76,44,162857,6,0,L|180:84,2,95.6250036478044,2|0|0,0:0|0:0|0:0,0:0:0:0:
380,200,163740,1,0,0:0:0:0:
468,160,163916,1,0,0:0:0:0:
472,64,164092,1,0,0:0:0:0:
376,288,164269,6,0,L|372:364,1,63.7500024318696,2|0,0:0|0:0,0:0:0:0:
468,160,164622,2,0,L|464:236,1,63.7500024318696
312,140,165151,1,0,0:0:0:0:
284,232,165328,1,0,0:0:0:0:
376,204,165504,1,0,0:0:0:0:
216,160,165681,6,0,L|212:236,1,63.7500024318696
140,288,166034,2,0,L|136:364,1,63.7500024318696
72,184,166387,2,0,L|64:304,1,95.6250036478044
65,279,166740,1,0,0:0:0:0:
144,172,166916,1,0,0:0:0:0:
288,148,167092,6,0,L|291:84,1,63.7500024318696
360,136,167445,1,0,0:0:0:0:
216,160,167622,1,0,0:0:0:0:
432,120,167798,2,0,L|436:24,2,95.6250036478044
156,24,168504,6,0,L|152:87,1,63.7500024318696
72,64,168857,2,0,L|68:127,1,63.7500024318696
0,28,169210,6,0,L|-4:160,1,127.5
92,228,169563,6,0,P|164:228|104:144,1,191.250007295609
139,139,169916,6,0,B|184:136|248:88,1,85
392,100,170269,1,0,1:0:0:0:
304,104,170445,1,0,0:0:0:0:
352,180,170622,2,0,L|356:284,1,85,0|0,1:0|0:0,0:0:0:0:
264,184,170975,1,0,0:0:0:0:
344,28,171151,1,0,0:0:0:0:
444,168,171328,6,0,L|452:316,1,127.5
420,324,171681,6,0,P|368:320|288:364,1,127.5
420,324,172034,5,0,1:0:0:0:
428,328,172387,1,0,0:0:0:0:
304,352,172563,1,0,0:0:0:0:
192,320,172740,6,0,L|84:320,1,85
280,248,173004,1,0,0:0:0:0:
248,248,173092,6,0,L|140:248,1,85
104,196,173445,6,0,L|-4:196,1,85,0|0,1:0|0:0,0:0:0:0:
236,116,173710,1,0,0:0:0:0:
212,116,173798,6,0,L|104:116,1,85
127,116,173975,1,0,0:0:0:0:
316,124,174151,5,0,0:0:0:0:
127,116,174328,1,0,0:0:0:0:
416,132,174504,1,0,0:0:0:0:
212,116,174681,1,0,0:0:0:0:
316,124,174857,6,0,P|332:188|456:216,1,191.250007295609,0|0,1:0|0:0,0:0:0:0:
416,132,175210,2,0,L|280:316,1,191.250007295609
302,285,175563,5,0,0:0:0:0:
92,208,175916,1,0,0:0:0:0:
76,284,176092,1,0,0:0:0:0:
104,352,176269,2,0,L|220:332,1,85,0|0,1:0|0:0,0:0:0:0:
228,136,176622,1,0,0:0:0:0:
152,148,176798,1,0,0:0:0:0:
92,208,176975,6,0,L|100:92,1,85
176,76,177328,6,0,P|232:56|304:112,1,127.500004863739
176,76,177681,1,0,1:0:0:0:
304,104,177857,1,0,0:0:0:0:
228,136,178034,1,0,0:0:0:0:
356,164,178210,1,0,0:0:0:0:
276,192,178387,5,0,0:0:0:0:
432,140,178563,1,0,0:0:0:0:
416,220,178740,1,0,1:0:0:0:
336,244,178916,1,0,0:0:0:0:
256,268,179092,6,0,L|204:284,1,42.5,8|0,0:0|0:0,0:0:0:0:
156,160,179357,2,0,L|115:147,1,42.5,8|0,0:0|0:0,0:0:0:0:
112,320,179622,2,0,L|71:332,1,42.5,8|0,0:0|0:0,0:0:0:0:
28,356,179798,6,0,B|72:368|100:356|100:356|140:348|156:360|156:360|184:368|196:356|196:356|232:356,1,170,4|0,0:0|0:0,0:0:0:0:
200,364,180504,1,0,0:0:0:0:
208,372,180857,2,0,L|208:332,1,21.25
93,95,181210,5,0,0:0:0:0:
131,77,181298,1,0,0:0:0:0:
173,79,181387,1,0,0:0:0:0:
210,98,181475,1,0,0:0:0:0:
233,133,181563,2,0,L|221:235,1,85
182,283,181828,6,0,L|190:343,1,42.5
353,201,182092,2,0,L|361:261,1,42.5
432,281,182269,2,0,L|437:323,2,42.5
491,58,182622,5,0,0:0:0:0:
448,55,182710,1,0,0:0:0:0:
405,52,182798,1,0,0:0:0:0:
362,49,182887,1,0,0:0:0:0:
319,46,182975,1,0,0:0:0:0:
248,145,183151,1,0,0:0:0:0:
11,75,183328,6,0,L|111:62,1,85
169,132,183592,1,0,0:0:0:0:
169,132,183681,2,0,L|156:210,1,42.5
204,289,183857,2,0,L|210:247,1,42.5
441,42,184034,5,0,0:0:0:0:
403,62,184122,1,0,0:0:0:0:
379,97,184210,1,0,0:0:0:0:
379,139,184298,1,0,0:0:0:0:
397,177,184387,1,0,0:0:0:0:
504,231,184563,1,0,0:0:0:0:
311,227,184740,2,0,L|318:324,1,85
385,349,185004,1,0,0:0:0:0:
385,349,185092,2,0,L|448:342,2,42.5
203,289,185445,6,0,B|145:268|145:268|53:302,1,127.5
51,305,185798,5,0,0:0:0:0:
46,262,185887,1,0,0:0:0:0:
41,219,185975,1,0,0:0:0:0:
36,176,186063,1,0,0:0:0:0:
69,149,186151,6,0,L|152:158,1,42.5
263,235,186328,6,0,L|305:230,1,42.5
474,79,186504,6,0,B|445:106|445:106|486:228,1,127.5
263,235,186857,5,0,0:0:0:0:
226,260,186945,1,0,0:0:0:0:
181,256,187034,1,0,0:0:0:0:
148,225,187122,1,0,0:0:0:0:
142,187,187210,2,0,L|151:102,1,85
200,291,187475,1,0,0:0:0:0:
200,291,187563,6,0,L|208:351,1,42.5
58,220,187740,2,0,L|64:178,1,42.5
232,44,187916,2,0,L|237:86,2,42.5
315,195,188269,5,0,0:0:0:0:
353,192,188357,1,0,0:0:0:0:
391,188,188445,1,0,0:0:0:0:
429,186,188534,1,0,0:0:0:0:
471,182,188622,1,0,0:0:0:0:
334,314,188798,1,0,0:0:0:0:
174,162,188975,6,0,L|161:62,1,85
117,24,189239,1,0,0:0:0:0:
117,24,189328,2,0,L|75:17,1,42.5
103,272,189504,2,0,L|109:230,1,42.5
57,146,189681,5,0,0:0:0:0:
46,182,189769,1,0,0:0:0:0:
36,218,189857,1,0,0:0:0:0:
28,255,189945,1,0,0:0:0:0:
17,292,190034,1,0,0:0:0:0:
136,364,190210,1,0,0:0:0:0:
271,283,190387,2,0,L|265:199,1,85
221,128,190651,1,0,0:0:0:0:
221,128,190739,2,0,L|158:121,2,42.5
295,66,191092,6,0,B|356:88|356:88|414:67,1,127.5
453,48,191445,5,0,0:0:0:0:
414,67,191534,1,0,0:0:0:0:
409,109,191622,1,0,0:0:0:0:
434,143,191710,1,0,0:0:0:0:
475,151,191798,6,0,L|484:234,1,42.5
382,349,191975,6,0,L|377:306,1,42.5
183,128,192151,6,0,P|253:142|292:107,1,127.5
310,70,192504,5,0,0:0:0:0:
74,84,192681,1,0,0:0:0:0:
74,84,192769,1,0,0:0:0:0:
74,84,192857,1,0,0:0:0:0:
21,283,193034,1,0,0:0:0:0:
21,283,193122,1,0,0:0:0:0:
21,283,193210,6,0,L|96:261,1,42.5
183,253,193387,2,0,L|108:231,1,42.5
232,172,193563,6,0,L|307:194,1,42.5
326,280,193740,2,0,L|285:268,1,42.5
360,167,193916,5,0,0:0:0:0:
299,37,194092,1,0,0:0:0:0:
299,37,194181,1,0,0:0:0:0:
299,37,194269,1,0,0:0:0:0:
482,119,194445,1,0,0:0:0:0:
482,119,194534,1,0,0:0:0:0:
482,119,194622,6,0,L|474:194,1,42.5
412,209,194798,2,0,L|420:284,1,42.5
211,222,194975,6,0,L|219:297,1,42.5
281,312,195151,2,0,L|273:387,1,42.5
150,308,195328,5,0,0:0:0:0:
101,109,195504,1,0,0:0:0:0:
101,109,195592,1,0,0:0:0:0:
101,109,195681,1,0,0:0:0:0:
286,149,195857,1,0,0:0:0:0:
286,149,195945,1,0,0:0:0:0:
286,149,196034,6,0,P|252:159|224:156,1,42.5
335,80,196210,2,0,P|360:104|372:130,1,42.5
291,310,196387,2,0,P|281:275|284:247,1,42.5
347,213,196563,2,0,P|357:247|354:275,1,42.5
273,335,196740,6,0,L|152:329,1,85
113,327,197004,1,0,0:0:0:0:
113,327,197092,1,0,0:0:0:0:
86,151,197269,5,0,0:0:0:0:
86,151,197357,1,0,0:0:0:0:
86,151,197445,6,0,L|69:91,1,42.5
226,211,197622,2,0,L|243:151,1,42.5
113,327,197798,2,0,L|101:286,1,42.5
246,346,197975,5,0,0:0:0:0:
246,346,198063,1,0,0:0:0:0:
246,346,198151,6,0,L|260:301,1,42.5,4|0,0:0|0:0,0:0:0:0:
386,276,198328,2,0,L|400:232,1,42.5
329,138,198504,6,0,L|344:93,1,42.5,8|0,0:0|0:0,0:0:0:0:
452,117,198681,2,0,L|466:73,1,42.5
209,169,198857,6,0,L|224:125,1,42.5
440,157,199034,2,0,L|455:113,1,42.5
274,60,199210,6,0,L|289:16,1,42.5,8|0,0:0|0:0,0:0:0:0:
397,40,199387,2,0,L|411:-4,1,42.5
191,231,199563,6,0,L|220:142,1,63.7500024318696
315,198,199739,2,0,L|343:110,1,63.7500024318696
126,180,199915,6,0,L|154:92,1,63.7500024318696,8|0,0:0|0:0,0:0:0:0:
422,219,200092,2,0,L|451:130,1,63.7500024318696
111,258,200269,6,0,L|139:169,1,63.7500024318696
350,297,200445,2,0,L|378:208,1,63.7500024318696
150,376,200622,6,0,L|179:287,1,63.7500024318696,8|0,0:0|0:0,0:0:0:0:
422,372,200798,2,0,L|450:283,1,63.7500024318696
252,320,200975,5,12,0:2:0:0:
300,308,201063,1,8,0:2:0:0:
348,296,201151,1,8,0:2:0:0:
304,272,201240,1,8,0:2:0:0:
256,252,201328,5,8,0:2:0:0:
312,236,201416,1,8,0:2:0:0:
368,224,201504,1,8,0:2:0:0:
312,204,201593,1,8,0:2:0:0:
260,180,201681,5,8,0:2:0:0:
320,164,201769,1,8,0:2:0:0:
384,152,201857,1,8,0:2:0:0:
324,132,201946,1,8,0:2:0:0:
264,108,202034,5,8,0:2:0:0:
332,92,202122,1,8,0:2:0:0:
400,76,202210,1,8,0:2:0:0:
332,60,202299,1,8,0:2:0:0:
264,40,202387,5,8,0:2:0:0:
124,96,202563,2,0,L|128:128,5,31.8750012159348
400,76,202916,6,0,L|392:108,1,31.8750012159348,8|0,0:2|0:2,0:2:0:0:
400,240,203092,6,0,L|408:192,1,31.8750012159348,8|0,0:2|0:2,0:2:0:0:
269,139,203269,6,0,L|261:91,1,31.8750012159348,8|0,0:2|0:2,0:2:0:0:
280,260,203445,6,0,L|274:291,1,31.8750012159348,8|0,0:2|0:2,0:2:0:0:
264,40,203798,6,0,L|188:24,1,63.7500024318696,6|0,0:0|0:0,0:0:0:0:
312,124,203975,2,0,L|374:137,1,63.7500024318696
144,168,204151,2,0,B|148:248|240:248|240:248|272:232,1,127.500004863739,8|0,0:0|0:0,0:0:0:0:
210,131,204416,1,0,0:0:0:0:
180,104,204504,2,0,P|136:96|88:124,1,63.7500024318696,2|0,0:0|0:0,0:0:0:0:
360,180,204681,2,0,P|384:152|388:104,1,63.7500024318696
76,172,204857,2,0,P|72:200|88:244,1,63.7500024318696,10|0,0:0|0:0,0:0:0:0:
336,280,205034,1,0,0:0:0:0:
336,280,205122,1,0,0:0:0:0:
336,280,205210,6,0,B|360:272|360:272|336:272|284:248,1,85,2|0,0:0|0:0,0:0:0:0:
100,180,205387,2,0,B|76:172|76:172|100:172|152:148,1,85
256,104,205563,2,0,B|248:64|220:44|220:44|272:28|272:28|328:32|328:32|384:32,1,170,8|0,0:0|0:0,0:0:0:0:
393,84,205828,1,0,0:0:0:0:
415,111,205916,2,0,P|415:159|399:187,1,63.7500024318696,2|0,0:0|0:0,0:0:0:0:
404,292,206092,2,0,P|380:333|352:349,1,63.7500024318696
276,240,206269,2,0,P|240:256|192:248,1,63.7500024318696,10|0,0:0|0:0,0:0:0:0:
168,364,206445,2,0,P|132:346|107:304,1,63.7500024318696
32,212,206622,5,2,0:0:0:0:
32,156,206710,1,0,0:0:0:0:
72,116,206798,1,0,0:0:0:0:
128,116,206887,1,0,0:0:0:0:
168,156,206975,2,0,B|128:160|72:144|72:144|92:172|84:200,1,127.500004863739,8|0,0:0|0:0,0:0:0:0:
196,228,207240,1,0,0:0:0:0:
240,168,207328,2,0,P|232:112|152:84,1,127.500004863739,2|0,0:0|0:0,0:0:0:0:
130,17,207592,1,0,0:0:0:0:
92,48,207681,2,0,P|64:48|24:40,1,63.7500024318696,10|0,0:0|0:0,0:0:0:0:
240,168,207857,2,0,P|268:168|308:176,1,63.7500024318696
388,160,208034,6,0,B|392:200|364:232|364:232|388:256|380:296,1,127.500004863739,4|0,0:0|0:0,0:0:0:0:
336,104,208298,1,0,0:0:0:0:
328,64,208387,2,0,P|344:28|376:8,1,63.7500024318696,2|0,0:0|0:0,0:0:0:0:
312,280,208563,2,0,P|276:292|244:288,1,63.7500024318696
409,73,208740,2,0,P|437:61|481:65,1,63.7500024318696,2|0,0:0|0:0,0:0:0:0:
272,224,208916,2,0,P|240:216|204:184,1,63.7500024318696
455,133,209092,2,0,P|483:165|431:149,1,127.500004863739,10|0,0:0|0:0,0:0:0:0:
155,161,209445,6,0,P|178:140|208:128,1,63.7500024318696,2|0,0:0|0:0,0:0:0:0:
366,324,209622,2,0,P|342:345|312:352,1,63.7500024318696
252,288,209798,2,0,P|312:276|320:176,1,127.500004863739,8|0,0:0|0:0,0:0:0:0:
182,265,210063,1,0,0:0:0:0:
176,300,210151,2,0,P|192:340|240:356,1,63.7500024318696,2|0,0:0|0:0,0:0:0:0:
456,296,210328,2,0,P|412:264|388:260,1,63.7500024318696
300,148,210504,2,0,P|272:160|240:192,1,63.7500024318696,10|0,0:0|0:0,0:0:0:0:
100,268,210681,2,0,P|100:324|120:364,1,63.7500024318696
252,292,210857,6,0,P|288:308|316:308,1,63.7500024318696,2|0,0:0|0:0,0:0:0:0:
403,261,211034,2,0,P|439:253|463:229,1,63.7500024318696
508,320,211210,2,0,L|496:188,1,127.500004863739,8|0,0:0|0:0,0:0:0:0:
372,25,211475,1,0,0:0:0:0:
376,64,211563,2,0,L|384:144,1,63.7500024318696,2|0,0:0|0:0,0:0:0:0:
452,84,211740,2,0,L|445:20,1,63.7500024318696
300,44,211916,2,0,L|306:107,1,63.7500024318696,10|0,0:0|0:0,0:0:0:0:
376,196,212092,2,0,B|396:204|424:188|424:188|408:220,1,63.7500024318696
232,352,212269,6,0,P|256:316|256:280,1,63.7500024318696,2|0,0:0|0:0,0:0:0:0:
116,188,212445,2,0,P|132:236|156:256,1,63.7500024318696
260,196,212622,2,0,P|236:140|132:140,1,127.500004863739,8|0,0:0|0:0,0:0:0:0:
44,188,212887,1,0,0:0:0:0:
44,188,212975,2,0,P|48:240|80:288,1,63.7500024318696,2|0,0:0|0:0,0:0:0:0:
324,212,213151,2,0,P|320:160|288:112,1,63.7500024318696
164,340,213328,2,0,P|216:336|264:304,1,63.7500024318696,10|0,0:0|0:0,0:0:0:0:
204,52,213504,2,0,P|152:56|104:88,1,63.7500024318696
316,149,213681,6,0,B|353:153|377:131|377:131|416:155|473:139,1,127.500004863739,12|0,0:0|0:0,0:0:0:0:
257,97,213945,1,0,0:0:0:0:
234,132,214034,2,0,P|234:172|254:208,1,63.7500024318696,10|0,0:0|0:0,0:0:0:0:
155,224,214210,2,0,P|175:258|210:279,1,63.7500024318696
488,207,214387,2,0,P|508:172|508:131,1,63.7500024318696,2|0,0:0|0:0,0:0:0:0:
436,145,214563,2,0,P|436:104|416:69,1,63.7500024318696,0|0,0:3|0:3,0:3:0:0:
274,0,214740,2,0,P|328:29|389:13,1,127.500004863739,10|0,0:0|0:0,0:0:0:0:
372,141,215092,6,0,L|448:145,1,63.7500024318696,2|0,0:0|0:0,0:0:0:0:
472,338,215269,2,0,L|396:334,1,63.7500024318696
294,302,215445,2,0,P|230:326|306:338,1,170,8|0,0:0|0:0,0:0:0:0:
347,243,215710,1,0,0:0:0:0:
304,224,215798,6,0,P|239:225|205:246,1,63.7500024318696,2|0,0:0|0:0,0:0:0:0:
360,375,215975,2,0,P|416:343|438:317,1,63.7500024318696
394,54,216151,1,10,0:0:0:0:
367,97,216240,1,0,0:0:0:0:
374,147,216328,2,0,P|390:177|437:206,1,63.7500024318696
512,268,216504,6,0,L|499:206,1,63.7500024318696,2|0,0:0|0:0,0:0:0:0:
235,40,216681,2,0,L|249:103,1,63.7500024318696
212,293,216857,2,0,L|340:265,1,127.500004863739,8|0,0:0|0:0,0:0:0:0:
455,101,217122,1,0,0:0:0:0:
455,101,217210,2,0,L|441:38,1,63.7500024318696,2|0,0:0|0:0,0:0:0:0:
248,102,217387,2,0,L|204:55,1,63.7500024318696,8|0,0:0|0:0,0:0:0:0:
115,158,217563,1,0,0:0:0:0:
78,172,217651,2,2,L|17:152,1,63.7500024318696,10|10,0:0|0:0,0:0:0:0:
40,40,217916,5,2,0:0:0:0:
172,216,218092,1,0,0:0:0:0:
80,176,218269,5,8,0:0:0:0:
232,32,218445,1,2,0:0:0:0:
252,216,218622,5,0,0:0:0:0:
260,236,218710,2,0,L|264:116,1,85,2|0,0:0|0:0,0:0:0:0:
332,208,218975,2,0,L|336:88,1,85,2|0,0:0|0:0,0:0:0:0:
400,240,219240,2,0,L|404:120,1,85,2|0,0:0|0:0,0:0:0:0:
472,216,219504,2,0,L|476:96,1,85,2|0,0:0|0:0,0:0:0:0:
420,84,219769,6,0,L|424:-36,1,85,2|0,0:0|0:0,0:0:0:0:
340,128,220034,2,0,L|344:0,1,127.500004863739,2|0,0:0|0:0,0:0:0:0:
264,200,220298,1,2,0:0:0:0:
264,164,220387,2,0,L|268:36,1,127.500004863739,0|2,0:0|0:0,0:0:0:0:
188,232,220651,1,0,0:0:0:0:
188,196,220740,6,0,L|192:80,1,85,6|0,0:0|0:0,0:0:0:0:
61,149,221004,1,0,0:0:0:0:
61,149,221092,2,0,L|56:249,1,85,8|0,0:0|0:0,0:0:0:0:
54,315,221357,1,0,0:0:0:0:
89,329,221445,5,2,0:0:0:0:
127,324,221534,1,0,0:0:0:0:
160,305,221622,1,0,0:0:0:0:
184,276,221710,1,0,0:0:0:0:
217,257,221798,1,10,0:0:0:0:
255,260,221887,1,0,0:0:0:0:
288,277,221975,1,0,0:0:0:0:
347,339,222151,6,0,B|397:356|439:329|439:329|418:269,1,127.5,2|0,0:0|0:0,0:0:0:0:
463,223,222504,2,0,P|403:219|359:255,1,85,8|0,0:0|0:0,0:0:0:0:
316,280,222769,1,0,0:0:0:0:
340,248,222857,1,2,0:0:0:0:
349,211,222945,1,0,0:0:0:0:
339,173,223034,1,0,0:0:0:0:
313,144,223122,1,0,0:0:0:0:
275,135,223210,5,10,0:0:0:0:
203,172,223298,2,0,L|212:273,1,85
216,342,223563,5,10,0:0:0:0:
178,338,223651,1,0,0:0:0:0:
139,334,223740,1,0,0:0:0:0:
100,330,223828,1,0,0:0:0:0:
74,301,223916,5,10,0:0:0:0:
112,297,224004,1,0,0:0:0:0:
151,293,224093,1,0,0:0:0:0:
190,289,224181,1,0,0:0:0:0:
210,256,224269,6,0,L|126:242,1,55.2499974708558
182,91,224445,6,0,L|98:77,1,55.2499974708558
402,313,224622,6,0,L|318:299,1,55.2499974708558
505,79,224798,6,0,L|421:65,1,55.2499974708558
292,365,224975,6,0,B|182:345,1,95.6250036478044,2|2,2:0|2:0,2:0:0:0:
197,347,225504,6,0,L|209:367,4,15.9375006079674
110,205,225857,1,0,0:0:0:0:
244,223,226034,2,0,L|256:239,1,15.9375006079674,4|0,0:0|0:0,0:0:0:0:
332,264,226387,6,0,P|384:272|364:364,1,165.749992412568,4|0,0:0|0:0,0:0:0:0:
272,212,226740,2,0,P|312:192|408:200,1,110.499994941712,8|0,0:0|0:0,0:0:0:0:
412,192,227004,1,0,0:0:0:0:
448,204,227092,1,10,0:2:0:0:
464,36,227269,2,0,L|456:104,1,55.2499974708558
340,200,227445,2,0,L|348:132,1,55.2499974708558,10|0,0:0|0:0,0:0:0:0:
264,8,227622,2,0,L|256:76,1,55.2499974708558,2|0,0:0|0:0,0:0:0:0:
200,224,227798,6,0,P|184:164|240:136,1,85,4|0,0:0|0:0,0:0:0:0:
272,212,227975,2,0,L|256:312,1,85
132,116,228151,6,0,P|180:80|264:136,1,127.500004863739,8|0,0:0|0:0,0:0:0:0:
192,296,228504,2,0,B|136:284|124:220|124:220|104:256|112:304,1,191.250007295609,12|0,0:2|0:0,0:0:0:0:
248,352,228857,2,0,P|268:300|260:260,1,63.7500024318696,10|0,0:0|0:0,0:0:0:0:
352,228,229034,2,0,P|352:184|320:136,1,63.7500024318696,2|0,0:0|0:0,0:0:0:0:
277,130,229210,6,0,P|341:90|422:168,1,191.250007295609,4|0,0:0|0:0,0:0:0:0:
360,311,229563,2,0,B|344:255|352:227|352:227|372:247|376:279,1,127.500004863739,8|0,0:0|0:0,0:0:0:0:
187,283,229916,6,0,B|56:252|56:252|125:313,1,191.250007295609,4|0,0:0|0:0,0:0:0:0:
267,317,230269,2,0,P|315:302|341:270,1,63.7500024318696,10|0,0:0|0:0,0:0:0:0:
420,154,230445,2,0,P|393:136|362:131,1,63.7500024318696,10|0,0:0|0:0,0:0:0:0:
186,183,230622,6,0,B|225:131|225:131|189:57,1,127.5
112,63,230975,2,0,L|43:75,1,42.5
184,207,231151,6,0,P|242:142|186:51,1,191.250007295609
110,34,231504,2,0,L|35:46,1,63.7500024318696
286,139,231681,2,0,B|426:117|426:117|360:171,1,191.250007295609,10|0,0:0|0:0,0:0:0:0:
111,252,232034,6,0,B|108:153|108:153|216:229,1,191.250007295609,4|0,0:0|0:0,0:0:0:0:
291,342,232387,2,0,P|223:330|191:270,1,127.500004863739,8|0,0:0|0:0,0:0:0:0:
183,206,232651,1,0,0:0:0:0:
243,148,232740,1,0,0:0:0:0:
470,255,232916,2,0,L|431:306,1,63.7500024318696
369,126,233092,2,0,L|407:75,1,63.7500024318696
196,71,233269,2,0,L|157:122,1,63.7500024318696
152,259,233445,6,0,P|120:255|160:239,1,85,4|0,0:0|0:0,0:0:0:0:
113,337,233622,2,0,P|65:317|45:265,1,85
152,259,233798,6,0,B|164:299|145:353|145:353|96:381|27:351,1,191.250007295609
258,187,234151,2,0,B|394:175|394:175|339:233,1,191.250007295609,8|0,0:0|0:0,0:0:0:0:
399,323,234504,2,0,B|263:335|263:335|300:295,1,191.250007295609,8|0,0:0|0:0,0:0:0:0:
486,292,234857,6,0,P|490:336|470:368,1,63.7500024318696,4|0,0:0|0:0,0:0:0:0:
84,240,235034,2,0,P|128:244|160:224,1,63.7500024318696,4|0,0:0|0:0,0:0:0:0:
200,288,235210,2,0,P|225:251|224:214,1,63.7500024318696,8|0,0:0|0:0,0:0:0:0:
300,264,235387,2,0,P|304:220|284:188,1,63.7500024318696
344,144,235563,6,0,B|308:104|264:104|264:104|316:96,1,127.500004863739,2|0,0:0|0:0,0:0:0:0:
196,88,235828,6,2,B|184:120|208:152|208:152|168:136|104:156,1,144.500002756119
208,152,236092,6,0,P|220:196|216:236,1,85,2|0,0:0|0:0,0:0:0:0:
172,316,236269,1,4,0:0:0:0:
264,324,236445,1,0,0:0:0:0:
168,324,236622,1,8,0:0:0:0:
268,316,236798,1,0,0:0:0:0:
164,332,236975,6,0,B|100:336|44:352|44:352|76:336|128:292,1,191.250007295609,8|0,0:0|0:0,0:0:0:0:
328,256,237328,6,0,B|376:260|440:240|440:240|400:272|368:284,1,191.250007295609,8|0,0:0|0:0,0:0:0:0:
261,322,237681,6,0,P|230:254|301:148,1,191.250007295609
393,177,238034,2,0,P|324:189|268:125,1,127.500004863739
267,81,238298,1,0,0:0:0:0:
309,21,238387,1,0,0:0:0:0:
468,214,238563,2,0,P|448:239|422:257,1,63.7500024318696
267,81,238740,2,0,P|219:62|180:66,1,63.7500024318696,10|0,0:0|0:0,0:0:0:0:
84,344,238916,2,0,P|52:339|24:324,1,63.7500024318696,10|0,0:0|0:0,0:0:0:0:
0,187,239092,5,4,0:0:0:0:
193,361,239269,1,0,0:0:0:0:
267,81,239445,1,8,0:0:0:0:
410,358,239622,1,0,0:0:0:0:
479,142,239798,2,0,B|519:98|515:30|515:30|479:66|491:94,1,191.250007295609,4|0,0:0|0:0,0:0:0:0:
455,262,240151,2,0,P|467:322|503:350,1,63.7500024318696,2|0,0:0|0:0,0:0:0:0:
356,143,240328,2,0,P|368:113|368:82,1,63.7500024318696,2|0,0:0|0:0,0:0:0:0:
139,106,240504,6,0,B|267:72|267:72|203:136,1,191.250007295609,4|0,0:0|0:0,0:0:0:0:
172,303,240857,2,0,P|124:327|128:231,1,191.250007295609,8|0,0:0|0:0,0:0:0:0:
320,263,241210,6,0,B|391:255|391:255|322:378,1,191.250007295609
245,276,241563,2,0,P|249:230|278:195,1,63.7500024318696
329,87,241740,1,0,0:0:0:0:
329,87,241916,6,0,B|272:69|215:93|215:93|199:51|126:16,1,191.250007295609
27,80,242269,1,8,0:0:0:0:
120,255,242445,2,0,P|135:220|123:165,1,63.7500024318696
27,80,242622,6,0,B|67:112|143:116|143:116|94:117|59:152,1,191.250007295609,2|2,0:0|0:0,0:0:0:0:
134,194,242975,2,0,P|130:266|179:309,1,127.500004863739,8|0,0:0|0:0,0:0:0:0:
283,75,243328,5,4,0:0:0:0:
165,303,243504,1,0,0:0:0:0:
165,303,243592,1,0,0:0:0:0:
165,303,243681,1,4,0:0:0:0:
413,286,243857,1,0,0:0:0:0:
413,286,243945,1,0,0:0:0:0:
413,286,244034,5,0,0:0:0:0:
413,286,244122,1,0,0:0:0:0:
413,286,244210,1,0,0:0:0:0:
299,189,244387,1,8,0:0:0:0:
355,372,244563,1,0,0:0:0:0:
430,363,244651,1,0,0:0:0:0:
506,353,244740,5,4,0:0:0:0:
424,95,244916,1,4,0:0:0:0:
348,105,245005,1,0,0:0:0:0:
273,114,245093,1,0,0:0:0:0:
78,230,245269,1,0,0:0:0:0:
78,230,245357,1,0,0:0:0:0:
90,305,245445,6,0,L|79:369,2,63.7500024318696
214,215,245798,1,8,0:0:0:0:
180,52,245975,1,0,0:0:0:0:
216,36,246063,1,0,0:0:0:0:
252,24,246151,5,4,0:0:0:0:
288,36,246240,1,0,0:0:0:0:
320,56,246328,1,0,0:0:0:0:
352,76,246416,1,0,0:0:0:0:
384,96,246504,1,4,0:0:0:0:
416,112,246592,1,0,0:0:0:0:
456,116,246681,5,4,0:0:0:0:
448,152,246769,1,0,0:0:0:0:
440,188,246857,1,0,0:0:0:0:
432,224,246945,1,4,0:0:0:0:
420,260,247034,1,0,0:0:0:0:
408,296,247122,1,0,0:0:0:0:
432,328,247210,5,4,0:0:0:0:
396,340,247298,1,0,0:0:0:0:
360,352,247387,1,0,0:0:0:0:
324,360,247475,1,0,0:0:0:0:
300,328,247563,6,0,L|184:312,2,95.6250036478044,2|2|2,2:0|2:0|2:0,2:0:0:0:
184,248,248269,2,0,L|160:244,8,15.9375006079674,0|0|0|0|0|0|0|0|0,2:0|2:0|2:0|2:0|2:0|2:0|2:0|2:0|2:0,2:0:0:0:
300,208,248975,5,4,2:0:0:0:
368,160,249151,1,0,0:0:0:0:
396,80,249328,1,8,0:0:0:0:
364,0,249504,1,0,0:0:0:0:
376,172,249681,1,0,0:0:0:0:
480,44,249857,1,0,0:0:0:0:
308,112,250034,2,0,L|218:122,1,63.7500024318696,8|0,0:0|0:0,0:0:0:0:
212,272,250387,5,0,0:0:0:0:
136,224,250563,1,0,0:0:0:0:
56,264,250740,1,8,0:0:0:0:
52,352,250916,1,0,0:0:0:0:
212,272,251092,1,0,0:0:0:0:
216,356,251269,1,0,0:0:0:0:
247,350,251357,1,0,0:0:0:0:
278,345,251445,1,8,0:0:0:0:
333,288,251622,1,0,0:0:0:0:
140,312,251798,6,0,L|128:228,1,63.7500024318696
292,148,252151,2,0,L|304:64,1,63.7500024318696,8|0,0:0|0:0,0:0:0:0:
212,188,252504,1,0,0:0:0:0:
368,192,252681,1,0,0:0:0:0:
301,84,252857,1,8,0:0:0:0:
283,295,253034,1,0,0:0:0:0:
368,192,253210,5,0,0:0:0:0:
193,92,253387,2,0,L|161:92,1,31.8750012159348
412,114,253563,2,0,L|443:114,1,31.8750012159348
150,178,253740,2,0,L|118:178,1,31.8750012159348
442,223,253916,1,8,0:0:0:0:
442,223,254092,1,0,0:0:0:0:
442,223,254181,1,0,0:0:0:0:
442,223,254269,2,0,B|474:314|474:314|435:388,1,127.500004863739
320,288,254622,5,0,0:0:0:0:
236,349,254798,1,0,0:0:0:0:
182,92,254975,1,8,0:0:0:0:
97,158,255151,1,0,0:0:0:0:
43,16,255328,1,0,0:0:0:0:
15,230,255504,2,0,L|28:272,1,42.5
9,366,255681,1,8,0:0:0:0:
262,170,255857,1,0,0:0:0:0:
183,229,256034,6,0,L|219:311,1,63.7500024318696
323,324,256387,1,8,0:0:0:0:
418,293,256563,1,0,0:0:0:0:
347,102,256740,1,0,0:0:0:0:
438,75,256916,1,0,0:0:0:0:
438,75,257004,1,0,0:0:0:0:
438,75,257092,1,0,0:0:0:0:
492,170,257269,1,0,0:0:0:0:
254,43,257445,5,0,0:0:0:0:
200,212,257622,1,0,0:0:0:0:
321,149,257798,1,0,0:0:0:0:
171,68,257975,1,0,0:0:0:0:
362,274,258151,1,0,0:0:0:0:
94,148,258328,1,0,0:0:0:0:
150,274,258504,1,0,0:0:0:0:
12,111,258681,1,0,0:0:0:0:
18,210,258857,6,0,L|14:290,1,63.7500024318696
18,359,259210,1,8,0:0:0:0:
216,112,259387,1,0,0:0:0:0:
128,104,259563,6,0,P|104:72|100:16,1,85
104,8,259828,1,0,0:0:0:0:
168,188,259916,6,0,P|152:224|105:256,1,85,8|0,0:0|0:0,0:0:0:0:
88,256,260181,1,0,0:0:0:0:
216,112,260269,6,0,P|255:107|306:131,1,85,4|0,0:0|0:0,0:0:0:0:
316,312,260622,2,0,L|432:308,1,85,8|0,0:0|0:0,0:0:0:0:
424,308,260887,1,0,0:0:0:0:
392,224,260975,2,0,L|307:226,1,85
476,240,261240,1,0,0:0:0:0:
476,240,261328,2,0,P|472:188|428:144,1,85,8|0,0:0|0:0,0:0:0:0:
384,56,261681,6,0,P|320:64|272:48,1,85
272,44,261945,1,0,0:0:0:0:
160,180,262034,2,0,L|272:192,1,85,8|0,0:0|0:0,0:0:0:0:
328,200,262387,1,0,0:0:0:0:
288,320,262563,1,0,0:0:0:0:
256,300,262651,1,0,0:0:0:0:
220,288,262740,2,0,P|144:280|64:304,1,127.5,8|0,0:0|0:0,0:0:0:0:
32,248,263092,5,0,0:0:0:0:
32,328,263269,1,0,0:0:0:0:
48,236,263445,1,8,0:0:0:0:
40,344,263622,1,0,0:0:0:0:
64,224,263798,2,0,L|76:136,1,85
140,364,264151,2,0,L|152:276,1,85,8|0,0:0|0:0,0:0:0:0:
268,168,264504,6,0,L|280:80,1,85
288,52,264769,1,0,0:0:0:0:
392,76,264857,2,0,P|412:124|468:148,1,85,8|0,0:0|0:0,0:0:0:0:
468,148,265122,1,0,0:0:0:0:
504,148,265210,1,8,0:0:0:0:
380,208,265387,1,0,0:0:0:0:
380,248,265475,1,0,0:0:0:0:
368,284,265563,2,0,P|320:332|220:340,1,127.500004863739,8|0,0:0|0:0,0:0:0:0:
88,344,265916,5,4,0:0:0:0:
96,240,266092,2,0,L|104:144,1,63.7500024318696
112,80,266269,1,4,0:0:0:0:
240,56,266445,6,0,L|245:119,1,63.7500024318696
236,144,266622,2,0,L|241:207,1,63.7500024318696
228,220,266798,2,0,L|233:283,1,63.7500024318696
268,356,266975,1,8,0:0:0:0:
384,272,267151,2,0,L|392:176,1,63.7500024318696
400,112,267328,5,4,0:0:0:0:
316,100,267504,2,0,L|240:104,1,63.7500024318696
168,104,267681,1,4,0:0:0:0:
228,220,267857,6,0,L|152:224,1,63.7500024318696
140,236,268034,2,0,L|64:240,1,63.7500024318696
76,260,268210,2,0,L|0:264,1,63.7500024318696
12,263,268387,1,8,0:0:0:0:
56,356,268563,2,0,L|132:360,1,63.7500024318696
240,312,268740,6,0,L|316:316,1,63.7500024318696,4|0,0:0|0:0,0:0:0:0:
392,272,268916,1,0,0:0:0:0:
428,264,269004,1,0,0:0:0:0:
464,272,269092,5,4,0:0:0:0:
492,300,269181,1,0,0:0:0:0:
496,336,269269,1,0,0:0:0:0:
476,368,269357,1,0,0:0:0:0:
440,384,269445,5,0,0:0:0:0:
432,332,269534,1,0,0:0:0:0:
424,280,269622,1,0,0:0:0:0:
416,228,269710,1,0,0:0:0:0:
444,208,269798,5,0,0:0:0:0:
412,164,269887,1,0,0:0:0:0:
376,132,269975,1,0,0:0:0:0:
340,96,270063,1,0,0:0:0:0:
340,52,270151,6,0,B|280:56|240:40|240:40|232:64|200:88|200:88|204:116|260:128|292:128|292:128|252:168,1,297.5
192,184,270857,6,0,B|164:184|128:132|128:132|120:160|128:176,1,127.5
140,200,271210,6,0,L|140:168,1,21.25
56,112,271563,6,0,B|56:168|28:224|28:224|80:224|144:268|144:268|116:328|116:328|111:329|72:296|20:284|15:295|15:295|8:324|40:334|100:328|144:228,1,595
256,192,272887,12,0,278622,0:0:0:0:
