osu file format v14

[General]
AudioFilename: 192.mp3
AudioLeadIn: 0
PreviewTime: 120515
Countdown: 0
SampleSet: Normal
StackLeniency: 0.7
Mode: 0
LetterboxInBreaks: 1
WidescreenStoryboard: 1

[Editor]
Bookmarks: 37523,61227,84931,96783,120486,144190,170857,182709,194560,206412,230116,241968,256783,280486,305678
DistanceSpacing: 0.6
BeatDivisor: 1
GridSize: 4
TimelineZoom: 2.1

[Metadata]
Title:Playing With Fire (Sota Fujimori Remix)
TitleUnicode:Playing With Fire (Sota Fujimori Remix)
Artist:kors k
ArtistUnicode:kors k
Creator:xlni
Version:Pyrotechnics
Source:REFLEC BEAT groovin'!!
Tags:lets let's do it now rlc
BeatmapID:478605
BeatmapSetID:202252

[Difficulty]
HPDrainRate:8
CircleSize:4
OverallDifficulty:7.8
ApproachRate:9.2
SliderMultiplier:1.9
SliderTickRate:1

[Events]
//Background and Video events
0,0,"116358.jpg",0,0
//Break Periods
//Storyboard Layer 0 (Background)
//Storyboard Layer 1 (Fail)
//Storyboard Layer 2 (Pass)
//Storyboard Layer 3 (Foreground)
//Storyboard Sound Samples

[TimingPoints]
25701,370.37037037037,4,2,1,60,1,0
25701,-100,4,2,1,60,0,0
36812,-100,4,3,1,60,0,0
37552,-100,4,1,1,60,0,0
38571,-80,4,1,1,60,0,0
39960,-100,4,2,1,60,0,0
40515,-80,4,1,1,60,0,0
42738,-100,4,1,1,60,0,0
42923,-100,4,2,1,60,0,0
43293,-100,4,1,1,60,0,0
43478,-80,4,1,1,60,0,0
45701,-100,4,1,1,60,0,0
47182,-80,4,1,1,60,0,0
47738,-66.6666666666667,4,1,1,60,0,0
47923,-100,4,2,1,60,0,0
48478,-100,4,1,1,60,0,0
48756,-100,4,2,1,60,0,0
49404,-100,4,1,1,60,0,0
54682,-100,4,2,1,60,0,0
55145,-100,4,1,1,60,0,0
55330,-80,4,1,1,60,0,0
56071,-100,4,1,1,60,0,0
56441,-66.6666666666667,4,1,1,60,0,0
56812,-100,4,1,1,60,0,0
58571,-58.8235294117647,4,1,1,60,0,0
58849,-66.6666666666667,4,1,1,60,0,0
59034,-100,4,1,1,60,0,0
59775,-100,4,2,1,60,0,0
60330,-100,4,1,1,60,0,0
60700,-66.6666666666667,4,1,1,60,0,0
61534,-86.9565217391304,4,1,1,60,0,0
70145,-100,4,1,1,60,0,0
71719,-100,4,2,1,60,0,0
72367,-100,4,1,1,60,0,0
73108,-66.6666666666667,4,1,1,60,0,0
73386,-86.9565217391304,4,1,1,60,0,0
79960,-66.6666666666667,4,1,1,60,0,0
80515,-86.9565217391304,4,1,1,60,0,0
81441,-66.6666666666667,4,1,1,60,0,0
81997,-100,4,1,1,60,0,0
83571,-100,4,2,1,60,0,0
84126,-100,4,1,1,60,0,0
84960,-200,4,1,1,60,0,0
85515,-200,4,2,1,60,0,0
95330,-100,4,3,1,60,0,0
95700,-133.333333333333,4,3,1,60,0,0
95978,-100,4,3,1,60,0,0
96812,-133.333333333333,4,3,1,45,0,0
108663,-117.647058823529,4,2,1,60,0,0
114589,-117.647058823529,4,1,1,60,0,0
119034,-100,4,1,1,60,0,0
120515,-66.6666666666667,4,1,1,60,0,1
123293,-100,4,1,1,60,0,1
124775,-66.6666666666667,4,1,1,60,0,1
125145,-100,4,1,1,60,0,1
126441,-66.6666666666667,4,1,1,60,0,1
129404,-100,4,1,1,60,0,1
130700,-57.1428571428571,4,1,1,60,0,1
131071,-100,4,1,1,60,0,1
131997,-66.6666666666667,4,1,1,60,0,1
135330,-100,4,1,1,60,0,1
138293,-66.6666666666667,4,1,1,60,0,1
140700,-57.1428571428571,4,1,1,60,0,1
141256,-100,4,1,1,60,0,1
143293,-66.6666666666667,4,1,1,60,0,1
144034,-100,4,1,1,60,0,1
144219,-100,4,1,1,60,0,0
154497,-66.6666666666667,4,1,1,60,0,0
154867,-100,4,1,1,60,0,0
155700,-66.6666666666667,4,1,1,60,0,0
156071,-100,4,1,1,60,0,0
167182,-66.6666666666667,4,1,1,60,0,0
169219,-66.6666666666667,4,1,1,5,0,0
169404,-100,4,3,1,60,0,0
169775,-133.333333333333,4,3,1,60,0,0
170052,-100,4,3,1,60,0,0
170886,-120.481927710843,4,1,1,60,0,0
179775,-100,4,2,1,60,0,0
180052,-66.6666666666667,4,1,1,60,0,0
180330,-100,4,1,1,60,0,0
182182,-66.6666666666667,4,1,1,60,0,0
183108,-200,4,2,1,40,0,0
194589,-400,4,2,1,60,0,0
196812,-200,4,2,1,60,0,0
197552,-400,4,2,1,60,0,0
202552,-200,4,2,1,60,0,0
203849,-400,4,2,1,60,0,0
204960,-100,4,3,1,60,0,0
206441,-100,4,2,1,60,0,0
210700,-200,4,2,1,60,0,0
212367,-100,4,2,1,60,0,0
222552,-200,4,2,1,60,0,0
223293,-133.333333333333,4,2,1,60,0,0
223849,-100,4,2,1,60,0,0
230145,-133.333333333333,4,1,1,60,0,0
241163,-100,4,2,1,60,0,0
241441,-133.333333333333,4,2,1,60,0,0
241997,-100,4,1,1,60,0,0
244960,-86.9565217391304,4,1,1,60,0,0
247923,-100,4,1,1,60,0,0
249034,-76.9230769230769,4,1,1,60,0,0
250886,-100,4,2,1,60,0,0
253849,-100,4,1,1,60,0,0
256812,-66.6666666666667,4,1,1,60,0,1
259775,-100,4,1,1,60,0,1
261071,-66.6666666666667,4,1,1,60,0,1
261441,-100,4,1,1,60,0,1
262738,-66.6666666666667,4,1,1,60,0,1
265700,-100,4,1,1,60,0,1
266997,-66.6666666666667,4,1,1,60,0,1
267367,-100,4,1,1,60,0,1
268293,-66.6666666666667,4,1,1,60,0,1
268663,-66.6666666666667,4,1,1,60,0,1
271812,-100,4,1,1,60,0,1
274589,-66.6666666666667,4,1,1,60,0,1
277552,-100,4,1,1,60,0,1
279404,-57.1428571428571,4,1,1,60,0,1
279960,-83.3333333333333,4,1,1,60,0,1
280515,-100,4,1,1,60,0,0
290700,-133.333333333333,4,1,1,60,0,0
291441,-100,4,2,1,60,0,0
291812,-133.333333333333,4,2,1,60,0,0
292367,-100,4,1,1,60,0,0
303478,-66.6666666666667,4,2,1,60,0,0
304219,-100,4,3,1,60,0,0
304589,-133.333333333333,4,3,1,60,0,0
304960,-100,4,3,1,60,0,0
305700,-120.481927710843,4,1,1,60,0,0
306812,-80,4,1,1,60,0,0
307182,-120.481927710843,4,1,1,60,0,0
309775,-80,4,1,1,60,0,0
310145,-120.481927710843,4,1,1,60,0,0
312738,-80,4,1,1,60,0,0
313108,-120.481927710843,4,1,1,60,0,0
314589,-100,4,2,1,60,0,0
314867,-66.6666666666667,4,1,1,60,0,0
315145,-100,4,1,1,60,0,0
316071,-100,4,1,1,60,0,0
316812,-100,4,1,1,60,0,0
316997,-66.6666666666667,4,1,1,60,0,0
317923,-66.6666666666667,4,1,1,40,0,0
321256,-66.6666666666667,4,1,1,30,0,0
321626,-66.6666666666667,4,1,1,20,0,0
321997,-66.6666666666667,4,1,1,10,0,0
322367,-66.6666666666667,4,1,1,5,0,0

[Colours]
Combo1 : 176,98,255
Combo2 : 255,192,130
Combo3 : 255,128,192
Combo4 : 255,113,113

[HitObjects]
256,192,21626,12,0,25515,2:0:0:0:
224,207,25701,22,0,B|232:247|232:247|218:305|218:305|228:350,1,142.5,4|2,1:0|0:2,0:0:0:0:
227,346,26071,1,0,0:0:0:0:
62,368,26256,2,0,L|120:360,1,47.5,2|0,0:1|0:0,0:0:0:0:
77,229,26534,2,0,L|132:224,1,47.5,2|0,0:1|0:0,0:0:0:0:
88,91,26812,2,0,L|143:86,1,47.5,2|0,0:1|0:0,0:0:0:0:
227,155,26997,2,0,L|159:163,1,47.5,2|0,0:2|0:0,0:0:0:0:
278,80,27182,21,0,0:0:0:0:
278,80,27275,1,2,0:2:0:0:
404,279,27460,1,2,0:2:0:0:
404,279,27552,1,0,0:0:0:0:
452,69,27738,2,0,P|393:90|354:96,1,95,2|0,0:1|0:0,0:0:0:0:
247,155,28015,1,0,0:0:0:0:
247,155,28108,2,0,P|297:161|309:160,1,47.5,2|0,0:1|0:0,0:0:0:0:
434,174,28293,2,0,P|399:187|372:190,1,47.5
266,258,28478,2,0,P|304:256|325:247,1,47.5,2|0,0:2|0:0,0:0:0:0:
404,279,28663,22,0,L|397:378,1,95,0|2,0:0|0:2,0:0:0:0:
397,373,28941,1,2,0:2:0:0:
132,300,29219,2,0,L|137:249,1,47.5,2|0,0:1|0:0,0:0:0:0:
329,237,29497,2,0,L|334:186,1,47.5,2|0,0:1|0:0,0:0:0:0:
99,140,29775,2,0,L|104:89,1,47.5,2|0,0:1|0:0,0:0:0:0:
191,39,29960,2,0,L|184:102,1,47.5,2|0,0:2|0:0,0:0:0:0:
15,124,30145,21,0,0:0:0:0:
15,124,30238,1,2,0:2:0:0:
102,350,30423,1,2,0:2:0:0:
102,350,30515,1,0,0:0:0:0:
280,142,30701,2,0,P|225:147|182:164,1,95,2|0,0:1|0:0,0:0:0:0:
38,211,30978,2,0,P|92:222|141:218,1,95,2|0,0:1|0:0,0:0:0:0:
253,281,31256,2,0,P|222:272|188:268,1,47.5,2|0,0:1|0:0,0:0:0:0:
102,350,31441,2,0,P|144:339|160:332,1,47.5,2|0,0:2|0:0,0:0:0:0:
404,206,31626,22,0,L|392:359,1,142.5,0|2,1:0|0:2,0:0:0:0:
392,348,31997,2,0,L|467:353,1,47.5,0|0,1:0|0:0,0:0:0:0:
404,206,32182,2,0,L|328:200,1,47.5,2|0,1:1|0:0,0:0:0:0:
158,273,32367,2,2,L|252:280,1,95,0|0,1:0|1:0,1:0:0:0:
328,290,32645,1,0,0:0:0:0:
328,290,32738,1,2,1:1:0:0:
81,264,32923,1,2,0:2:0:0:
181,78,33108,21,0,1:0:0:0:
181,78,33201,2,0,B|198:125|198:125|185:171,1,95,2|2,0:2|0:2,0:0:0:0:
115,128,33478,1,0,1:0:0:0:
261,205,33663,22,0,L|381:193,1,95,2|0,0:1|1:0,0:0:0:0:
480,172,33941,1,0,0:0:0:0:
480,172,34034,2,0,L|501:243,1,47.5,2|0,0:1|0:0,0:0:0:0:
421,252,34219,2,0,L|427:313,1,47.5,0|0,1:0|0:0,0:0:0:0:
345,307,34404,2,0,L|331:363,1,47.5,2|0,1:2|1:0,0:0:0:0:
350,208,34589,6,0,L|340:104,1,95,0|2,1:0|1:2,0:0:0:0:
328,98,34867,6,0,L|392:103,1,47.5,2|0,0:2|1:0,0:0:0:0:
191,290,35145,6,0,L|80:302,1,95,2|0,0:2|1:0,0:0:0:0:
73,225,35423,6,0,L|81:333,1,95,2|0,0:2|0:0,0:0:0:0:
263,377,35701,6,0,L|270:314,1,47.5,2|0,1:2|1:0,0:0:0:0:
151,165,35886,2,0,L|154:225,1,47.5,2|0,1:2|1:0,0:0:0:0:
358,327,36071,6,0,B|260:282|279:373|172:335,1,190,4|0,1:0|0:0,0:0:0:0:
53,342,36626,1,0,0:0:0:0:
53,342,36719,1,0,0:0:0:0:
53,342,36812,2,0,L|109:342,1,47.5,2|2,0:2|0:2,0:0:0:0:
259,260,36997,2,0,L|212:260,1,47.5,2|0,0:1|0:0,0:0:0:0:
64,162,37182,2,0,L|120:162,1,47.5,2|2,0:2|0:2,0:0:0:0:
249,69,37367,2,0,L|193:69,1,47.5,2|0,0:1|0:0,0:0:0:0:
131,86,37552,21,6,0:0:0:0:
148,208,37738,1,0,0:0:0:0:
249,69,37923,1,2,0:0:0:0:
264,192,38109,1,0,0:0:0:0:
29,165,38293,22,0,P|61:168|92:156,1,47.5
202,73,38478,1,2,0:0:0:0:
196,144,38571,2,0,L|188:264,1,118.75,2|0,0:0|0:0,0:0:0:0:
271,368,38849,2,0,P|273:339|265:310,1,59.375,2|0,0:0|0:0,0:0:0:0:
179,352,39034,21,2,0:0:0:0:
348,260,39219,1,0,0:0:0:0:
196,144,39404,1,2,0:0:0:0:
348,260,39589,1,0,0:0:0:0:
100,288,39775,21,2,0:0:0:0:
100,288,39960,2,0,L|94:340,2,47.5,2|2|0,0:2|0:2|1:0,0:0:0:0:
114,175,40238,1,2,0:2:0:0:
117,150,40330,1,2,0:2:0:0:
463,70,40515,21,2,0:0:0:0:
325,115,40701,1,0,0:0:0:0:
491,330,40886,1,2,0:0:0:0:
309,293,41072,1,0,0:0:0:0:
463,70,41256,22,0,L|471:137,1,59.375
481,227,41441,1,2,0:0:0:0:
414,253,41534,2,0,B|387:221|387:221|397:128,1,118.75,2|0,0:0|0:0,0:0:0:0:
311,192,41812,2,0,L|252:185,1,59.375,2|0,0:0|0:0,0:0:0:0:
481,227,41997,21,2,0:0:0:0:
463,105,42182,1,0,0:0:0:0:
311,192,42367,1,2,0:0:0:0:
463,105,42552,1,0,0:0:0:0:
264,48,42738,21,2,0:0:0:0:
378,67,42923,1,2,0:2:0:0:
362,81,43015,2,0,B|314:89|314:89|266:65,1,95,2|2,0:2|0:2,0:0:0:0:
181,69,43293,2,2,L|179:28,2,23.75,0|0|2,0:0|0:0|0:0,0:0:0:0:
185,103,43478,22,0,L|195:235,1,118.75,6|0,0:0|0:0,0:0:0:0:
53,354,43849,1,2,0:0:0:0:
66,192,44034,1,0,0:0:0:0:
53,354,44219,22,0,L|57:292,1,59.375,0|0,0:0|0:0,0:0:0:0:
27,131,44404,1,2,0:0:0:0:
66,192,44497,2,0,P|126:192|184:150,1,118.75,2|0,0:0|0:0,0:0:0:0:
250,131,44775,2,0,L|259:203,1,59.375,2|0,0:0|0:0,0:0:0:0:
115,97,44960,21,2,0:0:0:0:
151,248,45145,1,0,0:0:0:0:
53,354,45330,1,2,0:0:0:0:
151,248,45515,1,0,0:0:0:0:
291,294,45701,2,0,L|287:347,1,47.5,2|0,0:0|0:0,0:0:0:0:
426,230,45886,22,2,L|316:224,1,95,0|2,0:0|0:0,0:0:0:0:
432,158,46163,2,2,L|322:152,1,95,0|2,0:0|0:0,0:0:0:0:
441,85,46441,2,0,L|331:79,1,95,2|0,0:0|0:0,0:0:0:0:
224,65,46719,21,4,0:0:0:0:
224,65,46997,1,2,2:0:0:0:
222,83,47089,1,2,2:0:0:0:
219,101,47182,22,0,L|152:112,1,59.375,2|0,0:0|0:0,0:0:0:0:
82,123,47367,1,0,0:0:0:0:
163,138,47460,2,0,L|295:145,1,118.75,2|0,0:0|0:0,0:0:0:0:
366,114,47738,2,0,P|372:159|355:197,1,71.2500027179719,2|0,0:0|0:0,0:0:0:0:
244,331,47923,21,2,1:2:0:0:
244,331,48015,2,0,L|254:264,1,47.5,2|0,0:2|0:0,0:0:0:0:
163,299,48201,1,2,0:2:0:0:
163,299,48293,2,0,L|173:235,1,47.5
83,274,48478,2,0,L|88:239,2,23.75,2|0|0,0:2|0:0|0:0,0:0:0:0:
35,339,48663,21,0,1:0:0:0:
43,360,48756,2,0,B|89:375|89:375|139:353,1,95,2|0,0:2|0:0,0:0:0:0:
250,212,49034,2,0,L|307:220,1,47.5,2|0,0:2|0:0,0:0:0:0:
95,177,49219,2,0,L|38:169,1,47.5,2|2,0:2|0:2,0:0:0:0:
203,37,49404,21,6,0:0:0:0:
188,132,49589,1,0,0:0:0:0:
316,71,49775,2,0,L|418:64,1,95,10|0,0:0|0:0,0:0:0:0:
340,212,50145,1,0,0:0:0:0:
340,212,50238,1,0,0:0:0:0:
340,212,50330,2,0,L|340:148,1,47.5,2|2,0:0|0:0,0:0:0:0:
188,132,50515,2,0,L|68:123,1,95,8|2,0:0|0:0,0:0:0:0:
40,190,50793,1,0,0:0:0:0:
40,190,50886,21,2,0:0:0:0:
59,304,51071,1,0,0:0:0:0:
173,280,51256,1,10,0:0:0:0:
199,48,51441,21,0,0:0:0:0:
313,24,51626,1,2,0:0:0:0:
334,136,51812,1,0,0:0:0:0:
334,136,51904,1,0,0:0:0:0:
334,136,51997,2,0,L|323:293,1,142.5,8|0,0:0|0:0,0:0:0:0:
318,359,52367,21,2,0:0:0:0:
173,280,52552,1,0,0:0:0:0:
318,359,52738,2,0,P|366:353|405:308,1,95,10|0,0:0|0:0,0:0:0:0:
454,169,53108,1,0,0:0:0:0:
454,169,53200,1,0,0:0:0:0:
454,169,53293,2,0,L|464:226,1,47.5,2|2,0:0|0:0,0:0:0:0:
318,359,53478,2,0,P|270:353|231:308,1,95,8|2,0:0|0:0,0:0:0:0:
204,248,53756,1,0,0:0:0:0:
204,248,53849,21,2,0:0:0:0:
128,166,54034,1,0,0:0:0:0:
79,269,54219,1,10,0:0:0:0:
53,85,54404,21,0,0:0:0:0:
128,166,54589,1,2,0:0:0:0:
178,63,54774,1,2,0:2:0:0:
178,63,54867,1,2,0:2:0:0:
178,63,54960,2,0,L|239:59,1,47.5,8|2,1:0|0:2,0:0:0:0:
339,67,55145,2,2,L|343:36,2,23.75,0|0|0,1:0|0:0|0:0,0:0:0:0:
336,96,55330,22,0,L|325:216,1,118.75,6|0,0:0|0:0,0:0:0:0:
247,363,55700,1,10,0:0:0:0:
427,323,55886,1,0,0:0:0:0:
326,215,56071,22,0,P|304:206|281:206,1,47.5
247,364,56256,2,0,P|269:372|292:373,1,47.5,2|2,0:0|0:0,0:0:0:0:
293,289,56441,2,0,B|238:296|238:296|214:320|214:320|143:328,1,142.500005435944,8|2,0:0|0:0,0:0:0:0:
92,360,56719,1,0,0:0:0:0:
92,360,56812,21,0,0:0:0:0:
88,158,56997,1,0,0:0:0:0:
91,263,57182,21,10,0:0:0:0:
87,61,57367,1,0,0:0:0:0:
10,212,57552,21,2,0:0:0:0:
214,55,57738,1,2,0:0:0:0:
214,55,57830,2,0,L|202:115,1,47.5,0|8,0:0|0:0,0:0:0:0:
248,248,58015,1,2,0:0:0:0:
248,248,58107,2,0,L|236:308,1,47.5
372,89,58293,1,2,0:0:0:0:
372,89,58385,2,0,L|360:149,1,47.5
176,172,58571,22,0,B|292:172|292:172|333:224,1,161.500003080368,4|0,0:0|2:0,0:0:0:0:
380,356,58849,2,0,P|422:360|453:343,1,71.2500027179719,2|2,2:0|2:0,0:0:0:0:
494,165,59034,22,2,L|483:279,1,95,2|0,0:0|0:0,0:0:0:0:
413,185,59312,2,2,L|402:299,1,95,2|0,0:0|0:0,0:0:0:0:
329,211,59589,1,2,0:0:0:0:
327,234,59682,1,0,0:0:0:0:
325,257,59775,22,0,L|268:252,1,47.5,2|2,0:0|0:0,0:0:0:0:
301,146,59960,1,0,0:0:0:0:
284,144,60052,2,0,L|227:139,1,47.5,2|0,0:0|0:0,0:0:0:0:
373,49,60238,1,0,0:0:0:0:
352,46,60330,2,0,L|309:43,2,23.75,2|0|0,0:2|0:0|0:0,0:0:0:0:
246,25,60515,22,0,L|250:85,1,47.5,0|0,0:0|0:0,0:0:0:0:
185,308,60700,2,2,B|162:271|162:271|178:173,1,142.500005435944,2|2,0:0|0:2,0:0:0:0:
168,32,60978,2,2,L|178:174,1,142.500005435944,2|2,0:0|0:2,0:0:0:0:
244,242,61256,22,0,B|181:213|181:213|93:247,1,142.500005435944,6|0,0:0|0:0,0:0:0:0:
44,348,61534,1,2,0:2:0:0:
78,363,61626,2,0,P|110:372|140:366,1,54.6250010418892,8|2,0:0|0:2,0:0:0:0:
310,297,61812,2,0,P|281:315|245:321,1,54.6250010418892,2|2,0:0|0:2,0:0:0:0:
105,185,61997,22,0,L|115:251,1,54.6250010418892,2|2,0:2|0:2,0:0:0:0:
244,242,62182,2,0,L|254:109,1,109.250002083778,2|8,0:0|0:0,0:0:0:0:
205,71,62460,2,2,P|271:94|322:78,1,109.250002083778,0|0,0:0|0:0,0:0:0:0:
381,44,62738,22,0,L|389:106,1,54.6250010418892,2|0,0:0|0:0,0:0:0:0:
428,265,62923,2,0,P|447:228|447:194,1,54.6250010418892,2|2,0:2|0:2,0:0:0:0:
305,167,63108,1,8,0:0:0:0:
293,208,63200,2,0,P|295:242|310:272,1,54.6250010418892,2|2,0:2|0:0,0:0:0:0:
381,348,63386,21,2,0:2:0:0:
339,360,63478,2,0,P|297:363|275:358,1,54.6250010418892,2|2,0:2|0:2,0:0:0:0:
373,212,63663,2,0,P|425:189|484:202,1,109.250002083778,2|8,0:0|0:0,0:0:0:0:
222,275,63941,1,2,0:2:0:0:
222,275,64034,2,0,L|212:217,1,54.6250010418892,2|2,0:2|0:2,0:0:0:0:
151,147,64219,21,0,0:0:0:0:
79,257,64404,1,2,0:1:0:0:
74,284,64497,1,2,0:1:0:0:
167,69,64682,1,2,0:2:0:0:
172,42,64775,1,2,0:2:0:0:
60,148,64960,21,2,0:1:0:0:
33,144,65052,1,2,0:1:0:0:
146,338,65238,1,2,0:2:0:0:
142,365,65330,1,2,0:2:0:0:
256,268,65515,2,0,L|256:204,1,54.6250010418892,2|2,0:0|0:0,0:0:0:0:
361,147,65700,21,0,0:0:0:0:
433,257,65885,1,2,0:1:0:0:
438,284,65978,1,2,0:1:0:0:
345,69,66163,1,2,0:2:0:0:
340,42,66256,1,2,0:2:0:0:
452,148,66441,21,2,0:1:0:0:
479,144,66533,1,2,0:1:0:0:
366,338,66719,1,2,0:2:0:0:
370,365,66811,1,2,0:2:0:0:
256,268,66996,2,0,L|256:204,1,54.6250010418892,2|2,0:0|0:0,0:0:0:0:
268,88,67182,22,0,P|220:72|148:80,1,109.250002083778,2|2,0:0|0:2,0:0:0:0:
40,148,67460,1,2,0:2:0:0:
77,169,67552,2,0,P|109:177|133:173,1,54.6250010418892,8|2,0:0|0:2,0:0:0:0:
256,268,67738,2,0,P|224:242|206:210,1,54.6250010418892,2|2,0:0|0:2,0:0:0:0:
343,71,67923,22,0,P|349:105|349:136,1,54.6250010418892,2|2,0:2|0:2,0:0:0:0:
290,188,68108,2,0,P|348:174|420:194,1,109.250002083778,2|8,0:0|0:0,0:0:0:0:
437,249,68386,2,2,L|452:140,1,109.250002083778,0|0,0:0|0:0,0:0:0:0:
468,66,68663,21,2,0:0:0:0:
428,333,68849,2,0,P|460:330|493:315,1,54.6250010418892,2|2,0:2|0:2,0:0:0:0:
396,182,69034,2,0,P|342:174|290:188,1,109.250002083778,8|2,0:0|0:0,0:0:0:0:
163,166,69312,21,2,0:2:0:0:
169,123,69404,2,0,P|207:113|234:113,1,54.6250010418892,2|2,0:2|0:2,0:0:0:0:
278,304,69589,2,0,P|225:317|171:309,1,109.250002083778,2|8,0:0|0:0,0:0:0:0:
69,236,69867,1,2,0:2:0:0:
53,194,69960,1,2,0:2:0:0:
57,150,70052,1,2,0:2:0:0:
81,113,70145,22,0,L|74:83,4,23.75,4|0|0|0|2,0:2|0:0|0:0|0:0|0:2,0:0:0:0:
163,166,70423,1,2,0:2:0:0:
212,82,70515,22,0,L|206:44,4,23.75,4|0|0|0|2,0:2|0:0|0:0|0:0|0:2,0:0:0:0:
275,177,70793,1,2,0:2:0:0:
331,66,70886,22,0,L|342:33,4,23.75,4|0|0|0|2,0:2|0:0|0:0|0:0|0:2,0:0:0:0:
391,188,71163,1,2,0:2:0:0:
112,351,71349,1,0,0:0:0:0:
112,351,71441,1,0,0:0:0:0:
400,351,71626,21,4,0:0:0:0:
331,305,71812,1,2,0:1:0:0:
331,305,71904,2,0,L|324:245,1,47.5,2|2,0:2|0:2,0:0:0:0:
248,292,72089,1,2,0:1:0:0:
248,292,72182,2,0,L|241:233,1,47.5,2|2,0:2|0:2,0:0:0:0:
167,281,72367,1,2,0:1:0:0:
163,243,72460,1,2,0:2:0:0:
158,205,72552,1,2,0:2:0:0:
153,167,72645,1,2,0:1:0:0:
148,129,72738,2,2,L|144:95,6,23.75,0|0|0|0|0|0|0,0:0|0:0|0:0|0:0|0:0|0:0|0:0,0:0:0:0:
129,143,73108,22,0,B|180:138|180:138|221:150|221:150|283:145,1,142.500005435944,2|2,0:0|0:2,0:0:0:0:
382,49,73386,1,2,0:2:0:0:
401,87,73478,2,0,P|410:124|405:153,1,54.6250010418892,8|2,0:0|0:2,0:0:0:0:
300,243,73663,2,0,P|327:216|355:206,1,54.6250010418892,2|2,0:0|0:2,0:0:0:0:
488,254,73849,2,0,P|451:243|428:224,1,54.6250010418892,2|2,0:2|0:2,0:0:0:0:
307,87,74034,22,0,P|262:64|189:67,1,109.250002083778,2|8,0:0|0:0,0:0:0:0:
41,211,74312,2,2,L|156:197,1,109.250002083778,0|0,0:0|0:0,0:0:0:0:
349,283,74589,22,0,P|319:277|283:283,1,54.6250010418892,2|0,0:0|0:0,0:0:0:0:
163,335,74775,2,0,P|193:341|229:335,1,54.6250010418892,2|2,0:2|0:2,0:0:0:0:
415,201,74960,1,8,0:0:0:0:
434,239,75052,2,0,P|444:311|430:348,1,109.250002083778,2|2,0:1|0:2,0:0:0:0:
300,370,75330,22,0,L|365:363,1,54.6250010418892,2|2,0:2|0:2,0:0:0:0:
415,201,75515,2,0,L|427:82,1,109.250002083778,2|8,0:0|0:0,0:0:0:0:
349,283,75793,1,2,0:2:0:0:
349,283,75886,2,0,L|284:290,1,54.6250010418892,2|2,0:2|0:2,0:0:0:0:
218,244,76071,21,0,0:0:0:0:
323,143,76256,1,2,0:0:0:0:
328,116,76349,1,2,0:0:0:0:
434,239,76534,1,2,0:2:0:0:
439,266,76627,1,2,0:2:0:0:
172,294,76812,21,2,0:0:0:0:
172,294,76904,1,2,0:0:0:0:
46,125,77089,1,2,0:2:0:0:
46,125,77181,1,2,0:2:0:0:
172,294,77367,2,2,L|45:312,1,109.250002083778,2|0,0:0|0:0,0:0:0:0:
323,241,77738,21,2,0:0:0:0:
328,268,77831,1,2,0:0:0:0:
434,145,78016,1,2,0:2:0:0:
439,118,78109,1,2,0:2:0:0:
172,90,78294,21,2,0:0:0:0:
172,90,78386,1,2,0:0:0:0:
46,259,78571,1,2,0:2:0:0:
46,259,78663,1,2,0:2:0:0:
252,192,78849,2,0,L|316:192,1,54.6250010418892,2|2,0:0|0:0,0:0:0:0:
375,267,79034,22,0,L|389:158,1,109.250002083778,0|2,0:0|0:2,0:0:0:0:
405,83,79312,1,2,0:2:0:0:
416,161,79404,2,0,L|425:224,1,54.6250010418892,8|2,0:0|0:2,0:0:0:0:
329,120,79589,22,0,P|320:94|324:56,1,54.6250010418892,2|2,0:0|0:2,0:0:0:0:
477,42,79775,2,0,P|486:68|482:106,1,54.6250010418892,2|2,0:2|0:2,0:0:0:0:
405,83,79960,22,0,L|255:75,1,142.500005435944,2|8,0:0|0:0,0:0:0:0:
186,32,80238,2,2,P|228:94|215:165,1,142.500005435944,0|0,0:0|0:0,0:0:0:0:
173,280,80515,22,0,P|201:290|231:288,1,54.6250010418892,2|0,0:0|0:0,0:0:0:0:
451,219,80700,2,0,P|423:229|393:227,1,54.6250010418892,2|2,0:2|0:2,0:0:0:0:
219,158,80886,1,8,0:0:0:0:
248,126,80978,2,0,B|296:103|296:103|366:121,1,109.250002083778,2|2,0:0|0:2,0:0:0:0:
315,250,81256,2,0,L|323:196,1,54.6250010418892,2|2,0:2|0:2,0:0:0:0:
121,39,81441,22,0,L|135:192,1,142.500005435944,2|8,0:0|0:0,0:0:0:0:
94,339,81719,1,2,0:2:0:0:
82,320,81812,2,0,B|119:312|119:312|161:322,1,71.2500027179719,2|2,0:2|0:2,0:0:0:0:
299,344,81997,22,0,L|326:337,4,23.75,4|0|0|0|2,0:2|0:0|0:0|0:0|0:2,0:0:0:0:
218,364,82275,1,2,0:2:0:0:
141,236,82367,22,0,L|114:229,4,23.75,4|0|0|0|2,0:2|0:0|0:0|0:0|0:2,0:0:0:0:
222,256,82645,1,2,0:2:0:0:
310,123,82738,22,0,L|337:116,4,23.75,4|0|0|0|2,0:2|0:0|0:0|0:0|0:2,0:0:0:0:
229,143,83016,1,2,0:2:0:0:
307,247,83108,22,0,L|315:186,1,47.5,2|2,0:2|0:2,0:0:0:0:
143,126,83293,2,0,L|135:65,1,47.5,2|2,0:2|0:2,0:0:0:0:
239,28,83478,21,0,0:0:0:0:
494,20,83663,1,2,0:1:0:0:
409,114,83849,2,0,L|402:166,2,47.5,2|2|2,0:2|0:1|0:2,0:0:0:0:
460,242,84219,21,2,0:1:0:0:
456,270,84312,1,2,0:2:0:0:
452,298,84404,1,2,0:2:0:0:
448,326,84497,1,2,0:1:0:0:
374,261,84589,2,2,L|380:225,6,23.75,0|0|0|0|0|0|0,0:0|0:0|0:0|0:0|0:0|0:0|0:0,0:0:0:0:
365,296,84960,22,0,L|291:297,1,71.25,4|2,1:0|2:0,0:0:0:0:
65,256,85515,2,0,L|58:226,4,23.75,2|0|2|0|2,0:2|0:0|0:2|0:0|0:2,0:0:0:0:
65,256,86441,22,0,L|140:256,1,71.25,2|2,1:3|0:0,0:0:0:0:
320,186,86997,1,2,0:0:0:0:
275,112,87182,2,0,L|282:82,4,23.75,2|0|2|0|2,0:2|0:0|0:2|0:0|0:2,0:0:0:0:
275,112,87923,22,0,L|200:112,1,71.25,2|2,1:3|0:0,0:0:0:0:
97,261,88478,2,0,L|152:261,1,47.5,2|0,0:0|0:0,0:0:0:0:
216,334,88849,2,0,L|213:363,4,23.75,2|0|2|0|2,0:0|0:0|0:0|0:0|0:0,0:0:0:0:
216,334,89404,22,0,L|125:334,1,71.25,2|2,1:3|2:0,0:0:0:0:
118,143,89960,2,0,L|115:114,4,23.75,2|0|2|0|2,0:0|0:0|0:0|0:0|0:0,0:0:0:0:
118,143,90886,22,0,B|110:170|110:170|120:231,1,71.25,2|2,3:3|2:0,0:0:0:0:
409,248,92367,22,0,B|417:275|417:275|407:336,1,71.25,2|2,3:3|2:0,0:0:0:0:
256,192,94126,12,0,95238,2:0:0:0:
443,169,95330,22,0,L|440:144,6,23.75,0|0|0|0|0|0|0,0:0|0:0|0:0|0:0|0:0|0:0|0:0,0:0:0:0:
458,249,95700,2,0,L|454:329,1,71.2500027179719,8|0,0:2|0:0,0:0:0:0:
454,349,95978,1,0,0:0:0:0:
454,349,96071,2,0,L|398:349,1,47.5,2|2,0:2|0:2,0:0:0:0:
248,267,96256,2,0,L|295:267,1,47.5,2|0,0:1|0:0,0:0:0:0:
443,169,96441,2,0,L|387:169,1,47.5,2|2,0:2|0:2,0:0:0:0:
258,76,96626,2,0,L|314:76,1,47.5,2|0,0:1|0:0,0:0:0:0:
457,34,96812,21,4,0:1:0:0:
457,34,96904,1,2,0:0:0:0:
174,46,97089,1,6,0:0:0:0:
174,46,97182,2,0,P|174:103|179:144,1,71.2500027179719,2|0,0:0|0:0,0:0:0:0:
212,222,97552,2,0,P|215:268|212:374,1,142.500005435944
112,344,98108,1,0,0:0:0:0:
15,367,98293,21,6,0:0:0:0:
15,367,98386,1,2,0:0:0:0:
96,71,98571,1,6,0:0:0:0:
96,71,98663,1,2,0:0:0:0:
87,163,98849,22,0,L|79:248,1,71.2500027179719,2|0,0:2|0:0,0:0:0:0:
251,157,99219,2,0,L|259:242,1,71.2500027179719,2|0,0:2|0:0,0:0:0:0:
416,152,99589,2,0,L|408:237,1,71.2500027179719,2|6,0:2|0:0,0:0:0:0:
409,222,99960,1,2,0:2:0:0:
345,78,100145,22,0,P|298:71|192:65,2,142.500005435944,2|0|0,0:2|0:0|0:0,0:0:0:0:
491,102,101071,1,2,0:2:0:0:
308,160,101256,21,6,0:0:0:0:
430,23,101441,1,2,0:2:0:0:
474,198,101626,1,6,0:0:0:0:
360,267,101812,21,0,0:0:0:0:
360,267,101904,1,0,0:0:0:0:
360,267,101997,2,0,L|276:273,1,71.2500027179719,0|0,0:0|0:0,0:0:0:0:
267,267,102275,1,0,0:0:0:0:
246,262,102367,1,0,0:0:0:0:
266,139,102552,1,0,0:0:0:0:
465,305,102738,21,6,0:0:0:0:
465,305,102830,1,2,0:0:0:0:
148,184,103015,1,6,0:0:0:0:
148,184,103108,2,0,P|154:234|160:263,1,71.2500027179719,2|0,0:0|0:0,0:0:0:0:
50,352,103478,2,0,P|45:296|34:218,1,106.875004076958
30,174,103849,2,0,L|27:144,4,17.812500679493,2|0|2|0|2,0:0|0:0|0:0|0:0|0:0,0:0:0:0:
190,315,104219,21,6,0:0:0:0:
190,315,104312,1,2,0:0:0:0:
218,44,104497,1,6,0:0:0:0:
218,44,104589,1,2,0:0:0:0:
293,146,104775,2,0,P|336:142|376:136,1,71.2500027179719,2|0,0:2|0:0,0:0:0:0:
496,262,105145,2,0,P|455:254|411:250,1,71.2500027179719,2|0,0:2|0:0,0:0:0:0:
318,247,105515,1,2,0:2:0:0:
313,351,105700,21,6,0:0:0:0:
313,351,105793,1,2,0:0:0:0:
416,355,105978,1,4,0:0:0:0:
416,355,106071,1,2,0:0:0:0:
208,352,106256,2,0,P|206:304|195:185,1,142.500005435944
183,61,106812,2,0,L|161:56,4,17.812500679493,2|0|2|0|2,0:0|0:0|0:0|0:0|0:0,0:0:0:0:
479,199,107182,21,6,0:0:0:0:
479,199,107275,1,2,0:0:0:0:
376,227,107460,1,6,0:0:0:0:
376,227,107552,1,2,0:0:0:0:
288,164,107738,1,0,0:0:0:0:
289,57,107923,2,0,L|299:10,2,35.625001358986,0|0|0,0:0|0:0|0:0,0:0:0:0:
289,294,108293,22,0,L|282:347,1,35.625001358986
198,312,108478,2,0,L|191:365,1,35.625001358986
170,172,108663,21,4,1:0:0:0:
170,172,108941,1,0,0:0:0:0:
170,172,109034,2,0,L|116:169,1,40.375000770092,2|0,0:0|0:0,0:0:0:0:
53,169,109219,1,2,0:3:0:0:
53,169,109312,2,0,P|47:220|60:256,1,80.750001540184,2|0,0:0|0:0,0:0:0:0:
114,298,109589,21,2,0:3:0:0:
273,107,109775,1,2,0:0:0:0:
114,298,109960,1,2,0:3:0:0:
283,194,110145,21,0,0:0:0:0:
283,194,110238,2,0,L|374:185,1,80.750001540184
335,266,110515,2,0,L|393:259,1,40.375000770092,2|0,0:0|0:0,0:0:0:0:
302,348,110700,1,2,0:3:0:0:
302,348,110793,2,0,L|393:339,1,80.750001540184,2|0,0:0|0:0,0:0:0:0:
461,323,111071,22,0,L|457:377,1,40.375000770092,2|2,0:3|0:0,0:0:0:0:
462,204,111256,2,0,L|466:258,1,40.375000770092,2|2,0:0|0:0,0:0:0:0:
461,89,111441,2,0,L|457:143,1,40.375000770092,2|2,0:3|0:0,0:0:0:0:
377,99,111626,21,0,0:0:0:0:
377,99,111719,1,2,0:0:0:0:
174,87,111904,1,0,0:0:0:0:
174,87,111997,2,0,L|177:140,1,40.375000770092,2|0,0:0|0:0,0:0:0:0:
144,206,112182,1,2,0:3:0:0:
144,206,112275,2,0,P|186:213|234:191,1,80.750001540184,2|0,0:0|0:0,0:0:0:0:
275,148,112552,21,2,0:3:0:0:
79,40,112738,1,2,0:0:0:0:
275,148,112923,1,2,0:3:0:0:
52,175,113108,21,0,0:0:0:0:
52,175,113200,2,0,L|36:259,1,80.750001540184
114,308,113478,2,0,L|114:258,1,40.375000770092,2|0,0:0|0:0,0:0:0:0:
175,177,113663,1,2,0:3:0:0:
175,177,113755,2,0,L|191:261,1,80.750001540184,2|0,0:0|0:0,0:0:0:0:
260,329,114034,22,0,L|210:334,1,40.375000770092,2|2,0:3|0:0,0:0:0:0:
376,336,114219,2,0,L|326:331,1,40.375000770092,2|2,0:0|0:0,0:0:0:0:
493,324,114404,2,0,L|443:329,1,40.375000770092,2|2,0:3|0:0,0:0:0:0:
414,254,114589,21,0,0:0:0:0:
435,79,114775,1,0,0:0:0:0:
492,178,114960,22,0,L|404:182,1,80.750001540184,2|0,0:0|0:0,0:0:0:0:
298,148,115238,2,0,L|337:159,1,40.375000770092,2|0,0:0|0:0,0:0:0:0:
318,261,115423,2,0,L|351:237,1,40.375000770092,2|0,0:0|0:0,0:0:0:0:
247,215,115608,1,2,0:0:0:0:
247,215,115700,1,2,0:0:0:0:
157,328,115886,2,0,L|103:324,1,40.375000770092,2|0,0:0|0:0,0:0:0:0:
36,316,116071,21,0,0:0:0:0:
240,336,116256,1,0,0:0:0:0:
140,240,116441,22,0,L|132:144,1,80.750001540184,2|0,0:0|0:0,0:0:0:0:
126,85,116719,2,2,L|124:56,4,20.187500385046,0|0|0|0|2,0:0|0:0|0:0|0:0|0:0,0:0:0:0:
61,130,116997,2,0,L|52:179,1,40.375000770092
197,118,117182,2,0,L|212:171,1,40.375000770092,2|0,0:0|0:0,0:0:0:0:
140,240,117367,1,0,0:0:0:0:
145,300,117460,1,2,0:0:0:0:
150,359,117552,21,4,0:0:0:0:
345,296,117738,1,0,0:0:0:0:
342,356,117830,2,2,L|365:373,4,20.187500385046,0|0|0|0|2,0:0|0:0|0:0|0:0|0:0,0:0:0:0:
249,256,118108,21,0,0:0:0:0:
456,205,118293,1,0,0:0:0:0:
453,265,118386,2,2,L|476:282,4,20.187500385046,0|0|0|0|2,0:0|0:0|0:0|0:0|0:0,0:0:0:0:
374,209,118663,21,0,0:0:0:0:
340,158,118756,1,0,0:0:0:0:
355,99,118849,1,0,0:0:0:0:
406,67,118941,1,0,0:0:0:0:
466,76,119034,22,2,L|473:136,2,47.5,0|0|2,2:0|2:0|2:1,0:0:0:0:
355,99,119312,1,2,2:1:0:0:
374,209,119404,22,2,L|381:269,2,47.5,0|0|2,2:0|2:0|2:1,0:0:0:0:
249,227,119682,1,2,2:1:0:0:
268,337,119774,22,2,L|275:397,2,47.5,0|0|2,2:0|2:0|2:1,0:0:0:0:
139,354,120052,1,2,2:1:0:0:
123,237,120145,22,0,B|114:207|114:207|119:179|119:179|105:140|105:140|104:96,1,142.5,4|2,2:0|2:0,0:0:0:0:
176,60,120515,38,0,L|252:48,1,71.2500027179719,6|0,0:0|0:0,0:0:0:0:
426,88,120700,2,2,L|350:100,1,71.2500027179719,0|2,0:0|0:0,0:0:0:0:
194,176,120886,2,2,L|270:164,1,71.2500027179719,12|2,0:2|0:0,0:0:0:0:
444,204,121071,2,0,L|368:216,1,71.2500027179719,2|2,0:2|0:2,0:0:0:0:
226,300,121256,21,2,0:1:0:0:
236,341,121349,1,0,0:1:0:0:
275,355,121441,1,2,0:2:0:0:
315,342,121534,1,2,0:2:0:0:
336,305,121626,1,12,0:2:0:0:
327,262,121719,1,0,0:0:0:0:
296,231,121812,1,2,0:2:0:0:
296,188,121904,1,2,0:2:0:0:
332,165,121997,22,0,P|377:151|416:126,1,71.2500027179719,2|0,0:0|0:0,0:0:0:0:
187,83,122182,2,2,P|144:63|103:58,1,71.2500027179719,0|2,0:0|0:0,0:0:0:0:
115,226,122367,2,2,L|125:143,1,71.2500027179719,12|2,0:2|0:0,0:0:0:0:
271,35,122552,2,0,L|278:123,1,71.2500027179719,2|2,0:2|0:0,0:0:0:0:
171,312,122738,22,2,B|67:320|67:320|123:341,1,142.500005435944,2|0,0:0|0:0,0:0:0:0:
183,384,123015,2,2,L|197:233,1,142.500005435944,2|0,0:0|0:0,0:0:0:0:
227,175,123293,1,2,0:0:0:0:
432,349,123478,22,0,P|451:302|437:244,1,95,4|2,0:2|0:2,0:0:0:0:
425,228,123756,2,0,L|438:129,1,95,2|2,0:2|0:2,0:0:0:0:
459,108,124034,1,4,0:2:0:0:
367,293,124219,21,2,0:2:0:0:
337,271,124312,2,0,L|237:281,1,95,2|2,0:2|0:2,0:0:0:0:
209,286,124589,1,12,0:2:0:0:
62,149,124775,22,0,P|44:75|155:139,1,285.000010871888,2|4,0:0|3:3,0:0:0:0:
157,153,125238,1,4,3:3:0:0:
157,153,125330,2,0,L|224:146,1,47.5,8|0,3:2|3:0,0:0:0:0:
317,136,125515,2,0,L|384:129,1,47.5,6|0,3:3|3:0,0:0:0:0:
487,48,125700,22,0,B|441:36|441:36|396:53,1,95,4|2,0:2|0:2,0:0:0:0:
497,200,125978,2,0,B|452:217|452:217|406:205,1,95,2|2,0:2|0:2,0:0:0:0:
364,131,126256,2,0,L|316:135,1,47.5,4|2,0:2|0:2,0:0:0:0:
102,172,126441,22,0,B|140:179|140:179|181:167,1,71.2500027179719,2|0,0:1|0:0,0:0:0:0:
357,226,126626,2,2,B|319:219|319:219|278:231,1,71.2500027179719,0|2,0:0|0:0,0:0:0:0:
84,324,126812,2,2,B|122:331|122:331|163:319,1,71.2500027179719,12|2,0:2|0:0,0:0:0:0:
326,309,126997,2,0,L|337:384,1,71.2500027179719,2|2,0:2|0:2,0:0:0:0:
219,271,127182,21,2,0:1:0:0:
195,235,127275,1,0,0:0:0:0:
199,191,127367,1,2,0:2:0:0:
233,163,127460,1,2,0:2:0:0:
274,169,127552,1,12,0:2:0:0:
316,179,127645,1,0,0:0:0:0:
353,157,127738,1,2,0:2:0:0:
376,121,127830,1,2,0:2:0:0:
360,81,127923,22,0,L|267:68,1,71.2500027179719,2|0,0:0|0:0,0:0:0:0:
139,35,128108,2,2,L|139:108,1,71.2500027179719,0|2,0:0|0:0,0:0:0:0:
305,342,128293,2,2,L|305:269,1,71.2500027179719,12|2,0:2|0:0,0:0:0:0:
468,90,128478,2,0,L|468:163,1,71.2500027179719,2|2,0:2|0:0,0:0:0:0:
442,342,128663,22,2,B|398:342|398:342|374:330|374:330|350:342|350:342|306:342,1,142.500005435944,2|0,0:0|0:0,0:0:0:0:
206,226,128941,2,2,L|195:374,1,142.500005435944,2|0,0:0|0:0,0:0:0:0:
122,250,129219,2,0,L|117:329,1,71.2500027179719,2|0,0:0|0:0,0:0:0:0:
38,281,129404,21,4,0:2:0:0:
230,55,129589,1,2,0:2:0:0:
230,55,129682,2,0,L|337:41,1,95,2|2,0:2|0:2,0:0:0:0:
242,129,129960,2,0,L|349:115,1,95,4|2,0:2|0:2,0:0:0:0:
255,203,130238,2,0,L|362:189,1,95,2|2,0:2|0:2,0:0:0:0:
423,178,130515,21,4,0:2:0:0:
38,90,130700,2,0,P|56:17|97:118,1,249.375002378225,2|2,0:0|2:0,0:0:0:0:
69,163,131071,22,0,B|62:212|62:212|80:254,1,95,0|2,0:0|2:0,0:0:0:0:
135,372,131349,1,2,2:0:0:0:
135,372,131441,2,0,B|140:310,1,47.5,0|2,0:0|2:0,0:0:0:0:
157,202,131626,2,2,L|161:159,4,31.6666666666667,2|0|0|0|2,0:2|0:0|0:0|0:0|0:0,0:0:0:0:
186,200,131997,22,0,B|222:187|224:218|258:198,1,71.2500027179719,2|0,0:0|0:0,0:0:0:0:
369,183,132182,1,2,0:0:0:0:
369,183,132367,22,0,L|362:278,1,71.2500027179719,6|0,0:0|0:0,0:0:0:0:
323,100,132552,2,2,P|366:90|408:93,1,71.2500027179719,0|2,0:0|0:0,0:0:0:0:
405,335,132738,2,2,P|362:345|320:342,1,71.2500027179719,12|2,0:2|0:0,0:0:0:0:
163,286,132923,1,2,0:2:0:0:
122,274,133015,1,2,0:2:0:0:
79,280,133108,22,0,B|72:316|72:316|88:353,1,71.2500027179719,2|0,0:1|0:0,0:0:0:0:
233,169,133293,2,0,L|224:92,1,71.2500027179719,2|2,0:2|0:2,0:0:0:0:
64,179,133478,2,0,B|51:148|51:148|58:112,1,71.2500027179719,12|0,0:2|0:0,0:0:0:0:
249,273,133663,2,0,L|258:350,1,71.2500027179719,2|2,0:2|0:2,0:0:0:0:
449,247,133849,22,0,L|370:242,1,71.2500027179719,2|0,0:0|0:0,0:0:0:0:
162,164,134034,2,2,L|241:169,1,71.2500027179719,0|2,0:0|0:0,0:0:0:0:
494,116,134219,2,2,L|415:111,1,71.2500027179719,12|2,0:2|0:0,0:0:0:0:
211,67,134404,1,2,0:2:0:0:
253,71,134497,1,2,0:0:0:0:
295,76,134589,22,2,B|354:86|354:86|377:183,1,142.500005435944,2|0,0:0|0:0,0:0:0:0:
315,298,134867,2,2,L|288:157,1,142.500005435944,2|0,0:0|0:0,0:0:0:0:
211,67,135145,1,2,0:0:0:0:
66,288,135330,22,0,B|115:299|115:299|160:278,1,95,4|2,0:2|0:2,0:0:0:0:
226,306,135608,2,0,B|266:287|266:287|315:298,1,95,2|2,0:2|0:2,0:0:0:0:
386,331,135886,1,4,0:2:0:0:
372,160,136071,21,2,0:2:0:0:
372,160,136163,2,0,L|384:287,1,95,2|2,0:2|0:2,0:0:0:0:
386,331,136441,1,4,0:2:0:0:
226,306,136626,2,0,L|214:179,1,95,2|0,0:2|0:0,0:0:0:0:
217,211,136997,22,0,P|187:206|166:207,1,47.5,4|2,0:2|0:2,0:0:0:0:
84,123,137182,2,0,P|113:127|134:126,1,47.5,2|2,0:2|0:2,0:0:0:0:
203,76,137367,1,4,0:2:0:0:
116,272,137552,22,0,P|66:284|22:286,1,95,4|2,0:2|0:2,0:0:0:0:
11,203,137830,2,0,P|59:206|105:195,1,95,2|2,0:2|0:2,0:0:0:0:
84,123,138108,21,4,0:2:0:0:
84,123,138200,1,2,0:2:0:0:
84,123,138293,2,0,P|45:127|13:121,1,71.2500027179719,2|0,0:0|0:0,0:0:0:0:
204,76,138478,2,2,P|243:72|275:78,1,71.2500027179719,0|2,0:0|0:0,0:0:0:0:
440,84,138663,22,2,L|430:247,1,142.500005435944,10|2,0:1|0:2,0:0:0:0:
364,291,138941,1,2,0:2:0:0:
364,291,139034,2,0,L|374:372,1,71.2500027179719,2|0,0:1|0:0,0:0:0:0:
340,132,139219,2,0,L|350:213,1,71.2500027179719,2|2,0:2|0:2,0:0:0:0:
257,348,139404,22,0,P|209:364|166:356,1,71.2500027179719,12|0,0:2|0:0,0:0:0:0:
163,196,139589,2,0,P|211:180|254:188,1,71.2500027179719,2|2,0:2|0:2,0:0:0:0:
121,289,139775,22,0,L|30:305,1,71.2500027179719
293,250,139960,2,2,L|379:232,1,71.2500027179719,2|2,0:2|0:0,0:0:0:0:
249,147,140145,2,2,P|183:137|102:198,1,142.500005435944,10|0,0:1|0:0,0:0:0:0:
204,226,140423,22,2,L|210:268,2,35.625001358986,0|0|2,0:0|0:0|0:0,0:0:0:0:
349,85,140700,1,0,0:0:0:0:
381,78,140793,1,0,0:0:0:0:
414,73,140886,2,2,B|458:116|458:116|410:148|410:148|398:228,1,166.250001585484,10|2,0:0|0:0,0:0:0:0:
429,355,141256,21,4,0:0:0:0:
486,262,141441,1,2,0:2:0:0:
493,244,141534,1,2,0:0:0:0:
348,310,141719,1,2,0:2:0:0:
348,310,141812,1,2,0:0:0:0:
289,155,141997,21,4,0:0:0:0:
377,209,142182,1,2,0:2:0:0:
392,220,142275,1,2,0:0:0:0:
238,240,142460,1,2,0:2:0:0:
238,240,142552,1,2,0:0:0:0:
474,127,142738,22,0,L|480:94,10,23.75,4|0|0|0|0|0|0|0|0|0|0,0:0|0:0|0:0|0:0|0:0|0:0|0:0|0:0|0:0|0:0|0:0,0:0:0:0:
382,131,143293,1,0,0:0:0:0:
389,96,143386,1,0,0:0:0:0:
396,61,143478,22,2,L|240:73,1,142.500005435944,0|2,0:0|0:0,0:0:0:0:
253,71,143756,1,2,0:0:0:0:
48,276,144034,1,0,0:0:0:0:
56,308,144126,1,0,0:0:0:0:
64,340,144219,6,0,B|112:328|112:328|160:344,1,95,6|0,0:0|0:0,0:0:0:0:
230,342,144497,1,0,0:0:0:0:
230,342,144589,2,0,L|225:234,2,95,8|0|0,0:0|0:0|0:0,0:0:0:0:
339,339,145145,1,0,0:0:0:0:
357,335,145238,1,0,0:0:0:0:
375,332,145330,1,8,0:0:0:0:
495,271,145515,1,0,0:0:0:0:
477,267,145608,1,0,0:0:0:0:
460,264,145700,22,0,L|466:210,1,47.5,2|2,0:2|0:2,0:0:0:0:
398,110,145886,2,0,L|404:164,1,47.5
340,260,146071,2,0,L|346:206,1,47.5,10|2,0:2|0:2,0:0:0:0:
278,106,146257,2,0,L|284:160,1,47.5
162,337,146441,22,0,L|110:333,1,47.5,2|2,0:2|0:2,0:0:0:0:
64,249,146626,2,0,L|68:197,1,47.5
150,151,146812,2,0,L|202:155,1,47.5,10|2,0:2|0:2,0:0:0:0:
255,230,146997,2,0,L|251:282,1,47.5
158,246,147182,21,2,0:2:0:0:
158,246,147275,2,0,L|149:139,1,95,2|0,0:2|0:0,0:0:0:0:
94,84,147552,2,0,B|125:65|125:65|198:76,1,95,10|0,0:2|0:0,0:0:0:0:
355,107,147923,21,2,0:2:0:0:
355,107,148015,1,2,0:2:0:0:
255,230,148200,1,0,0:0:0:0:
255,230,148293,2,0,B|286:249|286:249|359:238,1,95,10|0,0:2|0:0,0:0:0:0:
383,231,148571,1,2,0:1:0:0:
425,223,148663,22,0,L|476:228,1,47.5,2|2,0:2|0:2,0:0:0:0:
290,324,148941,1,0,0:0:0:0:
290,324,149034,2,0,L|346:330,1,47.5,10|2,0:2|0:2,0:0:0:0:
417,338,149219,2,0,L|473:344,1,47.5
425,223,149404,21,2,0:2:0:0:
421,185,149497,1,2,0:2:0:0:
417,147,149589,1,0,0:0:0:0:
413,109,149682,1,0,0:0:0:0:
410,70,149775,22,0,P|436:83|443:102,1,47.5,10|2,0:2|0:2,0:0:0:0:
339,130,149960,2,0,L|287:126,1,47.5
211,116,150145,21,2,0:2:0:0:
211,116,150238,1,2,0:2:0:0:
48,127,150423,1,0,0:0:0:0:
48,127,150515,2,0,B|44:80|44:80|68:37,1,95,10|0,0:2|0:0,0:0:0:0:
130,229,150886,1,2,0:2:0:0:
135,255,150978,2,0,B|138:301|138:301|114:344,1,95,2|0,0:2|0:0,0:0:0:0:
97,362,151256,1,8,0:0:0:0:
3,277,151441,2,0,L|55:286,1,47.5
225,333,151626,21,2,0:2:0:0:
225,333,151719,2,0,L|218:234,1,95,2|0,0:2|0:0,0:0:0:0:
215,207,151997,1,8,0:0:0:0:
432,120,152182,22,0,P|435:143|427:166,1,47.5
261,142,152367,2,0,P|258:119|266:96,1,47.5,0|2,0:2|0:2,0:0:0:0:
347,133,152552,22,0,L|334:245,1,95,0|8,0:0|0:0,0:0:0:0:
351,100,152830,1,0,0:0:0:0:
355,70,152923,2,0,L|361:22,1,47.5
458,51,153108,21,2,0:2:0:0:
458,51,153200,1,2,0:2:0:0:
256,24,153386,1,0,0:0:0:0:
256,24,153478,1,10,0:2:0:0:
54,51,153663,1,0,0:0:0:0:
16,252,153849,21,2,0:2:0:0:
16,252,153941,1,2,0:2:0:0:
256,176,154127,1,0,0:0:0:0:
256,176,154219,1,10,0:2:0:0:
496,252,154404,21,0,0:0:0:0:
496,252,154497,2,0,B|440:251|440:251|420:263|420:263|392:263|392:263|376:237|376:237|353:251|353:251|291:251,1,213.750008153916,2|0,0:0|0:0,0:0:0:0:
275,251,154867,1,2,2:0:0:0:
275,251,154960,2,0,L|208:251,1,47.5,2|2,2:0|2:0,0:0:0:0:
139,285,155145,1,0,0:0:0:0:
142,87,155330,22,0,L|137:40,4,31.6666666666667
139,285,155700,2,0,B|131:250|147:197,1,71.2500027179719
219,151,155886,1,0,0:0:0:0:
40,48,156071,21,2,0:2:0:0:
40,48,156163,1,2,0:2:0:0:
50,142,156349,1,2,0:2:0:0:
50,142,156441,1,10,0:2:0:0:
64,235,156626,2,0,L|71:292,1,47.5
316,326,156812,21,2,0:2:0:0:
278,322,156904,1,2,0:2:0:0:
242,308,156997,2,0,P|208:294|191:282,1,47.5,2|2,0:2|0:2,0:0:0:0:
205,151,157182,21,10,0:2:0:0:
243,147,157274,1,2,0:2:0:0:
279,133,157367,2,0,P|313:119|330:107,1,47.5,2|2,0:2|0:2,0:0:0:0:
472,48,157552,21,2,0:2:0:0:
472,48,157644,1,2,0:2:0:0:
462,142,157830,1,2,0:2:0:0:
462,142,157923,2,0,L|454:243,1,95,10|0,0:2|0:0,0:0:0:0:
196,326,158293,21,2,0:2:0:0:
234,322,158385,1,2,0:2:0:0:
270,308,158478,2,0,P|304:294|321:282,1,47.5,2|2,0:2|0:2,0:0:0:0:
307,151,158663,21,10,0:2:0:0:
269,147,158755,1,2,0:2:0:0:
233,133,158848,2,0,P|199:119|182:107,1,47.5,2|2,0:2|0:2,0:0:0:0:
123,61,159034,21,2,0:2:0:0:
123,61,159126,1,2,0:2:0:0:
256,32,159312,1,2,0:2:0:0:
256,32,159404,1,10,0:2:0:0:
389,61,159589,1,0,0:0:0:0:
389,61,159682,1,0,0:0:0:0:
389,61,159775,2,0,L|443:55,1,47.5,2|2,0:2|0:2,0:0:0:0:
282,217,160052,1,0,0:0:0:0:
282,217,160145,2,0,L|228:211,1,47.5,10|2,0:2|0:2,0:0:0:0:
388,352,160423,21,0,0:0:0:0:
388,352,160515,2,0,L|396:244,1,95,4|2,0:2|0:2,0:0:0:0:
124,352,160886,2,0,L|116:244,1,95,12|2,0:2|0:2,0:0:0:0:
67,197,161163,1,0,0:0:0:0:
56,175,161256,22,0,B|93:156|93:156|216:182,1,142.5,4|0,0:2|0:0,0:0:0:0:
204,299,161626,22,0,L|199:235,1,47.5,8|0,0:0|0:0,0:0:0:0:
184,48,161812,2,0,L|189:112,1,47.5
93,78,161997,21,2,0:2:0:0:
93,78,162089,1,2,0:2:0:0:
274,55,162275,1,2,0:2:0:0:
274,55,162367,1,10,0:2:0:0:
449,30,162552,2,0,L|443:88,1,47.5
404,261,162738,21,2,0:2:0:0:
366,256,162830,1,2,0:2:0:0:
332,238,162923,2,0,P|309:211|301:191,1,47.5,2|2,0:2|0:2,0:0:0:0:
207,200,163108,21,10,0:2:0:0:
180,238,163201,1,2,0:2:0:0:
146,256,163293,2,0,P|111:264|90:262,1,47.5,2|2,0:2|0:2,0:0:0:0:
9,128,163478,21,2,0:2:0:0:
9,128,163570,1,2,0:2:0:0:
190,105,163756,1,2,0:2:0:0:
190,105,163848,1,10,0:2:0:0:
365,80,164033,2,0,L|359:138,1,47.5
256,292,164219,21,6,0:2:0:0:
424,355,164404,1,2,0:2:0:0:
424,355,164497,1,2,0:2:0:0:
424,355,164589,2,0,L|430:294,1,47.5,14|2,0:2|0:2,0:0:0:0:
458,87,164775,1,6,0:2:0:0:
490,238,164960,22,0,P|441:267|357:232,1,142.5,4|2,0:0|0:1,0:0:0:0:
360,202,165330,2,0,L|358:149,1,47.5,2|2,0:2|0:2,0:0:0:0:
356,111,165515,1,2,0:1:0:0:
234,72,165700,21,4,0:0:0:0:
488,161,165886,1,2,0:2:0:0:
488,161,165978,1,2,0:1:0:0:
145,202,166163,1,2,0:2:0:0:
145,202,166256,2,0,L|91:199,1,47.5,2|0,0:1|0:0,0:0:0:0:
19,192,166441,22,0,L|16:161,4,23.75,4|0|0|0|2,0:2|0:0|0:0|0:0|0:2,0:0:0:0:
69,271,166719,2,2,P|121:288|173:268,1,95,2|2,0:0|0:2,0:0:0:0:
223,217,166997,2,0,L|234:178,2,23.75,2|0|0,0:0|0:0|0:0,0:0:0:0:
236,247,167182,22,0,B|287:246|287:246|309:264|309:264|333:256|333:256|384:256,1,142.500005435944,0|2,0:0|2:0,0:0:0:0:
445,271,167460,1,0,0:0:0:0:
459,281,167738,22,0,L|464:195,1,71.2500027179719,2|2,2:0|2:0,0:0:0:0:
349,48,167923,1,12,0:2:0:0:
256,192,168293,12,0,169219,2:0:0:0:
69,169,169404,22,0,L|72:144,6,23.75,0|0|0|0|0|0|0,0:0|0:0|0:0|0:0|0:0|0:0|0:0,0:0:0:0:
54,249,169775,2,0,L|58:329,1,71.2500027179719,8|0,0:2|0:0,0:0:0:0:
58,349,170052,1,0,0:0:0:0:
58,349,170145,2,0,L|114:349,1,47.5,2|2,0:2|0:2,0:0:0:0:
264,267,170330,2,0,L|217:267,1,47.5,2|0,0:1|0:0,0:0:0:0:
69,169,170515,2,0,L|125:169,1,47.5,2|2,0:2|0:2,0:0:0:0:
254,76,170700,2,0,L|198:76,1,47.5,2|0,0:1|0:0,0:0:0:0:
68,58,170886,21,4,0:0:0:0:
68,58,170978,1,2,0:2:0:0:
268,158,171163,1,2,0:0:0:0:
137,114,171349,1,2,0:2:0:0:
137,114,171441,2,0,L|142:169,1,39.4250005714989,2|2,0:2|0:0,0:0:0:0:
215,228,171626,21,0,0:0:0:0:
83,244,171812,2,0,L|90:302,1,39.4250005714989,2|2,2:2|2:2,0:0:0:0:
43,358,171997,2,0,P|80:333|157:339,1,118.275001714497,4|0,0:2|0:0,0:0:0:0:
221,364,172367,21,0,0:0:0:0:
221,364,172460,1,2,0:2:0:0:
472,308,172645,1,2,0:0:0:0:
296,324,172830,1,2,0:2:0:0:
296,324,172923,2,0,L|300:268,1,39.4250005714989,2|2,0:2|0:0,0:0:0:0:
380,224,173108,21,0,3:0:0:0:
382,243,173200,1,0,3:0:0:0:
384,262,173293,2,0,L|387:308,1,39.4250005714989,2|2,0:2|0:2,0:0:0:0:
307,125,173478,21,0,3:0:0:0:
305,144,173570,1,0,3:0:0:0:
303,163,173663,2,0,L|300:209,1,39.4250005714989,2|2,0:2|0:2,0:0:0:0:
430,112,173849,21,0,0:0:0:0:
430,112,173941,1,2,0:2:0:0:
228,85,174126,1,2,0:0:0:0:
498,173,174312,1,2,0:2:0:0:
498,173,174404,2,0,L|502:233,1,39.4250005714989,2|2,0:2|0:0,0:0:0:0:
488,286,174589,21,0,0:0:0:0:
296,335,174775,2,0,L|300:275,1,39.4250005714989,2|2,2:0|2:0,0:0:0:0:
309,208,174960,2,0,P|255:181|189:210,1,118.275001714497,4|0,0:2|0:0,0:0:0:0:
75,196,175330,22,0,B|79:135|79:135|104:114,1,78.8500011429978,4|2,0:2|0:2,0:0:0:0:
137,249,175608,1,2,0:0:0:0:
202,197,175700,2,0,B|197:136|197:136|173:115,1,78.8500011429978,4|2,0:2|0:2,0:0:0:0:
137,249,175978,1,2,0:0:0:0:
137,283,176071,22,0,L|137:337,1,39.4250005714989,0|0,3:0|3:0,0:0:0:0:
256,260,176256,2,0,L|256:314,1,39.4250005714989,2|2,0:2|0:2,0:0:0:0:
375,283,176441,2,0,L|375:337,1,39.4250005714989,0|0,3:0|3:0,0:0:0:0:
256,156,176626,2,0,L|256:102,1,39.4250005714989,2|2,0:2|0:2,0:0:0:0:
292,48,176812,21,4,0:0:0:0:
292,48,176904,1,2,0:2:0:0:
104,92,177089,1,2,0:0:0:0:
104,92,177182,2,0,L|112:40,1,39.4250005714989,8|2,0:0|0:2,0:0:0:0:
196,72,177367,2,0,L|204:20,1,39.4250005714989,2|2,0:2|0:0,0:0:0:0:
348,143,177552,21,0,0:0:0:0:
343,170,177645,1,2,2:0:0:0:
342,197,177738,1,2,2:0:0:0:
344,224,177830,1,2,2:0:0:0:
353,250,177923,2,0,P|297:225|221:250,1,118.275001714497,12|0,0:2|0:0,0:0:0:0:
216,309,178293,21,0,0:0:0:0:
216,309,178386,1,2,0:2:0:0:
43,263,178571,1,2,0:0:0:0:
43,263,178663,2,0,L|51:313,1,39.4250005714989,8|2,0:0|0:2,0:0:0:0:
129,286,178849,2,0,L|137:336,1,39.4250005714989,2|2,0:2|0:0,0:0:0:0:
208,131,179034,21,0,3:0:0:0:
204,162,179126,1,0,3:0:0:0:
200,193,179219,2,0,L|194:246,1,39.4250005714989,2|2,0:2|0:2,0:0:0:0:
77,77,179404,21,8,3:2:0:0:
81,108,179496,1,0,3:0:0:0:
85,139,179589,2,0,L|91:192,1,39.4250005714989,2|2,0:2|0:2,0:0:0:0:
285,216,179775,22,0,L|288:179,4,23.75,0|0|0|0|0,1:0|0:0|0:0|0:0|0:0,0:0:0:0:
294,317,180052,22,0,P|332:334|434:277,1,142.500005435944,6|0,0:0|2:0,0:0:0:0:
503,309,180330,2,0,L|497:244,1,47.5,2|0,2:0|2:0,0:0:0:0:
316,117,180515,21,4,0:0:0:0:
316,117,180608,1,2,0:2:0:0:
423,99,180793,1,2,0:0:0:0:
423,99,180886,1,2,0:2:0:0:
213,190,181071,1,2,0:1:0:0:
194,185,181163,1,0,0:0:0:0:
175,180,181256,21,4,0:0:0:0:
84,213,181441,1,0,3:0:0:0:
159,269,181626,1,8,3:1:0:0:
71,308,181812,2,0,L|41:294,2,23.75,0|0|0,0:0|0:0|0:0,0:0:0:0:
85,327,181997,22,0,L|135:327,1,47.5
437,330,182182,2,2,B|407:323|407:323|380:337|380:337|352:330|352:330|286:332,1,142.500005435944,2|2,0:0|2:0,0:0:0:0:
202,254,182460,2,2,B|232:247|232:247|259:261|259:261|287:254|287:254|353:256,1,142.500005435944,2|2,0:0|2:0,0:0:0:0:
443,243,182738,22,0,L|455:90,1,142.500005435944,4|0,1:0|2:0,0:0:0:0:
289,53,183108,21,0,0:0:0:0:
289,53,183293,2,0,L|280:154,1,95,2|0,0:0|0:0,0:0:0:0:
205,63,183849,1,0,0:0:0:0:
205,63,184034,2,0,L|196:164,1,95,2|0,0:0|0:0,0:0:0:0:
116,173,184589,21,0,0:0:0:0:
98,90,184775,1,2,0:0:0:0:
93,254,184960,22,0,L|79:313,1,47.5,0|0,3:0|3:0,0:0:0:0:
171,304,185330,2,0,L|173:352,1,47.5,0|0,3:0|3:0,0:0:0:0:
335,282,185700,22,0,L|403:272,2,47.5,0|0|2,0:0|0:0|0:0,0:0:0:0:
335,282,186441,2,0,L|274:279,1,47.5
217,338,186812,1,0,0:0:0:0:
229,214,186997,1,2,0:0:0:0:
335,282,187182,22,0,L|403:272,2,47.5,0|0|2,0:0|0:0|0:0,0:0:0:0:
447,327,187923,2,0,L|504:338,1,47.5
426,207,188293,2,0,L|487:183,1,47.5,2|0,0:0|0:0,0:0:0:0:
509,256,188663,21,0,0:0:0:0:
318,126,189034,1,0,0:0:0:0:
318,126,189219,2,0,P|308:169|301:240,1,95,2|0,0:0|0:0,0:0:0:0:
211,182,189775,1,0,0:0:0:0:
211,182,189960,2,0,P|213:225|227:286,1,95,2|0,0:0|0:0,0:0:0:0:
301,311,190515,21,0,0:0:0:0:
134,254,190700,1,2,0:0:0:0:
160,377,190886,22,0,L|170:311,1,47.5,0|0,3:0|3:0,0:0:0:0:
65,156,191256,2,0,L|75:222,1,47.5,0|0,3:0|3:0,0:0:0:0:
67,307,191626,22,0,L|6:310,2,47.5,0|0|2,0:0|0:0|0:0,0:0:0:0:
67,307,192367,1,0,0:0:0:0:
235,252,192552,1,0,0:0:0:0:
121,193,192738,1,0,0:0:0:0:
181,366,192923,1,2,0:0:0:0:
235,252,193108,22,0,L|296:255,2,47.5,0|0|2,0:0|0:0|0:0,0:0:0:0:
235,252,193849,1,0,0:0:0:0:
181,366,194034,1,0,0:0:0:0:
67,307,194219,1,2,0:0:0:0:
121,193,194405,1,0,0:0:0:0:
181,366,194589,21,4,1:0:0:0:
135,91,194960,1,2,0:0:0:0:
135,91,195145,2,0,B|207:74|200:132|271:111,1,142.5,2|0,0:0|3:3,0:0:0:0:
353,78,196441,1,0,3:0:0:0:
411,151,196626,1,2,0:2:0:0:
362,224,196812,22,0,L|306:218,1,47.5,0|2,3:0|0:0,0:0:0:0:
146,163,197182,2,0,L|153:215,1,47.5,0|2,3:0|0:0,0:0:0:0:
85,252,197552,22,0,P|116:239|208:317,1,166.25,0|2,3:3|0:0,0:0:0:0:
130,322,199034,21,0,3:0:0:0:
301,174,199219,1,0,3:0:0:0:
80,127,199404,1,2,3:2:0:0:
245,87,199589,21,0,0:0:0:0:
64,222,199775,1,0,3:0:0:0:
272,289,199960,21,0,3:0:0:0:
171,140,200145,1,2,3:2:0:0:
130,322,200330,1,0,0:0:0:0:
186,242,200515,22,0,P|224:226|351:253,1,166.25,0|2,3:0|0:0,0:0:0:0:
343,247,202182,21,2,0:0:0:0:
401,77,202367,1,0,0:0:0:0:
419,172,202552,22,0,L|426:234,1,47.5,2|0,3:2|0:0,0:0:0:0:
253,289,202923,2,0,L|248:344,1,47.5,2|0,0:0|3:0,0:0:0:0:
82,164,203293,2,0,L|89:226,1,47.5,2|0,0:0|0:0,0:0:0:0:
101,295,203663,21,2,0:0:0:0:
193,192,203849,2,0,P|233:185|317:194,1,118.75,2|0,3:2|0:0,0:0:0:0:
411,295,204960,2,0,L|414:323,6,23.75,0|0|0|0|0|0|0,0:0|0:0|0:0|0:0|0:0|0:0|0:0,0:0:0:0:
404,256,205330,22,0,L|410:199,1,47.5,8|0,0:1|0:0,0:0:0:0:
426,52,205515,1,0,0:0:0:0:
329,152,205700,21,0,0:0:0:0:
409,209,205885,1,0,0:0:0:0:
500,176,206071,1,8,0:1:0:0:
500,176,206441,21,4,1:0:0:0:
472,156,206534,1,0,0:0:0:0:
439,149,206626,1,2,0:2:0:0:
408,163,206719,1,2,0:2:0:0:
388,190,206812,1,0,1:0:0:0:
364,212,206904,1,0,0:0:0:0:
331,218,206997,1,2,0:2:0:0:
298,212,207089,1,0,0:2:0:0:
271,191,207182,22,0,L|278:133,1,47.5,0|0,1:0|0:0,0:0:0:0:
177,268,207367,2,0,L|170:326,1,47.5,2|2,0:2|0:2,0:0:0:0:
264,283,207552,2,0,L|311:288,1,47.5,0|0,1:0|0:0,0:0:0:0:
186,177,207738,2,0,L|138:171,1,47.5,2|0,0:2|0:2,0:0:0:0:
67,352,207923,21,0,1:0:0:0:
34,351,208015,1,0,0:0:0:0:
9,329,208108,1,2,0:2:0:0:
4,296,208200,1,2,0:2:0:0:
14,263,208293,1,0,1:0:0:0:
42,244,208386,1,0,0:0:0:0:
76,244,208478,1,2,0:2:0:0:
105,262,208571,1,0,0:2:0:0:
122,290,208663,22,0,P|170:286|224:276,1,95,0|2,1:0|0:2,0:0:0:0:
110,215,208941,2,0,P|158:211|212:201,1,95,0|2,0:0|0:2,0:0:0:0:
99,141,209219,2,0,P|147:137|201:127,1,95,0|0,0:0|1:0,0:0:0:0:
399,82,209589,21,0,0:0:0:0:
402,63,209682,1,2,0:0:0:0:
342,235,209867,1,0,0:0:0:0:
339,254,209960,1,2,0:0:0:0:
309,55,210145,21,0,0:0:0:0:
306,36,210238,1,2,0:0:0:0:
425,275,210423,1,0,0:0:0:0:
428,294,210516,1,2,0:0:0:0:
362,163,210700,22,0,L|353:126,2,23.75,2|0|0,0:0|0:0|0:0,0:0:0:0:
265,161,211071,1,2,0:0:0:0:
261,142,211163,1,2,0:0:0:0:
171,197,211349,1,2,0:0:0:0:
167,178,211441,1,2,0:0:0:0:
68,160,211626,1,2,0:0:0:0:
358,358,211812,21,2,0:0:0:0:
358,358,211904,1,2,0:0:0:0:
358,358,211997,1,0,0:0:0:0:
271,232,212182,1,2,0:0:0:0:
235,304,212367,21,0,1:0:0:0:
266,315,212460,1,0,0:0:0:0:
298,309,212552,1,2,0:0:0:0:
327,292,212645,1,2,0:0:0:0:
347,265,212738,2,0,L|343:210,1,47.5,0|0,1:0|0:0,0:0:0:0:
466,257,212923,2,0,L|462:312,1,47.5,2|0,0:2|0:2,0:0:0:0:
447,161,213108,21,0,1:0:0:0:
415,152,213200,1,0,0:0:0:0:
390,129,213293,1,2,0:2:0:0:
374,99,213386,1,2,0:2:0:0:
371,66,213478,2,0,L|421:48,1,47.5,0|0,1:0|0:0,0:0:0:0:
309,148,213663,2,0,L|258:140,1,47.5,2|0,0:0|0:0,0:0:0:0:
9,62,213849,22,0,L|61:55,1,47.5,0|0,1:0|0:0,0:0:0:0:
206,89,214034,2,0,L|154:96,1,47.5,2|2,0:2|0:2,0:0:0:0:
15,174,214219,2,0,L|67:167,1,47.5,0|0,1:0|0:0,0:0:0:0:
212,201,214404,2,0,L|160:208,1,47.5,2|0,0:2|0:0,0:0:0:0:
93,257,214589,22,0,L|89:361,1,95,0|2,1:0|0:2,0:0:0:0:
198,319,214867,1,2,0:2:0:0:
198,319,214960,2,0,L|257:314,1,47.5,0|0,1:0|0:0,0:0:0:0:
323,346,215145,1,2,0:2:0:0:
479,185,215330,22,0,P|472:240|389:276,1,142.5,0|2,1:0|0:0,0:0:0:0:
331,252,215700,1,0,1:0:0:0:
378,64,215886,22,0,L|383:25,4,23.75,2|0|0|0|0,0:2|0:0|0:0|0:0|1:0,0:0:0:0:
380,92,216163,2,0,L|391:192,1,95,2|0,0:0|0:0,0:0:0:0:
439,251,216441,1,2,1:2:0:0:
293,105,216626,2,0,L|239:103,2,47.5,2|0|0,0:2|0:0|1:0,0:0:0:0:
77,313,216997,21,2,0:0:0:0:
71,331,217089,1,2,0:0:0:0:
148,71,217275,1,2,0:0:0:0:
142,53,217367,1,2,0:0:0:0:
226,305,217552,21,2,1:2:0:0:
48,192,217738,1,2,0:2:0:0:
48,192,217830,1,2,0:2:0:0:
48,192,217923,1,0,1:0:0:0:
256,192,218108,1,2,1:2:0:0:
464,192,218293,21,4,1:0:0:0:
454,159,218386,1,0,0:0:0:0:
426,139,218478,1,2,0:2:0:0:
392,134,218571,1,2,0:2:0:0:
361,147,218663,1,8,1:0:0:0:
340,173,218756,1,0,0:0:0:0:
335,206,218849,1,2,0:2:0:0:
344,237,218941,1,0,0:0:0:0:
367,260,219034,22,0,L|321:278,1,47.5,0|0,1:0|0:0,0:0:0:0:
286,112,219219,2,0,L|299:57,1,47.5,2|2,0:2|0:2,0:0:0:0:
452,269,219404,2,0,L|439:324,1,47.5,8|0,1:0|0:0,0:0:0:0:
260,225,219589,2,0,L|206:221,1,47.5,2|0,0:2|0:0,0:0:0:0:
47,202,219775,21,0,1:0:0:0:
80,201,219867,1,0,0:0:0:0:
111,189,219960,1,2,0:2:0:0:
137,168,220052,1,2,0:2:0:0:
152,138,220145,22,0,L|202:149,2,47.5,8|0|2,1:0|0:0|0:2,0:0:0:0:
63,115,220423,1,0,0:0:0:0:
150,104,220515,22,0,L|251:96,1,95,0|2,1:0|0:2,0:0:0:0:
273,93,220793,2,0,L|380:84,1,95,2|0,0:2|0:0,0:0:0:0:
404,83,221071,1,2,0:2:0:0:
392,244,221256,1,0,1:0:0:0:
483,123,221441,21,0,0:0:0:0:
490,100,221534,1,2,0:0:0:0:
338,310,221719,1,0,0:0:0:0:
331,333,221812,1,2,0:0:0:0:
404,83,221997,21,0,0:0:0:0:
401,59,222089,1,2,0:0:0:0:
427,336,222275,1,0,0:0:0:0:
430,360,222367,1,2,0:0:0:0:
334,132,222552,22,0,L|318:102,2,23.75,2|0|0,0:0|0:0|0:0,0:0:0:0:
505,283,222923,1,2,0:0:0:0:
505,283,223015,1,2,0:0:0:0:
413,223,223200,21,2,0:0:0:0:
413,223,223293,2,0,L|366:228,1,35.625001358986,2|0,0:0|0:0,0:0:0:0:
300,214,223478,2,0,P|301:255|292:333,1,106.875004076958,2|2,1:2|0:0,0:0:0:0:
209,356,223849,22,0,L|211:297,1,47.5,0|0,1:0|0:0,0:0:0:0:
218,200,224034,2,0,L|220:141,1,47.5,2|0,1:2|1:0,0:0:0:0:
233,38,224219,21,0,1:0:0:0:
201,27,224312,1,0,0:0:0:0:
168,30,224404,1,2,0:2:0:0:
141,50,224497,1,2,0:2:0:0:
127,80,224589,2,0,L|137:138,1,47.5,8|0,1:0|0:0,0:0:0:0:
218,200,224775,2,0,L|215:256,1,47.5,2|0,0:2|0:0,0:0:0:0:
135,327,224960,21,0,1:0:0:0:
102,332,225052,1,0,0:0:0:0:
69,322,225145,2,0,L|26:302,1,47.5,2|2,0:2|0:2,0:0:0:0:
283,287,225330,21,8,1:0:0:0:
314,275,225423,1,0,0:0:0:0:
346,276,225515,1,2,0:2:0:0:
377,286,225608,1,0,0:0:0:0:
403,305,225700,22,0,L|414:242,1,47.5,0|0,1:0|0:0,0:0:0:0:
468,124,225886,2,0,L|457:187,1,47.5,2|2,0:2|0:2,0:0:0:0:
495,350,226071,2,0,L|480:295,1,47.5,8|0,1:0|0:0,0:0:0:0:
377,88,226256,2,0,L|392:143,1,47.5,2|0,0:2|0:0,0:0:0:0:
440,220,226441,21,0,1:0:0:0:
155,79,226626,1,2,1:2:0:0:
155,79,226719,2,0,L|100:71,2,47.5,2|8|2,1:2|2:0|0:2,0:0:0:0:
236,91,226997,1,0,1:0:0:0:
63,199,227182,21,4,1:0:0:0:
234,184,227367,1,2,0:0:0:0:
234,184,227460,1,2,0:1:0:0:
147,169,227645,1,2,0:0:0:0:
147,169,227738,1,2,0:1:0:0:
463,309,227923,21,4,1:0:0:0:
292,294,228108,1,2,0:0:0:0:
292,294,228201,1,2,0:0:0:0:
292,294,228293,2,0,L|306:347,1,47.5,2|0,0:1|0:0,0:0:0:0:
370,258,228478,2,0,L|384:311,1,47.5,2|0,0:1|0:0,0:0:0:0:
168,353,228663,21,4,1:0:0:0:
63,199,228849,1,2,0:0:0:0:
63,199,228941,1,2,0:1:0:0:
159,276,229126,1,2,0:0:0:0:
159,276,229219,2,0,L|153:222,1,47.5,2|0,0:1|0:0,0:0:0:0:
140,32,229404,21,2,1:1:0:0:
142,49,229682,1,2,1:1:0:0:
143,68,229960,1,2,1:1:0:0:
369,141,230145,21,4,0:0:0:0:
362,232,230330,2,0,L|357:310,1,71.2500027179719,2|0,0:2|0:0,0:0:0:0:
369,141,230700,1,2,0:2:0:0:
370,119,230793,2,0,L|376:40,1,71.2500027179719,0|0,0:3|0:0,0:0:0:0:
378,27,231071,1,2,0:2:0:0:
362,232,231256,1,0,0:0:0:0:
362,232,231626,21,0,0:0:0:0:
271,225,231811,2,0,L|193:220,1,71.2500027179719,2|0,0:2|0:0,0:0:0:0:
362,232,232181,1,2,0:2:0:0:
384,233,232274,2,0,L|463:239,1,71.2500027179719,0|0,0:0|0:0,0:0:0:0:
476,241,232552,1,2,0:2:0:0:
373,322,232737,1,0,0:0:0:0:
386,149,232923,1,2,0:1:0:0:
271,225,233108,21,0,0:0:0:0:
278,134,233293,2,0,L|283:56,1,71.2500027179719,2|0,0:2|0:0,0:0:0:0:
271,225,233663,1,2,0:2:0:0:
270,247,233756,2,0,L|264:326,1,71.2500027179719,0|0,0:0|0:0,0:0:0:0:
262,339,234034,1,2,0:2:0:0:
278,134,234219,1,0,0:0:0:0:
278,134,234589,21,0,0:0:0:0:
369,141,234774,2,0,L|447:146,1,71.2500027179719,2|0,0:2|0:0,0:0:0:0:
278,134,235144,1,2,0:2:0:0:
256,133,235237,2,0,L|177:127,1,71.2500027179719,0|0,0:0|0:0,0:0:0:0:
164,125,235515,1,2,0:2:0:0:
254,217,235700,1,0,0:0:0:0:
267,44,235886,1,2,0:1:0:0:
369,141,236071,21,0,0:0:0:0:
503,120,236256,1,2,0:2:0:0:
418,52,236441,1,0,0:0:0:0:
451,201,236626,1,2,0:2:0:0:
451,201,236719,2,0,L|443:325,1,106.875004076958,0|2,0:0|0:2,0:0:0:0:
503,120,237182,2,0,L|508:45,1,71.2500027179719,0|2,0:0|0:2,0:0:0:0:
369,141,237552,21,0,0:0:0:0:
235,120,237737,1,2,0:2:0:0:
320,52,237922,1,0,0:0:0:0:
287,201,238107,1,2,0:2:0:0:
287,201,238200,2,0,L|295:325,1,106.875004076958,0|2,0:0|0:2,0:0:0:0:
235,120,238663,2,0,L|230:45,1,71.2500027179719,0|2,0:0|0:0,0:0:0:0:
369,141,239034,21,0,0:0:0:0:
179,194,239219,1,2,0:2:0:0:
394,230,239404,1,0,0:0:0:0:
394,230,239497,1,2,0:2:0:0:
196,278,239682,1,2,0:2:0:0:
196,278,239775,2,0,L|192:362,1,71.2500027179719,0|2,0:0|0:2,0:0:0:0:
91,313,240145,1,0,0:0:0:0:
289,337,240330,22,0,B|387:325|387:325|442:355,2,142.500005435944,2|2|2,0:2|0:2|0:2,0:0:0:0:
202,356,241163,2,2,L|204:383,4,23.75,2|2|2|2|2,0:0|0:0|0:0|0:0|0:0,0:0:0:0:
196,278,241441,22,0,L|193:223,1,35.625001358986
30,256,241626,2,0,L|32:310,1,35.625001358986
116,333,241812,1,0,0:0:0:0:
102,160,241997,21,4,0:0:0:0:
284,134,242182,1,2,0:2:0:0:
92,75,242367,1,8,0:0:0:0:
223,191,242552,1,2,0:2:0:0:
223,191,242645,2,0,P|205:150|212:100,1,95,2|0,0:2|0:0,0:0:0:0:
227,73,242923,2,0,L|285:64,1,47.5
408,75,243108,22,0,B|399:127|399:127|409:162|409:162|399:223,1,142.5,12|0,0:2|0:0,0:0:0:0:
365,283,243478,21,0,0:0:0:0:
486,127,243663,1,2,0:2:0:0:
314,198,243849,1,8,0:0:0:0:
497,223,244034,1,2,0:2:0:0:
497,223,244126,2,0,P|443:202|394:214,1,95,2|0,0:2|0:0,0:0:0:0:
365,283,244404,2,0,L|371:348,1,47.5
255,366,244589,2,0,L|262:257,1,95,12|0,0:2|0:0,0:0:0:0:
160,227,244960,22,0,P|135:233|103:235,1,54.6250010418892,2|0,0:0|0:0,0:0:0:0:
171,42,245145,2,0,P|197:45|232:58,1,54.6250010418892,2|2,0:2|0:2,0:0:0:0:
375,175,245330,1,8,0:0:0:0:
406,143,245423,2,0,P|422:85|409:17,1,109.250002083778,2|2,0:0|0:2,0:0:0:0:
375,175,245700,2,0,L|389:239,1,54.6250010418892,2|2,0:2|0:2,0:0:0:0:
442,282,245886,22,0,L|320:273,1,109.250002083778,2|8,0:0|0:0,0:0:0:0:
156,322,246163,2,2,L|278:313,1,109.250002083778,0|0,0:0|0:0,0:0:0:0:
336,355,246441,21,2,0:0:0:0:
239,166,246626,2,0,P|230:202|229:228,1,54.6250010418892,2|2,0:2|0:2,0:0:0:0:
156,322,246812,21,8,0:0:0:0:
140,281,246904,2,0,P|124:224|132:163,1,109.250002083778,2|2,0:0|0:2,0:0:0:0:
149,33,247182,2,0,P|153:70|147:101,1,54.6250010418892,2|2,0:2|0:2,0:0:0:0:
76,122,247367,22,0,L|37:116,4,27.3125005209446,2|0|0|0|8,0:0|0:0|0:0|0:0|0:0,0:0:0:0:
76,122,247738,2,0,L|139:115,1,54.6250010418892,2|2,0:2|0:2,0:0:0:0:
314,68,247923,21,0,0:0:0:0:
334,199,248108,1,2,0:2:0:0:
445,50,248293,1,8,0:0:0:0:
464,177,248478,21,2,0:2:0:0:
434,166,248571,2,0,L|422:72,1,95,2|0,0:2|0:0,0:0:0:0:
445,50,248849,2,0,L|455:108,1,47.5
488,268,249034,22,0,B|452:268|452:268|412:260|412:260|380:292|380:292|308:292,1,185.249991519928,12|0,0:2|0:0,0:0:0:0:
248,248,249404,21,0,0:0:0:0:
443,347,249589,1,2,0:2:0:0:
334,199,249775,1,8,0:0:0:0:
237,348,249960,21,2,0:2:0:0:
237,348,250052,1,2,0:2:0:0:
237,348,250145,2,0,L|169:346,1,61.7499971733095
18,307,250330,2,0,P|12:344|21:382,1,61.7499971733095
98,340,250515,1,12,0:2:0:0:
248,248,250700,1,0,0:0:0:0:
86,163,250886,22,0,L|80:109,1,47.5,2|0,1:0|0:0,0:0:0:0:
156,64,251071,2,0,L|162:118,1,47.5,2|2,0:2|0:2,0:0:0:0:
4,98,251256,1,8,1:0:0:0:
352,190,251441,21,2,0:1:0:0:
352,190,251534,1,2,0:2:0:0:
352,190,251626,2,0,L|356:134,1,47.5,2|2,0:2|0:2,0:0:0:0:
377,20,251812,1,2,0:1:0:0:
359,236,251997,22,0,L|369:91,1,142.5,8|0,1:0|0:0,0:0:0:0:
377,20,252367,22,0,L|443:13,1,47.5,2|0,0:1|0:0,0:0:0:0:
293,85,252552,2,0,L|227:92,1,47.5,2|2,0:2|0:2,0:0:0:0:
446,114,252738,1,8,1:0:0:0:
179,211,252923,21,2,0:1:0:0:
179,211,253015,1,2,0:2:0:0:
179,211,253108,2,0,B|163:243|163:243|187:321,1,95,0|2,1:0|0:1,0:0:0:0:
333,211,253386,2,0,B|349:243|349:243|325:321,1,95,0|2,1:0|0:2,0:0:0:0:
256,338,253663,2,0,L|256:289,1,47.5,2|2,0:2|0:2,0:0:0:0:
256,100,253849,21,4,0:0:0:0:
60,152,254034,1,0,0:0:0:0:
66,198,254126,2,0,L|72:256,1,47.5,0|0,0:0|2:0,0:0:0:0:
356,133,254404,21,0,0:0:0:0:
156,82,254589,1,0,0:0:0:0:
157,129,254682,2,0,L|160:184,1,47.5,0|0,0:0|2:0,0:0:0:0:
388,184,254960,21,0,0:0:0:0:
353,216,255052,1,0,0:0:0:0:
338,261,255145,1,0,1:0:0:0:
347,307,255238,1,0,1:0:0:0:
380,339,255330,22,2,L|435:363,2,47.5,0|0|2,2:0|2:0|2:1,0:0:0:0:
260,258,255608,1,2,2:1:0:0:
428,264,255700,22,2,L|488:271,2,47.5,0|0|2,2:0|2:0|2:1,0:0:0:0:
260,258,255978,1,2,2:1:0:0:
388,184,256071,22,2,L|442:172,2,47.5,0|0|2,2:0|2:0|2:1,0:0:0:0:
260,258,256349,1,2,2:1:0:0:
299,166,256441,22,0,B|290:136|290:136|295:108|295:108|281:69|281:69|280:25,1,142.5,4|2,2:0|2:0,0:0:0:0:
133,56,256812,6,0,L|213:44,1,71.2500027179719,6|0,0:0|0:0,0:0:0:0:
434,73,256997,2,2,L|354:61,1,71.2500027179719,0|2,0:0|0:0,0:0:0:0:
130,163,257182,2,2,L|210:151,1,71.2500027179719,12|2,0:2|0:0,0:0:0:0:
453,181,257367,2,0,L|373:169,1,71.2500027179719,2|2,0:2|0:2,0:0:0:0:
196,321,257552,21,2,0:1:0:0:
231,345,257645,1,0,0:0:0:0:
273,343,257738,1,2,0:2:0:0:
309,321,257830,1,2,0:2:0:0:
326,281,257923,2,0,P|331:238|331:204,1,71.2500027179719,12|0,0:2|0:0,0:0:0:0:
263,58,258108,2,0,P|258:101|258:135,1,71.2500027179719,2|2,0:2|0:2,0:0:0:0:
153,245,258293,21,2,0:0:0:0:
110,252,258386,1,0,0:0:0:0:
71,233,258478,1,0,0:0:0:0:
48,196,258571,1,2,0:0:0:0:
46,153,258663,2,2,B|41:117|41:117|57:78,1,71.2500027179719,12|2,0:2|0:0,0:0:0:0:
224,115,258849,2,0,B|229:151|229:151|213:190,1,71.2500027179719,2|2,0:2|0:0,0:0:0:0:
106,303,259034,22,2,L|130:163,1,142.500005435944,2|0,0:0|0:0,0:0:0:0:
76,49,259312,2,2,B|57:82|57:82|189:65,1,142.500005435944,2|0,0:0|0:0,0:0:0:0:
224,115,259589,1,2,0:0:0:0:
384,61,259775,22,0,B|393:107|393:107|383:159,1,95,4|2,0:2|0:2,0:0:0:0:
337,171,260052,2,0,B|383:162|383:162|435:172,1,95,2|2,0:2|0:2,0:0:0:0:
467,180,260330,1,4,0:2:0:0:
418,362,260515,21,2,0:2:0:0:
393,348,260608,2,0,B|384:302|384:302|394:250,1,95,2|2,0:2|0:2,0:0:0:0:
417,243,260886,1,12,0:2:0:0:
285,101,261071,22,0,P|213:83|271:198,1,285.000010871888,2|4,0:0|3:0,0:0:0:0:
290,199,261534,1,4,3:0:0:0:
318,195,261626,22,0,L|325:259,1,47.5,8|4,3:1|3:0,0:0:0:0:
244,353,261812,2,0,L|239:306,1,47.5,6|4,3:0|3:0,0:0:0:0:
156,283,261997,22,0,B|109:291|109:291|55:272,1,95,4|2,0:2|0:2,0:0:0:0:
67,241,262275,2,0,B|111:256|111:256|158:248,1,95,2|2,0:2|0:2,0:0:0:0:
165,213,262552,2,0,L|109:222,1,47.5,4|2,0:2|0:2,0:0:0:0:
88,131,262738,22,0,P|89:91|110:47,1,71.2500027179719,2|0,0:0|0:0,0:0:0:0:
319,196,262923,2,2,P|318:236|297:280,1,71.2500027179719,0|2,0:0|0:0,0:0:0:0:
186,114,263108,2,2,L|283:104,1,71.2500027179719,12|2,0:2|0:0,0:0:0:0:
464,53,263293,2,0,L|367:63,1,71.2500027179719,2|2,0:2|0:2,0:0:0:0:
421,298,263478,21,2,0:1:0:0:
450,266,263571,1,0,0:0:0:0:
461,224,263663,2,0,P|463:188|453:147,1,71.2500027179719,2|2,0:2|0:2,0:0:0:0:
226,188,263849,21,12,0:2:0:0:
197,156,263942,1,0,0:0:0:0:
186,114,264034,2,0,P|184:78|194:37,1,71.2500027179719,2|2,0:2|0:2,0:0:0:0:
338,57,264219,22,0,L|331:146,1,71.2500027179719,2|0,0:0|0:0,0:0:0:0:
258,336,264404,2,2,L|265:247,1,71.2500027179719,0|2,0:0|0:0,0:0:0:0:
97,98,264589,1,12,0:2:0:0:
81,119,264682,2,0,B|53:162|53:162|83:258,1,142.500005435944,2|2,0:0|0:0,0:0:0:0:
197,239,264960,22,2,B|274:217|254:280|355:260,1,142.500005435944,2|0,0:0|0:0,0:0:0:0:
372,193,265238,2,2,L|350:351,1,142.500005435944,2|0,0:0|0:0,0:0:0:0:
449,235,265515,2,0,L|438:319,1,71.2500027179719,2|0,0:0|0:0,0:0:0:0:
332,263,265700,21,4,0:2:0:0:
276,94,265886,1,2,0:2:0:0:
276,94,265978,2,0,B|298:119|298:119|291:190,1,95,2|2,0:2|0:2,0:0:0:0:
200,284,266256,2,0,B|222:258|222:258|215:187,1,95,4|2,0:2|0:2,0:0:0:0:
118,122,266534,2,0,B|140:147|140:147|133:218,1,95,2|2,0:2|0:2,0:0:0:0:
55,222,266812,21,12,0:2:0:0:
293,180,266997,2,0,B|453:156|453:156|421:208,1,213.750008153916,2|2,0:0|2:0,0:0:0:0:
213,222,267367,22,0,B|202:174|202:174|225:122,1,95,0|2,0:0|2:0,0:0:0:0:
258,64,267645,1,2,2:0:0:0:
258,64,267738,2,0,L|206:59,1,47.5
74,189,267923,2,2,L|115:180,4,31.6666666666667,2|0|0|0|2,0:2|0:0|0:0|0:0|0:0,0:0:0:0:
211,290,268293,2,0,B|221:252|221:252|206:200,1,71.2500027179719
153,109,268478,1,2,0:0:0:0:
153,109,268663,22,0,L|62:101,1,71.2500027179719,6|0,0:0|0:0,0:0:0:0:
60,344,268849,2,2,L|151:336,1,71.2500027179719,0|2,0:0|0:0,0:0:0:0:
341,268,269034,22,2,B|343:306|343:306|328:350,1,71.2500027179719,12|2,0:2|0:0,0:0:0:0:
172,260,269219,2,0,B|170:222|170:222|185:178,1,71.2500027179719,2|2,0:2|0:2,0:0:0:0:
365,178,269404,21,2,0:1:0:0:
400,183,269497,1,0,0:0:0:0:
434,173,269589,1,2,0:2:0:0:
457,145,269682,1,2,0:2:0:0:
458,109,269775,1,12,0:2:0:0:
447,75,269867,1,0,0:0:0:0:
417,54,269960,1,2,0:2:0:0:
381,52,270052,1,2,0:2:0:0:
351,72,270145,22,0,L|260:64,1,71.2500027179719,2|0,0:0|0:0,0:0:0:0:
340,268,270330,2,2,L|431:276,1,71.2500027179719,0|2,0:0|0:0,0:0:0:0:
272,196,270515,1,12,0:2:0:0:
272,196,270608,2,0,L|268:152,4,35.625001358986,2|0|2|0|2,0:0|0:0|0:2|0:0|0:0,0:0:0:0:
242,277,270886,22,2,B|142:268|142:268|93:298,1,142.500005435944,2|0,0:0|0:0,0:0:0:0:
51,353,271163,2,2,B|29:317|29:317|38:217,1,142.500005435944,2|0,0:0|0:0,0:0:0:0:
44,178,271441,2,0,L|49:136,4,35.625001358986,2|0|0|0|4,0:0|0:0|0:0|0:0|0:2,0:0:0:0:
311,79,271812,21,2,0:2:0:0:
290,104,271904,2,0,B|243:113|243:113|196:89,1,95,2|2,0:2|0:2,0:0:0:0:
172,70,272182,2,0,L|187:187,1,95,4|2,0:2|0:2,0:0:0:0:
177,196,272460,1,2,0:2:0:0:
248,26,272645,1,2,0:2:0:0:
248,26,272738,1,12,0:2:0:0:
430,162,272923,2,0,L|445:45,1,95,2|0,0:2|0:0,0:0:0:0:
442,67,273293,22,0,P|477:65|494:59,1,47.5,4|2,0:2|0:2,0:0:0:0:
358,103,273478,2,0,P|323:105|306:111,1,47.5,10|2,0:2|0:2,0:0:0:0:
371,12,273663,1,4,0:2:0:0:
430,162,273849,2,0,L|441:263,1,95,4|2,0:2|0:2,0:0:0:0:
446,291,274126,21,2,0:2:0:0:
446,291,274219,2,0,L|388:292,1,47.5,10|2,0:2|0:2,0:0:0:0:
130,329,274404,2,0,L|72:330,1,47.5,4|2,0:2|0:2,0:0:0:0:
250,299,274589,22,0,P|253:337|243:383,1,71.2500027179719,2|0,0:0|0:0,0:0:0:0:
132,220,274775,2,2,P|129:182|139:136,1,71.2500027179719,0|2,0:0|0:0,0:0:0:0:
199,62,274960,22,2,L|360:47,1,142.500005435944,10|2,0:0|0:2,0:0:0:0:
426,150,275238,1,2,0:2:0:0:
426,150,275330,2,0,B|436:185|436:185|424:236,1,71.2500027179719,2|0,0:1|0:0,0:0:0:0:
308,279,275515,2,0,B|318:244|318:244|306:193,1,71.2500027179719,2|2,0:2|0:2,0:0:0:0:
197,129,275700,2,0,B|187:164|187:164|199:215,1,71.2500027179719,12|0,0:2|0:0,0:0:0:0:
76,224,275886,2,0,B|66:189|66:189|78:138,1,71.2500027179719,2|2,0:2|0:2,0:0:0:0:
308,279,276071,22,0,L|389:282,1,71.2500027179719,2|0,0:0|0:0,0:0:0:0:
140,328,276256,2,2,L|59:325,1,71.2500027179719,0|2,0:0|0:0,0:0:0:0:
220,362,276441,2,2,B|232:326|232:326|223:264|223:264|240:212,1,142.500005435944,10|2,0:0|0:2,0:0:0:0:
285,164,276719,2,2,L|279:126,2,35.625001358986,2|0|2,0:2|0:0|0:0,0:0:0:0:
98,167,276997,21,2,0:2:0:0:
63,158,277089,1,2,0:2:0:0:
28,149,277182,2,2,P|76:124|141:183,1,142.500005435944,10|2,0:0|0:0,0:0:0:0:
220,362,277552,21,4,0:0:0:0:
416,274,277738,1,2,0:2:0:0:
437,264,277830,1,2,0:0:0:0:
319,318,278015,1,2,0:2:0:0:
319,318,278108,1,2,0:0:0:0:
469,131,278293,21,4,0:0:0:0:
273,219,278479,1,2,0:2:0:0:
252,229,278571,1,2,0:0:0:0:
370,175,278756,1,2,0:2:0:0:
370,175,278849,1,2,0:0:0:0:
158,231,279034,21,4,0:2:0:0:
351,247,279219,1,2,0:0:0:0:
238,106,279404,22,0,L|248:161,1,41.5625003963709
255,96,279497,2,0,L|259:145,1,41.5625003963709
274,91,279589,2,0,L|275:146,1,41.5625003963709
291,92,279682,2,0,L|288:142,1,41.5625003963709
310,95,279775,1,0,0:0:0:0:
101,68,279960,21,2,2:0:0:0:
101,68,280052,2,0,L|90:181,1,113.999996520996,0|0,0:0|2:0,0:0:0:0:
55,248,280330,2,0,B|84:261|84:261|119:251,1,56.9999982604981,2|2,2:0|2:0,0:0:0:0:
289,179,280515,5,4,0:1:0:0:
289,179,280608,1,2,0:2:0:0:
391,325,280793,1,2,0:2:0:0:
391,325,280886,1,10,0:2:0:0:
289,179,281071,2,0,L|277:118,1,47.5
361,131,281256,2,0,L|366:58,1,47.5,2|2,0:2|0:2,0:0:0:0:
440,115,281441,1,2,0:2:0:0:
502,231,281626,2,0,B|407:209|407:209|361:231,1,142.5,10|0,0:2|0:0,0:0:0:0:
299,273,281997,21,2,0:2:0:0:
299,273,282089,1,2,0:2:0:0:
197,127,282274,1,2,0:2:0:0:
197,127,282367,1,10,0:2:0:0:
299,273,282552,2,0,L|311:334,1,47.5
227,321,282737,2,0,L|222:394,1,47.5,2|2,0:2|0:2,0:0:0:0:
148,337,282922,1,2,0:2:0:0:
74,216,283108,1,10,0:2:0:0:
113,189,283200,1,2,0:2:0:0:
160,193,283293,1,2,0:2:0:0:
148,337,283478,22,0,L|38:353,1,95,2|2,0:2|0:2,0:0:0:0:
282,314,283849,1,10,0:2:0:0:
224,221,284034,2,0,L|201:157,2,47.5,0|0|2,0:0|0:0|0:2,0:0:0:0:
327,215,284404,2,0,L|336:109,1,95,2|10,0:2|0:2,0:0:0:0:
424,310,284775,1,2,0:2:0:0:
424,310,284867,1,2,0:2:0:0:
424,310,284960,22,0,P|395:315|364:325,1,47.5,2|0,0:2|0:0,0:0:0:0:
291,182,285145,1,0,0:0:0:0:
291,182,285238,2,0,P|266:180|235:170,1,47.5,2|8,0:2|0:0,0:0:0:0:
220,355,285423,1,0,0:0:0:0:
220,355,285515,2,0,P|192:357|157:371,1,47.5,2|0,0:2|0:0,0:0:0:0:
83,360,285700,22,0,B|87:242|87:242|122:282,1,142.5,2|2,0:2|0:2,0:0:0:0:
181,265,286071,1,8,0:0:0:0:
2,253,286256,1,2,0:2:0:0:
131,113,286441,22,0,L|137:172,1,47.5,2|2,0:2|0:2,0:2:0:0:
306,333,286719,1,2,0:2:0:0:
306,333,286812,2,0,L|291:213,1,95,10|0,0:2|0:0,0:0:0:0:
192,18,287182,21,2,0:2:0:0:
220,55,287275,1,2,0:2:0:0:
261,78,287367,1,2,0:2:0:0:
308,83,287460,1,2,0:2:0:0:
353,70,287552,21,10,0:2:0:0:
307,56,287645,1,2,0:2:0:0:
261,78,287738,1,2,0:2:0:0:
235,117,287830,1,2,0:2:0:0:
226,164,287923,22,0,L|220:218,1,47.5,2|2,0:2|0:2,0:0:0:0:
70,364,288200,1,2,0:2:0:0:
70,364,288293,2,0,L|85:244,1,95,10|0,0:2|0:0,0:0:0:0:
207,131,288663,21,2,0:2:0:0:
179,168,288756,1,2,0:2:0:0:
138,191,288848,1,2,0:2:0:0:
91,196,288941,1,2,0:2:0:0:
46,183,289033,21,10,0:2:0:0:
92,169,289126,1,2,0:2:0:0:
138,191,289219,1,2,0:2:0:0:
164,230,289311,1,2,0:2:0:0:
173,277,289404,22,0,L|178:331,1,47.5,2|2,0:2|0:2,0:0:0:0:
376,336,289682,1,2,0:2:0:0:
376,336,289775,2,0,L|257:347,1,95,10|0,0:2|0:0,0:0:0:0:
392,254,290052,1,0,0:0:0:0:
392,254,290145,2,0,L|273:265,1,95,2|2,0:2|0:2,0:0:0:0:
406,174,290423,1,2,0:2:0:0:
406,174,290515,2,0,L|335:179,1,47.5,10|2,0:2|0:2,0:0:0:0:
281,344,290700,22,0,B|381:334|381:334|438:363,2,142.500005435944,2|2|2,0:2|0:2|0:2,0:0:0:0:
256,257,291534,2,2,L|258:230,4,23.75
183,319,291812,22,0,L|141:324,1,35.625001358986
327,220,291997,2,0,L|375:215,1,35.625001358986
158,174,292182,1,0,0:0:0:0:
325,61,292367,21,2,0:2:0:0:
325,61,292460,1,2,0:2:0:0:
256,257,292645,1,2,0:2:0:0:
256,257,292738,1,10,0:2:0:0:
187,61,292923,1,0,0:0:0:0:
183,319,293108,21,2,0:2:0:0:
147,342,293200,1,2,0:2:0:0:
105,353,293293,2,0,P|77:356|53:348,1,47.5,2|2,0:2|0:2,0:0:0:0:
6,173,293478,21,10,0:2:0:0:
42,196,293570,1,2,0:2:0:0:
84,207,293663,2,0,P|112:210|136:202,1,47.5,2|2,0:2|0:2,0:0:0:0:
187,61,293849,21,2,0:2:0:0:
187,61,293942,1,2,0:2:0:0:
256,257,294127,1,2,0:2:0:0:
256,257,294220,1,10,0:2:0:0:
325,61,294405,1,0,0:0:0:0:
329,319,294590,21,2,0:2:0:0:
365,342,294682,1,2,0:2:0:0:
407,353,294775,2,0,P|435:356|459:348,1,47.5,2|2,0:2|0:2,0:0:0:0:
506,173,294960,21,10,0:2:0:0:
470,196,295052,1,2,0:2:0:0:
428,207,295145,2,0,P|400:210|376:202,1,47.5,2|2,0:2|0:2,0:0:0:0:
256,132,295330,21,2,0:2:0:0:
256,132,295423,1,2,0:2:0:0:
436,96,295608,1,2,0:2:0:0:
436,96,295700,1,10,0:2:0:0:
356,183,295886,2,0,L|346:72,1,95
338,294,296256,2,0,L|409:288,1,47.5,2|2,0:2|0:2,0:0:0:0:
231,238,296441,2,0,B|154:220|173:279|79:255,1,142.5,10|0,0:2|0:0,0:0:0:0:
110,165,296812,22,0,L|91:276,1,95,4|0,0:2|0:0,0:0:0:0:
226,145,297182,2,0,L|272:231,1,95,12|0,0:2|0:0,0:0:0:0:
177,371,297460,1,0,0:0:0:0:
177,371,297552,2,0,B|197:304|197:304|179:224,1,142.5,4|0,0:2|0:0,0:0:0:0:
110,165,297923,2,0,L|85:107,1,47.5,8|0,0:0|0:0,0:0:0:0:
226,145,298108,2,0,L|228:84,1,47.5
312,76,298293,21,2,0:2:0:0:
312,76,298386,1,2,0:2:0:0:
415,187,298571,1,2,0:2:0:0:
415,187,298663,1,10,0:2:0:0:
451,31,298849,1,0,0:0:0:0:
326,166,299034,21,2,0:2:0:0:
322,208,299126,1,2,0:2:0:0:
319,250,299219,2,0,L|315:302,1,47.5,2|2,0:2|0:2,0:0:0:0:
485,235,299404,21,10,0:2:0:0:
489,277,299496,1,2,0:2:0:0:
492,319,299589,2,0,L|496:371,1,47.5,2|2,0:2|0:2,0:0:0:0:
486,123,299775,21,2,0:2:0:0:
486,123,299867,1,2,0:2:0:0:
372,17,300052,1,2,0:2:0:0:
372,17,300145,1,10,0:2:0:0:
326,166,300330,1,0,0:0:0:0:
279,85,300515,21,6,0:2:0:0:
90,140,300700,1,2,0:2:0:0:
90,140,300793,1,2,0:2:0:0:
90,140,300886,2,0,L|152:146,1,47.5,14|2,0:2|0:2,0:0:0:0:
214,159,301071,1,6,0:2:0:0:
167,382,301256,22,0,B|138:335|138:335|157:243,1,142.5,4|2,0:0|0:1,0:0:0:0:
155,249,301626,2,0,L|101:254,1,47.5
28,263,301812,1,2,0:1:0:0:
224,311,301997,21,4,0:0:0:0:
326,166,302182,1,0,0:0:0:0:
326,166,302275,1,2,0:1:0:0:
355,350,302460,1,0,0:0:0:0:
355,350,302552,2,0,L|416:343,1,47.5,2|0,0:1|0:0,0:0:0:0:
504,219,302738,22,0,L|507:188,4,23.75,4|0|0|0|2,0:2|0:0|0:0|0:0|0:2,0:0:0:0:
457,288,303016,2,2,B|419:265|419:265|358:272,1,95,2|2,0:0|0:2,0:0:0:0:
231,202,303294,2,0,L|220:163,2,23.75,2|0|0,0:0|0:0|0:0,0:0:0:0:
231,202,303478,22,0,B|264:198|264:198|287:204|287:204|303:180|303:180|332:186|332:186|396:180,1,142.500005435944,0|0,1:0|0:0,0:0:0:0:
408,97,303756,1,0,1:0:0:0:
421,93,304034,2,0,L|339:103,1,71.2500027179719,2|2,2:0|2:0,0:0:0:0:
69,169,304219,22,0,L|72:144,6,23.75
54,249,304589,2,0,L|58:329,1,71.2500027179719,8|0,0:2|0:0,0:0:0:0:
58,349,304867,1,0,0:0:0:0:
58,349,304960,2,0,L|114:349,1,47.5,2|2,0:2|0:2,0:0:0:0:
264,267,305145,2,0,L|217:267,1,47.5,2|0,0:1|0:0,0:0:0:0:
69,169,305330,2,0,L|125:169,1,47.5,2|2,0:2|0:2,0:0:0:0:
254,76,305515,2,0,L|198:76,1,47.5,2|0,0:1|0:0,0:0:0:0:
68,58,305700,21,4,0:0:0:0:
68,58,305793,1,2,0:2:0:0:
268,158,305978,1,2,0:0:0:0:
148,126,306163,1,2,0:2:0:0:
148,126,306256,2,0,L|153:182,1,39.4250005714989,2|2,0:2|0:1,0:0:0:0:
204,262,306441,21,0,0:0:0:0:
90,340,306626,2,0,L|31:347,1,39.4250005714989,2|2,2:0|2:0,0:0:0:0:
223,260,306812,2,0,B|348:247|348:247|309:284,1,178.125,4|0,0:2|0:0,0:0:0:0:
184,350,307182,21,0,0:0:0:0:
184,350,307275,1,2,0:2:0:0:
268,158,307460,1,2,0:1:0:0:
123,263,307645,1,2,0:2:0:0:
123,263,307738,2,0,L|130:211,1,39.4250005714989,2|2,0:2|0:1,0:0:0:0:
268,158,307923,21,0,3:2:0:0:
287,161,308015,1,0,3:2:0:0:
306,164,308108,2,0,L|355:172,1,39.4250005714989,2|2,0:2|0:2,0:0:0:0:
401,254,308293,21,0,3:2:0:0:
382,257,308385,1,0,3:2:0:0:
363,260,308478,2,0,L|314:268,1,39.4250005714989,2|2,0:2|0:2,0:0:0:0:
273,332,308663,21,0,0:0:0:0:
273,332,308756,1,2,0:2:0:0:
248,76,308941,1,2,0:1:0:0:
186,287,309126,1,2,0:2:0:0:
186,287,309219,2,0,L|197:232,1,39.4250005714989,2|2,0:2|0:1,0:0:0:0:
208,168,309404,21,0,0:0:0:0:
342,263,309589,2,0,L|406:266,1,39.4250005714989,2|2,2:0|2:0,0:0:0:0:
191,167,309775,2,0,B|51:161|51:161|101:185,1,178.125,4|0,0:2|0:0,0:0:0:0:
272,307,310145,22,0,B|259:269|259:269|269:210,1,78.8500011429978,4|2,0:2|0:2,0:0:0:0:
342,263,310423,1,2,0:2:0:0:
411,220,310515,2,0,B|424:258|424:258|414:317,1,78.8500011429978,4|2,0:2|0:2,0:0:0:0:
349,346,310793,1,2,0:2:0:0:
342,263,310886,2,0,L|331:131,1,118.275001714497,4|0,0:2|2:0,0:0:0:0:
399,58,311256,22,0,L|463:61,1,39.4250005714989,2|2,0:2|0:2,0:0:0:0:
409,138,311441,2,0,L|473:141,1,39.4250005714989,2|2,0:2|0:2,0:0:0:0:
330,109,311626,21,4,0:0:0:0:
330,109,311719,1,2,0:2:0:0:
114,168,311904,1,2,0:1:0:0:
114,168,311997,2,0,L|121:110,1,39.4250005714989,8|2,0:0|0:2,0:0:0:0:
176,70,312182,2,0,L|183:12,1,39.4250005714989,2|2,0:2|0:1,0:0:0:0:
304,242,312367,21,0,0:0:0:0:
278,272,312460,1,2,2:0:0:0:
239,279,312552,1,2,2:0:0:0:
202,264,312645,1,2,2:0:0:0:
244,199,312738,22,0,L|261:379,1,178.125,8|0,0:2|0:0,0:0:0:0:
341,356,313108,21,0,0:0:0:0:
341,356,313200,1,2,0:2:0:0:
177,339,313386,1,2,0:1:0:0:
177,339,313478,2,0,L|118:349,1,39.4250005714989,8|2,0:0|0:2,0:0:0:0:
119,267,313663,2,0,L|60:277,1,39.4250005714989,2|2,0:2|0:1,0:0:0:0:
348,245,313849,22,0,L|407:255,1,39.4250005714989,0|0,3:0|3:0,0:0:0:0:
406,173,314034,2,0,L|465:183,1,39.4250005714989,2|2,0:2|0:2,0:0:0:0:
208,120,314219,22,0,L|149:130,1,39.4250005714989,8|0,3:2|3:0,0:0:0:0:
150,48,314404,2,0,L|91:58,1,39.4250005714989,2|2,0:2|0:2,0:0:0:0:
361,71,314589,22,0,L|365:36,4,23.75,0|0|0|0|0,1:0|0:0|0:0|0:0|0:0,0:0:0:0:
328,159,314867,2,0,P|263:167|203:108,1,142.500005435944,6|0,0:1|0:0,0:0:0:0:
120,132,315145,2,0,L|127:68,1,47.5
207,221,315330,21,4,0:0:0:0:
207,221,315423,1,0,0:0:0:0:
291,86,315608,1,2,0:1:0:0:
291,86,315700,1,0,0:0:0:0:
443,140,315886,1,2,0:1:0:0:
443,140,315978,1,0,0:1:0:0:
443,140,316071,22,0,L|438:197,1,47.5,4|0,0:0|0:0,0:0:0:0:
305,178,316256,2,0,L|310:235,1,47.5
437,221,316441,22,0,L|444:260,2,23.75
310,254,316626,2,0,L|303:293,2,23.75
420,326,316812,22,0,L|370:326,1,47.5
75,330,316997,2,2,B|105:323|105:323|132:337|132:337|160:330|160:330|226:332,1,142.500005435944,2|2,0:0|2:0,0:0:0:0:
310,254,317275,22,2,B|280:247|280:247|253:261|253:261|225:254|225:254|159:256,1,142.500005435944,2|2,0:0|2:0,0:0:0:0:
69,243,317553,38,0,L|57:90,1,142.500005435944,6|0,1:0|2:0,0:0:0:0:
256,192,317923,12,0,322367,2:0:0:0:
