osu file format v14

[General]
AudioFilename: audio.mp3
AudioLeadIn: 0
PreviewTime: 72195
Countdown: 0
SampleSet: Soft
StackLeniency: 0.7
Mode: 2
LetterboxInBreaks: 0
WidescreenStoryboard: 1

[Editor]
Bookmarks: 13028,24880,36732,48584,60436,72288,84139,95991
DistanceSpacing: 1.3
BeatDivisor: 4
GridSize: 32
TimelineZoom: 2.3

[Metadata]
Title:Playing With Fire (Sota Fujimori Remix)
TitleUnicode:Playing With Fire (Sota Fujimori Remix)
Artist:kors k
ArtistUnicode:kors k
Creator:Ascendance
Version:Fiance's Special
Source:REFLEC BEAT groovin'!!
Tags:Kosuke Saito 斉藤広祐 藤森崇多 VOLZZA 2 Spectator fii -wwwww kaitlin
BeatmapID:1576510
BeatmapSetID:683343

[Difficulty]
HPDrainRate:6
CircleSize:3
OverallDifficulty:9.3
ApproachRate:9.3
SliderMultiplier:2.26
SliderTickRate:2

[Events]
//Background and Video events
0,0,"pwf.png",0,0
//Break Periods
2,36932,45345
//Storyboard Layer 0 (Background)
//Storyboard Layer 1 (Fail)
//Storyboard Layer 2 (Pass)
//Storyboard Layer 3 (Foreground)
//Storyboard Sound Samples

[TimingPoints]
1177,370.37037037037,4,2,0,60,1,0
13028,-100,4,2,20,60,0,0
13121,-100,4,2,1,80,0,0
23954,-100,4,2,1,50,0,0
24139,-100,4,2,1,80,0,0
36732,-100,4,2,1,50,0,0
69325,-83.3333333333333,4,2,1,70,0,0
70806,-83.3333333333333,4,2,1,55,0,0
71917,-83.3333333333333,4,2,1,60,0,0
72288,-76.9230769230769,4,2,1,80,0,1
82473,-83.3333333333333,4,2,1,80,0,0
82751,-83.3333333333333,4,2,1,68,0,0
84139,-76.9230769230769,4,2,1,80,0,1
95991,-100,4,2,1,70,0,0
112288,-100,4,2,1,50,0,0
113028,-100,4,2,1,30,0,0
113769,-100,4,2,1,10,0,0

[Colours]
Combo1 : 64,64,255
Combo2 : 255,42,96
Combo3 : 240,240,16
Combo4 : 0,190,224

[HitObjects]
94,331,1177,6,0,P|64:269|105:221,1,113,4|0,0:0|0:0,0:0:0:0:
156,215,1454,1,2,0:0:0:0:
301,137,1732,2,0,L|120:137,1,169.5,2|0,0:0|0:0,0:0:0:0:
326,44,2288,2,0,L|457:44,1,113,2|0,0:0|0:0,0:0:0:0:
102,323,2658,6,0,L|89:238,1,56.5,2|0,0:0|0:0,0:0:0:0:
237,229,2936,2,0,L|393:209,1,113,2|0,0:0|0:0,0:0:0:0:
148,173,3214,2,0,P|102:126|166:39,1,169.5,2|2,0:0|0:0,0:0:0:0:
349,16,3584,2,0,L|497:6,2,113,0|2|0,0:0|0:0|0:0,0:0:0:0:
45,8,4139,5,2,0:0:0:0:
176,83,4325,2,0,L|188:143,2,56.5,0|0|2,0:0|0:0|0:0,0:0:0:0:
45,8,4695,2,0,L|166:0,1,113,2|0,0:0|0:0,0:0:0:0:
230,36,4973,1,2,0:0:0:0:
67,169,5251,2,0,L|52:52,1,113,2|0,0:0|0:0,0:0:0:0:
373,289,5621,6,0,L|397:221,1,56.5,2|0,0:0|0:0,0:0:0:0:
245,195,5899,2,0,L|119:170,1,113
340,96,6176,2,0,L|518:68,1,169.5,2|0,0:0|0:0,0:0:0:0:
280,213,6732,2,0,L|417:240,1,113,2|0,0:0|0:0,0:0:0:0:
62,344,7102,6,0,P|35:255|105:212,1,169.5,4|0,0:0|0:0,0:0:0:0:
272,268,7473,2,0,L|292:133,1,113,0|0,1:0|1:0,0:0:0:0:
145,179,7843,1,0,1:0:0:0:
293,107,8028,2,0,L|370:94,2,56.5,0|0|0,3:0|0:0|1:0,0:0:0:0:
145,179,8399,1,2,0:0:0:0:
445,346,8584,6,0,P|484:269|420:222,1,169.5,0|0,1:0|3:0,0:0:0:0:
253,272,8954,2,0,L|241:150,1,113,0|0,1:0|1:0,0:0:0:0:
372,120,9325,1,0,3:0:0:0:
242,151,9510,1,2,0:0:0:0:
185,144,9602,1,0,0:0:0:0:
129,138,9695,1,0,1:0:0:0:
284,78,9880,2,0,L|295:17,1,56.5,0|0,1:0|1:0,0:0:0:0:
32,268,10065,6,0,L|152:243,2,113,0|4|0,1:0|3:0|1:0,0:0:0:0:
200,328,10621,2,0,L|210:259,1,56.5,2|0,0:0|0:0,0:0:0:0:
115,223,10806,2,0,L|129:154,1,56.5,0|0,1:0|3:0,0:0:0:0:
218,145,10991,2,0,L|291:142,1,56.5,0|0,3:0|0:0,0:0:0:0:
68,70,11176,2,0,L|135:68,1,56.5,0|0,1:0|1:0,0:0:0:0:
330,67,11362,2,0,L|416:67,1,56.5,0|0,1:0|0:0,0:0:0:0:
145,22,11547,5,6,0:0:0:0:
356,60,12102,2,0,L|344:130,1,56.5,2|0,0:0|0:0,0:0:0:0:
260,150,12287,2,0,L|209:183,1,56.5,2|0,0:0|0:0,0:0:0:0:
131,213,12473,2,0,L|57:198,1,56.5,0|0,0:0|0:0,0:0:0:0:
275,304,12658,2,0,L|354:290,1,56.5,2|0,0:0|0:0,0:0:0:0:
132,214,12843,2,0,L|59:202,1,56.5,2|0,0:0|0:0,0:0:0:0:
361,41,13028,6,0,L|494:61,1,113,12|0,0:0|0:0,0:0:0:0:
302,180,13399,2,0,L|435:160,1,113,8|0,1:0|0:0,0:0:0:0:
242,47,13769,1,4,1:0:0:0:
297,55,13861,1,0,0:0:0:0:
353,63,13954,1,0,0:0:0:0:
140,92,14047,2,0,L|123:225,1,113,2|0,2:0|0:0,0:0:0:0:
233,315,14325,2,0,L|328:336,1,56.5,2|0,0:0|0:0,0:0:0:0:
32,180,14510,6,0,L|43:311,1,113,4|0,1:0|0:0,0:0:0:0:
211,77,14880,2,0,L|84:66,1,113,8|0,1:0|0:0,0:0:0:0:
377,126,15251,2,0,L|517:110,1,113,0|2,1:0|0:0,0:0:0:0:
208,329,15528,2,0,P|195:256|252:206,1,113,2|0,0:0|0:0,0:0:0:0:
440,82,15806,2,0,L|519:74,1,56.5,2|0,0:0|0:0,0:0:0:0:
230,194,15991,6,0,L|101:173,1,113,4|0,1:0|0:0,0:0:0:0:
291,58,16362,2,0,L|162:79,1,113,8|0,1:0|0:0,0:0:0:0:
15,341,16732,1,4,1:0:0:0:
70,350,16824,1,0,0:0:0:0:
126,359,16917,1,0,0:0:0:0:
440,377,17010,2,0,L|452:248,1,113,2|0,0:0|0:0,0:0:0:0:
351,221,17288,2,0,L|343:145,1,56.5,2|0,0:0|0:0,0:0:0:0:
80,171,17473,6,0,L|68:42,1,113,4|0,1:0|0:0,0:0:0:0:
241,319,17843,2,0,P|174:301|110:303,1,113,8|0,1:0|0:0,0:0:0:0:
471,228,18214,2,0,L|483:99,1,113,0|2,1:0|0:0,0:0:0:0:
383,88,18491,1,2,0:0:0:0:
285,125,18584,2,0,L|273:-4,1,113,0|0,0:0|3:0,0:0:0:0:
317,6,18815,1,0,0:0:0:0:
360,0,18862,1,0,0:0:0:0:
142,268,18954,6,0,L|21:282,1,113,4|0,1:2|0:0,0:0:0:0:
202,357,19325,2,0,L|323:371,1,113,8|0,1:0|0:0,0:0:0:0:
146,179,19695,1,4,1:0:0:0:
89,185,19787,1,0,0:0:0:0:
33,191,19880,1,2,0:0:0:0:
277,81,19973,2,0,P|334:70|387:41,1,113,2|0,0:0|0:0,0:0:0:0:
328,29,20251,2,0,L|263:17,1,56.5,2|0,0:0|0:0,0:0:0:0:
496,286,20436,6,0,L|376:301,1,113,4|0,1:0|0:0,0:0:0:0:
210,206,20806,2,0,L|330:221,1,113,8|0,1:0|0:0,0:0:0:0:
4,67,21176,2,0,P|39:64|118:30,1,113,4|2,1:0|0:0,0:0:0:0:
315,63,21454,2,0,L|331:189,1,113,2|0,0:0|0:0,0:0:0:0:
39,190,21732,2,0,L|27:255,1,56.5,2|0,0:0|0:0,0:0:0:0:
343,356,21917,6,0,P|416:335|466:338,1,113,0|0,1:0|1:0,0:0:0:0:
205,309,22195,1,4,1:3:0:0:
385,231,22473,2,0,P|333:222|308:225,1,56.5,0|0,3:0|0:0,0:0:0:0:
98,127,22658,2,0,L|108:260,1,113,4|0,0:0|0:0,0:0:0:0:
360,17,22936,2,0,L|370:150,1,113,4|0,1:0|0:0,0:0:0:0:
134,45,23214,2,0,L|129:115,1,56.5,0|0,1:0|0:0,0:0:0:0:
382,359,23399,6,0,L|319:348,2,56.5,2|0|0,0:0|0:0|0:0,0:0:0:0:
63,306,23769,1,2,0:0:0:0:
205,281,23954,1,0,1:0:0:0:
232,274,24000,1,0,1:0:0:0:
259,267,24046,1,0,1:0:0:0:
48,242,24139,6,0,L|51:184,1,56.5,4|0,1:0|0:0,0:0:0:0:
254,124,24325,2,0,L|307:105,1,56.5,4|0,1:0|0:0,0:0:0:0:
125,54,24510,2,0,L|62:37,1,56.5,2|4,0:0|1:2,0:0:0:0:
369,159,24695,2,0,L|432:142,1,56.5,0|0,0:0|0:0,0:0:0:0:
101,348,24880,5,4,0:1:0:0:
51,322,24972,1,0,0:0:0:0:
24,274,25065,1,0,0:0:0:0:
27,218,25157,1,0,0:0:0:0:
61,173,25250,1,8,0:1:0:0:
113,155,25342,1,0,0:0:0:0:
319,194,25436,2,0,L|331:132,1,56.5,0|0,0:0|0:0,0:0:0:0:
122,55,25621,5,4,0:1:0:0:
173,76,25713,1,0,0:0:0:0:
205,122,25806,1,0,0:0:0:0:
207,177,25898,1,0,0:0:0:0:
179,225,25991,1,8,0:1:0:0:
129,251,26083,1,0,0:0:0:0:
361,277,26176,2,0,L|434:287,1,56.5,0|0,0:0|0:0,0:0:0:0:
189,353,26362,6,0,L|176:291,1,56.5,4|0,0:1|0:0,0:0:0:0:
379,231,26547,2,0,L|368:172,1,56.5,0|0,0:0|0:0,0:0:0:0:
189,353,26732,2,0,L|176:291,1,56.5,8|0,0:1|0:0,0:0:0:0:
379,231,26917,2,0,L|368:172,1,56.5,0|0,0:0|0:0,0:0:0:0:
146,172,27102,5,4,0:1:0:0:
99,141,27194,1,0,0:0:0:0:
86,88,27287,1,0,0:0:0:0:
112,39,27379,1,0,0:0:0:0:
164,20,27472,1,8,0:1:0:0:
320,15,27658,2,0,L|397:15,1,56.5,2|0,0:0|0:0,0:0:0:0:
161,183,27843,6,0,L|42:200,2,113,4|2|8,1:0|0:0|2:1,0:0:0:0:
286,255,28399,2,0,L|294:185,1,56.5,0|0,0:0|0:0,0:0:0:0:
98,120,28584,2,0,L|162:108,1,56.5,4|0,0:0|0:0,0:0:0:0:
359,111,28769,2,0,L|426:98,1,56.5,2|0,0:0|0:0,0:0:0:0:
178,328,28954,2,0,L|52:308,1,113,8|2,0:1|0:0,0:0:0:0:
133,284,29232,1,0,0:0:0:0:
350,239,29325,6,0,L|470:216,2,113,4|2|8,0:1|0:0|0:1,0:0:0:0:
217,199,29880,2,0,L|206:134,1,56.5,2|0,0:0|0:0,0:0:0:0:
411,108,30065,2,0,L|401:38,1,56.5,4|0,0:1|0:0,0:0:0:0:
321,41,30251,1,0,0:0:0:0:
145,72,30343,2,0,L|9:60,1,113,2|0,2:0|0:0,0:0:0:0:
244,175,30621,2,0,L|327:161,1,56.5,2|4,0:0|1:0,0:0:0:0:
92,319,30806,6,0,L|85:256,1,56.5,4|0,0:0|0:0,0:0:0:0:
176,235,30991,2,0,L|170:166,1,56.5,0|0,0:0|0:0,0:0:0:0:
86,156,31176,2,0,L|23:145,1,56.5,8|0,0:1|0:0,0:0:0:0:
279,110,31362,2,0,L|343:92,1,56.5,0|0,0:0|0:0,0:0:0:0:
143,30,31547,6,0,L|155:93,1,56.5,4|0,0:1|0:0,0:0:0:0:
257,96,31732,2,0,L|268:157,1,56.5,0|0,0:0|0:0,0:0:0:0:
171,197,31917,2,0,L|186:274,1,56.5,8|0,0:1|0:0,0:0:0:0:
395,247,32102,2,0,L|411:333,1,56.5,2|0,0:0|0:0,0:0:0:0:
204,320,32288,6,0,L|156:278,1,56.5,4|0,0:1|0:0,0:0:0:0:
375,232,32473,2,0,L|317:195,1,56.5,2|0,0:0|0:0,0:0:0:0:
170,125,32658,2,0,L|103:89,1,56.5,8|0,0:1|0:0,0:0:0:0:
374,106,32843,2,0,L|301:71,1,56.5,2|0,0:0|0:0,0:0:0:0:
129,20,33028,6,0,L|138:100,1,56.5,4|0,0:1|0:0,0:0:0:0:
212,117,33214,2,0,L|271:135,1,56.5,2|0,0:0|0:0,0:0:0:0:
356,186,33399,2,0,L|351:256,1,56.5,8|0,0:1|0:0,0:0:0:0:
176,258,33584,2,0,L|170:340,1,56.5,2|0,0:0|0:0,0:0:0:0:
363,313,33769,6,0,L|495:333,2,113,4|2|8,0:0|0:0|0:1,0:0:0:0:
232,355,34325,2,0,L|215:269,1,56.5,4|4,1:0|1:0,0:0:0:0:
414,223,34510,2,0,L|425:147,1,56.5,4|2,0:0|0:0,0:0:0:0:
348,132,34695,1,0,0:0:0:0:
187,87,34788,2,0,L|48:107,1,113,4|0,0:0|0:0,0:0:0:0:
345,16,35065,2,0,L|408:25,1,56.5,4|0,1:0|0:0,0:0:0:0:
166,275,35251,6,0,L|162:156,1,113,4|0,1:2|0:0,0:0:0:0:
304,205,35621,1,2,0:0:0:0:
162,118,35806,2,0,L|159:52,1,56.5,0|0,0:0|0:0,0:0:0:0:
350,92,35991,2,0,L|435:87,2,56.5,4|0|0,1:0|1:0|0:0,0:0:0:0:
191,217,36269,2,0,L|326:234,1,113,2|0,1:0|0:0,0:0:0:0:
87,337,36547,2,0,L|76:273,1,56.5,2|0,1:0|0:0,0:0:0:0:
367,167,36732,5,4,0:0:0:0:
256,192,45899,12,0,48214,0:0:0:0:
185,317,48584,6,0,L|121:306,1,56.5,4|0,0:0|0:0,0:0:0:0:
300,238,48862,1,0,0:0:0:0:
244,228,48954,1,2,0:0:0:0:
188,218,49047,1,0,0:0:0:0:
132,208,49140,1,0,0:0:0:0:
415,131,49510,1,0,0:0:0:0:
132,208,49880,1,0,0:0:0:0:
273,362,50065,6,0,L|337:351,1,56.5,2|0,0:0|0:0,0:0:0:0:
158,122,50343,2,0,L|94:111,1,56.5,0|0,0:0|0:0,0:0:0:0:
102,271,50528,1,0,0:0:0:0:
158,262,50621,2,0,L|413:214,2,226,2|2|2,0:0|0:0|0:0,0:0:0:0:
300,102,51547,6,0,L|325:46,1,56.5,2|0,0:0|0:0,0:0:0:0:
179,351,51825,2,0,L|154:295,1,56.5,0|2,0:0|0:0,0:0:0:0:
270,241,52010,2,0,L|295:185,1,56.5,0|0,0:0|0:0,0:0:0:0:
10,95,52473,1,0,0:0:0:0:
290,51,52843,1,0,0:0:0:0:
155,299,53028,6,0,L|282:322,2,113,2|0|0,0:0|0:0|0:0,0:0:0:0:
297,241,53584,2,0,L|42:289,2,226,2|2|0,0:0|0:0|0:0,0:0:0:0:
156,231,54510,6,0,L|131:175,1,56.5,2|0,0:0|0:0,0:0:0:0:
275,37,54788,1,0,0:0:0:0:
219,47,54880,1,2,0:0:0:0:
163,57,54973,1,0,0:0:0:0:
219,47,55065,1,0,0:0:0:0:
497,4,55436,1,0,0:0:0:0:
213,355,55806,1,0,0:0:0:0:
354,334,55991,6,0,L|417:322,1,56.5,2|0,0:0|0:0,0:0:0:0:
268,266,56269,2,0,L|243:210,1,56.5,0|2,0:0|0:0,0:0:0:0:
359,156,56454,1,0,0:0:0:0:
382,104,56547,2,0,L|127:56,2,226,0|0|2,0:0|0:0|0:0,0:0:0:0:
241,352,57473,6,0,L|177:341,1,56.5,2|0,0:0|0:0,0:0:0:0:
42,241,57751,1,0,0:0:0:0:
98,231,57843,1,2,0:0:0:0:
154,221,57936,1,0,0:0:0:0:
210,211,58029,1,0,0:0:0:0:
491,170,58399,1,2,0:0:0:0:
205,45,58769,1,0,0:0:0:0:
345,359,58954,6,0,L|281:348,1,56.5,2|0,0:0|0:0,0:0:0:0:
148,322,59232,1,0,0:0:0:0:
372,276,59325,1,2,0:0:0:0:
385,221,59417,1,0,0:0:0:0:
364,170,59510,1,0,0:0:0:0:
317,140,59602,1,0,0:0:0:0:
204,125,59695,6,0,L|184:53,1,56.5,2|0,0:0|0:0,0:0:0:0:
308,125,59880,2,0,L|328:53,1,56.5,0|0,0:0|0:0,0:0:0:0:
204,126,60065,2,0,L|128:132,1,56.5,2|0,0:0|0:0,0:0:0:0:
308,126,60251,2,0,L|384:132,1,56.5,0|0,0:0|0:0,0:0:0:0:
75,333,60436,6,0,L|59:257,1,56.5,4|0,0:0|0:0,0:0:0:0:
213,214,60714,2,0,L|231:155,1,56.5,0|2,0:0|0:0,0:0:0:0:
374,128,60991,2,0,L|190:92,1,169.5,2|2,0:0|0:0,0:0:0:0:
79,197,61547,2,0,L|214:177,1,113,2|2,0:0|0:0,0:0:0:0:
345,273,61917,6,0,L|357:212,1,56.5,0|0,0:0|0:0,0:0:0:0:
201,162,62195,2,0,L|184:100,1,56.5,0|2,0:0|0:0,0:0:0:0:
322,58,62473,1,2,0:0:0:0:
137,56,62751,2,0,L|74:38,1,56.5,2|2,0:0|0:0,0:0:0:0:
226,146,63028,2,0,L|351:123,1,113,0|0,0:0|0:0,0:0:0:0:
192,258,63399,6,0,L|134:241,1,56.5,2|0,0:0|0:0,0:0:0:0:
297,338,63676,2,0,L|361:326,1,56.5,0|2,0:0|0:0,0:0:0:0:
191,258,63954,2,0,P|173:183|264:129,1,169.5,2|0,0:0|0:0,0:0:0:0:
373,123,64510,2,0,L|234:99,1,113,2|0,0:0|0:0,0:0:0:0:
138,136,64880,6,0,L|123:75,1,56.5,2|0,0:0|0:0,0:0:0:0:
244,46,65158,2,0,P|307:65|413:29,1,169.5,0|2,0:0|0:0,0:0:0:0:
187,126,65714,2,0,P|95:100|24:131,1,169.5,0|2,0:0|0:0,0:0:0:0:
173,203,66176,1,0,0:0:0:0:
482,318,66362,5,4,0:0:0:0:
364,250,66547,2,0,L|351:178,2,56.5,0|0|8,0:0|0:0|0:1,0:0:0:0:
482,318,66917,1,0,0:0:0:0:
355,352,67102,1,8,0:1:0:0:
237,284,67287,2,0,L|224:212,2,56.5,0|0|8,0:0|0:0|0:1,0:0:0:0:
355,352,67657,1,4,2:1:0:0:
30,318,67843,5,4,0:0:0:0:
148,250,68028,2,0,L|161:178,2,56.5,0|0|8,0:0|0:0|0:1,0:0:0:0:
30,318,68398,1,2,0:0:0:0:
179,347,68584,1,8,2:1:0:0:
199,327,68630,1,0,0:0:0:0:
210,301,68676,1,0,0:0:0:0:
212,273,68722,1,0,0:0:0:0:
203,247,68769,1,2,0:0:0:0:
161,211,68861,1,4,0:1:0:0:
57,222,68954,2,0,L|48:86,1,113,8|4,0:1|0:1,0:0:0:0:
136,62,69232,1,0,0:0:0:0:
342,42,69325,6,0,P|422:22|481:37,1,135.599995861817,4|4,0:0|0:1,0:0:0:0:
255,157,69602,2,0,P|175:177|116:162,1,135.599995861817,2|4,1:0|0:1,0:0:0:0:
342,42,69880,2,0,P|422:22|481:37,1,135.599995861817,2|4,1:1|0:1,0:0:0:0:
187,213,70157,2,0,P|107:233|48:218,1,135.599995861817,2|4,1:0|0:1,0:0:0:0:
418,129,70436,2,0,P|447:169|449:216,1,67.7999979309083,4|0,1:2|0:0,0:0:0:0:
110,138,70621,2,0,P|81:98|79:51,1,67.7999979309083,6|4,1:1|1:1,0:0:0:0:
288,55,70806,5,2,0:0:0:0:
354,54,70898,1,0,0:0:0:0:
401,101,70991,1,0,0:0:0:0:
402,167,71083,1,0,0:0:0:0:
178,173,71176,5,2,0:0:0:0:
244,172,71268,1,0,0:0:0:0:
291,219,71361,1,0,0:0:0:0:
292,285,71453,1,0,0:0:0:0:
48,344,71547,5,2,0:0:0:0:
47,278,71639,1,0,0:0:0:0:
94,231,71732,1,0,0:0:0:0:
160,230,71824,1,0,0:0:0:0:
448,288,71917,1,0,0:0:0:0:
266,379,72288,5,4,0:0:0:0:
258,307,72380,1,0,0:0:0:0:
294,244,72473,1,0,0:0:0:0:
361,217,72565,1,0,0:0:0:0:
186,65,72658,2,0,L|170:158,1,73.449996637726,8|0,1:0|0:0,0:0:0:0:
281,171,72843,2,0,L|297:264,1,73.449996637726,0|0,0:0|0:0,0:0:0:0:
64,56,73028,5,4,1:0:0:0:
39,123,73120,1,0,0:0:0:0:
66,190,73213,1,0,0:0:0:0:
131,221,73305,1,0,0:0:0:0:
419,96,73399,2,0,L|441:249,1,146.899993275452,8|0,1:0|0:0,0:0:0:0:
258,364,73769,6,0,L|240:281,1,73.449996637726,4|0,1:0|0:0,0:0:0:0:
359,259,73954,2,0,L|393:178,1,73.449996637726,0|0,0:0|0:0,0:0:0:0:
181,201,74139,2,0,L|215:120,1,73.449996637726,8|0,1:0|0:0,0:0:0:0:
321,119,74325,2,0,L|392:99,1,73.449996637726,0|0,0:0|0:0,0:0:0:0:
177,52,74510,6,0,L|20:31,1,146.899993275452,4|0,1:0|0:0,0:0:0:0:
122,382,74788,2,0,L|279:361,1,146.899993275452,2|0,2:2|0:0,0:0:0:0:
359,350,75065,1,4,1:0:0:0:
176,338,75251,6,0,P|165:271|258:211,1,146.899993275452,4|0,0:0|0:0,0:0:0:0:
310,194,75528,2,0,L|129:170,1,146.899993275452,0|0,1:0|0:0,0:0:0:0:
70,105,75806,2,0,L|251:81,1,146.899993275452,0|0,1:0|0:0,0:0:0:0:
332,66,76084,1,0,1:0:0:0:
159,362,76362,2,0,L|2:344,1,146.899993275452,0|4,1:0|1:0,0:0:0:0:
96,325,76639,1,0,0:0:0:0:
482,249,76732,5,4,1:0:0:0:
493,177,76824,1,0,0:0:0:0:
463,111,76917,1,0,0:0:0:0:
401,73,77009,1,0,0:0:0:0:
184,261,77102,2,0,L|208:176,1,73.449996637726,8|0,1:0|0:0,0:0:0:0:
307,127,77288,2,0,L|384:86,1,73.449996637726,0|0,0:0|0:0,0:0:0:0:
51,33,77473,6,0,L|64:210,1,146.899993275452,4|0,1:0|0:0,0:0:0:0:
266,182,77751,2,0,L|281:337,1,146.899993275452,4|0,1:0|0:0,0:0:0:0:
484,93,78028,1,4,1:0:0:0:
325,91,78214,5,4,1:2:0:0:
302,159,78306,1,0,0:0:0:0:
330,225,78399,1,0,0:0:0:0:
394,258,78491,1,0,0:0:0:0:
192,281,78584,2,0,L|179:364,1,73.449996637726,8|0,1:0|0:0,0:0:0:0:
296,238,78769,2,0,L|309:321,1,73.449996637726,0|0,0:0|0:0,0:0:0:0:
35,92,78954,5,4,1:0:0:0:
12,160,79046,1,0,0:0:0:0:
40,226,79139,1,0,0:0:0:0:
104,259,79231,1,0,0:0:0:0:
380,177,79325,2,0,L|447:344,1,146.899993275452,8|0,1:0|0:0,0:0:0:0:
259,82,79695,6,0,P|213:77|161:83,1,73.449996637726,4|0,1:0|0:0,0:0:0:0:
273,50,79880,2,0,P|319:45|371:51,1,73.449996637726,0|0,0:0|0:0,0:0:0:0:
160,167,80065,2,0,L|138:246,1,73.449996637726,8|0,1:0|0:0,0:0:0:0:
395,325,80251,2,0,P|349:320|297:326,1,73.449996637726,0|0,0:0|0:0,0:0:0:0:
94,94,80436,6,0,L|116:240,1,146.899993275452,0|0,1:0|0:0,0:0:0:0:
210,265,80714,2,0,P|291:255|359:211,1,146.899993275452,0|0,1:0|0:0,0:0:0:0:
251,164,80991,1,4,1:0:0:0:
399,16,81176,6,0,L|251:83,1,146.899993275452,4|0,0:0|0:0,0:0:0:0:
175,309,81454,2,0,L|323:376,1,146.899993275452,0|0,1:0|0:0,0:0:0:0:
411,90,81732,2,0,L|231:73,1,146.899993275452,0|0,1:0|0:0,0:0:0:0:
356,131,82010,1,0,1:0:0:0:
136,279,82288,2,0,P|235:262|310:264,1,146.899993275452,0|4,1:0|1:2,0:0:0:0:
136,279,82751,5,4,1:0:0:0:
365,275,82843,2,0,L|378:199,1,67.7999979309083,0|0,1:0|0:0,0:0:0:0:
261,175,83028,2,0,L|248:99,1,67.7999979309083,0|0,0:0|0:0,0:0:0:0:
474,131,83214,2,0,L|487:55,1,67.7999979309083,4|0,1:0|0:0,0:0:0:0:
161,57,83399,5,8,0:1:0:0:
129,87,83460,1,0,0:0:0:0:
114,129,83522,1,0,0:0:0:0:
119,174,83584,1,8,0:1:0:0:
143,211,83645,1,0,0:0:0:0:
182,234,83707,1,0,0:0:0:0:
366,335,83769,2,0,L|438:346,1,67.7999979309083,0|0,1:0|0:0,0:0:0:0:
193,358,83954,2,0,L|121:369,1,67.7999979309083,0|0,1:0|0:0,0:0:0:0:
421,237,84139,5,4,0:0:0:0:
475,191,84231,1,0,0:0:0:0:
469,120,84324,1,0,0:0:0:0:
409,83,84416,1,0,0:0:0:0:
207,159,84510,2,0,L|198:78,1,73.449996637726,8|0,1:0|0:0,0:0:0:0:
390,99,84695,2,0,L|488:90,1,73.449996637726,0|0,0:0|0:0,0:0:0:0:
186,297,84880,6,0,L|181:221,1,73.449996637726,4|0,1:0|0:0,0:0:0:0:
284,186,85065,1,0,0:0:0:0:
55,183,85158,2,0,L|50:107,1,73.449996637726,0|8,0:0|1:0,0:0:0:0:
153,72,85343,1,0,0:0:0:0:
360,112,85436,2,0,L|450:112,1,73.449996637726,0|0,0:0|0:0,0:0:0:0:
185,290,85621,6,0,L|177:208,1,73.449996637726,4|0,1:0|0:0,0:0:0:0:
280,204,85806,2,0,L|273:122,1,73.449996637726,0|0,0:0|0:0,0:0:0:0:
173,98,85991,2,0,L|252:70,1,73.449996637726,8|0,1:0|0:0,0:0:0:0:
433,112,86176,1,0,0:0:0:0:
472,126,86222,1,0,0:0:0:0:
481,160,86268,1,0,0:0:0:0:
454,190,86314,1,0,0:0:0:0:
260,265,86362,6,0,P|163:251|103:303,1,146.899993275452,0|0,1:0|0:0,0:0:0:0:
325,285,86639,2,0,P|413:306|466:270,1,146.899993275452,0|2,1:0|2:0,0:0:0:0:
238,102,86917,2,0,P|210:142|212:188,1,73.449996637726,0|0,0:0|0:0,0:0:0:0:
470,86,87102,6,0,P|379:33|326:42,1,146.899993275452,4|0,1:2|0:0,0:0:0:0:
262,177,87380,2,0,P|353:124|406:133,1,146.899993275452,2|0,0:0|0:0,0:0:0:0:
210,264,87658,2,0,P|119:211|66:220,1,146.899993275452,2|0,2:0|0:0,0:0:0:0:
2,355,87936,2,0,P|93:302|146:311,1,146.899993275452,2|0,2:0|0:0,0:0:0:0:
339,338,88214,2,0,P|431:356|488:333,1,146.899993275452,2|2,0:0|0:0,0:0:0:0:
207,118,88584,6,0,P|135:154|133:242,1,146.899993275452,4|0,1:0|0:0,0:0:0:0:
188,248,88862,1,0,0:0:0:0:
363,312,88954,2,0,L|374:227,1,73.449996637726,8|0,1:0|0:0,0:0:0:0:
279,211,89139,2,0,L|288:126,1,73.449996637726,0|0,0:0|0:0,0:0:0:0:
477,82,89325,2,0,P|379:57|325:75,1,146.899993275452,0|0,1:0|0:0,0:0:0:0:
238,133,89602,2,0,P|339:132|397:184,1,146.899993275452,2|0,2:0|0:0,0:0:0:0:
127,209,89880,2,0,P|106:156|106:122,1,73.449996637726,0|4,1:0|1:0,0:0:0:0:
293,42,90065,5,4,1:2:0:0:
360,61,90157,1,0,0:0:0:0:
378,128,90250,1,0,0:0:0:0:
330,179,90342,1,0,0:0:0:0:
169,291,90436,2,0,L|152:193,1,73.449996637726,8|0,1:0|0:0,0:0:0:0:
351,284,90621,2,0,L|440:275,1,73.449996637726,0|0,0:0|0:0,0:0:0:0:
201,153,90806,6,0,L|120:142,2,73.449996637726,4|2|0,1:0|0:0|0:0,0:0:0:0:
369,83,91084,2,0,L|450:72,2,73.449996637726,2|8|0,0:0|1:0|0:0,0:0:0:0:
145,99,91362,2,0,L|142:18,1,73.449996637726,0|0,0:0|0:0,0:0:0:0:
361,233,91547,6,0,L|374:150,1,73.449996637726,4|0,1:0|0:0,0:0:0:0:
252,285,91732,2,0,L|266:189,1,73.449996637726,0|0,0:0|0:0,0:0:0:0:
477,339,91917,2,0,L|402:329,1,73.449996637726,8|0,1:0|0:0,0:0:0:0:
318,290,92102,1,0,0:0:0:0:
281,283,92148,1,0,0:0:0:0:
245,276,92194,1,0,0:0:0:0:
48,334,92288,6,0,P|40:246|103:203,1,146.899993275452,4|4,1:0|1:0,0:0:0:0:
164,202,92565,1,0,0:0:0:0:
356,208,92658,2,0,L|436:208,1,73.449996637726,0|0,3:0|3:0,0:0:0:0:
224,101,92843,2,0,L|140:101,1,73.449996637726,0|0,3:0|3:0,0:0:0:0:
365,29,93028,6,0,P|455:76|440:153,1,146.899993275452,4|0,0:0|0:0,0:0:0:0:
367,158,93306,2,0,P|292:217|323:276,1,146.899993275452,8|0,0:1|0:0,0:0:0:0:
485,352,93584,2,0,P|494:265|413:241,1,146.899993275452,2|0,0:0|0:0,0:0:0:0:
371,230,93862,2,0,L|216:228,1,146.899993275452,8|0,0:1|0:0,0:0:0:0:
387,129,94139,2,0,L|490:129,1,73.449996637726,4|0,1:0|0:0,0:0:0:0:
220,56,94325,2,0,L|133:55,1,73.449996637726,2|0,0:0|0:0,0:0:0:0:
359,9,94510,5,2,0:0:0:0:
206,136,94695,2,0,L|120:135,2,73.449996637726,0|0|0,3:0|0:0|3:0,0:0:0:0:
306,136,94973,2,0,L|392:135,2,73.449996637726,0|0|0,0:0|3:0|0:0,0:0:0:0:
82,225,95251,2,0,P|207:246|291:192,2,220.349989913178,4|0|2,0:0|1:0|1:0,0:0:0:0:
26,192,95899,1,0,0:0:0:0:
301,328,95991,6,0,L|500:309,1,169.5,4|0,0:0|0:0,0:0:0:0:
384,294,96362,1,8,0:1:0:0:
245,384,96547,1,0,0:0:0:0:
189,376,96639,1,0,0:0:0:0:
133,368,96732,1,4,0:1:0:0:
301,328,96917,1,0,0:0:0:0:
121,341,97102,2,0,L|19:354,2,56.5,8|0|0,0:1|0:0|0:0,0:0:0:0:
441,65,97473,6,0,P|450:144|387:211,1,169.5,4|0,0:0|0:0,0:0:0:0:
306,232,97843,1,8,0:1:0:0:
137,87,98028,1,0,0:0:0:0:
142,143,98120,1,0,0:0:0:0:
147,199,98213,1,4,0:1:0:0:
286,192,98399,1,0,0:0:0:0:
435,240,98584,1,4,0:0:0:0:
430,296,98676,1,0,0:0:0:0:
425,352,98769,1,0,0:0:0:0:
49,45,98954,6,0,L|224:35,2,169.5,4|0|2,0:0|0:0|0:0,0:0:0:0:
222,221,99695,2,0,L|87:210,1,113,4|0,0:1|0:0,0:0:0:0:
45,266,99973,1,0,0:0:0:0:
109,211,100065,2,0,L|222:221,1,113,8|0,0:1|0:0,0:0:0:0:
496,42,100436,6,0,L|504:172,1,113,0|0,1:1|0:0,0:0:0:0:
317,119,100806,2,0,L|309:249,1,113,8|0,1:1|0:0,0:0:0:0:
397,261,101084,1,0,0:0:0:0:
180,341,101176,2,0,P|98:339|40:357,1,113,4|0,1:0|2:0,0:0:0:0:
240,268,101547,2,0,L|306:253,1,56.5,4|0,0:0|0:0,0:0:0:0:
78,128,101732,2,0,L|12:113,1,56.5,2|0,0:0|0:0,0:0:0:0:
301,29,101917,6,0,P|377:90|348:155,1,169.5,4|0,0:0|0:0,0:0:0:0:
276,192,102288,1,8,0:1:0:0:
442,357,102473,1,0,0:0:0:0:
385,352,102565,1,0,0:0:0:0:
329,347,102658,1,4,0:1:0:0:
185,334,102843,1,0,0:0:0:0:
329,326,103028,1,8,0:1:0:0:
386,321,103120,1,0,0:0:0:0:
442,316,103213,1,0,0:0:0:0:
178,69,103399,6,0,L|-5:92,1,169.5,4|0,0:0|0:0,0:0:0:0:
104,114,103769,1,8,0:1:0:0:
251,247,103954,2,0,L|170:262,1,56.5,2|0,0:0|0:0,0:0:0:0:
392,104,104139,2,0,L|515:121,1,113,4|0,0:1|1:0,0:0:0:0:
226,286,104417,2,0,L|43:325,1,169.5,0|2,0:0|0:0,0:0:0:0:
443,357,104880,6,0,P|444:289|396:242,1,113,4|0,0:0|3:0,0:0:0:0:
337,228,105158,1,0,3:0:0:0:
250,210,105251,2,0,L|236:82,1,113,0|0,0:0|3:0,0:0:0:0:
426,18,105621,2,0,L|453:98,1,56.5,0|0,3:0|0:0,0:0:0:0:
263,90,105806,2,0,L|217:147,1,56.5,2|0,0:0|0:0,0:0:0:0:
470,352,105991,1,0,0:0:0:0:
472,296,106083,1,0,0:0:0:0:
445,247,106176,1,2,0:0:0:0:
397,219,106268,1,0,0:0:0:0:
179,190,106362,5,2,0:0:0:0:
198,137,106454,1,0,0:0:0:0:
237,97,106547,1,0,0:0:0:0:
289,75,106639,1,0,0:0:0:0:
69,62,106732,5,2,0:0:0:0:
45,76,106778,1,0,0:0:0:0:
37,102,106824,1,0,0:0:0:0:
48,127,106870,1,0,0:0:0:0:
74,138,106917,2,0,L|150:130,1,56.5,0|0,0:0|0:0,0:0:0:0:
435,133,107102,2,0,L|455:307,1,169.5,0|0,1:0|1:0,0:0:0:0:
246,354,107658,1,0,0:0:0:0:
302,346,107750,1,0,0:0:0:0:
358,339,107843,5,4,0:0:0:0:
97,309,108028,2,0,L|84:260,4,28.25,0|0|0|0|0,3:0|0:0|0:0|0:0|0:0,0:0:0:0:
426,18,108399,6,0,L|453:98,1,56.5,2|0,0:0|0:0,0:0:0:0:
356,126,108584,2,0,L|308:164,1,56.5,0|0,1:0|0:0,0:0:0:0:
218,236,108769,2,0,L|155:246,1,56.5,2|0,1:0|2:2,0:0:0:0:
387,346,108954,2,0,L|450:356,1,56.5,0|0,2:0|1:0,0:0:0:0:
176,336,109139,2,0,L|113:346,1,56.5,0|0,0:0|0:0,0:0:0:0:
470,245,109325,1,4,0:0:0:0:
256,192,109510,12,0,113769,0:0:0:0:
