osu file format v14

[General]
AudioFilename: [Reflec Beat colette, Jubeat saucer] kors k - Our Faith.mp3
AudioLeadIn: 0
PreviewTime: 55583
Countdown: 0
SampleSet: Normal
StackLeniency: 0.7
Mode: 3
LetterboxInBreaks: 0
SpecialStyle: 0
WidescreenStoryboard: 0

[Editor]
DistanceSpacing: 1.6
BeatDivisor: 4
GridSize: 4
TimelineZoom: 2.1

[Metadata]
Title:Our Faith
TitleUnicode:Our Faith
Artist:kors k
ArtistUnicode:kors k
Creator:Gravey-
Version:Arcwin's Extreme
Source:REFLEC BEAT colette -Winter-
Tags:arcwinolivirus Jubeat saucer Konami
BeatmapID:690293
BeatmapSetID:307276

[Difficulty]
HPDrainRate:8
CircleSize:4
OverallDifficulty:8
ApproachRate:5
SliderMultiplier:1.6
SliderTickRate:1

[Events]
//Background and Video events
0,0,"Our Faith.jpg",0,0
//Break Periods
//Storyboard Layer 0 (Background)
//Storyboard Layer 1 (Fail)
//Storyboard Layer 2 (Pass)
//Storyboard Layer 3 (Foreground)
//Storyboard Sound Samples

[TimingPoints]
726,342.857142857143,4,1,1,30,1,0
11697,-100,4,1,1,30,0,1
22668,-100,4,1,1,30,0,0
55583,-100,4,1,1,30,0,1
99468,-100,4,1,1,30,0,0

[HitObjects]
64,192,725,5,8,0:0:0:0:
448,192,725,1,4,0:0:0:0:
192,192,725,1,2,0:0:0:0:
320,192,897,1,0,0:0:0:0:
448,192,1068,1,2,0:0:0:0:
64,192,1068,1,0,0:0:0:0:
192,192,1240,1,0,0:0:0:0:
448,192,1411,1,2,0:0:0:0:
320,192,1411,1,0,0:0:0:0:
192,192,1583,1,0,0:0:0:0:
64,192,1754,1,2,0:0:0:0:
448,192,1754,1,0,0:0:0:0:
320,192,1926,1,0,0:0:0:0:
64,192,2097,1,2,0:0:0:0:
192,192,2097,1,0,0:0:0:0:
320,192,2268,1,0,0:0:0:0:
192,192,2440,1,2,0:0:0:0:
448,192,2440,1,0,0:0:0:0:
320,192,2611,1,0,0:0:0:0:
192,192,2783,1,2,0:0:0:0:
64,192,2783,1,0,0:0:0:0:
320,192,2954,1,0,0:0:0:0:
448,192,3126,1,2,0:0:0:0:
192,192,3126,1,0,0:0:0:0:
320,192,3297,1,0,0:0:0:0:
64,192,3468,1,2,0:0:0:0:
448,192,3468,1,0,0:0:0:0:
192,192,3640,1,0,0:0:0:0:
448,192,3811,1,2,0:0:0:0:
64,192,3811,1,0,0:0:0:0:
320,192,3983,1,0,0:0:0:0:
64,192,4154,1,2,0:0:0:0:
192,192,4154,1,0,0:0:0:0:
320,192,4326,1,0,0:0:0:0:
64,192,4497,1,2,0:0:0:0:
448,192,4497,1,0,0:0:0:0:
192,192,4668,1,0,0:0:0:0:
448,192,4840,1,2,0:0:0:0:
320,192,4840,1,0,0:0:0:0:
192,192,5011,1,0,0:0:0:0:
320,192,5183,1,2,0:0:0:0:
64,192,5183,1,0,0:0:0:0:
192,192,5354,1,0,0:0:0:0:
320,192,5526,1,2,0:0:0:0:
448,192,5526,1,0,0:0:0:0:
192,192,5697,1,0,0:0:0:0:
64,192,5868,1,2,0:0:0:0:
320,192,5868,1,0,0:0:0:0:
192,192,6040,1,0,0:0:0:0:
64,192,6211,1,8,0:0:0:0:
448,192,6211,1,2,0:0:0:0:
320,192,6383,1,0,0:0:0:0:
448,192,6554,1,8,0:0:0:0:
64,192,6554,1,2,0:0:0:0:
192,192,6726,1,0,0:0:0:0:
64,192,6897,1,8,0:0:0:0:
448,192,6897,1,2,0:0:0:0:
320,192,7068,1,0,0:0:0:0:
448,192,7240,1,8,0:0:0:0:
64,192,7240,1,2,0:0:0:0:
192,192,7411,1,0,0:0:0:0:
448,192,7583,1,2,0:0:0:0:
320,192,7583,1,8,0:0:0:0:
64,192,7754,1,8,0:0:0:0:
192,192,7754,1,0,0:0:0:0:
320,192,7926,1,8,0:0:0:0:
448,192,7926,1,2,0:0:0:0:
192,192,8097,1,8,0:0:0:0:
64,192,8097,1,0,0:0:0:0:
320,192,8268,1,2,0:0:0:0:
448,192,8268,1,8,0:0:0:0:
192,192,8440,1,8,0:0:0:0:
64,192,8440,1,0,0:0:0:0:
448,192,8611,1,8,0:0:0:0:
320,192,8611,1,2,0:0:0:0:
192,192,8783,1,8,0:0:0:0:
64,192,8783,1,0,0:0:0:0:
448,192,8954,1,2,0:0:0:0:
320,192,8954,1,0,0:0:0:0:
192,192,9040,1,0,0:0:0:0:
448,192,9126,1,0,0:0:0:0:
64,192,9126,1,0,0:0:0:0:
320,192,9211,1,0,0:0:0:0:
64,192,9297,1,2,0:0:0:0:
192,192,9297,1,0,0:0:0:0:
448,192,9383,1,0,0:0:0:0:
192,192,9468,1,0,0:0:0:0:
320,192,9468,1,0,0:0:0:0:
64,192,9554,1,0,0:0:0:0:
320,192,9640,1,2,0:0:0:0:
448,192,9640,1,0,0:0:0:0:
192,192,9726,1,0,0:0:0:0:
448,192,9811,1,0,0:0:0:0:
64,192,9811,1,0,0:0:0:0:
320,192,9897,1,0,0:0:0:0:
192,192,9983,1,2,0:0:0:0:
64,192,9983,1,0,0:0:0:0:
448,192,10068,1,0,0:0:0:0:
192,192,10154,1,0,0:0:0:0:
320,192,10154,1,0,0:0:0:0:
64,192,10240,1,0,0:0:0:0:
320,192,10326,1,2,0:0:0:0:
192,192,10326,1,0,0:0:0:0:
448,192,10326,128,4,10668:0:0:0:0:
192,192,10668,1,0,0:0:0:0:
320,192,10754,1,0,0:0:0:0:
64,192,10840,128,0,11011:0:0:0:0:
448,192,11011,1,0,0:0:0:0:
320,192,11097,1,0,0:0:0:0:
64,192,11183,1,0,0:0:0:0:
192,192,11226,1,0,0:0:0:0:
448,192,11268,1,0,0:0:0:0:
320,192,11311,1,0,0:0:0:0:
192,192,11354,128,0,11697:0:0:0:0:
320,192,11697,1,2,0:0:0:0:
448,192,11697,1,0,0:0:0:0:
64,192,11697,128,4,11868:0:0:0:0:
448,192,11868,1,0,0:0:0:0:
64,192,12040,1,2,0:0:0:0:
192,192,12040,1,0,0:0:0:0:
320,192,12211,1,0,0:0:0:0:
448,192,12211,1,0,0:0:0:0:
192,192,12297,1,0,0:0:0:0:
64,192,12297,1,0,0:0:0:0:
448,192,12383,1,0,0:0:0:0:
320,192,12383,128,0,12554:0:0:0:0:
192,192,12554,1,0,0:0:0:0:
320,192,12726,1,2,0:0:0:0:
448,192,12726,1,0,0:0:0:0:
64,192,12726,128,0,12897:0:0:0:0:
448,192,12897,1,0,0:0:0:0:
192,192,12897,128,0,13068:0:0:0:0:
64,192,13068,1,2,0:0:0:0:
320,192,13068,128,0,13240:0:0:0:0:
192,192,13240,1,0,0:0:0:0:
64,192,13411,1,2,0:0:0:0:
448,192,13411,1,0,0:0:0:0:
320,192,13411,128,0,13583:0:0:0:0:
192,192,13583,1,0,0:0:0:0:
64,192,13754,1,2,0:0:0:0:
448,192,13754,128,0,13926:0:0:0:0:
320,192,13926,1,0,0:0:0:0:
192,192,14097,1,2,0:0:0:0:
448,192,14097,128,0,14268:0:0:0:0:
64,192,14097,1,0,0:0:0:0:
64,192,14268,1,0,0:0:0:0:
320,192,14268,128,0,14440:0:0:0:0:
448,192,14440,1,2,0:0:0:0:
192,192,14440,128,0,14611:0:0:0:0:
64,192,14611,1,0,0:0:0:0:
320,192,14783,1,2,0:0:0:0:
448,192,14783,1,0,0:0:0:0:
192,192,14954,1,0,0:0:0:0:
64,192,14954,1,0,0:0:0:0:
320,192,15040,1,0,0:0:0:0:
448,192,15040,1,0,0:0:0:0:
64,192,15126,1,2,0:0:0:0:
192,192,15126,128,0,15297:0:0:0:0:
320,192,15297,1,0,0:0:0:0:
448,192,15468,1,2,0:0:0:0:
192,192,15468,1,0,0:0:0:0:
64,192,15468,128,0,15640:0:0:0:0:
320,192,15640,1,0,0:0:0:0:
64,192,15811,1,2,0:0:0:0:
448,192,15811,128,0,15983:0:0:0:0:
192,192,15983,1,0,0:0:0:0:
320,192,16154,1,2,0:0:0:0:
448,192,16154,1,0,0:0:0:0:
64,192,16154,128,0,16326:0:0:0:0:
192,192,16326,1,0,0:0:0:0:
64,192,16497,1,2,0:0:0:0:
448,192,16497,128,0,16668:0:0:0:0:
320,192,16668,1,0,0:0:0:0:
192,192,16668,128,0,16840:0:0:0:0:
64,192,16840,1,2,0:0:0:0:
448,192,16840,1,0,0:0:0:0:
320,192,16840,128,0,17011:0:0:0:0:
192,192,17011,1,0,0:0:0:0:
64,192,17011,128,0,17183:0:0:0:0:
448,192,17183,128,0,17354:0:0:0:0:
320,192,17183,1,2,0:0:0:0:
192,192,17354,1,0,0:0:0:0:
448,192,17526,1,2,0:0:0:0:
320,192,17526,1,0,0:0:0:0:
192,192,17697,1,0,0:0:0:0:
64,192,17697,1,0,0:0:0:0:
320,192,17783,1,0,0:0:0:0:
448,192,17783,1,0,0:0:0:0:
192,192,17868,1,2,0:0:0:0:
64,192,17868,128,0,18040:0:0:0:0:
320,192,18040,1,0,0:0:0:0:
448,192,18211,128,0,18383:0:0:0:0:
64,192,18211,1,2,0:0:0:0:
192,192,18211,1,0,0:0:0:0:
320,192,18383,128,0,18554:0:0:0:0:
64,192,18383,1,0,0:0:0:0:
448,192,18554,1,2,0:0:0:0:
192,192,18554,128,0,18726:0:0:0:0:
320,192,18726,1,0,0:0:0:0:
64,192,18897,1,2,0:0:0:0:
192,192,18897,128,0,19068:0:0:0:0:
448,192,18897,1,0,0:0:0:0:
320,192,19068,1,0,0:0:0:0:
192,192,19240,1,2,0:0:0:0:
448,192,19240,128,0,19326:0:0:0:0:
64,192,19411,1,0,0:0:0:0:
320,192,19411,128,0,19497:0:0:0:0:
192,192,19583,1,2,0:0:0:0:
64,192,19583,1,0,0:0:0:0:
448,192,19583,128,0,19668:0:0:0:0:
192,192,19754,1,0,0:0:0:0:
320,192,19754,128,0,19926:0:0:0:0:
448,192,19926,1,2,0:0:0:0:
64,192,19926,128,0,20097:0:0:0:0:
320,192,20097,1,8,0:0:0:0:
448,192,20097,1,0,0:0:0:0:
64,192,20268,1,2,0:0:0:0:
192,192,20268,1,0,0:0:0:0:
448,192,20440,1,8,0:0:0:0:
320,192,20440,1,0,0:0:0:0:
192,192,20526,1,0,0:0:0:0:
64,192,20526,1,0,0:0:0:0:
448,192,20611,128,0,20783:0:0:0:0:
320,192,20611,1,2,0:0:0:0:
192,192,20783,1,8,0:0:0:0:
64,192,20783,1,0,0:0:0:0:
64,192,20954,128,0,21126:0:0:0:0:
448,192,20954,1,2,0:0:0:0:
320,192,20954,1,0,0:0:0:0:
320,192,21126,1,8,0:0:0:0:
192,192,21126,1,0,0:0:0:0:
64,192,21297,1,2,0:0:0:0:
192,192,21297,128,4,21468:0:0:0:0:
448,192,21297,1,8,0:0:0:0:
192,192,21640,128,0,21811:0:0:0:0:
64,192,21983,128,0,22154:0:0:0:0:
320,192,22154,128,0,22326:0:0:0:0:
192,192,22326,128,0,22497:0:0:0:0:
448,192,22497,128,0,22668:0:0:0:0:
320,192,22668,1,8,0:0:0:0:
192,192,22668,1,4,0:0:0:0:
64,192,22668,128,2,23354:0:0:0:0:
448,192,23011,1,0,0:0:0:0:
320,192,23354,128,0,24040:0:0:0:0:
192,192,23354,1,0,0:0:0:0:
64,192,23697,1,0,0:0:0:0:
192,192,24040,128,0,24726:0:0:0:0:
448,192,24040,1,0,0:0:0:0:
320,192,24383,1,0,0:0:0:0:
448,192,24726,128,0,25411:0:0:0:0:
64,192,24726,1,0,0:0:0:0:
192,192,25068,1,0,0:0:0:0:
64,192,25411,128,0,26440:0:0:0:0:
320,192,25411,1,0,0:0:0:0:
192,192,25754,1,0,0:0:0:0:
320,192,26097,1,0,0:0:0:0:
448,192,26440,128,0,26783:0:0:0:0:
192,192,26440,1,0,0:0:0:0:
64,192,26783,128,0,28154:0:0:0:0:
320,192,26783,128,0,27126:0:0:0:0:
448,192,27126,1,0,0:0:0:0:
320,192,27811,128,0,27983:0:0:0:0:
192,192,27983,128,0,28154:0:0:0:0:
448,192,28154,128,0,28840:0:0:0:0:
320,192,28154,1,0,0:0:0:0:
192,192,28497,1,0,0:0:0:0:
192,192,28840,128,0,29526:0:0:0:0:
64,192,28840,1,0,0:0:0:0:
320,192,29183,1,0,0:0:0:0:
320,192,29526,128,0,30211:0:0:0:0:
448,192,29526,1,0,0:0:0:0:
192,192,29868,1,0,0:0:0:0:
64,192,30211,128,0,30897:0:0:0:0:
448,192,30211,1,0,0:0:0:0:
320,192,30554,1,0,0:0:0:0:
192,192,30897,128,0,31240:0:0:0:0:
448,192,30897,1,0,0:0:0:0:
320,192,31240,128,0,31583:0:0:0:0:
64,192,31240,1,0,0:0:0:0:
448,192,31583,128,0,32097:0:0:0:0:
192,192,31583,1,0,0:0:0:0:
320,192,31926,1,0,0:0:0:0:
192,192,32097,128,0,32440:0:0:0:0:
64,192,32268,1,0,0:0:0:0:
320,192,32440,128,0,32611:0:0:0:0:
64,192,32611,128,0,33640:0:0:0:0:
448,192,32611,128,0,32783:0:0:0:0:
192,192,32783,1,0,0:0:0:0:
320,192,32954,128,0,33126:0:0:0:0:
448,192,33126,1,0,0:0:0:0:
192,192,33297,128,0,33468:0:0:0:0:
320,192,33468,1,0,0:0:0:0:
192,192,33640,1,2,0:0:0:0:
320,192,33640,1,4,0:0:0:0:
448,192,33640,128,0,34326:0:0:0:0:
320,192,33983,1,0,0:0:0:0:
64,192,34154,1,0,0:0:0:0:
192,192,34154,1,0,0:0:0:0:
192,192,34326,128,0,35011:0:0:0:0:
64,192,34326,1,0,0:0:0:0:
320,192,34326,1,8,0:0:0:0:
64,192,34668,1,2,0:0:0:0:
448,192,34668,1,0,0:0:0:0:
320,192,34840,1,0,0:0:0:0:
64,192,35011,128,0,35697:0:0:0:0:
448,192,35011,1,2,0:0:0:0:
320,192,35183,1,0,0:0:0:0:
448,192,35183,1,0,0:0:0:0:
192,192,35354,1,0,0:0:0:0:
448,192,35526,1,0,0:0:0:0:
320,192,35697,128,0,36383:0:0:0:0:
448,192,35697,1,0,0:0:0:0:
192,192,35697,1,8,0:0:0:0:
448,192,36040,1,0,0:0:0:0:
64,192,36211,1,0,0:0:0:0:
192,192,36211,1,0,0:0:0:0:
192,192,36383,128,0,37411:0:0:0:0:
64,192,36383,1,2,0:0:0:0:
320,192,36726,1,2,0:0:0:0:
448,192,36726,1,0,0:0:0:0:
320,192,36897,1,0,0:0:0:0:
64,192,37068,1,8,0:0:0:0:
448,192,37068,1,0,0:0:0:0:
448,192,37240,1,2,0:0:0:0:
320,192,37240,1,0,0:0:0:0:
320,192,37411,128,0,37754:0:0:0:0:
64,192,37411,1,0,0:0:0:0:
448,192,37754,128,0,38440:0:0:0:0:
64,192,37754,1,0,0:0:0:0:
192,192,37926,1,0,0:0:0:0:
64,192,37926,1,0,0:0:0:0:
320,192,38097,1,0,0:0:0:0:
192,192,38268,1,0,0:0:0:0:
64,192,38440,128,0,38611:0:0:0:0:
320,192,38440,1,8,0:0:0:0:
192,192,38611,128,0,38783:0:0:0:0:
320,192,38783,128,0,38954:0:0:0:0:
448,192,38954,128,0,39126:0:0:0:0:
64,192,39126,1,2,0:0:0:0:
192,192,39126,1,4,0:0:0:0:
320,192,39126,1,8,0:0:0:0:
64,192,39468,1,8,0:0:0:0:
448,192,39468,1,0,0:0:0:0:
192,192,39640,1,0,0:0:0:0:
320,192,39640,1,0,0:0:0:0:
64,192,39811,1,8,0:0:0:0:
448,192,39811,1,0,0:0:0:0:
192,192,40154,1,8,0:0:0:0:
448,192,40154,1,0,0:0:0:0:
320,192,40326,1,0,0:0:0:0:
64,192,40497,1,8,0:0:0:0:
448,192,40497,1,0,0:0:0:0:
192,192,40668,1,0,0:0:0:0:
448,192,40840,1,8,0:0:0:0:
64,192,40840,1,0,0:0:0:0:
320,192,41011,1,0,0:0:0:0:
192,192,41183,1,8,0:0:0:0:
448,192,41183,1,0,0:0:0:0:
64,192,41526,1,8,0:0:0:0:
320,192,41526,1,0,0:0:0:0:
64,192,41868,1,8,0:0:0:0:
192,192,41868,1,0,0:0:0:0:
320,192,42040,1,8,0:0:0:0:
448,192,42040,1,0,0:0:0:0:
192,192,42211,1,8,0:0:0:0:
64,192,42211,1,0,0:0:0:0:
320,192,42383,1,8,0:0:0:0:
448,192,42383,1,0,0:0:0:0:
64,192,42554,1,8,0:0:0:0:
192,192,42554,1,0,0:0:0:0:
64,192,42726,1,0,0:0:0:0:
192,192,42726,1,0,0:0:0:0:
320,192,42897,1,0,0:0:0:0:
448,192,42897,1,0,0:0:0:0:
320,192,43068,1,0,0:0:0:0:
448,192,43068,1,0,0:0:0:0:
64,192,43240,1,2,0:0:0:0:
448,192,43240,1,0,0:0:0:0:
192,192,43240,1,0,0:0:0:0:
320,192,43326,1,0,0:0:0:0:
192,192,43411,1,0,0:0:0:0:
320,192,43497,1,0,0:0:0:0:
64,192,43583,1,0,0:0:0:0:
192,192,43583,1,0,0:0:0:0:
320,192,43668,1,0,0:0:0:0:
448,192,43668,1,0,0:0:0:0:
64,192,43754,1,0,0:0:0:0:
192,192,43754,1,0,0:0:0:0:
448,192,43840,1,0,0:0:0:0:
192,192,43926,1,0,0:0:0:0:
320,192,44011,1,0,0:0:0:0:
64,192,44097,1,0,0:0:0:0:
192,192,44140,1,0,0:0:0:0:
448,192,44183,1,0,0:0:0:0:
320,192,44226,1,0,0:0:0:0:
64,192,44268,1,0,0:0:0:0:
192,192,44268,1,0,0:0:0:0:
448,192,44354,1,0,0:0:0:0:
320,192,44440,1,0,0:0:0:0:
192,192,44526,1,0,0:0:0:0:
64,192,44611,1,4,0:0:0:0:
320,192,44611,1,2,0:0:0:0:
448,192,44611,1,8,0:0:0:0:
192,192,44783,1,0,0:0:0:0:
448,192,44868,1,0,0:0:0:0:
64,192,45040,1,0,0:0:0:0:
320,192,45126,1,0,0:0:0:0:
448,192,45211,1,0,0:0:0:0:
192,192,45297,1,0,0:0:0:0:
320,192,45468,1,0,0:0:0:0:
64,192,45554,1,0,0:0:0:0:
448,192,45726,1,0,0:0:0:0:
192,192,45811,1,0,0:0:0:0:
320,192,45897,1,0,0:0:0:0:
64,192,45983,1,0,0:0:0:0:
320,192,46154,1,0,0:0:0:0:
192,192,46240,1,0,0:0:0:0:
448,192,46411,1,0,0:0:0:0:
64,192,46497,1,0,0:0:0:0:
192,192,46583,1,0,0:0:0:0:
448,192,46668,1,0,0:0:0:0:
320,192,46840,1,0,0:0:0:0:
64,192,46926,1,0,0:0:0:0:
448,192,47011,1,0,0:0:0:0:
192,192,47097,1,0,0:0:0:0:
320,192,47183,1,0,0:0:0:0:
64,192,47268,1,0,0:0:0:0:
448,192,47354,1,0,0:0:0:0:
192,192,47526,1,0,0:0:0:0:
320,192,47611,1,0,0:0:0:0:
64,192,47697,1,0,0:0:0:0:
448,192,47783,1,0,0:0:0:0:
320,192,47868,1,0,0:0:0:0:
64,192,47954,1,0,0:0:0:0:
192,192,48040,1,0,0:0:0:0:
448,192,48126,1,0,0:0:0:0:
192,192,48211,1,0,0:0:0:0:
320,192,48297,1,0,0:0:0:0:
64,192,48383,1,0,0:0:0:0:
320,192,48468,1,0,0:0:0:0:
192,192,48554,1,0,0:0:0:0:
448,192,48640,1,0,0:0:0:0:
64,192,48726,1,2,0:0:0:0:
192,192,48897,1,0,0:0:0:0:
448,192,48983,1,0,0:0:0:0:
64,192,49068,1,2,0:0:0:0:
320,192,49240,1,0,0:0:0:0:
64,192,49326,1,0,0:0:0:0:
448,192,49411,1,2,0:0:0:0:
192,192,49497,1,0,0:0:0:0:
320,192,49583,1,0,0:0:0:0:
64,192,49754,1,2,0:0:0:0:
320,192,49840,1,0,0:0:0:0:
192,192,49926,1,0,0:0:0:0:
448,192,50011,1,0,0:0:0:0:
192,192,50097,1,2,0:0:0:0:
320,192,50097,1,4,0:0:0:0:
64,192,50097,1,0,0:0:0:0:
448,192,50268,1,2,0:0:0:0:
320,192,50268,1,0,0:0:0:0:
192,192,50354,1,0,0:0:0:0:
64,192,50440,1,2,0:0:0:0:
448,192,50440,1,0,0:0:0:0:
64,192,50611,1,0,0:0:0:0:
320,192,50611,1,0,0:0:0:0:
192,192,50697,1,0,0:0:0:0:
448,192,50783,1,2,0:0:0:0:
320,192,50783,1,0,0:0:0:0:
64,192,50954,1,0,0:0:0:0:
192,192,50954,1,0,0:0:0:0:
320,192,51040,1,0,0:0:0:0:
64,192,51126,1,2,0:0:0:0:
448,192,51126,1,0,0:0:0:0:
320,192,51297,1,0,0:0:0:0:
192,192,51297,1,0,0:0:0:0:
64,192,51383,1,0,0:0:0:0:
192,192,51468,1,2,0:0:0:0:
320,192,51468,1,4,0:0:0:0:
448,192,51468,1,0,0:0:0:0:
64,192,51640,1,0,0:0:0:0:
448,192,51640,1,0,0:0:0:0:
320,192,51726,1,0,0:0:0:0:
64,192,51811,1,2,0:0:0:0:
192,192,51811,1,0,0:0:0:0:
320,192,51983,1,0,0:0:0:0:
448,192,51983,1,0,0:0:0:0:
64,192,52068,1,0,0:0:0:0:
448,192,52154,1,2,0:0:0:0:
192,192,52154,1,0,0:0:0:0:
64,192,52326,1,0,0:0:0:0:
320,192,52326,1,0,0:0:0:0:
192,192,52411,1,0,0:0:0:0:
448,192,52497,1,2,0:0:0:0:
320,192,52497,1,0,0:0:0:0:
64,192,52668,1,0,0:0:0:0:
192,192,52668,1,0,0:0:0:0:
320,192,52754,1,0,0:0:0:0:
448,192,52840,1,4,0:0:0:0:
64,192,52840,1,2,0:0:0:0:
192,192,52926,1,2,0:0:0:0:
448,192,53011,1,2,0:0:0:0:
320,192,53011,1,0,0:0:0:0:
64,192,53097,1,2,0:0:0:0:
192,192,53183,1,2,0:0:0:0:
320,192,53183,1,4,0:0:0:0:
448,192,53268,1,2,0:0:0:0:
192,192,53354,1,2,0:0:0:0:
64,192,53354,1,0,0:0:0:0:
320,192,53440,1,2,0:0:0:0:
448,192,53526,1,2,0:0:0:0:
64,192,53526,1,4,0:0:0:0:
192,192,53611,1,2,0:0:0:0:
448,192,53697,1,2,0:0:0:0:
320,192,53697,1,0,0:0:0:0:
64,192,53783,1,2,0:0:0:0:
192,192,53868,1,4,0:0:0:0:
320,192,53868,1,2,0:0:0:0:
448,192,53954,1,2,0:0:0:0:
192,192,54040,1,2,0:0:0:0:
64,192,54040,1,0,0:0:0:0:
320,192,54126,1,2,0:0:0:0:
64,192,54211,1,2,0:0:0:0:
448,192,54211,128,4,54554:0:0:0:0:
192,192,54211,1,8,0:0:0:0:
192,192,54554,1,0,0:0:0:0:
320,192,54640,1,0,0:0:0:0:
64,192,54726,128,0,54897:0:0:0:0:
448,192,54897,1,0,0:0:0:0:
192,192,54983,1,0,0:0:0:0:
448,192,55068,1,0,0:0:0:0:
320,192,55111,1,0,0:0:0:0:
64,192,55154,1,0,0:0:0:0:
192,192,55197,1,0,0:0:0:0:
448,192,55240,1,0,0:0:0:0:
320,192,55240,1,0,0:0:0:0:
64,192,55326,1,0,0:0:0:0:
320,192,55411,1,0,0:0:0:0:
192,192,55497,1,0,0:0:0:0:
320,192,55583,1,8,0:0:0:0:
64,192,55583,1,2,0:0:0:0:
448,192,55583,128,4,55754:0:0:0:0:
192,192,55754,1,0,0:0:0:0:
64,192,55840,1,0,0:0:0:0:
448,192,55926,1,2,0:0:0:0:
320,192,55926,1,0,0:0:0:0:
64,192,56011,1,0,0:0:0:0:
192,192,56097,128,0,56268:0:0:0:0:
320,192,56097,1,0,0:0:0:0:
448,192,56268,1,2,0:0:0:0:
64,192,56268,128,0,56440:0:0:0:0:
320,192,56440,1,0,0:0:0:0:
448,192,56526,1,0,0:0:0:0:
192,192,56611,1,2,0:0:0:0:
64,192,56611,1,0,0:0:0:0:
448,192,56697,1,0,0:0:0:0:
320,192,56783,128,0,56954:0:0:0:0:
192,192,56783,1,0,0:0:0:0:
64,192,56954,1,2,0:0:0:0:
448,192,56954,128,0,57126:0:0:0:0:
192,192,57126,1,0,0:0:0:0:
64,192,57211,1,0,0:0:0:0:
320,192,57297,1,2,0:0:0:0:
448,192,57297,1,0,0:0:0:0:
64,192,57383,1,0,0:0:0:0:
320,192,57468,128,0,57640:0:0:0:0:
192,192,57468,1,0,0:0:0:0:
448,192,57640,1,2,0:0:0:0:
192,192,57640,128,0,57811:0:0:0:0:
64,192,57811,1,0,0:0:0:0:
448,192,57897,1,0,0:0:0:0:
64,192,57983,1,2,0:0:0:0:
192,192,57983,1,0,0:0:0:0:
448,192,58068,1,0,0:0:0:0:
320,192,58154,1,0,0:0:0:0:
192,192,58240,1,0,0:0:0:0:
64,192,58326,1,2,0:0:0:0:
448,192,58326,128,0,58497:0:0:0:0:
192,192,58497,1,0,0:0:0:0:
320,192,58583,1,0,0:0:0:0:
64,192,58668,1,2,0:0:0:0:
448,192,58668,1,0,0:0:0:0:
320,192,58754,1,0,0:0:0:0:
64,192,58840,128,0,59011:0:0:0:0:
192,192,58840,1,0,0:0:0:0:
320,192,59011,1,2,0:0:0:0:
448,192,59011,128,0,59183:0:0:0:0:
192,192,59183,1,0,0:0:0:0:
64,192,59268,1,0,0:0:0:0:
320,192,59354,1,2,0:0:0:0:
448,192,59354,1,0,0:0:0:0:
64,192,59440,1,0,0:0:0:0:
192,192,59526,1,0,0:0:0:0:
448,192,59611,1,0,0:0:0:0:
64,192,59697,1,2,0:0:0:0:
320,192,59697,128,0,59868:0:0:0:0:
192,192,59868,1,0,0:0:0:0:
448,192,59954,1,0,0:0:0:0:
64,192,60040,1,2,0:0:0:0:
320,192,60040,1,0,0:0:0:0:
448,192,60126,1,0,0:0:0:0:
192,192,60211,1,0,0:0:0:0:
320,192,60297,1,0,0:0:0:0:
64,192,60383,1,2,0:0:0:0:
448,192,60383,128,0,60554:0:0:0:0:
192,192,60554,1,0,0:0:0:0:
320,192,60640,1,0,0:0:0:0:
64,192,60726,1,2,0:0:0:0:
192,192,60726,128,0,60897:0:0:0:0:
448,192,60726,1,0,0:0:0:0:
320,192,60897,128,0,61068:0:0:0:0:
448,192,60897,1,0,0:0:0:0:
192,192,61068,1,2,0:0:0:0:
64,192,61068,128,0,61240:0:0:0:0:
448,192,61240,1,0,0:0:0:0:
192,192,61326,1,0,0:0:0:0:
320,192,61411,1,2,0:0:0:0:
448,192,61411,1,0,0:0:0:0:
192,192,61497,1,0,0:0:0:0:
320,192,61583,128,0,61754:0:0:0:0:
64,192,61583,1,0,0:0:0:0:
448,192,61754,128,0,61926:0:0:0:0:
192,192,61754,1,2,0:0:0:0:
64,192,61926,1,0,0:0:0:0:
320,192,62011,1,0,0:0:0:0:
192,192,62097,1,2,0:0:0:0:
64,192,62097,1,0,0:0:0:0:
320,192,62183,1,0,0:0:0:0:
448,192,62268,1,0,0:0:0:0:
192,192,62268,128,0,62440:0:0:0:0:
320,192,62440,128,0,62611:0:0:0:0:
64,192,62440,1,2,0:0:0:0:
64,192,62611,1,0,0:0:0:0:
192,192,62697,1,0,0:0:0:0:
448,192,62783,1,2,0:0:0:0:
320,192,62783,1,0,0:0:0:0:
192,192,62868,1,0,0:0:0:0:
320,192,62954,1,0,0:0:0:0:
64,192,62954,128,0,63126:0:0:0:0:
192,192,63126,128,0,63297:0:0:0:0:
448,192,63126,1,2,0:0:0:0:
320,192,63297,1,0,0:0:0:0:
64,192,63383,1,0,0:0:0:0:
448,192,63468,1,2,0:0:0:0:
320,192,63468,1,0,0:0:0:0:
64,192,63554,1,0,0:0:0:0:
192,192,63640,1,0,0:0:0:0:
320,192,63726,1,0,0:0:0:0:
64,192,63811,128,2,63983:0:0:0:0:
448,192,63811,1,0,0:0:0:0:
320,192,63983,1,0,0:0:0:0:
192,192,64154,128,0,64326:0:0:0:0:
448,192,64154,1,2,0:0:0:0:
64,192,64154,1,0,0:0:0:0:
320,192,64326,1,0,0:0:0:0:
448,192,64497,128,2,64668:0:0:0:0:
192,192,64497,1,0,0:0:0:0:
64,192,64668,1,0,0:0:0:0:
320,192,64754,1,0,0:0:0:0:
448,192,64840,1,2,0:0:0:0:
64,192,64840,1,0,0:0:0:0:
192,192,64926,1,0,0:0:0:0:
448,192,65011,128,0,65183:0:0:0:0:
320,192,65011,1,0,0:0:0:0:
192,192,65183,1,2,0:0:0:0:
64,192,65183,1,0,0:0:0:0:
192,192,65354,128,0,65526:0:0:0:0:
448,192,65354,1,0,0:0:0:0:
320,192,65526,128,0,65697:0:0:0:0:
64,192,65526,1,0,0:0:0:0:
448,192,65526,1,2,0:0:0:0:
64,192,65697,1,0,0:0:0:0:
192,192,65783,1,0,0:0:0:0:
448,192,65868,128,0,66040:0:0:0:0:
320,192,65868,1,2,0:0:0:0:
64,192,66040,128,0,66211:0:0:0:0:
192,192,66040,1,0,0:0:0:0:
320,192,66211,128,0,66383:0:0:0:0:
448,192,66211,1,8,0:0:0:0:
64,192,66383,1,0,0:0:0:0:
192,192,66383,128,0,66554:0:0:0:0:
448,192,66468,1,0,0:0:0:0:
64,192,66554,128,4,66726:0:0:0:0:
320,192,66554,1,2,0:0:0:0:
448,192,66726,1,0,0:0:0:0:
192,192,66811,1,0,0:0:0:0:
64,192,66897,1,2,0:0:0:0:
320,192,66897,1,0,0:0:0:0:
192,192,66983,1,0,0:0:0:0:
448,192,67068,1,0,0:0:0:0:
320,192,67068,128,0,67240:0:0:0:0:
192,192,67240,1,2,0:0:0:0:
448,192,67240,128,0,67411:0:0:0:0:
64,192,67411,1,0,0:0:0:0:
320,192,67497,1,0,0:0:0:0:
192,192,67583,1,2,0:0:0:0:
448,192,67583,1,0,0:0:0:0:
320,192,67668,1,0,0:0:0:0:
64,192,67754,1,0,0:0:0:0:
192,192,67754,128,0,67926:0:0:0:0:
64,192,67926,128,0,68097:0:0:0:0:
448,192,67926,1,2,0:0:0:0:
192,192,68097,1,0,0:0:0:0:
320,192,68183,1,0,0:0:0:0:
448,192,68268,1,2,0:0:0:0:
64,192,68268,1,0,0:0:0:0:
320,192,68354,1,0,0:0:0:0:
192,192,68440,128,0,68611:0:0:0:0:
448,192,68440,1,0,0:0:0:0:
64,192,68611,1,2,0:0:0:0:
320,192,68611,128,0,68783:0:0:0:0:
448,192,68783,1,0,0:0:0:0:
192,192,68868,1,0,0:0:0:0:
64,192,68954,1,2,0:0:0:0:
448,192,68954,1,0,0:0:0:0:
192,192,69040,1,0,0:0:0:0:
320,192,69126,1,0,0:0:0:0:
64,192,69297,128,0,69468:0:0:0:0:
448,192,69297,1,2,0:0:0:0:
320,192,69468,1,0,0:0:0:0:
192,192,69554,1,0,0:0:0:0:
448,192,69640,1,2,0:0:0:0:
64,192,69640,1,0,0:0:0:0:
192,192,69726,1,0,0:0:0:0:
448,192,69811,1,0,0:0:0:0:
320,192,69897,1,0,0:0:0:0:
192,192,69983,1,2,0:0:0:0:
64,192,69983,128,0,70154:0:0:0:0:
448,192,70154,1,0,0:0:0:0:
192,192,70240,1,0,0:0:0:0:
448,192,70326,1,2,0:0:0:0:
64,192,70326,1,0,0:0:0:0:
192,192,70411,1,0,0:0:0:0:
320,192,70497,1,0,0:0:0:0:
64,192,70583,1,0,0:0:0:0:
448,192,70668,1,2,0:0:0:0:
192,192,70668,128,0,70840:0:0:0:0:
320,192,70840,1,0,0:0:0:0:
64,192,70926,1,0,0:0:0:0:
192,192,71011,1,2,0:0:0:0:
448,192,71011,1,0,0:0:0:0:
64,192,71097,1,0,0:0:0:0:
320,192,71183,1,0,0:0:0:0:
192,192,71268,1,0,0:0:0:0:
64,192,71354,128,2,71526:0:0:0:0:
448,192,71354,1,0,0:0:0:0:
192,192,71526,128,0,71697:0:0:0:0:
320,192,71526,1,0,0:0:0:0:
320,192,71697,128,0,71868:0:0:0:0:
64,192,71697,1,2,0:0:0:0:
448,192,71868,128,0,72040:0:0:0:0:
192,192,71868,1,0,0:0:0:0:
192,192,72040,128,4,72211:0:0:0:0:
320,192,72040,1,2,0:0:0:0:
64,192,72040,1,8,0:0:0:0:
448,192,72211,1,0,0:0:0:0:
64,192,72383,1,2,0:0:0:0:
320,192,72383,128,0,72554:0:0:0:0:
192,192,72554,1,0,0:0:0:0:
64,192,72726,128,2,72897:0:0:0:0:
448,192,72726,1,0,0:0:0:0:
320,192,72897,1,0,0:0:0:0:
448,192,73068,1,2,0:0:0:0:
64,192,73068,1,0,0:0:0:0:
192,192,73154,1,0,0:0:0:0:
448,192,73240,1,0,0:0:0:0:
320,192,73240,128,0,73411:0:0:0:0:
64,192,73411,1,2,0:0:0:0:
192,192,73411,1,0,0:0:0:0:
320,192,73583,1,0,0:0:0:0:
448,192,73583,128,0,73754:0:0:0:0:
64,192,73754,1,2,0:0:0:0:
192,192,73754,1,0,0:0:0:0:
64,192,73926,128,0,74097:0:0:0:0:
448,192,73926,1,0,0:0:0:0:
192,192,74097,1,2,0:0:0:0:
320,192,74097,1,0,0:0:0:0:
64,192,74268,1,0,0:0:0:0:
448,192,74268,1,0,0:0:0:0:
192,192,74354,1,0,0:0:0:0:
448,192,74440,1,2,0:0:0:0:
320,192,74440,128,0,74611:0:0:0:0:
192,192,74611,128,0,74783:0:0:0:0:
448,192,74783,128,4,74954:0:0:0:0:
64,192,74783,1,2,0:0:0:0:
192,192,74954,1,8,0:0:0:0:
320,192,74954,1,0,0:0:0:0:
64,192,75126,1,2,0:0:0:0:
320,192,75126,128,0,75297:0:0:0:0:
192,192,75297,1,8,0:0:0:0:
448,192,75297,1,0,0:0:0:0:
64,192,75468,128,4,75640:0:0:0:0:
320,192,75468,1,2,0:0:0:0:
192,192,75640,1,8,0:0:0:0:
320,192,75726,1,2,0:0:0:0:
448,192,75726,128,4,75897:0:0:0:0:
64,192,75897,1,8,0:0:0:0:
192,192,75983,128,4,76154:0:0:0:0:
320,192,75983,1,2,0:0:0:0:
448,192,76154,1,0,0:0:0:0:
64,192,76154,1,0,0:0:0:0:
320,192,76326,1,0,0:0:0:0:
192,192,76411,1,0,0:0:0:0:
448,192,76497,1,0,0:0:0:0:
320,192,76497,1,0,0:0:0:0:
192,192,76583,1,0,0:0:0:0:
64,192,76583,1,0,0:0:0:0:
448,192,76668,1,0,0:0:0:0:
320,192,76668,1,0,0:0:0:0:
64,192,76754,1,0,0:0:0:0:
448,192,76840,1,0,0:0:0:0:
320,192,76926,1,0,0:0:0:0:
64,192,77011,1,0,0:0:0:0:
192,192,77054,1,0,0:0:0:0:
448,192,77097,1,0,0:0:0:0:
320,192,77140,1,0,0:0:0:0:
192,192,77183,1,2,0:0:0:0:
64,192,77183,1,0,0:0:0:0:
448,192,77268,1,0,0:0:0:0:
320,192,77354,1,0,0:0:0:0:
192,192,77440,1,0,0:0:0:0:
320,192,77526,1,2,0:0:0:0:
448,192,77526,1,8,0:0:0:0:
64,192,77526,128,4,78211:0:0:0:0:
192,192,77697,1,0,0:0:0:0:
448,192,77783,1,0,0:0:0:0:
320,192,77868,1,2,0:0:0:0:
192,192,77868,1,0,0:0:0:0:
448,192,78040,1,0,0:0:0:0:
320,192,78211,128,0,78897:0:0:0:0:
192,192,78211,1,2,0:0:0:0:
448,192,78297,1,0,0:0:0:0:
64,192,78383,1,0,0:0:0:0:
448,192,78554,1,2,0:0:0:0:
192,192,78554,1,0,0:0:0:0:
448,192,78726,1,0,0:0:0:0:
64,192,78726,1,0,0:0:0:0:
192,192,78897,128,0,79583:0:0:0:0:
64,192,78897,1,2,0:0:0:0:
448,192,79068,1,0,0:0:0:0:
320,192,79154,1,0,0:0:0:0:
64,192,79240,1,2,0:0:0:0:
448,192,79240,1,0,0:0:0:0:
320,192,79411,1,0,0:0:0:0:
64,192,79497,1,0,0:0:0:0:
448,192,79583,128,0,80268:0:0:0:0:
320,192,79583,1,2,0:0:0:0:
64,192,79668,1,0,0:0:0:0:
192,192,79754,1,0,0:0:0:0:
320,192,79926,1,2,0:0:0:0:
64,192,79926,1,0,0:0:0:0:
192,192,80097,1,0,0:0:0:0:
320,192,80097,1,0,0:0:0:0:
64,192,80268,128,0,81297:0:0:0:0:
192,192,80268,1,2,0:0:0:0:
448,192,80440,1,0,0:0:0:0:
192,192,80526,1,0,0:0:0:0:
320,192,80611,1,2,0:0:0:0:
448,192,80611,1,0,0:0:0:0:
192,192,80783,1,0,0:0:0:0:
448,192,80954,1,2,0:0:0:0:
320,192,80954,1,0,0:0:0:0:
192,192,81040,1,0,0:0:0:0:
448,192,81126,1,0,0:0:0:0:
192,192,81297,128,0,81640:0:0:0:0:
320,192,81297,1,2,0:0:0:0:
448,192,81468,1,0,0:0:0:0:
64,192,81468,1,0,0:0:0:0:
320,192,81640,128,0,83011:0:0:0:0:
64,192,81640,1,2,0:0:0:0:
192,192,81811,1,0,0:0:0:0:
448,192,81897,1,0,0:0:0:0:
192,192,81983,1,2,0:0:0:0:
64,192,81983,1,0,0:0:0:0:
448,192,82154,1,0,0:0:0:0:
64,192,82326,1,2,0:0:0:0:
192,192,82326,1,0,0:0:0:0:
448,192,82411,1,0,0:0:0:0:
192,192,82497,1,0,0:0:0:0:
64,192,82668,1,2,0:0:0:0:
448,192,82668,1,0,0:0:0:0:
192,192,82840,1,0,0:0:0:0:
64,192,82926,1,0,0:0:0:0:
192,192,83011,1,2,0:0:0:0:
448,192,83011,128,0,83697:0:0:0:0:
64,192,83183,1,0,0:0:0:0:
320,192,83268,1,0,0:0:0:0:
64,192,83354,1,2,0:0:0:0:
192,192,83354,1,0,0:0:0:0:
320,192,83526,1,0,0:0:0:0:
192,192,83697,128,0,84383:0:0:0:0:
64,192,83697,1,2,0:0:0:0:
320,192,83783,1,0,0:0:0:0:
64,192,83868,1,0,0:0:0:0:
448,192,84040,1,2,0:0:0:0:
320,192,84040,1,0,0:0:0:0:
64,192,84211,1,0,0:0:0:0:
448,192,84211,1,0,0:0:0:0:
320,192,84383,128,0,85068:0:0:0:0:
64,192,84383,1,2,0:0:0:0:
192,192,84554,1,0,0:0:0:0:
448,192,84640,1,0,0:0:0:0:
192,192,84726,1,2,0:0:0:0:
64,192,84726,1,0,0:0:0:0:
448,192,84897,1,0,0:0:0:0:
64,192,85068,128,0,85754:0:0:0:0:
192,192,85068,1,2,0:0:0:0:
448,192,85154,1,0,0:0:0:0:
192,192,85240,1,0,0:0:0:0:
448,192,85411,1,2,0:0:0:0:
320,192,85411,1,0,0:0:0:0:
192,192,85583,1,0,0:0:0:0:
320,192,85583,1,0,0:0:0:0:
448,192,85754,1,2,0:0:0:0:
192,192,85754,128,4,86097:0:0:0:0:
320,192,85754,1,8,0:0:0:0:
64,192,85926,1,0,0:0:0:0:
448,192,86011,1,0,0:0:0:0:
320,192,86097,128,0,86440:0:0:0:0:
64,192,86097,1,2,0:0:0:0:
192,192,86268,1,0,0:0:0:0:
192,192,86440,1,2,0:0:0:0:
448,192,86440,128,4,86954:0:0:0:0:
64,192,86440,1,8,0:0:0:0:
320,192,86526,1,0,0:0:0:0:
64,192,86611,1,0,0:0:0:0:
192,192,86783,1,2,0:0:0:0:
320,192,86783,1,0,0:0:0:0:
64,192,86954,1,0,0:0:0:0:
320,192,86954,128,0,87297:0:0:0:0:
448,192,87126,1,2,0:0:0:0:
64,192,87126,1,4,0:0:0:0:
192,192,87126,1,8,0:0:0:0:
192,192,87297,128,0,87468:0:0:0:0:
448,192,87468,1,2,0:0:0:0:
64,192,87468,128,4,88497:0:0:0:0:
320,192,87468,1,8,0:0:0:0:
448,192,87640,1,2,0:0:0:0:
320,192,87640,1,0,0:0:0:0:
192,192,87811,1,0,0:0:0:0:
320,192,87983,1,2,0:0:0:0:
448,192,87983,1,0,0:0:0:0:
192,192,88068,1,0,0:0:0:0:
320,192,88154,1,0,0:0:0:0:
448,192,88240,1,2,0:0:0:0:
320,192,88326,1,2,0:0:0:0:
192,192,88326,1,0,0:0:0:0:
192,192,88497,1,8,0:0:0:0:
320,192,88497,1,2,0:0:0:0:
448,192,88497,128,4,89183:0:0:0:0:
64,192,88583,1,0,0:0:0:0:
320,192,88668,1,2,0:0:0:0:
64,192,88754,1,2,0:0:0:0:
192,192,88840,1,2,0:0:0:0:
320,192,88926,1,2,0:0:0:0:
64,192,89011,1,2,0:0:0:0:
320,192,89097,1,2,0:0:0:0:
64,192,89183,128,2,89868:0:0:0:0:
192,192,89183,1,0,0:0:0:0:
320,192,89268,1,2,0:0:0:0:
448,192,89354,1,2,0:0:0:0:
192,192,89440,1,2,0:0:0:0:
320,192,89526,1,2,0:0:0:0:
448,192,89526,1,4,0:0:0:0:
448,192,89697,1,2,0:0:0:0:
320,192,89697,1,4,0:0:0:0:
320,192,89868,128,0,90554:0:0:0:0:
192,192,89868,1,0,0:0:0:0:
64,192,90040,1,0,0:0:0:0:
448,192,90126,1,0,0:0:0:0:
64,192,90211,1,4,0:0:0:0:
192,192,90211,1,2,0:0:0:0:
192,192,90383,1,0,0:0:0:0:
448,192,90468,1,0,0:0:0:0:
64,192,90554,1,2,0:0:0:0:
192,192,90554,128,0,91240:0:0:0:0:
448,192,90640,1,0,0:0:0:0:
320,192,90726,1,0,0:0:0:0:
448,192,90897,1,2,0:0:0:0:
64,192,90897,1,0,0:0:0:0:
320,192,91068,1,0,0:0:0:0:
448,192,91240,128,0,92268:0:0:0:0:
64,192,91240,1,2,0:0:0:0:
192,192,91411,1,0,0:0:0:0:
320,192,91497,1,0,0:0:0:0:
64,192,91583,1,2,0:0:0:0:
192,192,91583,1,0,0:0:0:0:
320,192,91754,1,0,0:0:0:0:
64,192,91926,1,2,0:0:0:0:
192,192,91926,1,0,0:0:0:0:
320,192,92011,1,0,0:0:0:0:
64,192,92097,1,0,0:0:0:0:
192,192,92268,1,2,0:0:0:0:
320,192,92268,128,0,92611:0:0:0:0:
448,192,92440,1,0,0:0:0:0:
192,192,92611,128,0,93297:0:0:0:0:
64,192,92611,1,2,0:0:0:0:
448,192,92783,1,0,0:0:0:0:
64,192,92868,1,0,0:0:0:0:
320,192,92954,1,2,0:0:0:0:
448,192,92954,1,0,0:0:0:0:
64,192,93126,1,0,0:0:0:0:
320,192,93211,1,0,0:0:0:0:
64,192,93297,1,2,0:0:0:0:
448,192,93297,128,0,93468:0:0:0:0:
320,192,93468,1,0,0:0:0:0:
192,192,93468,128,0,93640:0:0:0:0:
448,192,93640,1,2,0:0:0:0:
320,192,93640,128,0,93811:0:0:0:0:
192,192,93811,1,0,0:0:0:0:
64,192,93811,128,0,93983:0:0:0:0:
192,192,93983,1,4,0:0:0:0:
448,192,93983,1,0,0:0:0:0:
320,192,93983,1,0,0:0:0:0:
64,192,94154,1,2,0:0:0:0:
448,192,94154,1,0,0:0:0:0:
64,192,94326,1,2,0:0:0:0:
320,192,94326,1,0,0:0:0:0:
192,192,94326,1,0,0:0:0:0:
192,192,94497,1,2,0:0:0:0:
448,192,94497,1,0,0:0:0:0:
64,192,94668,1,2,0:0:0:0:
320,192,94668,1,0,0:0:0:0:
192,192,94840,1,2,0:0:0:0:
448,192,94840,1,0,0:0:0:0:
320,192,95011,1,2,0:0:0:0:
64,192,95011,1,0,0:0:0:0:
448,192,95011,1,0,0:0:0:0:
320,192,95183,1,2,0:0:0:0:
192,192,95183,1,0,0:0:0:0:
448,192,95354,1,2,0:0:0:0:
192,192,95354,1,0,0:0:0:0:
64,192,95526,1,2,0:0:0:0:
320,192,95526,1,0,0:0:0:0:
64,192,95697,1,2,0:0:0:0:
448,192,95697,1,0,0:0:0:0:
192,192,95697,1,0,0:0:0:0:
192,192,95868,1,2,0:0:0:0:
320,192,95868,1,0,0:0:0:0:
64,192,96040,1,2,0:0:0:0:
320,192,96040,1,0,0:0:0:0:
192,192,96211,1,2,0:0:0:0:
448,192,96211,1,0,0:0:0:0:
448,192,96383,1,2,0:0:0:0:
320,192,96383,1,0,0:0:0:0:
64,192,96383,1,0,0:0:0:0:
192,192,96554,1,2,0:0:0:0:
320,192,96554,1,0,0:0:0:0:
64,192,96726,1,2,0:0:0:0:
448,192,96726,1,0,0:0:0:0:
320,192,96811,1,2,0:0:0:0:
64,192,96897,1,2,0:0:0:0:
448,192,96897,1,0,0:0:0:0:
192,192,96983,1,2,0:0:0:0:
64,192,97068,1,2,0:0:0:0:
448,192,97068,1,0,0:0:0:0:
320,192,97154,1,2,0:0:0:0:
192,192,97240,1,2,0:0:0:0:
64,192,97240,1,0,0:0:0:0:
320,192,97326,1,2,0:0:0:0:
448,192,97411,1,2,0:0:0:0:
64,192,97411,1,0,0:0:0:0:
192,192,97497,1,2,0:0:0:0:
320,192,97583,1,2,0:0:0:0:
448,192,97583,1,0,0:0:0:0:
192,192,97668,1,2,0:0:0:0:
64,192,97754,1,2,0:0:0:0:
448,192,97754,1,0,0:0:0:0:
320,192,97840,1,2,0:0:0:0:
64,192,97926,1,2,0:0:0:0:
448,192,97926,1,0,0:0:0:0:
192,192,98011,1,2,0:0:0:0:
320,192,98097,1,8,0:0:0:0:
448,192,98097,1,2,0:0:0:0:
64,192,98097,1,4,0:0:0:0:
192,192,98268,1,8,0:0:0:0:
64,192,98268,1,0,0:0:0:0:
320,192,98354,5,8,0:0:0:0:
448,192,98354,1,0,0:0:0:0:
192,192,98526,1,8,0:0:0:0:
320,192,98526,1,0,0:0:0:0:
320,192,98783,1,8,0:0:0:0:
448,192,98783,1,0,0:0:0:0:
64,192,98868,1,8,0:0:0:0:
192,192,98911,1,8,0:0:0:0:
448,192,98954,1,8,0:0:0:0:
320,192,98997,1,8,0:0:0:0:
64,192,99040,1,8,0:0:0:0:
192,192,99040,1,0,0:0:0:0:
320,192,99126,1,8,0:0:0:0:
448,192,99126,1,0,0:0:0:0:
192,192,99211,1,8,0:0:0:0:
448,192,99297,1,8,0:0:0:0:
64,192,99297,1,0,0:0:0:0:
320,192,99383,1,8,0:0:0:0:
64,192,99468,5,8,0:0:0:0:
192,192,99468,1,4,0:0:0:0:
448,192,99468,1,2,0:0:0:0:
