osu file format v14

[General]
AudioFilename: audio.mp3
AudioLeadIn: 0
PreviewTime: 121082
Countdown: 0
SampleSet: Soft
StackLeniency: 0.2
Mode: 0
LetterboxInBreaks: 0
WidescreenStoryboard: 1

[Editor]
Bookmarks: 22424,44367,66310,88253,110539,132139,154082,176024,197967,219567,263796,307682
DistanceSpacing: 0.2
BeatDivisor: 4
GridSize: 16
TimelineZoom: 2.199999

[Metadata]
Title:New Lights (Extended Mix)
TitleUnicode:New Lights (Extended Mix)
Artist:kors k
ArtistUnicode:kors k
Creator:keevy
Version:Collab
Source:beatmania IIDX 20 tricoro
Tags:tatemae anishina kodoku loreley sherrycherry electronic hardcore instrumental dnb drum n and bass let's do it again!! beatmania bemani IIDX konami police
BeatmapID:3712956
BeatmapSetID:1810211

[Difficulty]
HPDrainRate:5
CircleSize:4
OverallDifficulty:8.7
ApproachRate:9.3
SliderMultiplier:1.8
SliderTickRate:1

[Events]
//Background and Video events
0,0,"1513781003606.jpg",0,0
//Break Periods
2,145853,147910
2,210310,218539
2,255567,262424
//Storyboard Layer 0 (Background)
//Storyboard Layer 1 (Fail)
//Storyboard Layer 2 (Pass)
//Storyboard Layer 3 (Foreground)
//Storyboard Layer 4 (Overlay)
//Storyboard Sound Samples

[TimingPoints]
482,342.857142857143,4,2,1,50,1,0
482,-133.333333333333,4,2,1,50,0,0
10767,-66.6666666666667,4,2,1,50,0,0
11110,-80,4,2,1,50,0,0
12139,-100,4,2,1,50,0,0
19339,-66.6666666666667,4,2,1,50,0,0
20024,-83.3333333333333,4,2,1,50,0,0
20367,-100,4,2,1,50,0,0
21396,-66.6666666666667,4,2,1,50,0,0
22424,-83.3333333333333,4,2,1,50,0,0
22767,-250,4,2,1,50,0,0
23110,-83.3333333333333,4,2,1,50,0,0
23453,-250,4,2,1,50,0,0
23796,-83.3333333333333,4,2,1,50,0,0
24139,-250,4,2,1,50,0,0
24482,-83.3333333333333,4,2,1,50,0,0
24824,-250,4,2,1,50,0,0
25167,-83.3333333333333,4,2,1,50,0,0
25510,-250,4,2,1,50,0,0
25853,-83.3333333333333,4,2,1,50,0,0
26196,-250,4,2,1,50,0,0
26539,-83.3333333333333,4,2,1,50,0,0
26882,-250,4,2,1,50,0,0
27224,-83.3333333333333,4,2,1,50,0,0
27396,-66.6666666666667,4,2,1,50,0,0
27567,-55.5555555555556,4,2,1,50,0,0
27910,-83.3333333333333,4,2,1,50,0,0
28253,-250,4,2,1,50,0,0
28596,-83.3333333333333,4,2,1,50,0,0
28939,-250,4,2,1,50,0,0
29282,-83.3333333333333,4,2,1,50,0,0
29624,-250,4,2,1,50,0,0
29967,-83.3333333333333,4,2,1,50,0,0
30310,-250,4,2,1,50,0,0
30653,-83.3333333333333,4,2,1,50,0,0
30996,-250,4,2,1,50,0,0
31339,-83.3333333333333,4,2,1,50,0,0
31682,-250,4,2,1,50,0,0
32024,-83.3333333333333,4,2,1,50,0,0
32367,-50,4,2,1,50,0,0
32710,-133.333333333333,4,2,1,50,0,0
33053,-66.6666666666667,4,2,1,50,0,0
33396,-83.3333333333333,4,2,1,60,0,0
36139,-71.4285714285714,4,2,1,60,0,0
38539,-250,4,2,1,60,0,0
38882,-71.4285714285714,4,2,1,65,0,0
41624,-100,4,2,1,65,0,0
42996,-250,4,2,1,55,0,0
43167,-83.3333333333333,4,2,1,65,0,0
43682,-66.6666666666667,4,2,1,65,0,0
44367,-200,4,2,1,55,0,0
45053,-66.6666666666667,4,2,1,55,0,0
45567,-133.333333333333,4,2,1,55,0,0
47796,-100,4,2,1,55,0,0
48482,-133.333333333333,4,2,1,55,0,0
49853,-100,4,2,1,55,0,0
53282,-133.333333333333,4,2,1,55,0,0
53967,-100,4,2,1,55,0,0
55853,-100,4,2,1,60,0,0
58767,-133.333333333333,4,2,1,60,0,0
59453,-100,4,2,1,60,0,0
66310,-100,4,2,1,70,0,0
67339,-66.6666666666667,4,2,1,70,0,0
67510,-133.333333333333,4,2,1,70,0,0
68882,-500,4,2,1,70,0,0
69396,-100,4,2,1,70,0,0
70253,-133.333333333333,4,2,1,70,0,0
72482,-66.6666666666667,4,2,1,70,0,0
72653,-500,4,2,1,70,0,0
72996,-133.333333333333,4,2,1,70,0,0
74882,-100,4,2,1,70,0,0
75053,-83.3333333333333,4,2,1,70,0,0
75224,-71.4285714285714,4,2,1,70,0,0
75396,-62.5,4,2,1,70,0,0
76767,-83.3333333333333,4,2,1,70,0,0
77282,-100,4,2,1,70,0,0
77967,-133.333333333333,4,2,1,70,0,0
78310,-66.6666666666667,4,2,1,70,0,0
78482,-133.333333333333,4,2,1,70,0,0
79853,-500,4,2,1,70,0,0
80367,-100,4,2,1,70,0,0
81224,-133.333333333333,4,2,1,70,0,0
83453,-66.6666666666667,4,2,1,70,0,0
83624,-200,4,2,1,70,0,0
83967,-133.333333333333,4,2,1,70,0,0
85339,-500,4,2,1,70,0,0
87739,-66.6666666666667,4,2,1,75,0,0
89967,-100,4,2,1,75,0,0
90310,-66.6666666666667,4,2,1,75,0,0
90653,-100,4,2,1,75,0,0
90996,-50,4,2,1,75,0,0
92367,-66.6666666666667,4,2,1,75,0,0
92710,-100,4,2,1,75,0,0
93053,-66.6666666666667,4,2,1,75,0,0
93310,-100,4,2,1,75,0,0
95110,-50,4,2,1,75,0,0
97853,-57.1428571428571,4,2,1,75,0,0
98196,-66.6666666666667,4,2,1,75,0,0
98710,-50,4,2,1,75,0,0
98882,-133.333333333333,4,2,1,75,0,0
99224,-50,4,2,1,85,0,0
99567,-66.6666666666667,4,2,1,85,0,0
99910,-66.6666666666667,4,2,1,85,0,0
100253,-166.666666666667,4,2,1,85,0,0
100596,-50,4,2,1,85,0,0
100939,-66.6666666666667,4,2,1,85,0,0
101967,-37.037037037037,4,2,1,85,0,0
102310,-43.4782608695652,4,2,1,85,0,0
102653,-66.6666666666667,4,2,1,85,0,0
102996,-100,4,2,1,85,0,0
103682,-66.6666666666667,4,2,1,85,0,0
104024,-50,4,2,1,85,0,0
104710,-40,4,2,1,85,0,0
105053,-55.5555555555556,4,2,1,85,0,0
106082,-41.6666666666667,4,2,1,85,0,0
106424,-66.6666666666667,4,2,1,85,0,0
106767,-44.4444444444445,4,2,1,85,0,0
107110,-80,4,2,1,85,0,0
107453,-80,4,2,1,75,0,0
107796,-166.666666666667,4,2,1,75,0,0
109167,-100,4,2,1,75,0,0
109853,-133.333333333333,4,2,1,75,0,0
110196,-66.6666666666667,4,2,1,75,0,0
110539,-66.6666666666667,4,2,1,85,0,0
115682,-250,4,2,1,85,0,0
116024,-66.6666666666667,4,2,1,85,0,0
118424,-100,4,2,1,85,0,0
121167,-66.6666666666667,4,2,1,85,0,0
124253,-50,4,2,1,85,0,0
124939,-66.6666666666667,4,2,1,85,0,0
129396,-250,4,2,1,85,0,0
129739,-66.6666666666667,4,2,1,85,0,0
132139,-50,4,2,1,85,0,0
133853,-66.6666666666667,4,2,1,85,0,0
134196,-133.333333333333,4,2,1,85,0,0
134539,-66.6666666666667,4,2,1,85,0,0
137967,-66.6666666666667,4,2,1,85,0,0
140024,-133.333333333333,4,2,1,85,0,0
141053,-66.6666666666667,4,2,1,85,0,0
141739,-117.647058823529,4,2,1,70,0,0
142767,-166.666666666667,4,2,1,65,0,0
143110,-100,4,2,1,70,0,0
148596,-66.6666666666667,4,2,1,75,0,0
148939,-133.333333333333,4,2,1,75,0,0
149624,-100,4,2,1,75,0,0
149796,-66.6666666666667,4,2,1,75,0,0
151682,-100,4,2,1,75,0,0
152196,-133.333333333333,4,2,1,75,0,0
153739,-100,4,2,1,75,0,0
154082,-66.6666666666667,4,2,1,65,0,0
159567,-66.6666666666667,4,2,1,70,0,0
163682,-133.333333333333,4,2,1,65,0,0
165053,-66.6666666666667,4,2,1,85,0,0
176024,-66.6666666666667,4,2,1,85,0,0
198310,-66.6666666666667,4,2,1,85,0,0
204139,-66.6666666666667,4,2,1,75,0,0
204824,-66.6666666666667,4,2,1,70,0,0
205510,-66.6666666666667,4,2,1,65,0,0
206196,-100,4,2,1,65,0,0
207567,-100,4,2,1,65,0,0
207910,-125,4,2,1,65,0,0
208253,-100,4,2,1,65,0,0
208596,-83.3333333333333,4,2,1,65,0,0
208939,-133.333333333333,4,2,1,75,0,0
219567,-44.4444444444445,4,2,1,75,0,0
219910,-80,4,2,1,65,0,0
221282,-81.9672131147541,4,2,1,65,0,0
221967,-83.3333333333333,4,2,1,65,0,0
223339,-81.9672131147541,4,2,1,65,0,0
224024,-80,4,2,1,65,0,0
224710,-78.7401574803149,4,2,1,65,0,0
230539,-133.333333333333,4,2,1,65,0,0
230882,-50,4,2,1,85,0,0
231224,-66.6666666666667,4,2,1,85,0,0
231910,-57.1428571428571,4,2,1,85,0,0
232253,-50,4,2,1,85,0,0
232939,-66.6666666666667,4,2,1,85,0,0
233624,-50,4,2,1,85,0,0
234310,-66.6666666666667,4,2,1,85,0,0
234996,-50,4,2,1,85,0,0
235939,-66.6666666666667,4,2,1,85,0,0
236367,-50,4,2,1,85,0,0
242882,-66.6666666666667,4,2,1,85,0,0
243224,-50,4,2,1,85,0,0
244253,-66.6666666666667,4,2,1,85,0,0
244596,-50,4,2,1,85,0,0
245624,-66.6666666666667,4,2,1,85,0,0
245967,-50,4,2,1,85,0,0
246996,-66.6666666666667,4,2,1,85,0,0
251453,-66.6666666666667,4,2,1,65,0,0
251796,-100,4,2,1,65,0,0
254882,-100,4,2,1,5,0,0
263796,-100,4,2,1,60,0,0
266539,-100,4,2,1,65,0,0
269282,-100,4,2,1,65,0,0
270653,-83.3333333333333,4,2,1,70,0,0
272024,-133.333333333333,4,2,1,65,0,0
274082,-66.6666666666667,4,2,1,70,0,0
274767,-66.6666666666667,4,2,1,85,0,0
275624,-200,4,2,1,85,0,0
275796,-66.6666666666667,4,2,1,85,0,0
285739,-66.6666666666667,4,2,1,85,0,0
287796,-83.3333333333333,4,2,1,85,0,0
288139,-58.8235294117647,4,2,1,85,0,0
288482,-66.6666666666667,4,2,1,85,0,0
294310,-133.333333333333,4,2,1,75,0,0
294824,-100,4,2,1,75,0,0
296710,-66.6666666666667,4,2,1,85,0,0
307682,-133.333333333333,4,2,1,85,0,0
308024,-66.6666666666667,4,2,1,85,0,0
317453,-66.6666666666667,4,2,1,70,0,0
318653,-66.6666666666667,4,2,1,70,0,0
324139,-100,4,2,1,70,0,0
340596,-100,4,2,1,65,0,0
351567,-100,4,2,1,60,0,0
357053,-100,4,2,1,50,0,0
361510,-100,4,2,1,60,0,0
363910,-100,4,2,1,40,0,0
365282,-100,4,2,1,25,0,0
366653,-100,4,2,1,15,0,0
368024,-100,4,2,0,5,0,0

[Colours]
Combo1 : 0,255,128
Combo2 : 255,136,196
Combo3 : 214,133,252
Combo4 : 255,188,121

[HitObjects]
460,338,482,6,0,L|446:264,1,67.5000025749207,6|0,1:2|0:0,0:0:0:0:
433,192,824,2,0,L|419:118,1,67.5000025749207,8|0,0:0|0:0,0:0:0:0:
320,345,1167,2,0,L|316:269,1,67.5000025749207,0|0,1:2|0:0,0:0:0:0:
313,197,1510,2,0,L|309:121,1,67.5000025749207,8|0,0:0|0:0,0:0:0:0:
52,338,1853,2,0,L|66:264,1,67.5000025749207,0|0,1:2|0:0,0:0:0:0:
79,192,2195,2,0,L|93:118,1,67.5000025749207,8|0,0:0|0:0,0:0:0:0:
192,345,2539,2,0,L|195:269,1,67.5000025749207,0|0,1:2|0:0,0:0:0:0:
198,196,2882,5,10,0:0:0:0:
460,46,3224,2,0,L|446:120,1,67.5000025749207,0|0,1:2|0:0,0:0:0:0:
433,192,3567,2,0,L|419:266,1,67.5000025749207,8|0,0:0|0:0,0:0:0:0:
320,39,3909,2,0,L|316:114,1,67.5000025749207,0|0,1:2|0:0,0:0:0:0:
313,186,4253,2,0,L|309:261,1,67.5000025749207,8|0,0:0|0:0,0:0:0:0:
52,46,4595,2,0,L|66:120,1,67.5000025749207,0|0,1:2|0:0,0:0:0:0:
79,192,4939,2,0,L|93:266,1,67.5000025749207,8|0,0:0|0:0,0:0:0:0:
192,39,5282,2,0,L|195:114,1,67.5000025749207,0|2,1:2|0:0,0:0:0:0:
197,182,5539,1,2,0:0:0:0:
199,188,5624,6,0,L|200:225,1,33.7500012874604,10|0,0:0|0:0,0:0:0:0:
205,297,5796,2,0,L|206:334,1,33.7500012874604,2|0,0:0|0:0,0:0:0:0:
320,345,5968,6,0,L|316:269,1,67.5000025749207,2|0,1:2|0:0,0:0:0:0:
433,192,6310,2,0,L|419:118,1,67.5000025749207,8|0,0:0|0:0,0:0:0:0:
460,338,6653,2,0,L|446:264,1,67.5000025749207,0|0,1:2|0:0,0:0:0:0:
313,196,6996,2,0,L|309:120,1,67.5000025749207,8|0,0:0|0:0,0:0:0:0:
52,338,7339,2,0,L|66:264,1,67.5000025749207,0|0,1:2|0:0,0:0:0:0:
199,196,7682,2,0,L|202:120,1,67.5000025749207,8|0,0:0|0:0,0:0:0:0:
79,192,8024,2,0,L|93:118,1,67.5000025749207,0|0,1:2|0:0,0:0:0:0:
192,345,8367,2,0,L|195:269,1,67.5000025749207,8|2,0:0|0:0,0:0:0:0:
280,310,8624,5,2,0:0:0:0:
281,311,8710,1,2,1:2:0:0:
340,370,8882,1,0,0:0:0:0:
343,253,9053,1,8,0:0:0:0:
427,253,9224,1,0,0:0:0:0:
347,168,9396,1,0,1:2:0:0:
406,108,9567,1,0,0:0:0:0:
289,105,9739,1,8,0:0:0:0:
288,20,9910,1,0,0:0:0:0:
203,101,10082,1,0,1:2:0:0:
142,41,10253,1,0,0:0:0:0:
138,158,10424,1,2,0:0:0:0:
52,159,10596,1,0,1:2:0:0:
194,280,10767,6,0,P|251:234|389:203,1,202.500007724762,8|0,0:0|0:0,0:0:0:0:
454,217,11110,2,2,B|466:239|466:239|442:295|442:295|375:293|375:293|359:255,1,168.75,2|0,0:1|0:0,0:1:0:0:
295,170,11453,5,6,1:2:0:0:
295,170,11796,1,8,0:0:0:0:
336,81,11967,1,0,0:0:0:0:
220,235,12139,2,0,P|201:181|204:139,1,90,0|0,1:2|0:0,0:0:0:0:
421,65,12482,2,0,P|404:133|381:156,1,90,8|0,0:0|0:0,0:0:0:0:
305,170,12739,5,0,0:0:0:0:
295,170,12824,1,0,1:2:0:0:
214,65,12996,1,0,0:0:0:0:
113,203,13167,2,0,P|104:134|83:93,1,90,8|0,0:0|0:0,0:0:0:0:
18,132,13510,2,0,P|27:201|48:242,1,90,0|0,1:2|0:0,0:0:0:0:
180,356,13853,5,10,0:0:0:0:
180,356,14196,2,0,P|236:325|295:328,1,90,0|0,1:2|0:0,0:0:0:0:
384,373,14539,2,0,P|398:318|393:270,1,90,8|0,0:0|0:0,0:0:0:0:
355,194,14882,1,0,1:2:0:0:
260,322,15053,1,0,0:0:0:0:
271,173,15224,2,0,P|282:231|308:268,1,90,8|0,0:0|0:0,0:0:0:0:
445,214,15567,6,0,P|434:156|408:119,1,90,0|0,1:2|0:0,0:0:0:0:
259,89,15910,1,8,0:0:0:0:
498,112,16082,1,0,0:0:0:0:
364,29,16253,2,0,P|338:96|333:141,1,90,0|2,1:2|0:0,0:0:0:0:
282,167,16510,1,2,0:0:0:0:
271,173,16596,6,0,P|244:172|221:158,1,45,10|0,0:0|0:0,0:0:0:0:
152,179,16767,2,0,P|138:147|137:132,1,45,2|0,0:0|0:0,0:0:0:0:
3,34,16939,6,0,P|50:111|55:184,1,135,0|0,1:2|0:0,0:0:0:0:
14,222,17282,2,0,P|38:276|82:281,1,90,8|0,0:0|0:0,0:0:0:0:
145,275,17539,1,0,0:0:0:0:
145,275,17624,1,0,1:2:0:0:
72,363,17796,1,0,0:0:0:0:
233,341,17967,6,0,B|325:309|285:369|392:335,1,135,8|0,0:0|0:0,0:0:0:0:
430,302,18310,2,0,P|402:242|402:154,1,135,0|0,1:2|0:0,0:0:0:0:
431,105,18653,1,8,0:0:0:0:
312,209,18824,1,0,0:0:0:0:
312,209,18910,1,0,0:0:0:0:
312,209,18996,1,0,1:2:0:0:
234,54,19167,1,0,0:0:0:0:
174,244,19339,6,0,P|171:200|160:177,1,67.5000025749207,10|0,0:0|0:0,0:0:0:0:
85,199,19510,2,0,P|88:243|99:266,1,67.5000025749207,2|0,0:0|0:0,0:0:0:0:
62,345,19682,6,0,P|154:293|264:285,1,202.500007724762,0|0,1:2|0:0,0:0:0:0:
328,292,20024,2,0,P|347:242|292:209,1,107.999996704102,8|0,0:0|0:0,0:0:0:0:
248,164,20282,1,0,0:0:0:0:
248,164,20367,1,0,1:2:0:0:
354,123,20539,1,2,0:0:0:0:
164,152,20710,1,10,0:0:0:0:
249,0,20882,2,0,P|276:57|286:110,1,90,2|0,1:2|0:2,0:0:0:0:
95,219,21224,1,2,0:0:0:0:
95,219,21396,2,0,P|76:154|101:82,1,135.000005149842,0|2,1:2|0:0,0:0:0:0:
354,123,21739,6,0,P|304:207|284:321,1,202.500007724762,8|0,0:0|0:0,0:0:0:0:
354,337,22082,2,2,P|404:253|424:139,1,202.500007724762,2|0,0:1|0:0,0:1:0:0:
412,60,22424,6,0,B|366:30|366:30|300:50,1,107.999996704102,6|0,1:2|0:0,0:0:0:0:
178,22,22767,6,0,L|187:81,1,54,8|0,1:2|0:0,0:0:0:0:
122,199,23110,6,0,P|87:154|104:88,1,107.999996704102,0|0,1:2|0:0,0:0:0:0:
253,148,23453,6,0,L|246:210,1,54,8|0,1:2|0:0,0:0:0:0:
356,262,23796,6,0,P|350:231|328:201,1,53.9999983520508,0|0,1:2|0:0,0:0:0:0:
243,362,23967,2,0,P|272:372|309:368,1,53.9999983520508
272,279,24139,6,0,L|203:284,1,54,8|0,1:2|0:0,0:0:0:0:
141,327,24482,6,0,L|131:259,1,53.9999983520508,0|0,1:2|0:0,0:0:0:0:
113,149,24653,2,0,L|103:81,1,53.9999983520508
49,229,24824,6,0,L|77:224,1,18,10|0,0:0|0:0,0:0:0:0:
197,201,24996,2,0,L|179:204,1,18,2|0,0:0|0:0,0:0:0:0:
95,21,25167,6,0,B|97:-2|97:-2|177:16|186:100,1,161.999995056153,0|0,1:2|0:0,0:0:0:0:
278,144,25510,6,0,P|265:102|264:85,1,54,8|0,1:2|0:0,0:0:0:0:
386,16,25853,6,0,P|406:55|412:156,1,107.999996704102,0|0,1:2|0:0,0:0:0:0:
370,337,26196,6,0,P|351:322|336:281,1,54,8|0,1:2|0:0,0:0:0:0:
496,234,26539,6,0,L|482:307,1,53.9999983520508,0|0,1:2|0:0,0:0:0:0:
410,272,26710,2,0,L|420:218,1,53.9999983520508
254,318,26882,6,0,L|261:380,1,54,8|0,1:2|0:0,0:0:0:0:
150,368,27224,2,0,P|122:339|131:302,1,53.9999983520508,0|0,1:2|0:0,0:0:0:0:
153,155,27396,6,0,P|121:157|103:184,1,67.5000025749208,2|0,0:0|0:0,0:0:0:0:
171,239,27567,6,0,B|187:258|183:283|183:283|129:178|2:186,1,242.999992584229,10|0,0:0|0:0,0:0:0:0:
16,30,27910,6,0,P|68:40|89:92,1,107.999996704102,0|0,1:2|0:0,0:0:0:0:
52,344,28253,6,0,P|32:303|36:283,1,54,8|0,1:2|0:0,0:0:0:0:
171,239,28596,6,0,P|152:319|150:379,1,107.999996704102,0|0,1:2|0:0,0:0:0:0:
341,372,28939,6,0,P|346:349|349:315,1,54,8|0,1:2|0:0,0:0:0:0:
360,233,29282,6,0,L|286:249,1,53.9999983520508,0|0,1:2|0:0,0:0:0:0:
345,157,29453,2,0,L|271:173,1,53.9999983520508
186,0,29624,6,0,B|180:28|180:28|193:50,1,54,8|0,1:2|0:0,0:0:0:0:
74,125,29967,6,0,L|148:109,1,53.9999983520508,0|0,1:2|0:0,0:0:0:0:
89,201,30138,2,0,L|163:185,1,53.9999983520508
267,74,30310,6,0,L|265:94,1,18,10|0,0:0|0:0,0:0:0:0:
248,246,30482,2,0,L|246:263,1,18,2|0,0:0|0:0,0:0:0:0:
222,350,30653,6,0,P|164:335|113:333,1,107.999996704102,0|0,1:2|0:0,0:0:0:0:
6,228,30996,6,0,P|31:222|52:198,1,54,8|0,1:2|0:0,0:0:0:0:
116,238,31339,6,0,P|87:174|90:102,1,107.999996704102,0|0,1:2|0:0,0:0:0:0:
262,12,31682,6,0,P|270:40|273:73,1,54,8|0,0:0|0:0,0:0:0:0:
394,67,32024,6,0,P|377:45|354:32,1,53.9999983520508,0|0,1:2|0:0,0:0:0:0:
190,55,32196,2,0,P|168:71|155:94,1,53.9999983520508
288,186,32367,6,0,P|332:165|325:121,1,90,8|0,0:0|0:0,0:0:0:0:
330,129,32539,1,8,1:2:0:0:
159,213,32710,6,0,P|174:264|181:331,1,101.250003862381,8|0,0:0|0:0,0:0:0:0:
125,372,33053,6,2,P|101:340|109:289,1,67.5000025749208,2|0,0:1|0:0,0:1:0:0:
252,263,33224,2,2,P|276:295|268:346,1,67.5000025749208,2|0,0:1|0:0,0:1:0:0:
389,361,33396,6,0,P|397:297|416:239,1,107.999996704102,14|0,1:2|0:0,0:0:0:0:
159,213,33739,2,0,P|151:149|132:91,1,107.999996704102,8|0,1:2|0:0,0:0:0:0:
433,160,34082,2,0,P|362:183|291:182,1,107.999996704102,8|0,1:2|0:0,0:0:0:0:
63,49,34424,2,0,P|134:26|205:27,1,107.999996704102,8|0,1:2|0:0,0:0:0:0:
358,99,34767,5,8,1:2:0:0:
358,99,35110,2,0,P|380:40|353:-8,1,107.999996704102,8|0,1:2|0:0,0:0:0:0:
208,130,35453,2,0,P|228:203|238:257,1,107.999996704102,8|0,1:2|0:0,0:0:0:0:
30,275,35796,2,0,P|10:202|0:148,1,107.999996704102,8|0,1:2|0:0,0:0:0:0:
343,210,36139,6,0,P|313:274|305:349,1,125.999996154785,10|0,1:2|0:0,0:0:0:0:
73,37,36482,2,0,P|103:101|111:176,1,125.999996154785,8|0,1:2|0:0,0:0:0:0:
423,130,36824,2,0,P|341:119|269:107,1,125.999996154785,8|0,1:2|0:0,0:0:0:0:
59,365,37167,2,0,P|141:354|213:342,1,125.999996154785,8|0,1:2|0:0,0:0:0:0:
442,303,37510,5,8,1:2:0:0:
442,303,37853,2,0,P|416:292|374:285,1,62.9999980773926,8|0,1:2|0:0,0:0:0:0:
315,233,38024,2,0,P|286:231|244:239,1,62.9999980773926,2|0,0:0|0:0,0:0:0:0:
183,347,38196,6,0,P|113:363|84:257,1,188.999994232178,10|0,1:2|0:0,0:0:0:0:
129,212,38539,6,2,P|146:234|150:265,1,54,10|0,1:2|0:0,0:1:0:0:
75,270,38882,5,12,1:2:0:0:
287,19,39053,1,8,0:0:0:0:
55,172,39224,5,8,0:0:0:0:
284,97,39396,1,8,0:0:0:0:
107,101,39567,5,8,0:0:0:0:
248,166,39739,1,8,0:0:0:0:
187,80,39910,5,8,0:0:0:0:
163,164,40082,1,8,0:0:0:0:
287,19,40253,5,8,0:0:0:0:
163,164,40424,1,8,0:0:0:0:
400,176,40596,1,8,0:0:0:0:
284,97,40767,1,8,0:0:0:0:
281,311,40939,5,8,0:0:0:0:
59,218,41110,1,8,0:0:0:0:
309,186,41282,1,10,0:0:0:0:
185,349,41453,1,10,0:0:0:0:
0,135,41624,5,12,0:0:0:0:
39,114,41709,1,8,0:0:0:0:
83,117,41795,1,8,0:0:0:0:
120,142,41881,1,8,0:0:0:0:
139,182,41967,1,8,0:0:0:0:
153,224,42052,1,8,0:0:0:0:
189,250,42138,1,8,0:0:0:0:
233,248,42224,1,8,0:0:0:0:
268,221,42310,6,0,L|263:151,1,45,8|8,0:0|0:0,0:0:0:0:
81,299,42482,2,0,L|75:228,1,45,10|8,0:0|0:0,0:0:0:0:
138,12,42653,5,8,0:0:0:0:
106,60,42738,1,8,0:0:0:0:
129,113,42824,1,8,0:0:0:0:
186,123,42910,1,8,0:0:0:0:
225,80,42996,6,0,L|199:88,1,18,2|0,0:0|0:0,0:0:0:0:
0,224,43167,6,0,P|80:211|177:208,1,161.999995056153,2|0,0:1|0:0,0:0:0:0:
159,208,43510,1,2,0:3:0:0:
463,204,43682,6,2,B|368:177|437:102|332:63,1,202.500007724762,2|0,0:1|0:0,0:1:0:0:
189,290,44024,2,2,B|284:263|215:188|319:149,1,202.500007724762,2|0,0:1|0:0,0:1:0:0:
499,135,44367,6,0,P|486:234|477:309,1,157.5,6|0,0:2|0:0,0:0:0:0:
479,291,45053,1,2,0:0:0:0:
358,365,45224,6,0,P|329:329|375:237,1,135.000005149842,2|2,0:0|0:0,0:0:0:0:
245,353,45567,6,0,P|193:361|136:381,1,101.250003862381,2|0,0:0|0:0,0:0:0:0:
71,363,45910,2,0,P|57:319|56:281,1,67.5000025749208,2|0,0:0|0:0,0:0:0:0:
184,193,46253,2,0,P|180:240|174:268,1,67.5000025749208,2|0,0:0|0:0,0:0:0:0:
35,173,46596,1,2,0:0:0:0:
35,173,46767,2,0,P|23:126|38:94,1,67.5000025749208,2|2,0:0|0:0,0:0:0:0:
94,31,47110,6,0,P|151:39|213:61,1,101.250003862381,2|0,0:0|0:0,0:0:0:0:
254,88,47453,2,0,P|280:47|281:13,1,67.5000025749208,2|0,0:0|0:0,0:0:0:0:
475,20,47796,6,0,P|448:71|439:147,1,135.000005149842,2|0,0:0|0:0,0:0:0:0:
396,201,48139,2,0,P|347:192|328:153,1,90,2|2,0:0|0:0,0:0:0:0:
224,326,48482,6,0,P|299:305|370:284,1,135.000005149842,2|2,0:0|0:0,0:0:0:0:
353,288,48996,1,2,0:0:0:0:
262,165,49167,2,0,P|251:229|236:242,1,67.5000025749208,2|0,0:0|0:0,0:0:0:0:
185,150,49510,2,0,P|171:180|174:213,1,67.5000025749208,2|0,0:0|0:0,0:0:0:0:
59,366,49853,6,0,P|34:304|30:211,1,135.000005149842,2|0,0:0|0:0,0:0:0:0:
83,190,50196,2,0,P|54:153|-2:174,1,90,2|0,0:0|0:0,0:0:0:0:
168,262,50539,2,0,P|222:237|276:223,1,90,2|2,0:0|0:0,0:0:0:0:
325,238,50882,1,2,0:0:0:0:
416,349,51053,6,0,P|380:277|377:157,1,180,2|2,0:0|0:0,0:0:0:0:
447,162,51567,2,0,P|483:234|486:354,1,180,2|2,0:0|0:0,0:0:0:0:
490,332,52082,1,2,0:0:0:0:
392,266,52253,2,0,P|351:277|311:308,1,90,2|2,0:0|0:0,0:0:0:0:
179,349,52596,6,0,P|189:283|191:159,1,180,2|2,0:0|0:0,0:0:0:0:
157,89,53110,1,2,0:0:0:0:
276,206,53282,2,0,P|331:200|363:182,1,67.5000025749208,2|0,0:0|0:0,0:0:0:0:
118,253,53624,2,0,P|77:237|28:232,1,67.5000025749208,2|0,0:0|0:0,0:0:0:0:
18,25,53967,6,0,P|93:74|124:165,1,180,2|2,0:0|0:0,0:0:0:0:
38,146,54482,1,2,0:0:0:0:
235,68,54653,2,0,P|222:111|210:154,1,90,2|0,0:0|0:0,0:0:0:0:
286,194,54996,2,0,P|298:150|310:107,1,90,2|0,0:0|0:0,0:0:0:0:
407,237,55339,6,0,P|317:241|230:263,1,180,2|0,0:0|0:0,0:0:0:0:
137,187,55853,1,2,0:0:0:0:
134,349,56024,2,0,P|106:297|104:239,1,90,2|2,0:0|0:0,0:0:0:0:
196,101,56367,2,0,P|222:152|230:212,1,90,2|0,0:0|0:0,0:0:0:0:
183,252,56710,6,0,P|276:214|388:213,1,180,2|0,0:0|0:0,0:0:0:0:
354,208,57224,1,0,0:0:0:0:
452,305,57396,2,0,P|404:236|417:137,1,180,2|0,0:0|0:0,0:0:0:0:
456,81,57910,1,0,0:0:0:0:
456,81,58082,6,0,P|387:44|277:65,1,180,2|0,0:0|0:0,0:0:0:0:
289,57,58767,2,0,P|301:102|308:134,1,67.5000025749208,2|0,0:0|0:0,0:0:0:0:
232,151,59110,2,0,P|220:106|213:74,1,67.5000025749208,2|0,0:0|0:0,0:0:0:0:
85,160,59453,6,0,P|185:181|271:261,1,180,2|2,0:0|0:0,0:0:0:0:
326,175,59967,1,2,0:0:0:0:
346,326,60139,1,2,0:0:0:0:
332,319,60224,1,2,0:0:0:0:
313,317,60310,1,2,0:0:0:0:
289,322,60396,1,2,0:0:0:0:
262,339,60482,1,2,0:0:0:0:
224,351,60567,1,2,0:0:0:0:
186,347,60653,1,2,0:0:0:0:
146,330,60739,1,2,0:0:0:0:
117,294,60824,6,0,P|129:213|149:97,1,180,2|0,0:0|0:0,0:0:0:0:
145,116,61510,2,0,P|108:95|76:57,1,90,2|2,0:0|0:0,0:0:0:0:
130,0,61853,2,0,P|167:21|199:59,1,90,2|0,0:0|0:0,0:0:0:0:
197,56,62196,1,2,0:0:0:0:
428,114,62367,6,0,B|313:78|354:146|231:111,2,180,2|0|2,0:0|0:0|0:0,0:0:0:0:
371,182,63224,1,2,0:0:0:0:
291,39,63396,1,2,0:0:0:0:
213,259,63567,6,0,P|174:182|160:71,1,180,2|0,0:0|0:0,0:0:0:0:
159,90,64253,2,0,P|120:112|67:134,1,90,2|0,0:0|0:0,0:0:0:0:
63,232,64596,2,0,P|108:206|156:184,1,90
327,202,64939,6,0,P|264:249|248:354,1,180,2|0,0:0|0:0,0:0:0:0:
256,192,65367,12,8,66139,0:0:0:0:
13,282,66310,6,0,B|52:278|93:352|93:352|32:219|110:147|110:147|136:194|136:194|204:216|171:296,1,495,6|0,1:2|0:0,0:0:0:0:
176,280,67339,6,0,P|153:235|158:201,1,67.5000025749208,2|0,1:2|0:0,0:0:0:0:
230,0,67510,6,0,P|269:58|298:303,1,303.750011587143,2|0,1:2|0:0,0:0:0:0:
302,284,68367,1,10,0:0:0:0:
273,212,68539,1,2,0:0:0:0:
464,126,68710,5,2,1:2:0:0:
435,361,68882,2,0,L|387:357,1,45,2|0,0:0|0:0,0:0:0:0:
306,288,69396,6,0,B|257:325|286:383|286:383|288:365|305:343,1,135,6|0,1:2|0:0,0:0:0:0:
295,357,69739,1,2,0:0:0:0:
407,273,69910,1,2,1:2:0:0:
193,205,70082,1,10,0:0:0:0:
389,189,70253,6,0,B|343:204|239:190|304:97|154:118,1,236.250009012223,6|0,1:2|0:0,0:0:0:0:
177,115,70939,6,0,L|169:50,1,33.7500012874604,2|0,1:2|0:0,0:0:0:0:
177,115,71282,2,0,L|181:148,1,33.7500012874604,2|0,1:2|0:0,0:0:0:0:
64,130,71453,6,2,L|110:124,1,33.7500012874604,8|0,0:0|0:0,0:0:0:0:
255,107,71624,2,0,L|301:101,1,33.7500012874604,2|0,1:2|0:0,0:0:0:0:
228,290,71796,6,0,B|42:250|42:250|93:243,1,236.250009012223,6|0,1:2|0:0,0:0:0:0:
87,243,72482,2,0,P|99:270|98:315,1,67.5000025749208,10|0,0:0|0:0,0:0:0:0:
35,357,72653,6,0,L|26:324,1,27,2|0,1:2|0:0,0:0:0:0:
25,176,72996,6,0,B|21:86|139:76|139:76|114:156|161:199,1,303.750011587143,6|0,1:2|0:0,0:0:0:0:
160,199,73853,1,2,0:0:0:0:
191,277,74024,1,2,0:0:0:0:
336,34,74196,5,10,0:0:0:0:
291,350,74367,1,2,1:2:0:0:
291,350,74882,6,0,L|283:285,1,45,2|0,1:2|0:0,0:0:0:0:
269,192,75053,2,0,L|261:127,1,53.9999983520508,2|0,0:0|0:0,0:0:0:0:
233,0,75224,6,0,L|225:65,1,62.9999980773926,10|0,0:0|0:0,0:0:0:0:
210,249,75396,2,0,L|200:322,1,72,2|0,0:0|0:0,0:0:0:0:
56,357,75567,6,0,L|131:341,1,72,2|0,1:2|0:0,0:0:0:0:
285,305,75739,1,6,1:2:0:0:
22,166,76082,1,6,1:2:0:0:
447,8,76424,1,6,1:2:0:0:
447,8,76767,6,0,P|421:39|416:81,1,53.9999983520508,6|0,1:2|0:0,0:0:0:0:
193,90,76939,2,0,P|206:128|240:153,1,53.9999983520508,2|0,1:2|0:0,0:0:0:0:
305,15,77110,2,0,P|297:54|314:93,1,53.9999983520508,10|0,0:0|0:0,0:0:0:0:
237,250,77282,6,0,P|325:199|417:191,1,180,6|0,1:2|0:0,0:0:0:0:
480,211,77796,1,2,0:0:0:0:
390,372,77967,6,0,P|356:368|303:360,1,67.5000025749208,2|2,0:0|0:0,0:0:0:0:
107,162,78310,6,0,B|88:191|88:191|101:241,1,67.5000025749208,6|0,1:2|0:0,0:0:0:0:
151,384,78482,6,0,B|158:291|158:291|178:278|178:278|198:79,1,303.750011587143,6|0,1:2|0:0,0:0:0:0:
196,92,79339,1,8,0:0:0:0:
118,64,79510,1,2,0:0:0:0:
64,282,79682,5,2,1:2:0:0:
295,231,79853,2,0,L|245:226,1,45,2|0,0:0|0:0,0:0:0:0:
64,282,80367,6,0,P|131:300|161:323,1,90,6|0,1:2|0:0,0:0:0:0:
78,189,80710,1,2,0:0:0:0:
261,323,80882,1,6,1:2:0:0:
331,107,81053,1,10,0:0:0:0:
141,0,81224,6,0,P|155:109|174:251,1,236.250009012223,6|0,1:2|0:0,0:0:0:0:
171,234,81910,6,0,L|185:186,1,33.7500012874604,2|0,1:2|0:0,0:0:0:0:
171,234,82253,6,0,L|184:294,1,33.7500012874604,2|0,1:2|0:0,0:0:0:0:
95,345,82424,2,0,L|155:331,1,33.7500012874604,10|0,0:0|0:0,0:0:0:0:
251,307,82596,2,0,L|283:299,1,33.7500012874604,2|0,1:2|0:0,0:0:0:0:
405,376,82767,6,0,B|311:315|375:192|486:261|435:312,1,236.250009012223,6|0,1:2|0:0,0:0:0:0:
440,305,83453,6,0,P|428:273|437:236,1,67.5000025749208,10|0,0:0|0:0,0:0:0:0:
493,127,83624,6,0,L|499:209,1,67.5,6|0,1:2|0:0,0:0:0:0:
504,370,83967,6,0,P|441:329|307:315,1,202.500007724762,6|0,1:2|0:0,0:0:0:0:
243,339,84653,1,2,0:0:0:0:
138,148,84824,5,2,0:0:0:0:
125,228,84996,1,2,0:0:0:0:
348,187,85167,1,10,0:0:0:0:
200,20,85339,6,0,L|204:65,1,45,2|0,1:2|0:0,0:0:0:0:
203,64,85853,5,6,1:2:0:0:
347,102,86024,1,2,0:0:0:0:
227,146,86196,5,10,0:0:0:0:
149,180,86367,1,2,0:0:0:0:
422,254,86539,5,6,1:2:0:0:
49,201,86710,1,6,1:2:0:0:
422,254,87053,1,6,1:2:0:0:
49,201,87396,1,6,1:2:0:0:
49,201,87739,6,0,P|45:234|70:283,1,67.5000025749208,6|0,1:2|0:0,0:0:0:0:
223,238,87910,2,0,P|227:205|202:156,1,67.5000025749208,6|0,1:2|0:0,0:0:0:0:
124,133,88082,2,0,L|134:199,1,67.5000025749208,10|0,0:2|0:0,0:0:0:0:
319,255,88253,6,0,P|254:273|207:320,1,135.000005149842,6|2,1:2|0:0,0:0:0:0:
165,383,88510,1,2,0:0:0:0:
165,383,88596,2,0,P|141:364|131:323,3,67.5000025749208,2|2|2|2,1:2|0:0|0:0|0:0,0:0:0:0:
55,265,88939,6,0,L|13:70,1,135.000005149842,2|2,1:2|0:0,0:0:0:0:
54,58,89196,1,2,0:0:0:0:
59,53,89282,2,0,P|98:51|127:72,3,67.5000025749208,2|2|2|2,1:2|0:0|0:0|0:0,0:0:0:0:
204,28,89624,6,0,P|161:103|168:198,1,135.000005149842,2|2,1:2|0:0,0:0:0:0:
155,225,89882,1,2,0:0:0:0:
167,230,89967,2,0,P|199:226|221:201,1,45,2|2,1:2|0:0,0:0:0:0:
253,158,90139,2,0,P|279:146|302:152,1,45,2|2,0:0|0:0,0:0:0:0:
397,156,90310,6,0,P|480:197|516:284,1,135.000005149842,0|2,1:2|0:0,0:0:0:0:
512,307,90567,1,2,0:0:0:0:
511,314,90653,2,0,P|484:337|449:334,1,45,2|2,1:2|0:0,0:0:0:0:
406,376,90824,2,0,P|373:375|344:348,1,45,2|2,0:0|0:0,0:0:0:0:
269,261,90996,6,0,B|259:347|176:374|176:374|185:346|205:338,1,180,2|2,1:2|0:0,0:0:0:0:
112,331,91253,1,2,0:0:0:0:
108,334,91339,1,2,1:2:0:0:
104,337,91424,1,2,0:0:0:0:
100,338,91510,1,2,0:0:0:0:
96,341,91596,1,2,0:0:0:0:
91,344,91682,6,0,P|108:258|186:165,1,180,2|2,1:2|0:2,0:0:0:0:
171,104,91939,1,2,0:0:0:0:
166,102,92024,1,2,1:2:0:0:
162,99,92109,1,2,0:0:0:0:
158,98,92195,1,2,0:0:0:0:
154,95,92281,1,2,0:0:0:0:
149,92,92367,6,0,P|133:48|54:50,1,135.000005149842,2|2,1:2|0:0,0:0:0:0:
0,106,92624,1,2,0:0:0:0:
0,106,92710,2,0,L|10:158,1,45,2|2,1:2|0:0,0:0:0:0:
35,267,92882,2,0,L|25:215,1,45,2|2,0:0|0:0,0:0:0:0:
210,213,93053,6,0,P|271:176|361:162,1,135.000005149842,2|2,1:2|0:0,0:0:0:0:
407,187,93310,1,2,0:0:0:0:
407,187,93396,2,0,L|397:239,1,45,2|2,1:2|0:0,0:0:0:0:
373,348,93568,2,0,L|383:296,1,45,2|2,0:0|0:0,0:0:0:0:
292,295,93739,5,6,1:2:0:0:
495,182,93910,1,2,0:0:0:0:
296,50,94082,5,2,1:2:0:0:
439,117,94253,1,2,0:0:0:0:
367,0,94424,5,2,1:2:0:0:
363,165,94596,1,2,0:0:0:0:
458,32,94767,5,2,1:2:0:0:
273,140,94939,1,2,0:0:0:0:
472,266,95110,6,0,P|379:220|269:223,1,180,14|2,1:2|0:0,0:0:0:0:
240,256,95367,1,2,0:0:0:0:
227,264,95453,2,0,P|201:224|202:168,1,90,10|0,1:2|0:0,0:0:0:0:
30,144,95624,6,0,L|70:236,1,90,2|2,0:0|0:0,0:0:0:0:
78,356,95796,2,0,P|164:283|301:265,1,180,10|2,1:2|0:0,0:0:0:0:
308,294,96053,1,2,0:0:0:0:
321,304,96139,2,0,P|361:276|367:219,1,90,10|0,1:2|0:0,0:0:0:0:
259,72,96310,6,0,L|242:176,1,90,2|0,0:0|0:0,0:0:0:0:
298,219,96482,5,14,1:2:0:0:
298,219,96653,1,10,1:2:0:0:
453,102,96824,5,10,1:2:0:0:
400,264,96996,1,10,1:2:0:0:
259,72,97167,5,14,1:2:0:0:
321,304,97339,1,10,1:2:0:0:
117,49,97510,5,10,1:2:0:0:
214,312,97682,1,10,1:2:0:0:
333,194,97853,5,14,0:2:0:0:
342,181,97939,1,10,0:2:0:0:
325,172,98024,2,0,P|298:159|241:176,1,78.7500007510185,10|10,0:2|0:2,0:0:0:0:
103,257,98196,5,14,0:0:0:0:
107,266,98282,1,10,0:0:0:0:
116,264,98367,2,0,P|144:255|162:208,1,67.5000025749208,10|10,0:0|0:0,0:0:0:0:
117,49,98539,6,0,L|187:9,1,67.5000025749208,14|10,0:0|0:0,0:0:0:0:
259,72,98710,6,0,L|355:84,1,90,10|10,0:0|0:0,0:0:0:0:
440,169,98882,6,0,B|447:196|427:217|427:217|421:191|437:169,1,101.250003862381,2|0,0:0|0:0,0:0:0:0:
508,285,99224,6,0,B|442:276|392:342|392:342|382:252|290:214,1,270,6|0,1:2|0:0,0:0:0:0:
256,263,99567,2,0,P|235:294|146:283,1,135.000005149842,10|2,0:0|0:0,0:0:0:0:
81,348,99824,1,2,0:0:0:0:
81,348,99910,2,0,L|68:253,1,67.5000025749208,2|0,1:2|0:0,0:0:0:0:
47,68,100082,2,0,L|59:162,1,67.5000025749208,2|0,0:0|0:0,0:0:0:0:
0,216,100253,6,0,L|49:210,1,26.9999991760254,10|0,0:0|0:0,0:0:0:0:
103,203,100424,2,0,L|129:199,1,26.9999991760254,2|0,0:0|0:0,0:0:0:0:
256,263,100596,6,0,B|246:202|246:202|251:189|251:189|228:44,1,180,2|2,1:2|0:0,0:0:0:0:
119,1,100853,1,2,0:0:0:0:
119,1,100939,2,0,P|134:30|178:41,1,67.5000025749208,10|0,0:0|0:0,0:0:0:0:
234,86,101110,2,0,P|273:88|299:69,1,67.5000025749208
356,17,101282,6,0,B|422:-6|422:-6|482:25,1,135.000005149842,2|2,1:2|0:0,0:0:0:0:
508,109,101539,1,2,0:0:0:0:
512,120,101624,2,0,P|502:166|457:185,1,67.5000025749208,10|2,0:0|0:0,0:0:0:0:
458,245,101796,2,0,P|432:261|389:252,1,67.5000025749208,2|0,0:0|0:0,0:0:0:0:
251,228,101967,6,0,B|367:230|377:342|377:342|346:322|318:334,1,243.000000926971,2|2,1:2|0:0,0:0:0:0:
140,257,102310,6,0,L|110:14,1,207.000003948212,10|2,0:0|0:0,0:0:0:0:
245,89,102567,1,0,0:0:0:0:
245,89,102653,6,0,P|209:121|201:154,1,67.5000025749208,2|0,1:2|0:0,0:0:0:0:
4,114,102824,2,0,P|42:142|53:174,1,67.5000025749208,2|0,0:0|0:0,0:0:0:0:
251,228,102996,6,0,P|231:262|233:294,1,45,8|0,0:0|0:0,0:0:0:0:
35,253,103167,2,0,P|60:283|64:314,1,45,2|0,0:0|0:0,0:0:0:0:
156,345,103339,5,0,1:2:0:0:
309,162,103510,5,2,0:0:0:0:
309,162,103596,1,2,0:0:0:0:
309,162,103682,2,0,P|336:208|333:255,1,67.5000025749208,10|0,0:0|0:0,0:0:0:0:
324,376,103853,2,0,P|297:330|300:283,1,67.5000025749208,2|0,0:0|0:0,0:0:0:0:
412,122,104024,6,0,P|329:131|239:83,1,180,2|2,1:2|0:0,0:0:0:0:
176,28,104282,1,2,0:0:0:0:
176,28,104367,2,0,P|142:37|124:94,1,90,10|2,0:0|0:0,0:0:0:0:
47,110,104539,2,0,P|28:167|64:194,1,90,2|0,0:0|0:0,0:0:0:0:
75,320,104710,6,0,B|229:270|157:356|327:308,1,225,6|2,1:2|0:0,0:0:0:0:
416,360,104967,5,0,0:0:0:0:
416,360,105053,2,0,B|394:326|394:326|432:187,1,161.999995056153,10|2,0:0|0:0,0:0:0:0:
398,34,105396,6,0,P|358:74|362:101,1,80.9999975280763,2|0,1:2|0:0,0:0:0:0:
277,254,105567,2,0,P|332:244|344:220,1,80.9999975280763,2|0,0:0|0:0,0:0:0:0:
502,148,105739,2,0,P|451:123|427:135,1,80.9999975280763,10|0,0:0|0:0,0:0:0:0:
256,100,105910,2,0,P|282:149|308:154,1,80.9999975280763,2|0,0:0|0:0,0:0:0:0:
433,278,106082,2,0,P|430:220|300:155,1,215.999993408203,2|2,1:2|0:0,0:0:0:0:
172,112,106339,5,0,0:0:0:0:
172,112,106424,2,0,L|191:31,1,67.5000025749208,10|2,0:0|0:0,0:0:0:0:
139,232,106596,2,0,L|119:312,1,67.5000025749208,2|0,0:0|0:0,0:0:0:0:
24,124,106767,6,0,B|95:143|95:143|129:178|129:178|220:202,1,202.500007724762,2|2,1:2|0:0,0:0:0:0:
305,248,107024,5,2,1:2:0:0:
362,203,107110,2,0,P|296:220|260:324,1,168.75,10|0,0:0|0:0,0:0:0:0:
215,374,107453,6,0,P|191:350|186:314,1,56.25,6|0,1:2|0:0,0:0:0:0:
139,232,107624,2,0,P|120:271|100:285,1,56.25
102,151,107796,6,0,L|139:142,1,26.9999991760254,0|0,3:2|0:0,0:0:0:0:
294,102,107967,2,0,L|257:111,1,26.9999991760254,0|0,3:2|0:0,0:0:0:0:
213,183,108139,6,0,L|199:130,1,53.9999983520508,0|0,0:2|3:2,0:0:0:0:
160,5,108396,1,0,0:2:0:0:
160,5,108482,6,0,L|172:51,1,26.9999991760254,0|0,3:2|0:0,0:0:0:0:
199,130,108653,2,0,L|186:83,1,26.9999991760254,0|0,0:2|0:0,0:0:0:0:
95,63,108824,5,0,3:2:0:0:
253,27,108996,1,0,3:2:0:0:
102,151,109167,6,0,L|68:203,1,45,0|0,0:2|0:0,0:0:0:0:
294,102,109339,2,0,L|345:127,1,45,0|0,3:2|0:0,0:0:0:0:
433,319,109510,5,2,3:2:0:0:
398,284,109596,1,2,3:2:0:0:
353,283,109682,1,2,3:2:0:0:
328,302,109767,1,2,0:0:0:0:
319,313,109853,2,0,P|276:352|222:356,1,101.250003862381,2|0,0:0|0:0,0:0:0:0:
91,341,110196,5,2,1:2:0:0:
84,342,110282,1,2,0:0:0:0:
77,343,110367,1,2,0:0:0:0:
70,344,110453,1,2,0:0:0:0:
63,346,110539,6,0,P|63:312|106:311,1,67.5000025749208,12|0,0:2|0:0,0:0:0:0:
235,359,110710,1,2,0:0:0:0:
236,370,110796,1,2,0:0:0:0:
227,375,110882,6,0,P|197:361|168:311,1,67.5000025749208,2|0,1:2|0:0,0:0:0:0:
265,211,111053,2,0,P|295:225|324:275,1,67.5000025749208,2|0,0:0|0:0,0:0:0:0:
242,287,111224,1,8,0:0:0:0:
435,371,111396,1,0,0:0:0:0:
512,109,111567,6,0,B|501:92|501:92|507:170|447:228,1,135.000005149842,2|2,1:2|0:0,0:0:0:0:
394,201,111824,1,2,0:0:0:0:
394,201,111910,2,0,P|369:171|372:126,1,67.5000025749208,10|0,0:0|0:0,0:0:0:0:
174,209,112082,2,0,P|174:169|205:137,1,67.5000025749208,2|2,0:0|0:0,0:0:0:0:
390,61,112253,6,0,B|402:63|404:74|404:74|381:60|326:63,1,67.5000025749208,2|0,1:2|0:0,0:0:0:0:
213,30,112424,1,2,0:0:0:0:
207,24,112510,1,2,0:0:0:0:
209,14,112596,2,0,B|227:18|227:18|237:92,1,67.5000025749208,10|2,0:0|0:0,0:0:0:0:
251,196,112767,2,0,B|269:200|269:200|279:274,1,67.5000025749208,2|0,0:0|0:0,0:0:0:0:
208,384,112939,6,0,P|166:335|195:278,1,135.000005149842,2|2,1:2|0:0,0:0:0:0:
355,322,113196,1,0,0:0:0:0:
355,322,113282,2,0,P|324:330|291:357,1,67.5000025749208,10|0,0:0|0:0,0:0:0:0:
133,350,113453,2,0,B|105:352|105:352|148:339,1,67.5000025749208,2|2,0:0|0:0,0:0:0:0:
275,248,113624,6,0,P|290:222|269:164,1,67.5000025749208,2|0,1:2|0:0,0:0:0:0:
194,277,113796,2,0,P|163:264|146:236,1,67.5000025749208,2|0,0:0|0:0,0:0:0:0:
199,169,113967,1,10,0:0:0:0:
24,264,114139,1,2,0:0:0:0:
95,28,114310,6,0,L|113:109,1,67.5000025749208,2|0,1:2|0:0,0:0:0:0:
244,40,114482,1,2,0:0:0:0:
241,33,114567,1,2,0:0:0:0:
238,26,114653,2,0,B|206:23|206:23|174:48,1,67.5000025749208,10|0,0:0|0:0,0:0:0:0:
20,139,114824,1,2,0:0:0:0:
12,142,114910,1,2,0:0:0:0:
12,134,114996,6,0,B|1:128|1:128|35:114|54:149,1,67.5000025749208,2|0,1:2|0:0,0:0:0:0:
69,240,115167,1,2,0:0:0:0:
121,197,115252,1,2,0:0:0:0:
182,168,115338,1,10,0:0:0:0:
248,154,115424,1,2,0:0:0:0:
315,156,115510,2,0,P|265:171|243:150,1,67.5000025749208,2|0,0:0|0:0,0:0:0:0:
94,37,115682,6,0,B|79:28|83:9|83:9|97:18|93:36,1,54,2|0,0:2|0:0,0:0:0:0:
196,16,116024,6,0,P|175:43|162:91,1,67.5000025749208,14|2,0:0|0:0,0:0:0:0:
332,41,116196,1,2,0:0:0:0:
344,45,116282,1,2,0:0:0:0:
347,34,116367,2,0,P|313:41|272:69,1,67.5000025749208,2|2,1:2|0:0,0:0:0:0:
451,121,116539,1,2,0:0:0:0:
460,112,116625,1,0,0:0:0:0:
452,104,116710,2,0,P|441:136|444:186,1,67.5000025749208,10|2,0:0|0:0,0:0:0:0:
255,165,116882,2,0,P|278:190|322:212,1,67.5000025749208,2|2,0:0|0:0,0:0:0:0:
488,281,117053,6,0,B|474:302|474:302|406:290|337:349,1,135.000005149842,2|2,1:2|0:0,0:0:0:0:
301,371,117310,1,2,0:0:0:0:
301,371,117396,2,0,P|282:334|298:295,1,67.5000025749208,10|0,0:0|0:0,0:0:0:0:
156,336,117567,2,0,P|165:295|202:275,1,67.5000025749208,2|2,0:0|0:0,0:0:0:0:
306,207,117739,6,0,B|308:214|308:214|276:226|250:206,1,67.5000025749208,2|2,1:2|0:0,0:0:0:0:
86,209,117910,1,0,0:0:0:0:
77,209,117996,1,2,0:0:0:0:
69,207,118082,2,0,P|53:182|48:128,1,67.5000025749208,10|2,0:0|0:0,0:0:0:0:
215,17,118253,2,0,P|231:42|236:96,1,67.5000025749208,2|2,0:0|0:0,0:0:0:0:
153,131,118424,6,0,P|142:110|136:71,3,45,6|2|2|2,1:2|0:0|3:2|0:0,0:0:0:0:
183,279,118767,2,0,L|197:321,1,45,10|2,3:2|0:0,0:0:0:0:
249,209,118939,1,2,3:2:0:0:
257,206,119024,1,2,3:2:0:0:
256,196,119110,6,0,P|228:191|208:199,3,45,2|2|2|2,3:2|3:2|3:2|3:2,0:0:0:0:
183,279,119453,2,0,L|121:300,1,45,10|2,0:0|0:0,0:0:0:0:
340,228,119624,1,2,3:2:0:0:
348,224,119710,1,2,3:2:0:0:
355,219,119796,6,0,P|352:181|341:158,1,45,6|2,3:2|0:0,0:0:0:0:
391,104,119967,2,0,P|375:69|356:51,1,45,2|2,3:2|0:0,0:0:0:0:
459,25,120139,2,0,P|466:46|479:65,3,45,10|2|2|2,0:0|0:0|3:2|3:2,0:0:0:0:
476,157,120482,5,2,3:2:0:0:
482,163,120567,1,2,3:2:0:0:
486,170,120653,1,2,3:2:0:0:
490,178,120739,1,2,3:2:0:0:
496,185,120824,5,10,0:0:0:0:
436,183,120909,1,2,0:0:0:0:
373,199,120995,1,2,0:0:0:0:
309,243,121081,1,2,0:0:0:0:
280,321,121167,6,0,B|273:337|273:337|254:178,1,135.000005149842,6|0,1:2|0:0,0:0:0:0:
167,190,121424,1,0,0:0:0:0:
159,204,121510,2,0,L|163:120,1,67.5000025749208,8|0,0:0|0:0,0:0:0:0:
306,125,121682,2,0,L|289:39,1,67.5000025749208,0|0,1:2|0:0,0:0:0:0:
105,78,121853,6,0,P|141:61|143:8,1,67.5000025749208,2|2,1:2|0:0,0:0:0:0:
24,29,122024,1,2,0:0:0:0:
13,26,122110,1,2,0:0:0:0:
5,33,122196,2,0,P|21:75|25:117,1,67.5000025749208,10|0,0:0|0:0,0:0:0:0:
78,164,122367,2,0,P|78:209|68:249,1,67.5000025749208,2|0,0:0|0:0,0:0:0:0:
42,321,122539,5,0,1:2:0:0:
42,321,122710,2,0,L|134:303,1,67.5000025749208,2|0,0:0|0:0,0:0:0:0:
218,372,122882,2,0,P|244:352|259:322,1,67.5000025749208,10|0,0:0|0:0,0:0:0:0:
230,151,123053,2,0,B|218:127|218:127|225:167,1,67.5000025749208,2|0,0:0|0:0,0:0:0:0:
243,245,123224,5,2,1:2:0:0:
243,245,123396,1,2,0:0:0:0:
458,157,123567,1,10,0:0:0:0:
458,157,123739,1,2,0:0:0:0:
386,120,123910,6,0,B|373:153|373:153|386:202,1,67.5000025749208,2|0,1:2|0:0,0:0:0:0:
309,290,124082,2,0,B|317:320|317:320|304:353,1,67.5000025749208,2|0,1:2|0:0,0:0:0:0:
469,253,124253,6,0,B|461:237|461:237|261:196,1,180,14|0,0:0|0:0,0:0:0:0:
164,311,124596,2,0,B|114:358|114:358|228:319,1,180,2|2,1:2|0:0,0:0:0:0:
309,290,124939,5,10,0:0:0:0:
73,201,125110,1,2,0:0:0:0:
309,103,125282,6,0,B|294:94|294:94|164:106,1,135.000005149842,0|0,1:2|0:0,0:0:0:0:
293,9,125624,1,8,0:0:0:0:
72,119,125796,1,2,0:0:0:0:
65,119,125882,1,2,0:0:0:0:
59,118,125967,6,0,P|29:89|19:65,1,67.5000025749208,2|0,1:2|0:0,0:0:0:0:
170,190,126139,1,2,0:0:0:0:
170,208,126224,1,0,1:2:0:0:
161,198,126310,2,0,L|237:184,1,67.5000025749208,10|0,0:0|0:0,0:0:0:0:
1,229,126482,2,0,L|77:215,1,67.5000025749208,2|0,0:0|0:0,0:0:0:0:
309,103,126653,6,0,P|255:190|229:293,1,202.500007724762,6|0,1:2|0:0,0:0:0:0:
175,361,126996,2,0,P|156:323|129:287,1,67.5000025749208,10|0,0:0|0:0,0:0:0:0:
317,300,127167,2,0,P|298:328|283:358,1,67.5000025749208,2|0,0:0|0:0,0:0:0:0:
229,286,127339,5,2,1:2:0:0:
486,280,127510,1,2,0:0:0:0:
479,281,127596,1,0,0:0:0:0:
472,282,127682,2,0,P|448:257|437:216,1,67.5000025749208,10|0,0:0|0:0,0:0:0:0:
330,203,127853,1,2,0:0:0:0:
311,168,127939,1,2,0:0:0:0:
321,124,128024,5,2,1:2:0:0:
327,123,128110,1,2,0:0:0:0:
333,122,128196,1,2,0:0:0:0:
339,121,128282,1,2,0:0:0:0:
345,120,128367,2,0,B|367:130|367:130|281:150,1,67.5000025749208,10|2,0:0|0:0,0:0:0:0:
164,119,128539,1,2,0:0:0:0:
157,120,128624,1,2,0:0:0:0:
150,117,128710,6,0,P|195:125|227:168,1,67.5000025749208,2|0,1:2|0:0,0:0:0:0:
82,266,128882,2,0,P|66:223|87:173,1,67.5000025749208,2|0,0:0|0:0,0:0:0:0:
189,39,129053,1,10,0:0:0:0:
227,94,129138,1,2,0:0:0:0:
249,157,129224,1,2,0:0:0:0:
253,225,129310,1,2,0:0:0:0:
240,291,129396,6,0,L|217:285,1,18,6|0,1:2|0:0,0:0:0:0:
81,265,129567,2,0,L|99:270,1,18,2|0,0:0|0:0,0:0:0:0:
307,333,129739,6,0,P|284:358|253:368,1,67.5000025749208,10|0,0:0|0:0,0:0:0:0:
101,189,129910,2,0,P|133:195|158:217,1,67.5000025749208,2|0,0:0|0:0,0:0:0:0:
222,286,130082,5,2,1:2:0:0:
261,26,130253,1,2,1:2:0:0:
357,148,130424,1,10,0:0:0:0:
44,128,130596,6,0,B|5:160|5:160|152:121,1,202.500007724762,6|0,1:2|0:0,0:0:0:0:
151,121,130939,1,2,1:2:0:0:
237,109,131110,1,10,0:0:0:0:
383,259,131282,5,2,1:2:0:0:
496,234,131453,1,10,0:0:0:0:
310,175,131624,5,2,1:2:0:0:
213,367,131796,1,10,0:0:0:0:
93,81,131967,1,2,1:2:0:0:
7,178,132139,6,0,P|122:114|268:112,1,270,6|0,1:2|0:0,0:0:0:0:
358,13,132482,1,8,0:0:0:0:
358,13,132567,2,0,P|330:78|342:141,1,90,0|0,1:2|0:0,0:0:0:0:
286,250,132739,5,0,0:0:0:0:
286,250,132824,2,0,B|290:256|291:270|291:270|259:262|243:223,1,90,2|0,1:2|0:0,0:0:0:0:
118,305,132996,2,0,B|114:311|113:325|113:325|145:317|161:278,1,90,2|0,0:2|0:0,0:0:0:0:
0,75,133167,6,0,P|18:125|69:145,1,90,10|0,0:0|0:0,0:0:0:0:
122,189,133339,2,0,P|171:164|181:114,1,90,2|0,0:0|0:0,0:0:0:0:
224,14,133510,5,2,1:2:0:0:
285,18,133596,1,2,0:0:0:0:
341,47,133682,1,2,0:0:0:0:
370,99,133767,1,2,0:0:0:0:
371,157,133853,2,0,P|385:176|378:155,1,67.5000025749208,10|2,0:0|0:0,0:0:0:0:
466,101,134024,2,0,P|478:112|469:101,1,67.5000025749208,2|2,0:0|0:0,0:0:0:0:
397,258,134196,6,0,P|371:261|348:247,1,33.7500012874604,2|2,1:2|0:0,0:0:0:0:
291,282,134367,2,0,P|271:267|267:239,1,33.7500012874604,2|2,0:0|0:0,0:0:0:0:
384,384,134539,6,0,P|358:364|349:331,1,67.5000025749208,10|2,0:0|0:0,0:0:0:0:
192,279,134710,2,0,P|186:247|208:216,1,67.5000025749208,2|2,0:0|0:0,0:0:0:0:
324,54,134882,6,0,P|278:129|269:180,1,135.000005149842,2|2,1:2|0:0,0:0:0:0:
190,143,135139,1,2,0:0:0:0:
190,143,135224,2,0,L|122:128,1,67.5000025749208,10|2,0:0|0:0,0:0:0:0:
144,54,135396,2,0,L|212:69,1,67.5000025749208,2|2,0:0|0:0,0:0:0:0:
324,54,135567,5,2,1:2:0:0:
54,171,135739,1,2,0:0:0:0:
324,54,135910,1,10,0:0:0:0:
198,262,136082,6,0,B|159:308|159:308|382:241,1,270.000010299683,2|0,0:0|0:0,0:0:0:0:
434,226,136510,1,0,0:0:0:0:
434,226,136596,2,0,B|466:187|466:187|508:167,1,67.5000025749208,10|0,0:0|0:0,0:0:0:0:
499,333,136767,2,0,B|474:318|474:318|407:305,1,67.5000025749208,2|0,0:0|0:0,0:0:0:0:
253,202,136939,6,0,P|256:186|264:171,2,33.7500012874604,2|2|2,1:2|0:0|0:0,0:0:0:0:
350,291,137110,2,0,P|358:306|361:323,2,33.7500012874604,2|2|10,0:0|0:0|0:2,0:0:0:0:
224,281,137282,2,0,P|209:273|198:262,2,33.7500012874604,2|2|2,1:2|0:0|0:0,0:0:0:0:
330,215,137453,2,0,P|347:213|364:216,2,33.7500012874604,10|2|2,0:2|0:0|0:0,0:0:0:0:
284,335,137624,2,0,P|270:344|254:349,6,33.7500012874604,0|0|0|0|0|0|0,3:2|3:2|3:2|3:2|3:2|3:2|3:2,0:0:0:0:
106,327,137967,6,0,L|67:247,1,67.5000025749208,10|8,0:0|0:0,0:0:0:0:
124,202,138139,2,0,L|145:122,1,67.5000025749208,8|8,0:0|0:0,0:0:0:0:
210,85,138310,5,2,1:2:0:0:
97,29,138482,1,8,0:2:0:0:
97,29,138567,1,8,0:2:0:0:
97,29,138653,1,2,1:2:0:0:
265,165,138824,1,10,0:0:0:0:
23,185,138996,6,0,P|48:244|44:277,1,67.5000025749208,8|0,1:2|0:0,0:0:0:0:
221,227,139167,2,0,P|176:273|168:305,1,67.5000025749208,8|0,1:2|0:0,0:0:0:0:
106,327,139339,5,0,1:2:0:0:
36,89,139510,1,8,0:2:0:0:
36,89,139596,1,8,0:2:0:0:
36,89,139682,1,10,1:2:0:0:
265,165,139853,1,10,0:2:0:0:
265,165,139939,1,8,0:2:0:0:
265,165,140024,1,8,1:2:0:0:
260,302,140196,5,8,1:2:0:0:
260,302,140282,1,8,1:2:0:0:
260,302,140367,1,14,1:2:0:0:
218,316,140453,1,8,0:0:0:0:
173,332,140539,1,8,1:2:0:0:
126,348,140624,1,8,0:0:0:0:
79,367,140710,5,10,1:2:0:0:
82,348,140796,1,8,0:0:0:0:
85,328,140882,1,10,1:2:0:0:
88,311,140967,1,8,0:0:0:0:
91,294,141053,6,0,L|75:217,1,67.5000025749208,10|8,1:2|0:0,0:0:0:0:
122,164,141224,2,0,L|150:97,1,67.5000025749208,10|8,1:2|0:0,0:0:0:0:
234,100,141396,2,0,L|302:78,1,67.5000025749208,10|8,1:2|0:0,0:0:0:0:
376,140,141567,2,0,L|451:164,1,67.5000025749208,10|8,0:0|0:0,0:0:0:0:
403,384,141739,6,0,B|386:328|386:328|363:301|363:301|340:230,1,153.000002918243,10|0,0:0|0:0,0:0:0:0:
344,244,142253,2,0,P|373:228|398:232,1,38.2500007295609,8|0,0:0|0:0,0:0:0:0:
449,121,142424,5,2,3:2:0:0:
423,76,142510,5,2,3:2:0:0:
375,52,142596,5,10,0:0:0:0:
327,59,142682,5,10,0:0:0:0:
291,91,142767,6,0,P|288:114|298:87,1,80.9999975280763,2|0,1:2|0:0,0:0:0:0:
154,63,143110,6,0,P|230:110|270:190,1,180,6|0,1:2|0:0,0:0:0:0:
371,170,143624,1,2,0:0:0:0:
314,295,143796,1,2,0:0:0:0:
314,295,143967,2,0,P|244:262|206:260,1,90,2|0,0:0|0:0,0:0:0:0:
96,362,144310,1,2,0:0:0:0:
96,362,144482,2,0,P|58:303|91:180,1,180,2|0,0:0|0:0,0:0:0:0:
139,153,144996,5,2,0:0:0:0:
139,153,145167,1,2,0:0:0:0:
459,113,148596,6,0,L|442:263,1,135.000005149842,6|0,1:2|0:0,0:0:0:0:
443,248,148939,6,0,L|397:241,1,33.7500012874604,8|0,0:0|0:0,0:0:0:0:
220,214,149453,2,0,L|266:221,1,33.7500012874604,8|0,0:0|0:0,0:0:0:0:
316,347,149624,6,0,L|327:272,1,45,0|0,1:2|0:0,0:0:0:0:
333,224,149796,6,0,B|354:74|354:74|293:69|293:69|320:100|316:142,1,270,6|0,1:2|0:0,0:0:0:0:
315,120,150310,1,8,0:0:0:0:
138,162,150824,1,8,0:0:0:0:
45,54,151167,5,8,0:0:0:0:
45,54,151339,2,0,P|88:144|111:292,1,202.500007724762,2|0,1:2|0:0,0:0:0:0:
176,301,151682,2,0,P|199:214|124:160,1,180,6|0,1:2|0:0,0:0:0:0:
25,236,152196,6,0,L|39:290,1,33.7500012874604,8|0,0:0|0:0,0:0:0:0:
297,154,152539,6,0,L|308:189,1,33.7500012874604,0|0,1:2|0:0,0:0:0:0:
297,154,152882,6,0,L|257:167,1,33.7500012874604,8|0,0:0|0:0,0:0:0:0:
25,236,153224,2,0,L|65:223,1,33.7500012874604,8|0,0:0|0:0,0:0:0:0:
319,77,153567,5,10,0:0:0:0:
319,77,153739,2,0,P|268:81|256:89,1,45,10|0,0:0|0:0,0:0:0:0:
201,50,153910,2,0,P|185:79|181:102,1,45,10|0,0:0|0:0,0:0:0:0:
96,99,154082,6,0,B|119:93|119:93|217:169,1,135.000005149842,6|0,1:2|0:0,0:0:0:0:
128,198,154339,1,0,1:2:0:0:
197,244,154424,2,0,L|282:213,1,67.5000025749208,10|0,1:2|0:0,0:0:0:0:
229,362,154596,2,0,L|274:283,1,67.5000025749208,8|0,1:2|0:0,0:0:0:0:
363,384,154767,2,0,L|331:230,1,135.000005149842,10|0,1:2|0:0,0:0:0:0:
490,216,155024,1,8,0:0:0:0:
465,301,155110,2,0,L|411:259,1,67.5000025749208,10|0,1:2|0:0,0:0:0:0:
512,137,155282,2,0,L|444:139,1,67.5000025749208,8|0,1:2|0:0,0:0:0:0:
421,54,155453,6,0,L|299:162,1,135.000005149842,10|0,1:2|0:0,0:0:0:0:
189,44,155710,1,8,1:2:0:0:
269,23,155796,2,0,L|256:109,1,67.5000025749208,10|0,1:2|0:0,0:0:0:0:
103,57,155967,2,0,L|148:130,1,67.5000025749208,8|0,1:2|1:2,0:0:0:0:
0,125,156139,6,0,L|82:152,1,67.5000025749208,10|0,1:2|0:0,0:0:0:0:
60,248,156310,2,0,L|140:215,1,67.5000025749208,8|0,1:2|0:0,0:0:0:0:
196,301,156482,2,0,L|237:224,1,67.5000025749208,10|0,1:2|0:0,0:0:0:0:
353,301,156653,2,0,L|335:215,1,67.5000025749208,8|0,1:2|0:0,0:0:0:0:
408,183,156824,6,0,L|301:99,1,135.000005149842,10|0,1:2|0:0,0:0:0:0:
357,43,157082,1,8,1:2:0:0:
278,24,157167,2,0,L|166:27,1,67.5000025749208,10|0,1:2|0:0,0:0:0:0:
139,0,157339,2,0,L|55:74,1,67.5000025749208,8|0,1:2|0:0,0:0:0:0:
19,0,157510,2,0,L|-6:175,1,135.000005149842,10|0,1:2|0:0,0:0:0:0:
14,216,157767,1,8,1:2:0:0:
75,161,157853,2,0,L|141:255,1,67.5000025749208,10|0,1:2|0:0,0:0:0:0:
214,299,158024,2,0,L|191:236,1,67.5000025749208,8|0,1:2|0:0,0:0:0:0:
234,167,158196,6,0,L|402:222,1,135.000005149842,10|0,1:2|0:0,0:0:0:0:
441,188,158453,1,8,1:2:0:0:
467,80,158539,2,0,L|298:135,1,135.000005149842,10|0,1:2|1:2,0:0:0:0:
180,102,158796,1,8,1:2:0:0:
169,188,158882,6,0,L|234:167,1,67.5000025749208,10|0,1:2|0:0,0:0:0:0:
245,24,159053,2,0,L|266:88,1,67.5000025749208,8|0,1:2|0:0,0:0:0:0:
335,268,159224,2,0,L|313:203,1,67.5000025749208,10|0,1:2|0:0,0:0:0:0:
403,102,159396,2,0,L|338:123,1,67.5000025749208,8|0,1:2|0:0,0:0:0:0:
234,167,159567,5,14,1:2:0:0:
223,247,159739,1,10,1:2:0:0:
71,143,159910,1,10,1:2:0:0:
145,112,160082,1,10,1:2:0:0:
176,319,160253,5,10,1:2:0:0:
176,319,160424,1,10,1:2:0:0:
357,252,160596,1,10,1:2:0:0:
140,198,160767,1,10,1:2:0:0:
355,340,160939,5,14,1:2:0:0:
471,139,161110,1,10,1:2:0:0:
259,242,161282,1,10,1:2:0:0:
196,19,161453,1,10,1:2:0:0:
352,162,161624,5,10,1:2:0:0:
415,12,161796,1,10,1:2:0:0:
117,14,161967,1,8,1:2:0:0:
118,24,162052,1,8,1:2:0:0:
119,34,162138,1,8,1:2:0:0:
121,44,162224,1,8,1:2:0:0:
138,77,162310,5,12,1:2:0:0:
112,68,162395,1,8,1:2:0:0:
85,69,162481,1,8,1:2:0:0:
60,80,162567,1,8,1:2:0:0:
41,98,162653,5,8,1:2:0:0:
83,118,162738,1,8,1:2:0:0:
130,125,162824,1,8,1:2:0:0:
176,119,162910,1,8,1:2:0:0:
220,100,162996,5,12,1:2:0:0:
281,84,163081,1,8,1:2:0:0:
340,105,163167,1,8,1:2:0:0:
359,167,163253,1,8,1:2:0:0:
326,224,163339,2,0,L|244:213,1,67.5000025749208,8|8,1:2|1:2,0:0:0:0:
347,22,163510,2,0,L|414:32,1,67.5000025749208,8|8,1:2|1:2,0:0:0:0:
499,51,163682,6,0,P|470:105|455:201,1,135.000005149842,6|2,1:2|0:0,0:0:0:0:
463,356,164196,1,8,3:2:0:0:
469,355,164282,1,0,3:2:0:0:
477,352,164367,2,0,L|473:308,2,33.7500012874604,2|8|0,3:2|3:2|3:2,0:0:0:0:
501,247,164710,1,10,0:0:0:0:
147,153,164882,1,2,0:0:0:0:
97,218,165053,6,0,B|151:180|151:180|218:194,1,135.000005149842,6|0,1:2|0:0,0:0:0:0:
354,235,165310,1,0,0:0:0:0:
299,291,165396,2,0,L|166:262,1,135.000005149842,10|0,0:0|0:0,0:0:0:0:
68,384,165653,1,0,0:0:0:0:
144,365,165739,6,0,B|135:331|135:331|105:314,1,67.5000025749208,2|0,1:2|0:0,0:0:0:0:
223,373,165910,2,0,B|247:348|247:348|247:314,1,67.5000025749208,2|0,0:0|0:0,0:0:0:0:
218,194,166082,2,0,L|203:127,1,67.5000025749208,10|0,0:0|0:0,0:0:0:0:
278,112,166253,2,0,L|292:178,1,67.5000025749208,2|0,0:0|0:0,0:0:0:0:
350,83,166424,6,0,L|217:55,1,135.000005149842,2|2,1:2|0:0,0:0:0:0:
142,24,166682,1,0,0:0:0:0:
84,79,166767,2,0,L|-10:98,1,67.5000025749208,10|0,0:0|0:0,0:0:0:0:
203,127,166939,2,0,L|109:146,1,67.5000025749208,2|0,0:0|0:0,0:0:0:0:
158,225,167110,6,0,L|64:206,1,67.5000025749208,2|0,1:2|0:0,0:0:0:0:
281,303,167282,2,0,L|187:284,1,67.5000025749208,2|0,0:0|0:0,0:0:0:0:
59,317,167453,2,0,L|153:298,1,67.5000025749208,10|0,0:0|0:0,0:0:0:0:
302,199,167625,2,0,L|235:212,1,67.5000025749208,2|0,0:0|0:0,0:0:0:0:
177,358,167796,6,0,L|150:175,1,135.000005149842,2|2,1:2|0:0,0:0:0:0:
198,135,168053,1,0,0:0:0:0:
277,115,168139,2,0,L|288:20,1,67.5000025749208,10|0,0:0|0:0,0:0:0:0:
111,98,168310,2,0,L|118:30,1,67.5000025749208,2|0,0:0|0:0,0:0:0:0:
198,135,168482,6,0,L|187:40,1,67.5000025749208,2|0,1:2|0:0,0:0:0:0:
370,118,168653,2,0,L|362:50,1,67.5000025749208,2|0,0:0|0:0,0:0:0:0:
277,115,168824,2,0,L|266:210,1,67.5000025749208,10|0,0:0|0:0,0:0:0:0:
441,199,168995,2,0,L|449:132,1,67.5000025749208,2|0,0:0|0:0,0:0:0:0:
506,261,169167,6,0,B|444:289|444:289|382:262,1,135.000005149842,2|0,1:2|0:0,0:0:0:0:
308,281,169424,1,0,0:0:0:0:
303,361,169510,2,0,L|402:348,1,67.5000025749208,10|0,0:0|0:0,0:0:0:0:
269,182,169682,2,0,L|202:190,1,67.5000025749208,2|0,0:0|0:0,0:0:0:0:
127,219,169853,6,0,B|144:249|144:249|142:306,1,67.5000025749208,2|0,1:2|0:0,0:0:0:0:
23,133,170024,2,0,B|21:165|21:165|38:195,1,67.5000025749208,2|0,0:0|0:0,0:0:0:0:
165,66,170196,2,0,B|158:99|158:99|120:142,1,67.5000025749208,10|0,0:0|0:0,0:0:0:0:
18,13,170367,2,0,B|38:39|38:39|70:51,1,67.5000025749208,2|0,0:0|0:0,0:0:0:0:
253,109,170539,6,0,L|403:71,1,135.000005149842,2|0,1:2|0:0,0:0:0:0:
366,0,170796,1,0,0:0:0:0:
439,19,170882,2,0,L|530:27,1,67.5000025749208,10|0,0:0|0:0,0:0:0:0:
383,75,171053,2,0,L|315:69,1,67.5000025749208
377,167,171224,6,0,B|443:161|443:161|492:83,1,135.000005149842,2|2,1:2|0:0,0:0:0:0:
495,229,171482,1,0,0:0:0:0:
449,294,171567,2,0,B|425:273|425:273|419:234,1,67.5000025749208,10|0,0:0|0:0,0:0:0:0:
332,383,171739,2,0,B|356:362|356:362|362:323,1,67.5000025749208,2|0,1:2|0:0,0:0:0:0:
184,374,171910,6,0,B|278:332|278:332|294:291,1,135.000005149842,2|2,1:2|0:0,0:0:0:0:
216,273,172167,1,0,0:0:0:0:
281,226,172253,2,0,L|302:154,1,67.5000025749208,10|0,0:0|0:0,0:0:0:0:
267,93,172424,1,2,0:0:0:0:
195,106,172510,1,0,0:0:0:0:
121,119,172596,6,0,L|109:52,1,67.5000025749208,2|0,1:2|0:0,0:0:0:0:
42,233,172767,2,0,L|30:166,1,67.5000025749208,2|0,0:0|0:0,0:0:0:0:
179,193,172939,2,0,L|112:204,1,67.5000025749208,10|0,0:0|0:0,0:0:0:0:
14,92,173110,2,0,L|80:80,1,67.5000025749208,2|0,0:0|0:0,0:0:0:0:
223,8,173282,6,0,B|206:109|206:109|234:80,1,135.000005149842,2|0,1:2|0:0,0:0:0:0:
319,89,173539,1,0,0:0:0:0:
364,25,173624,2,0,B|335:6|335:6|281:16,1,67.5000025749208,10|0,0:0|0:0,0:0:0:0:
269,155,173796,2,0,B|298:174|298:174|352:164,1,67.5000025749208
358,251,173967,6,0,L|396:122,1,135.000005149842,2|2,1:2|0:0,0:0:0:0:
495,63,174224,1,0,0:0:0:0:
474,136,174310,2,0,L|460:56,1,67.5000025749208,10|0,0:0|0:0,0:0:0:0:
447,220,174482,2,0,L|458:286,1,67.5000025749208,2|0,0:0|0:0,0:0:0:0:
396,380,174653,6,0,L|358:251,1,135.000005149842,2|2,1:2|0:0,0:0:0:0:
288,203,174910,1,0,0:0:0:0:
253,274,174996,2,0,L|272:195,1,67.5000025749208,10|0,0:0|0:0,0:0:0:0:
185,361,175167,2,0,L|166:282,1,67.5000025749208,2|0,0:0|0:0,0:0:0:0:
111,243,175339,6,0,B|138:221|138:221|207:218,1,67.5000025749208,2|0,1:2|0:0,0:0:0:0:
346,146,175510,2,0,B|319:124|319:124|286:122,1,67.5000025749208,2|0,1:2|0:0,0:0:0:0:
192,135,175682,2,0,L|173:56,1,67.5000025749208,10|0,0:0|0:0,0:0:0:0:
284,274,175853,2,2,L|268:208,1,67.5000025749208,0|2,1:2|0:0,0:0:0:0:
101,115,176024,6,0,B|118:187|118:187|181:226,1,135.000005149842,6|0,1:2|0:0,0:0:0:0:
246,30,176281,1,0,0:0:0:0:
317,81,176367,2,0,L|191:136,1,135.000005149842,10|0,0:0|0:0,0:0:0:0:
63,41,176624,1,0,0:0:0:0:
17,109,176710,6,0,L|41:185,1,67.5000025749208,2|0,1:2|0:0,0:0:0:0:
141,251,176882,2,0,L|116:176,1,67.5000025749208,2|0,0:0|0:0,0:0:0:0:
343,149,177053,6,0,B|331:183|331:183|289:205,1,67.5000025749208,10|0,0:0|0:0,0:0:0:0:
284,274,177224,2,0,B|248:280|248:280|208:255,1,67.5000025749208,2|0,0:0|0:0,0:0:0:0:
54,384,177396,6,0,L|189:320,1,135.000005149842,2|2,1:2|0:0,0:0:0:0:
141,251,177653,1,0,0:0:0:0:
90,309,177739,2,0,L|-4:290,1,67.5000025749208,10|0,0:0|0:0,0:0:0:0:
207,253,177910,2,0,L|113:234,1,67.5000025749208,2|0,0:0|0:0,0:0:0:0:
147,161,178081,6,0,L|53:180,1,67.5000025749208,2|0,1:2|0:0,0:0:0:0:
281,81,178253,2,0,L|187:100,1,67.5000025749208,2|0,0:0|0:0,0:0:0:0:
59,67,178424,2,0,L|153:86,1,67.5000025749208,10|0,0:0|0:0,0:0:0:0:
235,172,178596,2,0,L|302:185,1,67.5000025749208,2|0,0:0|0:0,0:0:0:0:
399,13,178767,6,0,L|372:196,1,135.000005149842,2|2,1:2|0:0,0:0:0:0:
369,227,179024,1,0,0:0:0:0:
446,202,179110,2,0,L|457:297,1,67.5000025749208,10|0,0:0|0:0,0:0:0:0:
353,304,179282,2,0,L|360:236,1,67.5000025749208,2|0,0:0|0:0,0:0:0:0:
293,117,179453,6,0,L|304:212,1,67.5000025749208,2|0,1:2|0:0,0:0:0:0:
256,246,179624,2,0,L|264:314,1,67.5000025749208,2|0,0:0|0:0,0:0:0:0:
166,297,179795,2,0,L|158:364,1,67.5000025749208,10|0,0:0|0:0,0:0:0:0:
55,265,179966,2,0,L|47:332,1,67.5000025749208,2|0,0:0|0:0,0:0:0:0:
154,215,180139,6,0,B|92:243|92:243|30:216,1,135.000005149842,2|2,1:2|0:0,0:0:0:0:
12,139,180395,1,0,0:0:0:0:
96,85,180482,2,0,L|83:184,1,67.5000025749208,10|0,0:0|0:0,0:0:0:0:
188,34,180653,2,0,L|196:101,1,67.5000025749208,2|0,0:0|0:0,0:0:0:0:
306,4,180824,6,0,L|322:70,1,67.5000025749208,2|0,1:2|0:0,0:0:0:0:
393,139,180996,2,0,L|409:205,1,67.5000025749208,2|0,0:0|0:0,0:0:0:0:
241,178,181167,2,0,B|268:156|268:156|337:153,1,67.5000025749208,10|0,0:0|0:0,0:0:0:0:
476,81,181339,2,0,B|449:59|449:59|416:57,1,67.5000025749208,2|0,0:0|0:0,0:0:0:0:
335,232,181510,6,0,L|485:270,1,135.000005149842,2|0,1:2|0:0,0:0:0:0:
509,331,181767,1,0,1:2:0:0:
380,349,181853,2,0,B|341:330|341:330|221:338,1,135.000005149842,10|0,0:0|0:0,0:0:0:0:
161,315,182110,1,0,0:0:0:0:
250,257,182196,6,0,L|238:357,1,67.5000025749208,2|0,1:2|0:0,0:0:0:0:
161,227,182367,2,0,L|149:327,1,67.5000025749208,2|0,0:0|0:0,0:0:0:0:
98,382,182539,2,0,L|75:294,1,67.5000025749208,10|0,0:0|0:0,0:0:0:0:
19,384,182710,2,0,L|-4:296,1,67.5000025749208,2|0,0:0|0:0,0:0:0:0:
74,217,182882,6,0,B|168:175|168:175|179:145,1,135.000005149842,2|2,1:2|1:2,0:0:0:0:
107,110,183138,1,0,0:0:0:0:
14,82,183224,2,0,L|35:154,1,67.5000025749208,10|0,0:0|0:0,0:0:0:0:
91,29,183396,2,0,L|112:101,1,67.5000025749208,2|0,0:0|0:0,0:0:0:0:
254,81,183567,6,0,L|168:64,1,67.5000025749208,2|0,1:2|0:0,0:0:0:0:
239,156,183739,2,0,L|222:242,1,67.5000025749208,2|0,0:0|0:0,0:0:0:0:
315,164,183910,2,0,L|401:181,1,67.5000025749208,10|0,0:0|0:0,0:0:0:0:
331,87,184082,2,0,L|348:1,1,67.5000025749208,2|0,0:0|0:0,0:0:0:0:
154,193,184253,6,0,B|137:294|137:294|165:265,1,135.000005149842,6|2,1:2|0:0,0:0:0:0:
238,233,184510,1,0,0:0:0:0:
280,296,184596,2,0,B|251:315|251:315|197:305,1,67.5000025749208,10|0,0:0|0:0,0:0:0:0:
220,160,184767,2,0,B|253:152|253:152|300:181,1,67.5000025749208,2|0,0:0|0:0,0:0:0:0:
363,362,184939,6,0,L|325:233,1,135.000005149842,2|2,1:2|0:0,0:0:0:0:
359,163,185195,1,0,0:0:0:0:
431,191,185282,2,0,L|417:271,1,67.5000025749208,10|0,0:0|0:0,0:0:0:0:
494,136,185453,6,0,P|434:154|353:52,1,202.500007724762,6|0,1:2|0:0,0:0:0:0:
282,8,185796,2,0,L|262:95,1,67.5000025749208,2|0,1:2|0:0,0:0:0:0:
192,111,185967,2,0,L|212:198,1,67.5000025749208,10|0,0:0|0:0,0:0:0:0:
121,258,186139,1,10,0:0:0:0:
201,274,186224,1,10,0:0:0:0:
281,288,186310,2,0,L|319:218,1,67.5000025749208,2|0,1:2|0:0,0:0:0:0:
395,246,186482,2,0,L|382:158,1,67.5000025749208,2|0,1:2|1:2,1:0:0:0:
459,145,186653,2,0,L|409:82,1,67.5000025749208,10|8,0:0|0:0,0:0:0:0:
506,281,186824,5,10,0:0:0:0:
506,281,186910,1,8,0:0:0:0:
506,281,186996,2,0,B|460:227|460:227|349:249,1,135.000005149842,2|2,1:2|0:0,0:0:0:0:
364,376,187253,1,0,0:0:0:0:
448,376,187339,2,0,L|420:299,1,67.5000025749208,14|0,0:0|0:0,0:0:0:0:
334,305,187510,2,0,L|306:218,1,67.5000025749208,2|0,0:0|0:0,0:0:0:0:
233,247,187682,6,0,L|349:133,1,135.000005149842,2|2,1:2|0:0,0:0:0:0:
317,68,187939,1,0,0:0:0:0:
240,52,188024,2,0,B|240:94|240:94|273:135,1,67.5000025749208,8|0,0:0|0:0,0:0:0:0:
391,84,188196,2,0,B|391:42|391:42|358:1,1,67.5000025749208,2|0,0:0|0:0,0:0:0:0:
152,37,188367,6,0,B|176:107|176:107|248:147,1,135.000005149842,2|2,1:2|0:0,0:0:0:0:
296,202,188624,1,0,0:0:0:0:
233,247,188710,2,0,L|156:210,1,67.5000025749208,10|0,0:0|0:0,0:0:0:0:
85,315,188882,2,0,L|155:295,1,67.5000025749208,2|0,0:0|0:0,0:0:0:0:
49,164,189053,6,0,B|53:190|53:190|75:224,1,67.5000025749208,2|0,1:2|0:0,0:0:0:0:
166,96,189224,2,0,B|159:125|159:125|123:160,1,67.5000025749208,2|0,0:0|0:0,0:0:0:0:
30,38,189396,2,0,B|54:70|54:70|97:98,1,67.5000025749208,10|0,0:0|0:0,0:0:0:0:
197,3,189567,2,0,B|150:20|150:20|106:22,1,67.5000025749208,2|0,0:0|0:0,0:0:0:0:
305,106,189739,6,0,B|255:81|255:81|126:100,1,135.000005149842,2|2,1:2|0:0,0:0:0:0:
127,158,189996,1,0,0:0:0:0:
249,230,190082,2,0,L|237:159,1,67.5000025749208,10|0,0:0|0:0,0:0:0:0:
158,294,190253,2,0,L|170:223,1,67.5000025749208,2|0,0:0|0:0,0:0:0:0:
352,232,190424,6,0,B|287:251|287:251|241:305,1,135.000005149842,2|2,1:2|0:0,0:0:0:0:
242,378,190682,1,0,0:0:0:0:
344,384,190767,2,0,L|332:312,1,67.5000025749208,10|0,0:0|0:0,0:0:0:0:
419,330,190939,2,0,L|431:258,1,67.5000025749208,2|0,0:0|0:0,0:0:0:0:
512,208,191110,6,0,L|354:139,1,135.000005149842,2|2,1:2|0:0,0:0:0:0:
455,91,191367,1,0,0:0:0:0:
388,45,191453,2,0,L|251:97,1,135.000005149842,10|2,0:0|0:0,0:0:0:0:
202,33,191710,1,0,0:0:0:0:
165,112,191796,6,0,L|202:175,1,67.5000025749208,2|0,1:2|0:0,0:0:0:0:
287,178,191967,2,0,L|250:266,1,67.5000025749208,2|0,0:0|0:0,0:0:0:0:
195,336,192139,1,10,0:0:0:0:
116,330,192224,1,2,0:0:0:0:
83,258,192310,2,0,B|94:218|94:218|117:193,1,67.5000025749208,2|2,0:0|0:0,0:0:0:0:
44,151,192482,6,0,B|96:157|96:157|197:90,1,135.000005149842,2|2,1:2|0:0,0:0:0:0:
75,71,192739,1,0,0:0:0:0:
141,28,192824,2,0,L|230:49,1,67.5000025749208,10|0,0:0|0:0,0:0:0:0:
277,12,192996,2,0,L|306:88,1,67.5000025749208,2|0,0:0|0:0,0:0:0:0:
376,129,193167,6,0,L|242:125,1,135.000005149842,2|2,1:2|0:0,0:0:0:0:
377,48,193424,1,0,1:2:0:0:
480,19,193510,2,0,B|466:63|466:63|441:86,1,67.5000025749208,10|0,0:0|0:0,0:0:0:0:
376,129,193682,2,0,B|392:167|392:167|421:194,1,67.5000025749208,10|8,0:0|0:0,0:0:0:0:
494,157,193853,6,0,B|493:216|493:216|439:278,1,135.000005149842,2|2,1:2|0:0,0:0:0:0:
362,266,194110,1,0,0:0:0:0:
512,311,194196,2,0,L|381:343,1,135.000005149842,10|2,0:0|0:0,0:0:0:0:
300,303,194453,1,0,0:0:0:0:
300,377,194539,6,0,L|282:300,1,67.5000025749208,2|0,1:2|0:0,0:0:0:0:
213,277,194710,2,0,L|229:202,1,67.5000025749208,2|0,0:0|0:0,0:0:0:0:
297,130,194882,6,0,L|327:208,1,67.5000025749208,10|0,0:0|0:0,0:0:0:0:
369,104,195053,2,0,L|399:182,1,67.5000025749208,2|0,0:0|0:0,0:0:0:0:
449,73,195224,6,0,L|273:43,1,135.000005149842,6|2,1:2|0:0,0:0:0:0:
232,18,195482,1,0,0:0:0:0:
222,92,195567,2,0,L|244:13,1,67.5000025749208,10|0,0:0|0:0,0:0:0:0:
159,12,195739,2,0,L|136:94,1,67.5000025749208,2|0,0:0|0:0,0:0:0:0:
44,102,195910,6,0,L|67:169,1,67.5000025749208,2|0,1:2|0:0,0:0:0:0:
229,172,196082,2,0,L|196:259,1,67.5000025749208,2|0,1:2|0:0,0:0:0:0:
10,345,196253,6,0,L|158:286,1,135.000005149842,6|14,0:0|0:0,0:0:0:0:
344,215,196510,5,12,0:0:0:0:
292,280,196596,2,0,P|293:218|221:165,1,135.000005149842,6|10,1:2|0:0,0:0:0:0:
170,33,196853,1,8,0:0:0:0:
179,112,196939,6,0,B|122:160|122:160|62:153,1,135.000005149842,6|10,1:2|0:0,0:0:0:0:
12,94,197196,1,8,0:0:0:0:
78,15,197282,6,0,L|100:93,1,67.5000025749208,6|0,1:2|0:0,0:0:0:0:
237,21,197453,2,0,L|149:37,1,67.5000025749208,10|0,0:0|0:0,0:0:0:0:
352,0,197624,6,0,L|325:64,1,67.5000025749208,10|8,0:0|0:0,0:0:0:0:
259,102,197796,2,0,L|286:183,1,67.5000025749208,10|8,0:0|0:0,0:0:0:0:
231,229,197967,6,2,L|383:172,1,135.000005149842,2|0,0:1|0:0,0:1:0:0:
435,189,198224,1,0,0:0:0:0:
438,267,198310,6,0,P|381:247|359:172,1,135.000005149842,14|0,0:2|0:0,0:0:0:0:
433,86,198653,2,0,P|413:23|353:0,1,135.000005149842,0|0,1:2|0:0,0:0:0:0:
284,51,198910,1,0,1:2:0:0:
315,124,198996,2,0,P|341:104|358:74,1,67.5000025749208,10|0,0:0|0:0,0:0:0:0:
201,52,199167,2,0,P|231:65|265:65,1,67.5000025749208,2|0,0:0|0:0,0:0:0:0:
339,204,199339,6,0,L|248:190,1,67.5000025749208,0|0,1:2|0:0,0:0:0:0:
191,177,199510,2,0,L|100:163,1,67.5000025749208,0|0,1:2|0:0,0:0:0:0:
48,154,199682,5,8,0:0:0:0:
134,353,199853,1,0,0:0:0:0:
272,193,200024,1,2,1:2:0:0:
145,243,200196,1,2,0:0:0:0:
313,371,200367,1,10,0:0:0:0:
469,231,200539,1,2,0:0:0:0:
233,120,200710,6,0,P|192:168|211:263,1,135.000005149842,0|0,1:2|0:0,0:0:0:0:
254,308,200967,1,0,0:0:0:0:
326,270,201053,2,0,P|291:238|243:237,1,67.5000025749208,10|0,0:0|0:0,0:0:0:0:
193,236,201224,2,0,P|147:250|122:291,1,67.5000025749208
84,330,201396,5,2,1:2:0:0:
272,233,201567,1,2,1:2:0:0:
53,123,201739,1,10,0:0:0:0:
309,13,201910,1,2,0:0:0:0:
94,38,202082,6,0,P|96:105|116:169,1,135.000005149842,0|2,1:2|0:0,0:0:0:0:
415,132,202424,2,0,P|412:64|392:0,1,135.000005149842,8|2,0:0|0:0,0:0:0:0:
241,100,202767,1,0,1:2:0:0:
459,217,202939,1,2,0:0:0:0:
251,360,203110,1,10,0:0:0:0:
289,169,203282,1,2,1:2:0:0:
477,338,203453,6,0,P|403:320|327:317,1,135.000005149842,6|0,1:2|0:0,0:0:0:0:
270,244,203710,1,0,1:2:0:0:
289,169,203796,2,0,P|327:191|349:247,1,67.5000025749208,8|0,0:0|0:0,0:0:0:0:
252,322,203967,2,0,P|221:307|200:281,1,67.5000025749208,8|8,1:2|0:0,0:0:0:0:
207,190,204139,5,2,1:2:0:0:
117,370,204310,1,2,0:2:0:0:
11,211,204482,1,10,0:0:0:0:
95,47,204653,1,10,0:0:0:0:
95,47,204739,1,8,0:0:0:0:
95,47,204824,5,0,0:2:0:0:
21,91,204996,1,8,0:2:0:0:
293,112,205167,1,8,0:2:0:0:
211,81,205339,1,8,0:0:0:0:
211,81,205424,1,8,0:0:0:0:
211,81,205510,1,10,0:2:0:0:
338,280,205682,1,10,0:2:0:0:
142,189,205853,1,10,0:2:0:0:
142,189,205939,1,8,0:0:0:0:
142,189,206024,2,0,L|138:270,1,67.5000025749208,10|8,0:0|0:0,0:0:0:0:
134,378,206196,5,12,1:2:0:0:
162,343,206281,1,8,0:0:0:0:
202,324,206367,1,8,0:0:0:0:
247,323,206453,1,8,0:0:0:0:
288,339,206539,2,0,P|292:313|278:275,1,45,10|8,0:0|0:0,0:0:0:0:
404,293,206710,2,0,P|390:271|355:250,1,45,10|8,0:0|0:0,0:0:0:0:
408,163,206883,5,10,0:0:0:0:
364,172,206967,1,8,0:0:0:0:
320,162,207054,1,10,0:0:0:0:
284,136,207139,1,8,0:0:0:0:
263,97,207224,5,8,0:0:0:0:
281,99,207310,1,8,0:0:0:0:
297,106,207396,1,10,0:0:0:0:
313,115,207482,1,8,0:0:0:0:
327,130,207567,6,0,P|322:93|330:65,3,45,14|8|8|8,1:2|0:0|0:0|0:0,0:0:0:0:
388,44,207910,2,0,P|407:12|432:-3,3,36,8|8|8|8,0:0|0:0|0:0|0:0,0:0:0:0:
468,114,208253,6,0,L|400:124,1,45,8|8,0:0|0:0,0:0:0:0:
327,130,208424,2,0,L|259:140,1,45,10|8,0:0|0:0,0:0:0:0:
376,226,208596,6,0,L|308:216,1,53.9999983520508,10|8,0:0|0:0,0:0:0:0:
193,198,208767,2,0,L|125:188,1,53.9999983520508,10|0,0:0|0:0,0:0:0:0:
56,173,208939,5,6,1:2:0:0:
211,235,219567,6,2,B|201:265|201:265|256:310|256:310|325:283|325:283|327:241,1,202.500007724762,2|2,0:0|0:0,0:1:0:0:
326,258,219910,6,0,P|391:192|430:293,1,225,14|8,1:2|0:0,1:2:0:0:
326,258,220596,6,0,B|319:183|404:165|483:215|433:292,1,225,8|8,0:0|0:0,0:0:0:0:
326,258,221282,6,0,B|311:193|413:160|482:230|433:290,1,219.599990952759,8|8,0:0|0:0,0:0:0:0:
326,258,221967,6,0,B|310:193|411:166|484:233|433:290,1,215.999993408203,8|8,0:0|0:0,0:0:0:0:
440,280,222482,1,2,0:0:0:0:
216,327,222653,6,0,B|232:262|131:235|58:302|109:359,1,215.999993408203,8|8,0:0|0:0,0:0:0:0:
216,327,223339,6,0,B|231:262|129:229|60:299|109:359,1,219.599990952759,8|8,0:0|0:0,0:0:0:0:
216,327,224024,6,0,B|223:252|138:234|59:284|109:361,1,225,8|8,0:0|0:0,0:0:0:0:
216,327,224710,6,0,P|150:260|106:356,1,228.59999825592,8|8,0:0|0:0,0:0:0:0:
103,350,225224,1,8,0:0:0:0:
76,170,225396,5,12,0:0:0:0:
76,170,225567,1,8,0:0:0:0:
104,127,225739,1,8,0:0:0:0:
104,127,225910,1,8,0:0:0:0:
148,89,226082,1,8,0:0:0:0:
148,89,226253,1,8,0:0:0:0:
212,66,226424,1,8,0:0:0:0:
212,66,226596,1,8,0:0:0:0:
283,61,226767,1,8,0:0:0:0:
283,61,226939,1,8,0:0:0:0:
354,81,227110,1,8,0:0:0:0:
354,81,227282,1,8,0:0:0:0:
410,137,227453,1,8,0:0:0:0:
410,137,227624,1,8,0:0:0:0:
434,214,227796,1,8,0:0:0:0:
434,214,227967,1,8,0:0:0:0:
434,214,228139,5,12,0:0:0:0:
423,230,228224,1,8,0:0:0:0:
405,249,228310,1,8,0:0:0:0:
381,269,228396,1,8,0:0:0:0:
349,287,228482,1,8,0:0:0:0:
312,303,228567,1,8,0:0:0:0:
271,315,228653,1,8,0:0:0:0:
226,326,228739,1,8,0:0:0:0:
176,326,228824,1,8,0:0:0:0:
123,317,228910,1,8,0:0:0:0:
70,298,228996,1,8,0:0:0:0:
29,254,229082,1,8,0:0:0:0:
12,193,229167,6,0,L|78:172,1,57.1499995639801,8|8,0:0|0:0,0:0:0:0:
384,83,229339,1,8,0:0:0:0:
159,13,229510,6,0,P|195:94|200:168,1,114.29999912796,6|2,3:2|3:2,0:0:0:0:
179,190,229767,1,2,3:2:0:0:
179,190,229853,2,0,P|174:214|184:256,1,57.1499995639801,10|0,0:0|3:2,0:0:0:0:
374,384,230024,6,0,P|359:307|317:257,1,114.29999912796,2|2,3:2|3:2,0:0:0:0:
303,213,230282,1,2,3:2:0:0:
303,213,230367,2,0,P|316:183|337:163,1,57.1499995639801,10|0,0:0|3:2,0:0:0:0:
423,42,230539,6,0,B|444:22|430:-4|430:-4|404:14|427:50,1,101.250003862381,2|0,0:0|0:0,0:0:0:0:
509,78,230882,6,0,B|476:100|476:100|406:56|296:92,1,180,6|0,1:2|0:0,0:0:0:0:
274,112,231139,2,0,P|261:78|263:18,1,90,2|8,0:0|0:0,0:0:0:0:
54,18,231396,2,0,P|100:93|104:152,1,135.000005149842,2|2,0:0|1:2,0:0:0:0:
61,199,231653,1,0,0:0:0:0:
61,199,231739,2,0,P|52:235|66:276,1,67.5000025749208,2|0,0:0|0:0,0:0:0:0:
283,270,231910,6,0,P|265:217|239:193,1,78.7500007510185,10|0,0:0|0:0,0:0:0:0:
186,234,232082,2,0,P|204:287|230:311,1,78.7500007510185,2|0,0:0|0:0,0:0:0:0:
209,379,232253,6,0,P|316:311|380:308,1,180,2|0,1:2|0:0,0:0:0:0:
438,331,232510,2,0,P|472:289|472:243,1,90,2|8,0:0|0:0,0:0:0:0:
331,137,232767,1,2,0:0:0:0:
331,137,232852,1,2,0:0:0:0:
331,137,232939,2,0,P|345:183|364:205,1,67.5000025749208,2|0,1:2|0:0,0:0:0:0:
425,79,233110,2,0,P|449:26|450:-6,1,67.5000025749208,2|0,0:0|0:0,0:0:0:0:
250,201,233282,1,10,0:0:0:0:
124,34,233453,1,2,0:0:0:0:
25,137,233624,6,0,P|173:75|259:71,1,180,2|0,1:2|0:0,0:0:0:0:
262,93,233882,2,0,P|278:29|244:-1,1,90,2|8,0:0|0:0,0:0:0:0:
117,217,234139,1,2,0:0:0:0:
117,217,234224,1,2,0:0:0:0:
117,217,234310,2,0,P|149:258|157:296,1,67.5000025749208,2|0,1:2|0:0,0:0:0:0:
236,352,234482,2,0,P|247:323|247:280,1,67.5000025749208,2|0,0:0|0:0,0:0:0:0:
376,248,234653,2,0,P|299:221|243:197,1,135.000005149842,10|2,0:0|0:0,0:0:0:0:
190,72,234996,6,0,P|287:81|323:186,1,180,2|0,1:2|0:0,0:0:0:0:
400,135,235253,2,0,P|387:98|342:72,1,90,2|8,0:0|0:0,0:0:0:0:
491,128,235510,6,0,P|424:156|375:260,1,180,2|0,0:0|1:2,0:0:0:0:
369,321,235767,2,0,P|314:291|305:239,1,90,2|0,0:0|0:0,0:0:0:0:
251,204,235939,1,2,0:0:0:0:
251,204,236024,2,0,L|222:272,1,67.5000025749208,10|0,0:0|0:0,0:0:0:0:
153,235,236196,2,0,L|182:167,1,67.5000025749208,2|0,0:0|0:0,0:0:0:0:
49,306,236367,6,0,L|243:261,1,180,6|0,1:2|0:0,0:0:0:0:
224,265,236624,1,2,0:0:0:0:
330,142,236796,1,2,0:0:0:0:
330,142,236882,2,0,L|223:114,1,90,2|0,0:0|0:0,0:0:0:0:
169,96,237053,1,2,1:2:0:0:
325,47,237224,1,2,0:0:0:0:
153,235,237396,1,10,0:0:0:0:
47,10,237567,1,2,0:0:0:0:
269,201,237739,6,0,L|453:157,1,180,2|0,1:2|0:0,0:0:0:0:
444,159,237996,1,2,0:0:0:0:
512,304,238167,1,2,0:0:0:0:
512,304,238253,2,2,L|362:268,1,90
352,266,238424,1,2,1:2:0:0:
286,368,238596,1,2,0:0:0:0:
511,217,238767,1,10,0:0:0:0:
293,113,238939,1,2,0:0:0:0:
192,308,239110,6,0,P|136:210|145:127,1,180,2|0,1:2|0:0,0:0:0:0:
138,145,239367,1,2,0:0:0:0:
340,42,239539,1,2,0:0:0:0:
340,42,239624,2,2,P|310:103|275:119,1,90
217,108,239796,1,2,1:2:0:0:
418,200,239967,1,2,0:0:0:0:
255,16,240139,1,10,0:0:0:0:
180,229,240310,1,2,0:0:0:0:
28,31,240482,6,0,P|67:82|76:134,1,90,2|0,1:2|0:0,0:0:0:0:
52,242,240653,1,2,0:0:0:0:
52,242,240739,2,0,P|13:191|4:139,1,90,2|8,0:0|0:0,0:0:0:0:
149,40,240910,5,2,0:0:0:0:
149,40,240996,2,0,P|194:47|242:83,1,90,2|0,0:0|0:0,0:0:0:0:
366,18,241167,1,2,1:2:0:0:
366,18,241253,2,0,P|338:72|339:125,1,90,2|0,0:0|0:0,0:0:0:0:
468,190,241424,5,2,0:0:0:0:
468,190,241510,2,0,P|489:146|492:95,1,90,10|2,0:0|0:0,0:0:0:0:
395,298,241682,1,2,0:0:0:0:
446,324,241767,1,2,0:0:0:0:
498,291,241853,6,0,P|372:211|286:230,1,180,6|0,1:2|0:0,0:0:0:0:
275,237,242110,2,0,P|238:184|242:138,1,90,2|8,0:0|0:0,0:0:0:0:
151,357,242367,1,2,0:0:0:0:
151,357,242453,1,2,0:0:0:0:
151,357,242539,2,0,P|165:319|136:236,1,90,2|0,1:2|0:0,0:0:0:0:
95,227,242710,5,2,0:0:0:0:
95,227,242796,1,2,0:0:0:0:
95,227,242882,2,0,P|69:190|75:158,1,67.5000025749208,10|0,0:0|0:0,0:0:0:0:
8,124,243053,2,0,P|25:74|56:64,1,67.5000025749208,2|0,0:0|0:0,0:0:0:0:
206,1,243224,6,0,P|163:92|164:187,1,180,2|0,1:2|0:0,0:0:0:0:
233,220,243482,2,0,P|245:147|234:115,1,90,2|8,0:0|0:0,0:0:0:0:
425,284,243739,1,2,0:0:0:0:
425,284,243824,1,2,0:0:0:0:
425,284,243910,2,0,P|407:232|413:178,1,90,2|0,1:2|0:0,0:0:0:0:
320,77,244082,5,2,0:0:0:0:
320,77,244167,1,2,0:0:0:0:
320,77,244253,2,0,P|361:83|386:103,1,67.5000025749208,10|0,0:0|0:0,0:0:0:0:
491,11,244424,2,0,P|456:51|460:83,1,67.5000025749208,2|0,0:0|0:0,0:0:0:0:
501,184,244596,6,0,P|405:150|307:164,1,180,2|0,1:2|0:0,0:0:0:0:
276,213,244853,2,0,P|297:260|292:319,1,90,2|8,0:0|0:0,0:0:0:0:
84,186,245110,1,2,0:0:0:0:
84,186,245196,1,2,0:0:0:0:
84,186,245282,2,0,P|112:128|153:108,1,90,2|0,1:2|0:0,0:0:0:0:
209,86,245453,5,2,0:0:0:0:
209,86,245539,1,2,0:0:0:0:
209,86,245624,2,0,P|167:44|137:40,1,67.5000025749208,10|0,0:0|0:0,0:0:0:0:
94,2,245796,2,0,P|61:14|36:41,1,67.5000025749208,2|0,0:0|0:0,0:0:0:0:
17,243,245967,6,0,B|147:205|80:272|237:234,1,180,2|0,1:2|0:0,0:0:0:0:
262,210,246224,2,0,P|270:262|253:293,1,90,2|8,0:0|0:0,0:0:0:0:
432,367,246482,6,0,P|402:263|414:181,1,180,2|0,0:0|1:2,0:0:0:0:
484,178,246739,2,0,P|447:125|404:121,1,90,2|0,0:0|0:0,0:0:0:0:
285,78,246910,5,2,0:0:0:0:
285,78,246996,2,0,P|305:112|329:127,1,67.5000025749208,10|0,0:0|0:0,0:0:0:0:
398,3,247167,2,0,P|370:57|348:63,1,67.5000025749208,2|0,0:0|0:0,0:0:0:0:
201,80,247339,5,14,1:2:0:0:
271,353,247510,1,0,0:2:0:0:
125,122,247682,5,8,1:2:0:0:
271,353,247853,1,2,0:2:0:0:
85,202,248024,5,10,1:2:0:0:
271,353,248196,1,2,0:2:0:0:
204,154,248367,5,10,1:2:0:0:
155,384,248539,1,2,0:2:0:0:
298,236,248710,5,10,1:2:0:0:
71,309,248882,1,0,0:2:0:0:
271,353,249053,5,8,1:2:0:0:
85,202,249224,1,2,0:2:0:0:
155,384,249396,5,10,1:2:0:0:
204,154,249567,1,2,0:2:0:0:
71,309,249739,5,10,1:2:0:0:
298,236,249910,1,2,0:2:0:0:
412,338,250082,5,14,1:2:0:0:
426,330,250167,1,8,0:2:0:0:
436,319,250253,1,8,0:2:0:0:
442,306,250339,1,10,0:2:0:0:
444,293,250424,5,8,1:2:0:0:
412,290,250510,1,8,0:2:0:0:
374,305,250596,1,10,0:2:0:0:
338,334,250682,1,10,0:2:0:0:
295,357,250767,5,10,1:2:0:0:
245,360,250853,1,8,0:2:0:0:
193,355,250939,1,10,0:2:0:0:
152,318,251024,1,8,0:2:0:0:
135,265,251110,6,0,L|157:182,1,67.5000025749208,10|8,1:2|0:2,0:0:0:0:
110,140,251282,2,0,L|176:63,1,67.5000025749208,10|8,0:2|0:2,0:0:0:0:
198,24,251453,5,6,1:2:0:0:
444,294,251796,2,0,P|466:243|469:192,1,90,2|8,3:2|3:2,0:0:0:0:
414,161,252053,1,0,3:2:0:0:
414,161,252139,2,0,P|405:134|408:106,1,45,10|8,0:2|0:2,0:0:0:0:
456,64,252310,1,0,3:2:0:0:
287,0,252482,2,0,P|288:32|336:88,1,90,10|2,0:0|0:0,0:0:0:0:
256,192,252824,5,6,1:2:0:0:
256,192,252910,12,0,254882,3:2:0:0:
104,345,263796,6,0,P|95:290|85:244,1,90,4|0,1:2|1:2,0:0:0:0:
64,183,264139,1,0,1:2:0:0:
188,268,264310,1,0,1:2:0:0:
188,268,264396,1,0,1:2:0:0:
188,268,264482,1,0,1:2:0:0:
308,194,264653,1,0,1:2:0:0:
227,195,264824,1,0,1:2:0:0:
368,311,264996,1,0,1:2:0:0:
487,147,265167,6,0,P|428:148|388:143,1,90,0|0,1:2|1:2,0:0:0:0:
224,70,265510,1,0,1:2:0:0:
369,1,265682,1,0,1:2:0:0:
308,194,265853,1,0,1:2:0:0:
113,82,266024,1,0,1:2:0:0:
313,64,266196,1,0,1:2:0:0:
230,308,266367,1,0,1:2:0:0:
21,146,266539,5,0,1:2:0:0:
21,146,266710,1,0,1:2:0:0:
227,132,266882,1,0,1:2:0:0:
52,302,267053,1,0,1:2:0:0:
52,302,267139,1,0,1:2:0:0:
52,302,267224,1,0,1:2:0:0:
322,356,267396,1,0,1:2:0:0:
134,282,267567,6,0,P|166:275|202:288,1,45,0|0,1:2|1:0,0:0:0:0:
84,218,267739,2,0,P|97:188|94:150,1,45,0|0,1:2|1:0,1:0:0:0:
267,104,267910,6,0,P|246:56|211:24,1,90,0|0,1:2|1:2,0:0:0:0:
182,107,268253,1,0,1:2:0:0:
344,248,268424,1,0,1:2:0:0:
453,44,268596,1,0,1:2:0:0:
306,113,268767,1,0,1:2:0:0:
435,356,268939,1,0,1:2:0:0:
395,126,269110,1,0,1:2:0:0:
330,331,269282,5,4,1:2:0:0:
293,355,269367,1,0,1:2:0:0:
248,356,269453,1,0,1:2:0:0:
211,332,269539,1,0,1:2:0:0:
193,291,269624,1,0,1:2:0:0:
173,251,269709,1,0,1:2:0:0:
132,234,269795,1,0,1:2:0:0:
91,249,269881,1,0,1:2:0:0:
69,287,269967,6,0,L|80:345,1,45,4|0,1:2|1:2,0:0:0:0:
255,223,270139,2,0,L|246:178,1,45,0|0,1:2|1:2,0:0:0:0:
109,131,270310,2,0,L|47:143,1,45,0|0,1:2|1:2,0:0:0:0:
136,15,270482,1,0,1:2:0:0:
136,15,270567,1,0,1:2:0:0:
136,15,270653,6,0,P|154:38|161:82,1,53.9999983520508,0|0,1:2|1:2,0:0:0:0:
316,0,270824,2,0,P|315:29|293:67,1,53.9999983520508,0|0,1:2|1:2,0:0:0:0:
246,178,270996,1,0,1:2:0:0:
295,159,271081,1,0,1:2:0:0:
347,170,271167,1,0,1:2:0:0:
385,208,271253,1,0,1:2:0:0:
396,260,271339,6,0,L|385:330,1,53.9999983520508,0|0,1:2|1:2,0:0:0:0:
427,80,271510,2,0,L|416:150,1,53.9999983520508,0|0,1:2|1:2,0:0:0:0:
458,309,271682,6,0,L|469:379,1,53.9999983520508,0|0,1:2|1:2,0:0:0:0:
379,7,271853,2,0,L|390:77,1,53.9999983520508,0|0,1:2|1:2,0:0:0:0:
417,229,272024,5,6,1:2:0:0:
417,229,272196,2,0,L|453:220,2,22.5000008583069,2|2|2,0:0|0:0|0:0,0:0:0:0:
338,200,272367,2,0,L|310:206,4,22.5000008583069,2|2|2|2|2,0:0|0:0|0:0|0:0|0:0,0:0:0:0:
308,126,272710,5,2,0:0:0:0:
231,346,272882,1,2,0:0:0:0:
69,189,273053,1,2,0:0:0:0:
240,185,273224,1,2,0:0:0:0:
47,310,273396,6,0,P|21:261|20:227,1,67.5000025749208,2|0,0:0|1:2,0:0:0:0:
87,26,273739,1,2,1:2:0:0:
118,38,273824,1,2,1:2:0:0:
142,61,273910,1,2,1:2:0:0:
156,92,273996,1,2,1:2:0:0:
157,125,274082,5,2,1:2:0:0:
138,187,274167,1,2,1:2:0:0:
180,237,274253,1,2,1:2:0:0:
244,229,274339,1,2,1:2:0:0:
273,170,274424,5,2,3:2:0:0:
266,170,274510,1,2,3:2:0:0:
259,168,274596,2,0,P|235:194|243:238,1,67.5000025749208,2|2,3:2|3:2,0:0:0:0:
350,362,274767,6,0,P|324:287|328:217,1,135.000005149842,6|0,1:2|0:0,0:0:0:0:
404,221,275024,1,0,0:0:0:0:
412,209,275110,2,0,P|397:179|358:153,1,67.5000025749208,8|0,0:0|0:0,0:0:0:0:
496,59,275282,2,0,P|465:45|418:50,1,67.5000025749208
222,20,275453,6,0,P|236:47|241:110,1,67.5000025749208,2|0,1:2|0:0,0:0:0:0:
169,174,275624,6,0,P|148:153|149:135,1,45,2|10,0:0|0:2,0:0:0:0:
243,83,275967,1,2,0:0:0:0:
243,207,276139,6,0,P|176:210|116:240,1,135.000005149842,0|2,1:2|0:0,0:0:0:0:
35,290,276396,1,0,0:0:0:0:
22,293,276482,2,0,B|12:313|12:313|75:289,1,67.5000025749208,8|0,0:0|0:0,0:0:0:0:
118,350,276653,2,0,L|229:354,1,67.5000025749208
270,361,276824,5,2,1:2:0:0:
270,361,276996,1,2,0:0:0:0:
184,242,277167,1,10,0:0:0:0:
239,67,277339,1,2,0:0:0:0:
201,137,277510,6,0,P|170:112|169:58,1,67.5000025749208,2|0,1:2|0:0,0:0:0:0:
277,0,277682,2,0,P|308:25|309:79,1,67.5000025749208,2|0,1:2|0:0,0:0:0:0:
404,62,277853,2,0,P|372:131|356:227,1,135.000005149842,10|0,0:2|0:0,0:0:0:0:
97,139,278196,2,0,P|129:70|144:-26,1,135.000005149842,2|0,1:2|0:0,0:0:0:0:
14,113,278453,1,0,0:0:0:0:
14,113,278539,2,0,P|16:143|35:196,1,67.5000025749208,10|0,0:0|0:0,0:0:0:0:
162,86,278710,2,0,P|171:118|174:151,1,67.5000025749208,2|0,0:0|0:0,0:0:0:0:
109,238,278882,5,0,1:2:0:0:
303,160,279053,1,2,0:0:0:0:
301,366,279224,1,8,0:0:0:0:
237,262,279396,1,2,0:0:0:0:
229,254,279482,1,2,0:0:0:0:
241,251,279567,1,2,1:2:0:0:
420,181,279739,1,2,0:0:0:0:
256,74,279910,1,10,0:0:0:0:
456,262,280082,1,2,1:2:0:0:
456,262,280167,1,2,1:2:0:0:
456,262,280253,6,0,P|464:187|482:107,1,135.000005149842,2|0,1:2|0:0,0:0:0:0:
317,364,280596,2,0,P|311:296|297:230,1,135.000005149842,10|0,0:0|0:0,0:0:0:0:
269,155,280939,1,0,1:2:0:0:
154,354,281110,1,2,0:0:0:0:
162,351,281196,1,2,0:0:0:0:
170,347,281282,1,10,0:0:0:0:
13,216,281453,1,2,0:0:0:0:
21,211,281539,1,2,0:0:0:0:
24,221,281624,6,0,P|4:198|3:152,1,67.5000025749208,2|2,1:2|0:0,0:0:0:0:
76,136,281796,2,0,P|75:105|104:69,1,67.5000025749208,2|2,0:0|0:0,0:0:0:0:
242,259,281967,2,0,L|155:273,1,67.5000025749208,10|2,0:0|0:0,0:0:0:0:
97,283,282139,2,0,L|10:297,1,67.5000025749208,2|2,0:0|0:0,0:0:0:0:
124,208,282310,5,2,1:2:0:0:
259,361,282482,1,2,0:0:0:0:
482,142,282653,1,10,0:0:0:0:
416,131,282738,1,2,0:0:0:0:
356,160,282824,1,2,0:0:0:0:
322,217,282910,1,2,0:0:0:0:
330,286,282996,6,0,B|338:296|338:296|360:271|342:245,1,67.5000025749208,2|0,1:2|0:0,0:0:0:0:
466,243,283167,2,0,B|435:245|424:214|424:214|436:212,1,67.5000025749208,2|0,1:2|0:0,0:0:0:0:
455,0,283339,6,0,P|470:21|483:68,1,67.5000025749208,10|0,0:0|0:0,0:0:0:0:
271,140,283510,2,0,P|256:119|243:72,1,67.5000025749208,2|0,0:0|0:0,0:0:0:0:
381,144,283682,6,0,P|396:123|409:76,1,67.5000025749208,2|0,1:2|0:0,0:0:0:0:
197,4,283853,2,0,P|182:25|169:72,1,67.5000025749208,2|0,0:0|0:0,0:0:0:0:
67,81,284024,6,0,P|116:155|128:234,1,135.000005149842,10|2,0:0|0:0,0:0:0:0:
76,270,284282,1,0,1:2:0:0:
76,270,284367,6,0,P|53:243|48:195,1,67.5000025749208,2|0,1:2|0:0,0:0:0:0:
231,292,284539,2,0,P|196:286|161:252,1,67.5000025749208,2|0,0:0|0:0,0:0:0:0:
73,372,284710,6,0,L|148:354,1,67.5000025749208,10|0,0:0|0:0,0:0:0:0:
330,201,284882,2,0,P|299:218|251:215,1,67.5000025749208,2|0,0:0|0:0,0:0:0:0:
261,384,285053,6,0,L|336:366,1,67.5000025749208,2|0,1:2|0:0,0:0:0:0:
327,84,285224,2,0,P|315:117|276:145,1,67.5000025749208,2|0,1:2|0:0,0:0:0:0:
242,0,285396,2,0,P|254:33|242:80,1,67.5000025749208,10|0,0:0|0:0,0:0:0:0:
119,0,285567,2,0,P|149:17|170:60,1,67.5000025749208,2|0,0:0|0:0,0:0:0:0:
206,160,285739,6,0,B|187:146|187:146|70:181,1,135.000005149842,6|0,1:2|0:0,0:0:0:0:
374,4,286082,2,0,B|395:13|395:13|423:132,1,135.000005149842,10|0,0:0|0:0,0:0:0:0:
447,353,286424,1,2,1:2:0:0:
314,170,286596,1,2,0:0:0:0:
213,368,286767,1,10,0:0:0:0:
420,253,286939,1,2,0:0:0:0:
303,377,287110,5,2,1:2:0:0:
303,377,287196,1,2,0:0:0:0:
303,377,287282,2,0,L|285:294,1,67.5000025749208,2|2,0:0|0:0,0:0:0:0:
272,227,287453,2,0,L|254:144,1,67.5000025749208,10|2,0:0|0:0,0:0:0:0:
146,316,287624,1,2,0:0:0:0:
146,316,287710,1,2,0:0:0:0:
146,316,287796,6,0,P|182:292|220:294,3,53.9999983520508,2|2|2|2,1:2|0:0|0:0|0:0,0:0:0:0:
242,83,288139,2,0,P|285:87|326:129,3,76.5000014591217,10|2|2|2,0:0|0:0|0:0|0:0,0:0:0:0:
421,68,288482,6,0,P|378:145|370:206,1,135.000005149842,2|2,1:2|0:0,0:0:0:0:
424,252,288739,1,2,0:0:0:0:
424,252,288824,2,0,L|405:344,1,67.5000025749208,10|2,0:0|0:0,0:0:0:0:
212,214,288996,2,0,L|193:306,1,67.5000025749208,2|2,0:0|0:0,0:0:0:0:
301,268,289167,6,0,L|315:335,1,67.5000025749208,2|0,1:2|0:0,0:0:0:0:
89,306,289339,2,0,L|103:373,1,67.5000025749208,2|0,0:0|0:0,0:0:0:0:
198,280,289510,1,10,0:0:0:0:
18,206,289682,1,2,0:0:0:0:
286,179,289853,6,0,B|183:158|183:158|141:101,1,135.000005149842,2|0,1:2|0:0,0:0:0:0:
130,5,290196,1,10,0:0:0:0:
206,30,290367,1,2,0:0:0:0:
31,104,290539,1,2,1:2:0:0:
160,285,290710,1,2,0:0:0:0:
160,285,290796,1,2,0:0:0:0:
160,285,290882,2,0,L|249:266,1,67.5000025749208,10|2,0:0|0:0,0:0:0:0:
489,228,291053,1,2,0:0:0:0:
478,224,291139,1,2,0:0:0:0:
470,221,291224,6,0,P|458:237|462:266,6,33.7500012874604,0|0|0|0|0|0|0,1:2|3:2|3:2|3:2|3:2|3:2|3:2,0:0:0:0:
386,369,291567,2,0,B|396:348|396:348|369:224,1,135.000005149842,10|0,0:0|0:0,0:0:0:0:
99,219,291910,2,0,B|88:198|88:198|116:74,1,135.000005149842,2|2,1:2|0:0,0:0:0:0:
135,11,292253,1,10,0:0:0:0:
271,285,292424,1,2,0:0:0:0:
293,63,292596,6,0,P|370:33|461:43,1,135.000005149842,2|0,1:2|0:0,0:0:0:0:
314,152,292939,1,10,0:0:0:0:
228,122,293110,1,0,0:0:0:0:
228,122,293196,1,0,0:0:0:0:
228,122,293282,6,0,L|136:137,1,67.5000025749208,2|0,1:2|0:0,0:0:0:0:
87,148,293453,2,0,L|-5:163,1,67.5000025749208,2|0,0:0|0:0,0:0:0:0:
0,62,293624,6,0,L|92:77,1,67.5000025749208,10|0,0:0|0:0,0:0:0:0:
241,108,293795,2,0,L|333:123,1,67.5000025749208,10|0,0:0|0:0,0:0:0:0:
307,118,294310,6,0,P|235:132|199:219,1,168.750006437302,6|0,1:2|0:0,0:0:0:0:
187,292,294824,6,0,L|247:284,1,45,2|0,1:2|0:0,0:0:0:0:
240,363,294996,2,0,L|195:368,1,45,10|0,0:0|0:0,0:0:0:0:
123,344,295167,5,6,1:2:0:0:
450,192,295510,1,6,1:2:0:0:
450,192,295853,2,0,L|461:257,1,45,6|0,1:2|0:0,0:0:0:0:
366,211,296024,1,10,3:2:0:0:
366,166,296109,1,10,3:2:0:0:
391,129,296195,1,10,3:2:0:0:
431,111,296281,1,10,3:2:0:0:
475,117,296366,5,10,0:0:0:0:
473,109,296453,1,10,0:0:0:0:
471,100,296539,1,10,0:0:0:0:
468,91,296624,1,10,0:0:0:0:
467,83,296710,6,0,L|292:125,1,135.000005149842,6|2,1:2|0:0,0:0:0:0:
207,83,296967,1,0,1:2:0:0:
240,15,297053,2,0,P|276:45|280:91,1,67.5000025749208,10|0,0:0|0:0,0:0:0:0:
168,149,297224,2,0,P|132:119|128:73,1,67.5000025749208,2|0,0:0|0:0,0:0:0:0:
255,151,297396,6,0,L|242:252,1,67.5000025749208,2|0,1:2|0:0,0:0:0:0:
52,144,297567,2,0,L|65:245,1,67.5000025749208,2|0,0:0|0:0,0:0:0:0:
352,300,297739,2,0,L|339:199,1,67.5000025749208,10|0,0:0|0:0,0:0:0:0:
149,307,297910,2,0,L|162:206,1,67.5000025749208,2|0,0:0|0:0,0:0:0:0:
431,328,298082,6,0,L|300:362,1,135.000005149842,2|2,1:2|0:0,0:0:0:0:
436,247,298339,1,0,0:0:0:0:
511,230,298424,2,0,B|516:261|516:261|501:294,1,67.5000025749208,10|0,0:0|0:0,0:0:0:0:
349,156,298596,2,0,B|344:125|344:125|359:92,1,67.5000025749208,2|0,0:0|0:0,0:0:0:0:
442,28,298767,6,0,L|462:184,1,135.000005149842,2|2,1:2|0:0,0:0:0:0:
436,247,299024,1,0,0:0:0:0:
353,241,299110,2,0,L|273:219,1,67.5000025749208,10|0,0:0|0:0,0:0:0:0:
120,357,299282,2,0,L|186:340,1,67.5000025749208,2|0,0:0|1:2,0:0:0:0:
215,259,299453,6,0,P|189:187|210:93,1,135.000005149842,2|2,1:2|0:0,0:0:0:0:
41,131,299796,2,0,P|45:64|21:2,1,135.000005149842,10|2,0:0|0:0,0:0:0:0:
41,131,300139,2,0,L|117:115,1,67.5000025749208,2|0,1:2|0:0,0:0:0:0:
214,32,300310,2,0,L|147:45,1,67.5000025749208,2|0,0:0|0:0,0:0:0:0:
194,129,300482,2,0,P|220:154|244:199,1,67.5000025749208,10|0,0:0|0:0,0:0:0:0:
124,252,300653,2,0,P|98:227|74:182,1,67.5000025749208,2|0,0:0|0:0,0:0:0:0:
247,268,300824,6,0,P|280:203|337:162,1,135.000005149842,2|2,1:2|0:0,0:0:0:0:
402,291,301082,1,0,0:0:0:0:
351,352,301167,2,2,P|326:310|326:259,1,67.5000025749208,8|0,0:0|0:0,0:0:0:0:
488,293,301339,2,0,P|479:260|459:233,1,67.5000025749208,2|0,0:0|0:0,0:0:0:0:
241,356,301510,6,0,P|206:285|130:250,1,135.000005149842,2|2,1:2|0:0,0:0:0:0:
79,344,301767,1,0,0:0:0:0:
12,307,301853,2,0,P|40:276|82:271,1,67.5000025749208,10|0,0:0|0:0,0:0:0:0:
89,137,302024,2,0,L|111:234,1,67.5000025749208,2|0,1:2|0:0,0:0:0:0:
241,356,302196,6,0,B|234:335|234:335|260:199,1,135.000005149842,2|2,1:2|0:0,0:0:0:0:
196,155,302453,1,0,0:0:0:0:
218,81,302539,2,0,P|254:103|270:145,1,67.5000025749208,10|0,0:0|0:0,0:0:0:0:
399,21,302710,2,0,P|412:60|397:103,1,67.5000025749208,2|0,0:0|0:0,0:0:0:0:
455,221,302882,6,0,P|396:188|329:183,1,135.000005149842,2|2,1:2|0:0,0:0:0:0:
115,250,303224,1,10,0:0:0:0:
329,183,303396,1,2,0:0:0:0:
35,28,303567,6,0,P|58:103|63:180,1,135.000005149842,2|2,1:2|0:0,0:0:0:0:
56,360,303910,1,10,0:0:0:0:
175,150,304082,1,2,0:0:0:0:
297,373,304253,5,2,1:2:0:0:
138,266,304424,1,2,1:2:0:0:
400,185,304596,2,0,L|384:264,1,67.5000025749208,10|0,0:0|0:0,0:0:0:0:
253,223,304767,2,0,L|266:156,1,67.5000025749208,2|0,0:0|1:2,0:0:0:0:
438,112,304939,6,0,L|476:283,1,135.000005149842,6|2,1:2|0:0,0:0:0:0:
347,117,305196,1,0,0:0:0:0:
385,42,305282,2,0,L|497:12,1,67.5000025749208,14|0,0:0|0:0,0:0:0:0:
266,156,305453,2,0,L|200:138,1,67.5000025749208,2|0,0:0|0:0,0:0:0:0:
23,26,305624,6,2,P|94:45|131:140,1,135.000005149842,4|2,1:2|0:0,0:0:0:0:
198,56,305882,1,0,0:0:0:0:
200,138,305967,2,0,L|179:228,1,67.5000025749208,14|0,0:0|0:0,0:0:0:0:
28,356,306139,2,0,L|13:291,1,67.5000025749208,2|0,1:2|0:0,0:0:0:0:
13,291,306482,5,4,1:2:0:0:
274,179,306653,1,10,0:0:0:0:
96,143,306824,1,0,1:2:0:0:
247,350,306996,5,10,0:0:0:0:
406,159,307167,1,0,1:2:0:0:
198,117,307339,1,10,0:0:0:0:
427,279,307510,1,0,1:2:0:0:
162,372,307682,6,2,P|146:336|149:300,1,67.5000025749208,2|0,0:0|0:0,0:0:0:0:
15,229,308024,6,0,P|72:209|94:134,1,135.000005149842,14|0,0:2|0:0,0:0:0:0:
125,6,308367,2,0,P|161:81|210:125,1,135.000005149842,0|0,1:2|0:0,0:0:0:0:
276,99,308624,1,0,1:2:0:0:
290,19,308710,2,0,P|256:21|227:37,1,67.5000025749208,10|0,0:0|0:0,0:0:0:0:
267,174,308882,2,0,P|300:171|329:155,1,67.5000025749208,10|0,0:0|0:0,0:0:0:0:
492,135,309053,6,0,P|410:172|400:251,1,135.000005149842,0|0,1:2|1:2,0:0:0:0:
366,285,309310,1,0,1:2:0:0:
366,285,309396,2,0,P|344:209|322:127,1,135.000005149842,8|0,0:0|0:0,0:0:0:0:
475,222,309738,1,2,1:2:0:0:
276,99,309910,1,2,0:0:0:0:
294,333,310081,1,10,0:0:0:0:
492,135,310253,1,2,0:0:0:0:
230,23,310424,6,0,P|219:133|188:182,1,135.000005149842,0|0,1:2|0:0,0:0:0:0:
68,130,310682,1,0,0:0:0:0:
68,130,310767,2,0,P|78:19|109:-29,1,135.000005149842,10|0,0:0|0:0,0:0:0:0:
276,99,311110,5,2,1:2:0:0:
74,219,311282,1,2,0:0:0:0:
319,348,311453,1,10,0:0:0:0:
49,369,311624,1,10,0:0:0:0:
319,348,311796,6,0,P|344:262|338:192,1,135.000005149842,0|2,1:2|0:0,0:0:0:0:
137,176,312139,2,0,P|112:262|118:332,1,135.000005149842,8|2,0:0|0:0,0:0:0:0:
298,132,312482,1,2,1:2:0:0:
89,71,312653,1,2,0:0:0:0:
250,216,312824,1,10,0:0:0:0:
32,239,312996,1,0,1:2:0:0:
32,239,313082,1,0,1:2:0:0:
32,239,313167,6,0,P|6:154|17:94,1,135.000005149842,2|8,1:2|0:0,0:0:0:0:
89,71,313424,1,8,0:0:0:0:
89,71,313510,2,0,P|94:109|79:156,1,67.5000025749208,8|0,1:2|0:0,0:0:0:0:
179,190,313682,2,0,P|171:130|175:111,1,67.5000025749208,8|0,0:0|0:0,0:0:0:0:
249,83,313853,6,0,P|260:161|237:246,1,135.000005149842,2|10,1:2|0:0,0:0:0:0:
345,249,314110,1,8,0:0:0:0:
345,249,314196,2,0,P|335:198|348:162,1,67.5000025749208,8|0,1:2|0:0,0:0:0:0:
413,137,314367,2,0,P|420:182|411:219,1,67.5000025749208,10|0,1:2|0:0,0:0:0:0:
478,250,314539,5,0,1:2:0:0:
333,88,314710,1,10,0:0:0:0:
283,313,314882,1,0,1:2:0:0:
501,151,315053,1,10,0:0:0:0:
501,151,315139,1,8,0:0:0:0:
501,151,315224,1,10,0:0:0:0:
230,80,315396,1,2,1:2:0:0:
230,80,315482,1,0,1:2:0:0:
230,80,315567,1,2,1:2:0:0:
80,277,315739,5,2,1:2:0:0:
80,277,315824,1,0,1:2:0:0:
80,277,315910,2,0,P|58:230|53:188,1,67.5000025749208,12|8,1:2|0:0,0:0:0:0:
104,66,316082,1,8,0:0:0:0:
104,66,316167,1,8,0:0:0:0:
104,66,316253,2,0,P|132:105|142:137,1,67.5000025749208,10|8,1:2|0:0,0:0:0:0:
210,158,316424,2,0,P|204:203|189:234,1,67.5000025749208,10|8,0:0|0:0,0:0:0:0:
211,384,316596,6,0,P|187:327|185:296,1,67.5000025749208,10|0,1:2|0:0,0:0:0:0:
283,353,316767,2,0,P|274:320|258:290,1,67.5000025749208,10|0,1:2|0:0,0:0:0:0:
43,13,317110,6,0,P|163:49|277:27,1,202.500007724762,2|0,1:2|0:0,0:0:0:0:
360,5,317453,2,0,P|339:108|388:213,1,202.500007724762,2|0,0:0|0:0,0:0:0:0:
493,233,317796,6,0,P|428:257|348:290,1,135.000005149842,2|0,0:0|0:0,0:0:0:0:
230,184,318139,1,2,0:0:0:0:
168,374,318310,2,0,P|133:313|130:246,1,135.000005149842,2|0,0:0|0:0,0:0:0:0:
39,160,318653,5,6,1:2:0:0:
256,192,318739,12,0,322767,1:2:0:0:
59,120,324139,6,0,P|114:94|173:87,1,90,0|0,1:2|0:0,0:0:0:0:
283,147,324482,1,8,0:0:0:0:
181,21,324653,1,0,0:0:0:0:
324,214,324824,2,0,P|360:159|349:116,1,90,0|0,1:2|0:0,0:0:0:0:
242,84,325082,1,0,0:0:0:0:
242,84,325167,2,0,P|206:139|217:182,1,90,8|0,0:0|0:0,0:0:0:0:
71,293,325510,6,0,P|122:268|169:258,1,90,0|0,1:2|0:0,0:0:0:0:
233,323,325853,1,8,0:0:0:0:
293,210,326024,1,0,0:0:0:0:
403,369,326196,2,0,P|426:304|419:261,1,90,0|0,1:2|0:0,0:0:0:0:
487,241,326453,1,0,0:0:0:0:
487,241,326539,2,0,P|475:181|494:129,1,90,8|0,0:0|0:0,0:0:0:0:
481,153,326882,6,0,P|434:171|389:188,1,90,0|0,1:2|0:0,0:0:0:0:
325,215,327224,2,0,P|282:230|240:247,1,90,8|0,0:0|0:0,0:0:0:0:
326,356,327567,6,0,P|279:338|234:321,1,90,0|0,1:2|0:0,0:0:0:0:
170,294,327824,1,0,0:0:0:0:
170,294,327910,2,0,P|127:278|85:261,1,90,8|0,0:0|0:0,0:0:0:0:
107,50,328253,6,0,P|123:112|130:145,1,90,0|0,1:2|0:0,0:0:0:0:
230,207,328596,2,0,P|240:151|251:111,1,90,8|0,0:0|0:0,0:0:0:0:
334,51,328939,2,0,P|350:113|357:146,1,90,0|0,1:2|0:0,0:0:0:0:
457,208,329196,1,0,0:0:0:0:
457,208,329282,2,0,P|467:152|478:112,1,90,8|0,0:0|0:0,0:0:0:0:
475,120,329624,6,0,P|397:133|371:242,1,180,4|8,1:2|0:0,0:0:0:0:
363,219,330310,6,0,P|298:172|202:231,1,180,0|8,1:2|0:0,0:2:0:0:
23,172,330996,6,0,P|101:184|127:293,1,180,0|8,1:2|0:0,0:0:0:0:
135,270,331682,6,0,P|199:223|295:282,1,180,0|8,1:2|0:0,0:0:0:0:
284,261,332196,1,0,1:2:0:0:
394,356,332367,6,0,L|365:175,1,180,0|8,1:2|0:0,0:0:0:0:
511,283,333053,6,0,L|362:175,1,180,0|8,1:2|0:0,0:0:0:0:
255,82,333739,6,0,L|284:263,1,180,0|8,1:2|0:0,0:0:0:0:
138,155,334424,6,0,L|286:262,1,180,0|8,1:2|0:0,0:0:0:0:
283,260,334939,1,0,1:2:0:0:
460,96,335110,6,0,B|338:108|412:146|285:163,1,180,0|8,1:2|0:0,0:0:0:0:
367,0,335796,6,0,B|289:94|368:69|290:171,1,180,0|8,1:2|0:0,0:0:0:0:
138,186,336482,6,0,B|260:198|186:236|313:253,1,180,0|8,1:2|0:0,0:0:0:0:
231,90,337167,6,0,B|308:184|229:159|307:261,1,180,0|8,1:2|0:0,0:0:0:0:
300,251,337682,1,0,1:2:0:0:
370,340,337853,6,0,P|277:302|179:291,1,180,0|8,1:2|0:0,0:0:0:0:
198,291,338539,1,0,1:2:0:0:
198,291,338882,1,8,0:0:0:0:
107,271,339224,6,0,P|200:233|298:222,1,180,0|8,1:2|0:0,0:0:0:0:
279,222,339910,1,0,3:2:0:0:
279,222,340253,1,8,0:0:0:0:
336,86,340596,5,4,1:2:0:0:
279,222,340939,2,0,P|261:162|261:120,1,90,8|0,0:0|0:0,0:0:0:0:
79,38,341282,1,0,1:2:0:0:
79,38,341624,2,0,P|145:83|148:120,1,90,8|0,0:0|0:0,0:0:0:0:
62,302,341967,5,0,1:2:0:0:
119,166,342310,2,0,P|137:226|137:268,1,90,8|0,0:0|0:0,0:0:0:0:
319,350,342653,1,0,1:2:0:0:
319,350,342995,2,0,P|261:303|269:271,1,90,8|0,0:0|1:2,0:0:0:0:
439,213,343339,6,0,P|425:269|414:315,1,90,0|0,1:2|0:0,0:0:0:0:
490,158,343682,1,8,0:0:0:0:
337,232,344024,2,0,P|324:172|313:131,1,90,0|0,1:2|0:0,0:0:0:0:
269,82,344367,1,8,0:0:0:0:
68,289,344710,6,0,P|82:345|93:391,1,90,0|0,1:2|0:0,0:0:0:0:
17,234,345053,1,8,0:0:0:0:
170,308,345396,2,0,P|183:248|194:207,1,90,0|0,1:2|0:0,0:0:0:0:
238,158,345738,1,8,0:0:0:0:
427,238,346082,6,0,L|405:137,1,90,0|0,1:2|0:0,0:0:0:0:
502,222,346424,2,0,L|480:121,1,90,8|0,0:0|0:0,0:0:0:0:
356,87,346767,6,0,P|357:134|328:179,2,90,0|0|8,1:2|0:0|0:0,0:0:0:0:
188,0,347453,6,0,L|210:101,1,90,0|0,1:2|0:0,0:0:0:0:
113,16,347795,2,0,L|135:117,1,90,8|0,0:0|0:0,0:0:0:0:
259,151,348139,6,0,P|258:104|287:59,2,90,0|0|8,1:2|0:0|0:0,0:0:0:0:
75,381,348824,6,0,L|97:280,1,90,0|0,1:2|0:0,0:0:0:0:
0,365,349167,2,0,L|22:264,1,90,8|0,0:0|0:0,0:0:0:0:
146,230,349509,6,0,P|145:277|174:322,2,90,0|0|8,1:2|0:0|0:0,0:0:0:0:
314,143,350196,6,0,L|292:244,1,90,0|0,1:2|0:0,0:0:0:0:
389,159,350539,2,0,L|367:260,1,90,8|0,0:0|0:0,0:0:0:0:
243,294,350882,6,0,P|244:247|215:202,2,90,0|0|8,1:2|0:0|0:0,0:0:0:0:
165,152,351396,1,0,1:2:0:0:
434,46,351567,5,4,1:2:0:0:
223,210,351910,1,8,0:0:0:0:
304,275,352596,1,8,0:0:0:0:
214,314,353282,1,8,0:0:0:0:
387,368,353967,1,8,0:0:0:0:
90,62,354310,5,0,3:2:0:0:
301,226,354653,1,8,0:0:0:0:
220,291,355339,1,8,0:0:0:0:
310,330,356025,1,8,0:0:0:0:
137,384,356710,1,8,0:0:0:0:
44,142,357053,5,0,3:2:0:0:
281,292,357396,1,8,0:0:0:0:
328,177,358082,1,8,0:0:0:0:
426,265,358767,1,8,0:0:0:0:
482,203,359453,1,8,0:0:0:0:
451,41,359796,5,0,3:2:0:0:
214,191,360139,1,8,0:0:0:0:
175,51,360825,1,8,0:0:0:0:
175,51,361167,2,0,P|155:112|159:149,1,90,0|0,3:2|0:0,0:0:0:0:
43,213,361510,2,0,P|78:205|145:222,1,90,10|8,0:0|0:0,0:0:0:0:
195,258,361767,1,0,0:0:0:0:
195,258,361853,2,0,L|181:316,2,45,2|8|0,0:0|0:0|0:0,0:0:0:0:
285,384,362196,2,0,L|268:287,1,90,10|2,0:0|0:0,0:0:0:0:
256,192,362539,5,6,1:2:0:0:
256,192,362710,12,0,368024,0:0:0:0:
