osu file format v14

[General]
AudioFilename: audio.mp3
AudioLeadIn: 0
PreviewTime: 152867
Countdown: 1
SampleSet: None
StackLeniency: 0.7
Mode: 1
LetterboxInBreaks: 0
WidescreenStoryboard: 1

[Editor]
Bookmarks: 14243,80450,113557,140039,153280,179763
DistanceSpacing: 0.6
BeatDivisor: 4
GridSize: 32
TimelineZoom: 1.999999

[Metadata]
Title:Monkey Business (lapix Remix)
TitleUnicode:Monkey Business (lapix Remix)
Artist:kors k
ArtistUnicode:kors k
Creator:Arrival
Version:Oni (TWC edit.)
Source:
Tags:ultra hi tech 2
BeatmapID:3533667
BeatmapSetID:721496

[Difficulty]
HPDrainRate:6
CircleSize:2
OverallDifficulty:6
ApproachRate:0
SliderMultiplier:1.5
SliderTickRate:1

[Events]
//Background and Video events
0,0,"cropped-1920-1200-883917.jpg",0,10
//Break Periods
//Storyboard Layer 0 (Background)
//Storyboard Layer 1 (Fail)
//Storyboard Layer 2 (Pass)
//Storyboard Layer 3 (Foreground)
//Storyboard Layer 4 (Overlay)
//Storyboard Sound Samples

[TimingPoints]
1005,413.793103448276,4,1,0,100,1,0
1005,-80,4,1,0,100,0,0
27486,-80,4,1,0,100,0,0
53969,-71.4285714285714,4,1,0,100,0,0
80660,-83.3333333333333,4,1,0,100,0,0
80763,-89.2857142857143,4,1,0,100,0,0
80867,-95.2380952380952,4,1,0,100,0,0
81074,-109.89010989011,4,1,0,100,0,0
81281,-121.951219512195,4,1,0,100,0,0
81384,-125,4,1,0,100,0,0
81695,-133.333333333333,4,1,0,100,0,0
87073,-133.333333333333,4,1,0,100,0,0
87280,-142.857142857143,4,1,0,100,0,0
87384,-149.253731343284,4,1,0,100,0,0
87487,-153.846153846154,4,1,0,100,0,0
87686,-158.730158730159,4,1,0,100,0,0
87799,-161.290322580645,4,1,0,100,0,0
88005,-163.934426229508,4,1,0,100,0,0
88307,-166.666666666667,4,1,0,100,0,0
93694,-83.3333333333333,4,1,0,100,0,0
107349,-100,4,1,0,100,0,0
108591,-95.2380952380952,4,1,0,100,0,0
110246,-90.9090909090909,4,1,0,100,0,0
111901,-86.9565217391304,4,1,0,100,0,0
113556,-80,4,1,0,100,0,0
140039,-133.333333333333,4,1,0,100,0,0
146660,-76.9230769230769,4,1,0,100,0,0
148315,-71.4285714285714,4,1,0,100,0,0
149970,-66.6666666666667,4,1,0,100,0,0
151625,-62.5,4,1,0,100,0,0
153280,-74.0740740740741,4,1,0,100,0,1
179763,-76.9230769230769,4,1,0,80,0,0
192901,-100,4,1,0,80,0,0
207901,-66.6666666666667,4,1,0,80,0,0

[HitObjects]
256,128,1005,5,4,0:0:0:0:
256,128,1417,1,0,0:0:0:0:
256,128,1521,1,0,0:0:0:0:
256,128,1624,1,8,0:0:0:0:
256,128,1728,1,8,0:0:0:0:
256,128,1831,1,0,0:0:0:0:
256,128,1935,1,0,0:0:0:0:
256,128,2038,1,8,0:0:0:0:
256,128,2245,1,8,0:0:0:0:
256,128,2659,1,4,0:0:0:0:
256,128,3072,1,0,0:0:0:0:
256,128,3176,1,8,0:0:0:0:
256,128,3279,1,0,0:0:0:0:
256,128,3383,1,0,0:0:0:0:
256,128,3486,1,8,0:0:0:0:
256,128,3590,1,8,0:0:0:0:
256,128,3693,1,0,0:0:0:0:
256,128,3900,1,8,0:0:0:0:
256,128,4107,1,8,0:0:0:0:
256,128,4314,1,4,0:0:0:0:
256,128,4728,1,0,0:0:0:0:
256,128,4831,1,0,0:0:0:0:
256,128,4935,1,8,0:0:0:0:
256,128,5038,1,8,0:0:0:0:
256,128,5141,1,0,0:0:0:0:
256,128,5245,1,0,0:0:0:0:
256,128,5348,1,8,0:0:0:0:
256,128,5555,1,8,0:0:0:0:
256,128,5762,1,12,0:0:0:0:
256,128,5969,1,4,0:0:0:0:
256,128,6383,1,0,0:0:0:0:
256,128,6486,1,0,0:0:0:0:
256,128,6590,1,8,0:0:0:0:
256,128,6693,1,8,0:0:0:0:
256,128,6797,1,0,0:0:0:0:
256,128,6900,1,8,0:0:0:0:
256,128,7004,1,0,0:0:0:0:
256,128,7107,1,0,0:0:0:0:
256,128,7210,1,8,0:0:0:0:
256,128,7417,1,8,0:0:0:0:
256,128,7521,1,8,0:0:0:0:
256,128,7624,1,0,0:0:0:0:
256,128,7935,1,8,0:0:0:0:
256,128,8038,1,0,0:0:0:0:
256,128,8245,1,8,0:0:0:0:
256,128,8452,1,0,0:0:0:0:
256,128,8659,1,0,0:0:0:0:
256,128,8762,1,8,0:0:0:0:
256,128,8866,1,0,0:0:0:0:
256,128,9072,1,8,0:0:0:0:
256,128,9279,1,0,0:0:0:0:
256,128,9486,1,8,0:0:0:0:
256,128,9590,1,8,0:0:0:0:
256,128,9693,1,0,0:0:0:0:
256,128,9900,1,8,0:0:0:0:
256,128,10107,1,0,0:0:0:0:
256,128,10210,1,0,0:0:0:0:
256,128,10417,1,0,0:0:0:0:
256,128,10521,1,8,0:0:0:0:
256,128,10728,1,8,0:0:0:0:
256,128,10935,1,0,0:0:0:0:
256,128,11245,1,8,0:0:0:0:
256,128,11348,1,0,0:0:0:0:
256,128,11555,1,8,0:0:0:0:
256,128,11762,1,0,0:0:0:0:
256,128,11969,1,0,0:0:0:0:
256,128,12072,1,8,0:0:0:0:
256,128,12176,1,0,0:0:0:0:
256,128,12383,1,8,0:0:0:0:
256,128,12590,1,4,0:0:0:0:
256,128,12900,1,12,0:0:0:0:
256,128,13210,1,4,0:0:0:0:
256,128,13521,1,12,0:0:0:0:
256,128,13831,1,12,0:0:0:0:
256,128,14038,1,4,0:0:0:0:
256,128,14245,1,12,0:0:0:0:
256,128,14659,1,0,0:0:0:0:
256,128,15072,1,0,0:0:0:0:
256,128,15486,1,8,0:0:0:0:
256,128,15693,1,0,0:0:0:0:
256,128,15900,1,12,0:0:0:0:
256,128,16314,1,0,0:0:0:0:
256,128,16728,1,0,0:0:0:0:
256,128,16831,1,8,0:0:0:0:
256,128,16936,1,0,0:0:0:0:
256,128,17141,1,8,0:0:0:0:
256,128,17246,1,8,0:0:0:0:
256,128,17348,1,0,0:0:0:0:
256,128,17555,1,12,0:0:0:0:
256,128,17969,1,0,0:0:0:0:
256,128,18383,1,0,0:0:0:0:
256,128,18797,1,8,0:0:0:0:
256,128,19004,1,0,0:0:0:0:
256,128,19210,1,12,0:0:0:0:
256,128,19624,1,0,0:0:0:0:
256,128,19831,1,0,0:0:0:0:
256,128,19935,1,0,0:0:0:0:
256,128,20038,1,8,0:0:0:0:
256,128,20091,1,8,0:0:0:0:
256,128,20142,1,8,0:0:0:0:
256,128,20245,1,0,0:0:0:0:
256,128,20348,1,8,0:0:0:0:
256,128,20452,1,0,0:0:0:0:
256,128,20555,1,0,0:0:0:0:
256,128,20659,1,8,0:0:0:0:
256,128,20763,1,8,0:0:0:0:
256,128,20866,1,0,0:0:0:0:
256,128,20969,1,8,0:0:0:0:
256,128,21072,1,0,0:0:0:0:
256,128,21176,1,0,0:0:0:0:
256,128,21279,1,8,0:0:0:0:
256,128,21383,1,0,0:0:0:0:
256,128,21486,1,0,0:0:0:0:
256,128,21590,1,0,0:0:0:0:
256,128,21693,1,8,0:0:0:0:
256,128,21797,1,8,0:0:0:0:
256,128,21900,1,0,0:0:0:0:
256,128,22004,1,0,0:0:0:0:
256,128,22107,1,8,0:0:0:0:
256,128,22210,1,8,0:0:0:0:
256,128,22314,1,8,0:0:0:0:
256,128,22417,1,0,0:0:0:0:
256,128,22521,1,8,0:0:0:0:
256,128,22624,1,0,0:0:0:0:
256,128,22728,1,0,0:0:0:0:
256,128,22831,1,0,0:0:0:0:
256,128,22935,1,8,0:0:0:0:
256,128,23038,1,8,0:0:0:0:
256,128,23141,1,0,0:0:0:0:
256,128,23245,1,0,0:0:0:0:
256,128,23348,1,8,0:0:0:0:
256,128,23452,1,8,0:0:0:0:
256,128,23555,1,8,0:0:0:0:
256,128,23659,1,0,0:0:0:0:
256,128,23762,1,8,0:0:0:0:
256,128,23866,1,8,0:0:0:0:
256,128,23969,1,8,0:0:0:0:
256,128,24072,1,8,0:0:0:0:
256,128,24176,1,0,0:0:0:0:
256,128,24279,1,0,0:0:0:0:
256,128,24383,1,8,0:0:0:0:
256,128,24486,1,0,0:0:0:0:
256,128,24590,1,8,0:0:0:0:
256,128,24693,1,8,0:0:0:0:
256,128,24797,1,0,0:0:0:0:
256,128,24900,1,8,0:0:0:0:
256,128,25004,1,0,0:0:0:0:
256,128,25107,1,0,0:0:0:0:
256,128,25210,1,8,0:0:0:0:
256,128,25314,1,8,0:0:0:0:
256,128,25417,1,0,0:0:0:0:
256,128,25486,1,0,0:0:0:0:
256,128,25555,1,0,0:0:0:0:
256,128,25624,1,8,0:0:0:0:
256,128,25693,1,8,0:0:0:0:
256,128,25762,1,8,0:0:0:0:
256,128,25831,1,0,0:0:0:0:
256,128,25935,1,8,0:0:0:0:
256,128,26038,1,0,0:0:0:0:
256,128,26141,1,0,0:0:0:0:
256,128,26246,1,8,0:0:0:0:
256,128,26452,1,8,0:0:0:0:
256,128,26555,1,8,0:0:0:0:
256,128,26659,1,0,0:0:0:0:
256,128,26969,1,0,0:0:0:0:
256,128,27072,1,8,0:0:0:0:
256,128,27279,1,8,0:0:0:0:
256,128,27486,1,4,0:0:0:0:
256,128,27900,1,0,0:0:0:0:
256,128,28107,1,8,0:0:0:0:
256,128,28314,1,0,0:0:0:0:
256,128,28417,1,8,0:0:0:0:
256,128,28624,1,8,0:0:0:0:
256,128,28728,1,0,0:0:0:0:
256,128,28831,1,0,0:0:0:0:
256,128,28935,1,8,0:0:0:0:
256,128,29141,1,0,0:0:0:0:
256,128,29349,1,8,0:0:0:0:
256,128,29452,1,8,0:0:0:0:
256,128,29555,1,0,0:0:0:0:
256,128,29762,1,8,0:0:0:0:
256,128,29969,1,0,0:0:0:0:
256,128,30072,1,0,0:0:0:0:
256,128,30176,1,8,0:0:0:0:
256,128,30279,1,8,0:0:0:0:
256,128,30383,1,0,0:0:0:0:
256,128,30590,1,8,0:0:0:0:
256,128,30797,1,4,0:0:0:0:
256,128,31210,1,0,0:0:0:0:
256,128,31417,1,8,0:0:0:0:
256,128,31624,1,0,0:0:0:0:
256,128,31728,1,0,0:0:0:0:
256,128,31935,1,8,0:0:0:0:
256,128,32038,1,0,0:0:0:0:
256,128,32245,1,8,0:0:0:0:
256,128,32452,1,0,0:0:0:0:
256,128,32555,1,8,0:0:0:0:
256,128,32659,1,8,0:0:0:0:
256,128,32762,1,0,0:0:0:0:
256,128,32866,1,8,0:0:0:0:
256,128,32969,1,0,0:0:0:0:
256,128,33072,1,0,0:0:0:0:
256,128,33279,1,8,0:0:0:0:
256,128,33383,1,8,0:0:0:0:
256,128,33486,1,0,0:0:0:0:
256,128,33590,1,8,0:0:0:0:
256,128,33693,1,0,0:0:0:0:
256,128,33797,1,0,0:0:0:0:
256,128,33900,1,8,0:0:0:0:
256,128,34107,1,4,0:0:0:0:
256,128,34521,1,0,0:0:0:0:
256,128,34728,1,8,0:0:0:0:
256,128,34935,1,0,0:0:0:0:
256,128,35038,1,8,0:0:0:0:
256,128,35245,1,8,0:0:0:0:
256,128,35348,1,0,0:0:0:0:
256,128,35452,1,0,0:0:0:0:
256,128,35555,1,8,0:0:0:0:
256,128,35762,1,0,0:0:0:0:
256,128,35970,1,8,0:0:0:0:
256,128,36072,1,8,0:0:0:0:
256,128,36176,1,0,0:0:0:0:
256,128,36383,1,8,0:0:0:0:
256,128,36590,1,0,0:0:0:0:
256,128,36693,1,8,0:0:0:0:
256,128,36797,1,8,0:0:0:0:
256,128,36900,1,8,0:0:0:0:
256,128,37004,1,0,0:0:0:0:
256,128,37210,1,8,0:0:0:0:
256,128,37417,1,4,0:0:0:0:
256,128,37831,1,0,0:0:0:0:
256,128,38038,1,8,0:0:0:0:
256,128,38245,1,0,0:0:0:0:
256,128,38348,1,0,0:0:0:0:
256,128,38555,1,8,0:0:0:0:
256,128,38659,1,0,0:0:0:0:
256,128,38866,1,8,0:0:0:0:
256,128,39072,1,0,0:0:0:0:
256,128,39176,1,8,0:0:0:0:
256,128,39279,1,8,0:0:0:0:
256,128,39383,1,0,0:0:0:0:
256,128,39486,1,8,0:0:0:0:
256,128,39590,1,0,0:0:0:0:
256,128,39693,1,0,0:0:0:0:
256,128,39900,1,8,0:0:0:0:
256,128,40004,1,8,0:0:0:0:
256,128,40107,1,0,0:0:0:0:
256,128,40210,1,8,0:0:0:0:
256,128,40314,1,0,0:0:0:0:
256,128,40728,1,4,0:0:0:0:
256,128,40935,1,8,0:0:0:0:
256,128,41038,1,8,0:0:0:0:
256,128,41141,1,0,0:0:0:0:
256,128,41348,1,8,0:0:0:0:
256,128,41555,1,0,0:0:0:0:
256,128,41659,1,8,0:0:0:0:
256,128,41762,1,8,0:0:0:0:
256,128,41866,1,0,0:0:0:0:
256,128,42072,1,8,0:0:0:0:
256,128,42176,1,0,0:0:0:0:
256,128,42279,1,0,0:0:0:0:
256,128,42383,1,8,0:0:0:0:
256,128,42486,1,8,0:0:0:0:
256,128,42590,1,8,0:0:0:0:
256,128,42693,1,0,0:0:0:0:
256,128,42900,1,8,0:0:0:0:
256,128,43004,1,0,0:0:0:0:
256,128,43107,1,0,0:0:0:0:
256,128,43210,1,0,0:0:0:0:
256,128,43314,1,8,0:0:0:0:
256,128,43417,1,0,0:0:0:0:
256,128,43521,1,0,0:0:0:0:
256,128,43624,1,8,0:0:0:0:
256,128,43831,1,8,0:0:0:0:
256,128,44038,1,0,0:0:0:0:
256,128,44245,1,8,0:0:0:0:
256,128,44452,1,0,0:0:0:0:
256,128,44555,1,0,0:0:0:0:
256,128,44659,1,8,0:0:0:0:
256,128,44866,1,0,0:0:0:0:
256,128,44969,1,8,0:0:0:0:
256,128,45072,1,8,0:0:0:0:
256,128,45176,1,0,0:0:0:0:
256,128,45383,1,8,0:0:0:0:
256,128,45486,1,0,0:0:0:0:
256,128,45590,1,0,0:0:0:0:
256,128,45693,1,8,0:0:0:0:
256,128,45797,1,0,0:0:0:0:
256,128,45900,1,0,0:0:0:0:
256,128,46004,1,0,0:0:0:0:
256,128,46107,1,8,0:0:0:0:
256,128,46314,1,8,0:0:0:0:
256,128,46417,1,0,0:0:0:0:
256,128,46521,1,8,0:0:0:0:
256,128,46624,1,8,0:0:0:0:
256,128,46728,1,0,0:0:0:0:
256,128,46831,1,8,0:0:0:0:
256,128,46935,1,0,0:0:0:0:
256,128,47141,1,12,0:0:0:0:
256,128,47348,1,0,0:0:0:0:
256,128,47555,1,8,0:0:0:0:
256,128,47659,1,8,0:0:0:0:
256,128,47762,1,0,0:0:0:0:
256,128,47969,1,0,0:0:0:0:
256,128,48176,1,8,0:0:0:0:
256,128,48279,1,0,0:0:0:0:
256,128,48383,1,0,0:0:0:0:
256,128,48486,1,8,0:0:0:0:
256,128,48693,1,0,0:0:0:0:
256,128,48797,1,8,0:0:0:0:
256,128,48900,1,8,0:0:0:0:
256,128,49004,1,0,0:0:0:0:
256,128,49107,1,8,0:0:0:0:
256,128,49210,1,0,0:0:0:0:
256,128,49314,1,0,0:0:0:0:
256,128,49417,1,8,0:0:0:0:
256,128,49624,1,8,0:0:0:0:
256,128,49728,1,0,0:0:0:0:
256,128,49831,1,8,0:0:0:0:
256,128,49935,1,8,0:0:0:0:
256,128,50038,1,0,0:0:0:0:
256,128,50141,1,0,0:0:0:0:
256,128,50245,1,8,0:0:0:0:
256,128,50452,1,8,0:0:0:0:
256,128,50555,1,8,0:0:0:0:
256,128,50659,1,0,0:0:0:0:
256,128,50868,1,8,0:0:0:0:
256,128,51074,1,0,0:0:0:0:
256,128,51178,1,8,0:0:0:0:
256,128,51281,1,8,0:0:0:0:
256,128,51385,1,8,0:0:0:0:
256,128,51488,1,0,0:0:0:0:
256,128,51592,1,8,0:0:0:0:
256,128,51695,1,0,0:0:0:0:
256,128,51799,1,0,0:0:0:0:
256,128,51902,1,8,0:0:0:0:
256,128,52006,1,0,0:0:0:0:
256,128,52109,1,8,0:0:0:0:
256,128,52212,1,8,0:0:0:0:
256,128,52316,1,0,0:0:0:0:
256,128,52523,1,0,0:0:0:0:
256,128,52626,1,8,0:0:0:0:
256,128,52833,1,8,0:0:0:0:
256,128,52937,1,0,0:0:0:0:
256,128,53040,1,0,0:0:0:0:
256,128,53141,1,8,0:0:0:0:
256,128,53195,1,8,0:0:0:0:
256,128,53247,1,8,0:0:0:0:
256,128,53348,1,0,0:0:0:0:
256,128,53452,1,0,0:0:0:0:
256,128,53557,1,8,0:0:0:0:
256,128,53661,1,8,0:0:0:0:
256,128,53762,1,0,0:0:0:0:
256,128,53969,1,12,0:0:0:0:
256,128,54178,1,0,0:0:0:0:
256,128,54281,1,8,0:0:0:0:
256,128,54488,1,8,0:0:0:0:
256,128,54592,1,0,0:0:0:0:
256,128,54799,1,8,0:0:0:0:
256,128,54902,1,8,0:0:0:0:
256,128,55006,1,0,0:0:0:0:
256,128,55109,1,0,0:0:0:0:
256,128,55212,1,8,0:0:0:0:
256,128,55419,1,8,0:0:0:0:
256,128,55626,1,0,0:0:0:0:
256,128,55833,1,8,0:0:0:0:
256,128,55937,1,8,0:0:0:0:
256,128,56040,1,0,0:0:0:0:
256,128,56143,1,8,0:0:0:0:
256,128,56247,1,0,0:0:0:0:
256,128,56350,1,0,0:0:0:0:
256,128,56454,1,8,0:0:0:0:
256,128,56557,1,0,0:0:0:0:
256,128,56661,1,8,0:0:0:0:
256,128,56764,1,8,0:0:0:0:
256,128,56868,1,0,0:0:0:0:
256,128,57074,1,8,0:0:0:0:
256,128,57178,1,8,0:0:0:0:
256,128,57281,1,0,0:0:0:0:
256,128,57488,1,8,0:0:0:0:
256,128,57592,1,0,0:0:0:0:
256,128,57695,1,0,0:0:0:0:
256,128,57799,1,8,0:0:0:0:
256,128,57902,1,0,0:0:0:0:
256,128,58006,1,8,0:0:0:0:
256,128,58212,1,8,0:0:0:0:
256,128,58316,1,8,0:0:0:0:
256,128,58419,1,8,0:0:0:0:
256,128,58523,1,0,0:0:0:0:
256,128,58730,1,8,0:0:0:0:
256,128,58937,1,0,0:0:0:0:
256,128,59140,1,8,0:0:0:0:
256,128,59247,1,0,0:0:0:0:
256,128,59350,1,8,0:0:0:0:
256,128,59454,1,8,0:0:0:0:
256,128,59557,1,0,0:0:0:0:
256,128,59661,1,8,0:0:0:0:
256,128,59763,1,0,0:0:0:0:
256,128,59868,1,0,0:0:0:0:
256,128,59970,1,8,0:0:0:0:
256,128,60073,1,0,0:0:0:0:
256,128,60178,1,8,0:0:0:0:
256,128,60384,1,0,0:0:0:0:
256,128,60487,1,0,0:0:0:0:
256,128,60592,1,8,0:0:0:0:
256,128,60799,1,0,0:0:0:0:
256,128,60902,1,8,0:0:0:0:
256,128,61109,1,8,0:0:0:0:
256,128,61212,1,0,0:0:0:0:
256,128,61419,1,8,0:0:0:0:
256,128,61523,1,0,0:0:0:0:
256,128,61626,1,8,0:0:0:0:
256,128,61730,1,8,0:0:0:0:
256,128,61833,1,0,0:0:0:0:
256,128,62040,1,8,0:0:0:0:
256,128,62247,1,0,0:0:0:0:
256,128,62454,1,8,0:0:0:0:
256,128,62557,1,0,0:0:0:0:
256,128,62661,1,0,0:0:0:0:
256,128,62764,1,8,0:0:0:0:
256,128,62868,1,0,0:0:0:0:
256,128,62971,1,8,0:0:0:0:
256,128,63074,1,8,0:0:0:0:
256,128,63178,1,0,0:0:0:0:
256,128,63281,1,8,0:0:0:0:
256,128,63385,1,8,0:0:0:0:
256,128,63488,1,0,0:0:0:0:
256,128,63695,1,8,0:0:0:0:
256,128,63799,1,8,0:0:0:0:
256,128,63902,1,0,0:0:0:0:
256,128,64109,1,0,0:0:0:0:
256,128,64212,1,0,0:0:0:0:
256,128,64316,1,8,0:0:0:0:
256,128,64419,1,0,0:0:0:0:
256,128,64523,1,0,0:0:0:0:
256,128,64626,1,8,0:0:0:0:
256,128,64833,1,8,0:0:0:0:
256,128,64937,1,0,0:0:0:0:
256,128,65143,1,0,0:0:0:0:
256,128,65247,1,0,0:0:0:0:
256,128,65350,1,8,0:0:0:0:
256,128,65557,1,0,0:0:0:0:
256,128,65764,1,8,0:0:0:0:
256,128,65868,1,0,0:0:0:0:
256,128,66074,1,0,0:0:0:0:
256,128,66178,1,8,0:0:0:0:
256,128,66385,1,8,0:0:0:0:
256,128,66437,1,8,0:0:0:0:
256,128,66488,1,8,0:0:0:0:
256,128,66592,1,0,0:0:0:0:
256,128,66695,1,0,0:0:0:0:
256,128,66799,1,8,0:0:0:0:
256,128,67006,1,0,0:0:0:0:
256,128,67212,1,12,0:0:0:0:
256,128,67420,1,0,0:0:0:0:
256,128,67523,1,8,0:0:0:0:
256,128,67626,1,0,0:0:0:0:
256,128,67730,1,0,0:0:0:0:
256,128,67834,1,8,0:0:0:0:
256,128,68041,1,8,0:0:0:0:
256,128,68143,1,0,0:0:0:0:
256,128,68247,1,8,0:0:0:0:
256,128,68350,1,8,0:0:0:0:
256,128,68454,1,0,0:0:0:0:
256,128,68661,1,8,0:0:0:0:
256,128,68868,1,0,0:0:0:0:
256,128,69075,1,8,0:0:0:0:
256,128,69179,1,8,0:0:0:0:
256,128,69282,1,0,0:0:0:0:
256,128,69385,1,8,0:0:0:0:
256,128,69489,1,0,0:0:0:0:
256,128,69592,1,0,0:0:0:0:
256,128,69696,1,8,0:0:0:0:
256,128,69799,1,0,0:0:0:0:
256,128,69903,1,8,0:0:0:0:
256,128,70006,1,8,0:0:0:0:
256,128,70110,1,0,0:0:0:0:
256,128,70316,1,8,0:0:0:0:
256,128,70420,1,8,0:0:0:0:
256,128,70523,1,0,0:0:0:0:
256,128,70730,1,8,0:0:0:0:
256,128,70937,1,0,0:0:0:0:
256,128,71041,1,0,0:0:0:0:
256,128,71143,1,8,0:0:0:0:
256,128,71350,1,0,0:0:0:0:
256,128,71454,1,8,0:0:0:0:
256,128,71558,1,8,0:0:0:0:
256,128,71661,1,8,0:0:0:0:
256,128,71765,1,0,0:0:0:0:
256,128,71972,1,8,0:0:0:0:
256,128,72179,1,0,0:0:0:0:
256,128,72385,1,8,0:0:0:0:
256,128,72489,1,0,0:0:0:0:
256,128,72592,1,0,0:0:0:0:
256,128,72696,1,8,0:0:0:0:
256,128,72799,1,0,0:0:0:0:
256,128,72903,1,8,0:0:0:0:
256,128,73006,1,8,0:0:0:0:
256,128,73110,1,0,0:0:0:0:
256,128,73316,1,0,0:0:0:0:
256,128,73420,1,8,0:0:0:0:
256,128,73627,1,0,0:0:0:0:
256,128,73834,1,12,0:0:0:0:
256,128,74041,1,0,0:0:0:0:
256,128,74143,1,0,0:0:0:0:
256,128,74247,1,8,0:0:0:0:
256,128,74351,1,0,0:0:0:0:
256,128,74454,1,8,0:0:0:0:
256,128,74557,1,8,0:0:0:0:
256,128,74661,1,0,0:0:0:0:
256,128,74868,1,8,0:0:0:0:
256,128,74972,1,8,0:0:0:0:
256,128,75075,1,0,0:0:0:0:
256,128,75282,1,8,0:0:0:0:
256,128,75489,1,0,0:0:0:0:
256,128,75696,1,8,0:0:0:0:
256,128,75799,1,0,0:0:0:0:
256,128,75903,1,8,0:0:0:0:
256,128,76006,1,8,0:0:0:0:
256,128,76110,1,0,0:0:0:0:
256,128,76213,1,8,0:0:0:0:
256,128,76316,1,8,0:0:0:0:
256,128,76420,1,0,0:0:0:0:
256,128,76523,1,0,0:0:0:0:
256,128,76627,1,8,0:0:0:0:
256,128,76730,1,0,0:0:0:0:
256,128,76937,1,8,0:0:0:0:
256,128,77040,1,8,0:0:0:0:
256,128,77144,1,0,0:0:0:0:
256,128,77246,1,0,0:0:0:0:
256,128,77351,1,8,0:0:0:0:
256,128,77454,1,0,0:0:0:0:
256,128,77558,1,8,0:0:0:0:
256,128,77661,1,8,0:0:0:0:
256,128,77765,1,0,0:0:0:0:
256,128,77868,1,8,0:0:0:0:
256,128,77971,1,0,0:0:0:0:
256,128,78075,1,8,0:0:0:0:
256,128,78179,1,8,0:0:0:0:
256,128,78280,1,0,0:0:0:0:
256,128,78384,1,8,0:0:0:0:
256,128,78489,1,8,0:0:0:0:
256,128,78592,1,0,0:0:0:0:
256,128,78695,1,0,0:0:0:0:
256,128,78799,1,8,0:0:0:0:
256,128,78902,1,0,0:0:0:0:
256,128,79005,1,0,0:0:0:0:
256,128,79110,1,8,0:0:0:0:
256,128,79212,1,0,0:0:0:0:
256,128,79316,1,0,0:0:0:0:
256,128,79420,1,8,0:0:0:0:
256,128,79523,1,0,0:0:0:0:
256,128,79626,1,0,0:0:0:0:
256,128,79695,1,0,0:0:0:0:
256,128,79764,1,0,0:0:0:0:
256,128,79834,1,8,0:0:0:0:
256,128,79937,1,0,0:0:0:0:
256,128,80039,1,0,0:0:0:0:
256,128,80143,1,8,0:0:0:0:
256,128,80248,1,0,0:0:0:0:
256,128,80350,1,0,0:0:0:0:
256,128,80454,1,8,0:0:0:0:
256,128,80660,1,0,0:0:0:0:
256,128,80764,1,8,0:0:0:0:
256,128,80867,1,0,0:0:0:0:
256,128,81074,1,8,0:0:0:0:
256,128,81281,1,0,0:0:0:0:
256,128,81385,1,8,0:0:0:0:
256,128,81694,1,12,0:0:0:0:
256,128,82109,1,0,0:0:0:0:
256,128,82212,1,0,0:0:0:0:
256,128,82316,1,8,0:0:0:0:
256,128,82418,1,0,0:0:0:0:
256,128,82523,1,8,0:0:0:0:
256,128,82626,1,8,0:0:0:0:
256,128,82730,1,0,0:0:0:0:
256,128,82833,1,0,0:0:0:0:
256,128,82937,1,8,0:0:0:0:
256,128,83040,1,0,0:0:0:0:
256,128,83143,1,0,0:0:0:0:
256,128,83247,1,8,0:0:0:0:
256,128,83350,1,0,0:0:0:0:
256,128,83419,1,0,0:0:0:0:
256,128,83488,1,0,0:0:0:0:
256,128,83557,1,8,0:0:0:0:
256,128,83764,1,0,0:0:0:0:
256,128,83971,1,8,0:0:0:0:
256,128,84074,1,8,0:0:0:0:
256,128,84281,1,0,0:0:0:0:
256,128,84385,1,8,0:0:0:0:
256,128,84592,1,0,0:0:0:0:
256,128,84695,1,8,0:0:0:0:
256,128,84799,1,0,0:0:0:0:
256,128,84902,1,0,0:0:0:0:
256,128,85006,1,8,0:0:0:0:
256,128,85212,1,0,0:0:0:0:
256,128,85316,1,0,0:0:0:0:
256,128,85419,1,8,0:0:0:0:
256,128,85522,1,0,0:0:0:0:
256,128,85626,1,8,0:0:0:0:
256,128,85833,1,0,0:0:0:0:
256,128,85937,1,8,0:0:0:0:
256,128,86143,1,8,0:0:0:0:
256,128,86247,1,0,0:0:0:0:
256,128,86454,1,0,0:0:0:0:
256,128,86523,1,0,0:0:0:0:
256,128,86592,1,0,0:0:0:0:
256,128,86661,1,8,0:0:0:0:
256,128,87074,1,8,0:0:0:0:
256,128,87280,1,8,0:0:0:0:
256,128,87385,1,8,0:0:0:0:
256,128,87487,1,0,0:0:0:0:
256,128,87695,1,8,0:0:0:0:
256,128,87902,1,0,0:0:0:0:
256,128,88006,1,8,0:0:0:0:
256,128,88316,1,12,0:0:0:0:
256,128,88730,1,0,0:0:0:0:
256,128,88833,1,0,0:0:0:0:
256,128,88937,1,8,0:0:0:0:
256,128,89039,1,8,0:0:0:0:
256,128,89143,1,0,0:0:0:0:
256,128,89247,1,8,0:0:0:0:
256,128,89349,1,0,0:0:0:0:
256,128,89453,1,0,0:0:0:0:
256,128,89557,1,8,0:0:0:0:
256,128,89661,1,0,0:0:0:0:
256,128,89764,1,8,0:0:0:0:
256,128,89868,1,8,0:0:0:0:
256,128,89971,1,0,0:0:0:0:
256,128,90040,1,0,0:0:0:0:
256,128,90109,1,0,0:0:0:0:
256,128,90178,1,8,0:0:0:0:
256,128,90385,1,0,0:0:0:0:
256,128,90592,1,8,0:0:0:0:
256,128,90695,1,8,0:0:0:0:
256,128,90902,1,0,0:0:0:0:
256,128,91006,1,8,0:0:0:0:
256,128,91212,1,8,0:0:0:0:
256,128,91316,1,8,0:0:0:0:
256,128,91419,1,0,0:0:0:0:
256,128,91523,1,8,0:0:0:0:
256,128,91626,1,0,0:0:0:0:
256,128,91833,1,8,0:0:0:0:
256,128,92040,1,0,0:0:0:0:
256,128,92143,1,0,0:0:0:0:
256,128,92247,1,8,0:0:0:0:
256,128,92454,1,0,0:0:0:0:
256,128,92557,1,8,0:0:0:0:
256,128,92764,1,8,0:0:0:0:
256,128,92868,1,0,0:0:0:0:
256,128,93074,1,0,0:0:0:0:
256,128,93143,1,0,0:0:0:0:
256,128,93212,1,0,0:0:0:0:
256,128,93281,1,8,0:0:0:0:
256,128,93385,1,0,0:0:0:0:
256,128,93488,1,8,0:0:0:0:
256,128,93592,1,8,0:0:0:0:
256,128,93694,1,0,0:0:0:0:
256,128,93902,1,0,0:0:0:0:
256,128,94006,1,0,0:0:0:0:
256,128,94109,1,8,0:0:0:0:
256,128,94212,1,0,0:0:0:0:
256,128,94316,1,0,0:0:0:0:
256,128,94419,1,8,0:0:0:0:
256,128,94626,1,8,0:0:0:0:
256,128,94730,1,8,0:0:0:0:
256,128,94833,1,0,0:0:0:0:
256,128,94937,1,8,0:0:0:0:
256,128,95040,1,8,0:0:0:0:
256,128,95143,1,0,0:0:0:0:
256,128,95350,1,0,0:0:0:0:
256,128,95557,1,8,0:0:0:0:
256,128,95661,1,8,0:0:0:0:
256,128,95764,1,8,0:0:0:0:
256,128,95868,1,0,0:0:0:0:
256,128,95971,1,0,0:0:0:0:
256,128,96074,1,8,0:0:0:0:
256,128,96281,1,8,0:0:0:0:
256,128,96385,1,0,0:0:0:0:
256,128,96488,1,0,0:0:0:0:
256,128,96592,1,8,0:0:0:0:
256,128,96695,1,0,0:0:0:0:
256,128,96799,1,8,0:0:0:0:
256,128,96902,1,8,0:0:0:0:
256,128,97006,1,0,0:0:0:0:
256,128,97212,1,0,0:0:0:0:
256,128,97316,1,0,0:0:0:0:
256,128,97419,1,8,0:0:0:0:
256,128,97626,1,8,0:0:0:0:
256,128,97730,1,0,0:0:0:0:
256,128,97833,1,8,0:0:0:0:
256,128,97937,1,8,0:0:0:0:
256,128,98040,1,0,0:0:0:0:
256,128,98143,1,0,0:0:0:0:
256,128,98247,1,8,0:0:0:0:
256,128,98454,1,8,0:0:0:0:
256,128,98661,1,0,0:0:0:0:
256,128,98764,1,0,0:0:0:0:
256,128,98868,1,8,0:0:0:0:
256,128,99074,1,0,0:0:0:0:
256,128,99178,1,8,0:0:0:0:
256,128,99385,1,8,0:0:0:0:
256,128,99488,1,0,0:0:0:0:
256,128,99592,1,0,0:0:0:0:
256,128,99695,1,8,0:0:0:0:
256,128,99764,1,8,0:0:0:0:
256,128,99833,1,0,0:0:0:0:
256,128,99902,1,8,0:0:0:0:
256,128,100006,1,0,0:0:0:0:
256,128,100109,1,8,0:0:0:0:
256,128,100212,1,8,0:0:0:0:
256,128,100316,1,0,0:0:0:0:
256,128,100523,1,8,0:0:0:0:
256,128,100626,1,0,0:0:0:0:
256,128,100730,1,8,0:0:0:0:
256,128,100832,1,0,0:0:0:0:
256,128,100936,1,0,0:0:0:0:
256,128,101039,1,8,0:0:0:0:
256,128,101142,1,0,0:0:0:0:
256,128,101246,1,8,0:0:0:0:
256,128,101349,1,8,0:0:0:0:
256,128,101453,1,0,0:0:0:0:
256,128,101556,1,8,0:0:0:0:
256,128,101763,1,8,0:0:0:0:
256,128,101970,1,0,0:0:0:0:
256,128,102177,1,8,0:0:0:0:
256,128,102280,1,8,0:0:0:0:
256,128,102384,1,8,0:0:0:0:
256,128,102487,1,0,0:0:0:0:
256,128,102591,1,0,0:0:0:0:
256,128,102694,1,8,0:0:0:0:
256,128,102798,1,0,0:0:0:0:
256,128,102901,1,8,0:0:0:0:
256,128,103005,1,8,0:0:0:0:
256,128,103108,1,0,0:0:0:0:
256,128,103211,1,8,0:0:0:0:
256,128,103315,1,0,0:0:0:0:
256,128,103418,1,8,0:0:0:0:
256,128,103522,1,8,0:0:0:0:
256,128,103625,1,0,0:0:0:0:
256,128,103832,1,0,0:0:0:0:
256,128,103936,1,0,0:0:0:0:
256,128,104039,1,8,0:0:0:0:
256,128,104142,1,0,0:0:0:0:
256,128,104246,1,0,0:0:0:0:
256,128,104349,1,8,0:0:0:0:
256,128,104556,1,8,0:0:0:0:
256,128,104660,1,8,0:0:0:0:
256,128,104763,1,0,0:0:0:0:
256,128,104867,1,8,0:0:0:0:
256,128,105073,1,8,0:0:0:0:
256,128,105177,1,8,0:0:0:0:
256,128,105280,1,0,0:0:0:0:
256,128,105487,1,8,0:0:0:0:
256,128,105694,1,0,0:0:0:0:
256,128,105798,1,8,0:0:0:0:
256,128,105901,1,0,0:0:0:0:
256,128,106005,1,0,0:0:0:0:
256,128,106108,1,8,0:0:0:0:
256,128,106211,1,0,0:0:0:0:
256,128,106315,1,8,0:0:0:0:
256,128,106418,1,8,0:0:0:0:
256,128,106522,1,0,0:0:0:0:
256,128,106625,1,0,0:0:0:0:
256,128,106729,1,8,0:0:0:0:
256,128,106832,1,0,0:0:0:0:
256,128,106936,1,0,0:0:0:0:
256,128,107349,1,0,0:0:0:0:
256,128,107763,1,0,0:0:0:0:
256,128,108177,1,8,0:0:0:0:
256,128,108591,1,0,0:0:0:0:
256,128,109005,1,0,0:0:0:0:
256,128,109418,1,0,0:0:0:0:
256,128,109832,1,8,0:0:0:0:
256,128,110039,1,8,0:0:0:0:
256,128,110246,1,0,0:0:0:0:
256,128,110660,1,0,0:0:0:0:
256,128,111073,1,0,0:0:0:0:
256,128,111487,1,8,0:0:0:0:
256,128,111901,1,0,0:0:0:0:
256,128,112108,1,0,0:0:0:0:
256,128,112315,1,8,0:0:0:0:
256,128,112418,1,8,0:0:0:0:
256,128,112522,1,8,0:0:0:0:
256,128,112625,1,0,0:0:0:0:
256,128,112729,1,8,0:0:0:0:
256,128,112832,1,8,0:0:0:0:
256,128,112936,1,0,0:0:0:0:
256,128,113039,1,0,0:0:0:0:
256,128,113142,1,8,0:0:0:0:
256,128,113246,1,8,0:0:0:0:
256,128,113349,1,0,0:0:0:0:
256,128,113453,1,0,0:0:0:0:
256,128,113556,1,8,0:0:0:0:
256,128,113763,1,0,0:0:0:0:
256,128,113867,1,8,0:0:0:0:
256,128,114073,1,8,0:0:0:0:
256,128,114177,1,8,0:0:0:0:
256,128,114384,1,8,0:0:0:0:
256,128,114487,1,0,0:0:0:0:
256,128,114591,1,0,0:0:0:0:
256,128,114694,1,8,0:0:0:0:
256,128,114901,1,0,0:0:0:0:
256,128,115005,1,0,0:0:0:0:
256,128,115108,1,8,0:0:0:0:
256,128,115211,1,0,0:0:0:0:
256,128,115315,1,8,0:0:0:0:
256,128,115418,1,8,0:0:0:0:
256,128,115522,1,0,0:0:0:0:
256,128,115729,1,0,0:0:0:0:
256,128,115832,1,8,0:0:0:0:
256,128,115936,1,8,0:0:0:0:
256,128,116039,1,0,0:0:0:0:
256,128,116142,1,8,0:0:0:0:
256,128,116246,1,0,0:0:0:0:
256,128,116349,1,0,0:0:0:0:
256,128,116453,1,8,0:0:0:0:
256,128,116660,1,0,0:0:0:0:
256,128,116763,1,0,0:0:0:0:
256,128,116867,1,8,0:0:0:0:
256,128,117073,1,0,0:0:0:0:
256,128,117177,1,0,0:0:0:0:
256,128,117384,1,0,0:0:0:0:
256,128,117487,1,8,0:0:0:0:
256,128,117694,1,8,0:0:0:0:
256,128,117798,1,8,0:0:0:0:
256,128,117901,1,0,0:0:0:0:
256,128,118005,1,8,0:0:0:0:
256,128,118211,1,8,0:0:0:0:
256,128,118315,1,8,0:0:0:0:
256,128,118418,1,0,0:0:0:0:
256,128,118522,1,8,0:0:0:0:
256,128,118625,1,0,0:0:0:0:
256,128,118729,1,0,0:0:0:0:
256,128,118832,1,8,0:0:0:0:
256,128,119039,1,8,0:0:0:0:
256,128,119142,1,0,0:0:0:0:
256,128,119246,1,0,0:0:0:0:
256,128,119349,1,8,0:0:0:0:
256,128,119453,1,0,0:0:0:0:
256,128,119556,1,8,0:0:0:0:
256,128,119660,1,8,0:0:0:0:
256,128,119763,1,0,0:0:0:0:
256,128,119970,1,0,0:0:0:0:
256,128,120177,1,12,0:0:0:0:
256,128,120384,1,0,0:0:0:0:
256,128,120488,1,8,0:0:0:0:
256,128,120694,1,8,0:0:0:0:
256,128,120798,1,8,0:0:0:0:
256,128,121005,1,8,0:0:0:0:
256,128,121108,1,0,0:0:0:0:
256,128,121212,1,0,0:0:0:0:
256,128,121315,1,8,0:0:0:0:
256,128,121522,1,0,0:0:0:0:
256,128,121626,1,0,0:0:0:0:
256,128,121729,1,8,0:0:0:0:
256,128,121832,1,0,0:0:0:0:
256,128,121936,1,8,0:0:0:0:
256,128,122039,1,8,0:0:0:0:
256,128,122143,1,0,0:0:0:0:
256,128,122350,1,0,0:0:0:0:
256,128,122453,1,8,0:0:0:0:
256,128,122557,1,8,0:0:0:0:
256,128,122660,1,0,0:0:0:0:
256,128,122763,1,8,0:0:0:0:
256,128,122867,1,0,0:0:0:0:
256,128,122970,1,0,0:0:0:0:
256,128,123074,1,8,0:0:0:0:
256,128,123281,1,0,0:0:0:0:
256,128,123384,1,0,0:0:0:0:
256,128,123488,1,8,0:0:0:0:
256,128,123694,1,0,0:0:0:0:
256,128,123798,1,0,0:0:0:0:
256,128,124005,1,0,0:0:0:0:
256,128,124108,1,8,0:0:0:0:
256,128,124315,1,8,0:0:0:0:
256,128,124419,1,8,0:0:0:0:
256,128,124522,1,0,0:0:0:0:
256,128,124626,1,8,0:0:0:0:
256,128,124832,1,8,0:0:0:0:
256,128,124936,1,8,0:0:0:0:
256,128,125039,1,0,0:0:0:0:
256,128,125143,1,8,0:0:0:0:
256,128,125246,1,0,0:0:0:0:
256,128,125350,1,0,0:0:0:0:
256,128,125453,1,8,0:0:0:0:
256,128,125660,1,8,0:0:0:0:
256,128,125763,1,0,0:0:0:0:
256,128,125867,1,0,0:0:0:0:
256,128,125970,1,8,0:0:0:0:
256,128,126074,1,0,0:0:0:0:
256,128,126177,1,8,0:0:0:0:
256,128,126281,1,8,0:0:0:0:
256,128,126384,1,0,0:0:0:0:
256,128,126487,1,8,0:0:0:0:
256,128,126591,1,0,0:0:0:0:
256,128,126694,1,0,0:0:0:0:
256,128,126798,1,8,0:0:0:0:
256,128,127005,1,0,0:0:0:0:
256,128,127109,1,8,0:0:0:0:
256,128,127211,1,0,0:0:0:0:
256,128,127315,1,0,0:0:0:0:
256,128,127419,1,8,0:0:0:0:
256,128,127626,1,8,0:0:0:0:
256,128,127729,1,0,0:0:0:0:
256,128,127833,1,8,0:0:0:0:
256,128,127936,1,8,0:0:0:0:
256,128,128143,1,0,0:0:0:0:
256,128,128247,1,0,0:0:0:0:
256,128,128350,1,8,0:0:0:0:
256,128,128453,1,0,0:0:0:0:
256,128,128557,1,8,0:0:0:0:
256,128,128660,1,8,0:0:0:0:
256,128,128764,1,0,0:0:0:0:
256,128,128971,1,0,0:0:0:0:
256,128,129074,1,8,0:0:0:0:
256,128,129178,1,8,0:0:0:0:
256,128,129281,1,0,0:0:0:0:
256,128,129384,1,8,0:0:0:0:
256,128,129488,1,0,0:0:0:0:
256,128,129591,1,0,0:0:0:0:
256,128,129695,1,8,0:0:0:0:
256,128,129902,1,0,0:0:0:0:
256,128,130005,1,0,0:0:0:0:
256,128,130109,1,8,0:0:0:0:
256,128,130315,1,0,0:0:0:0:
256,128,130419,1,0,0:0:0:0:
256,128,130522,1,8,0:0:0:0:
256,128,130626,1,0,0:0:0:0:
256,128,130729,1,8,0:0:0:0:
256,128,130936,1,8,0:0:0:0:
256,128,131040,1,8,0:0:0:0:
256,128,131143,1,0,0:0:0:0:
256,128,131247,1,8,0:0:0:0:
256,128,131453,1,8,0:0:0:0:
256,128,131557,1,8,0:0:0:0:
256,128,131660,1,0,0:0:0:0:
256,128,131764,1,8,0:0:0:0:
256,128,131867,1,0,0:0:0:0:
256,128,131971,1,8,0:0:0:0:
256,128,132074,1,8,0:0:0:0:
256,128,132281,1,8,0:0:0:0:
256,128,132384,1,0,0:0:0:0:
256,128,132488,1,0,0:0:0:0:
256,128,132591,1,8,0:0:0:0:
256,128,132695,1,0,0:0:0:0:
256,128,132798,1,8,0:0:0:0:
256,128,132902,1,8,0:0:0:0:
256,128,133005,1,0,0:0:0:0:
256,128,133212,1,0,0:0:0:0:
256,128,133419,1,12,0:0:0:0:
256,128,133626,1,0,0:0:0:0:
256,128,133730,1,8,0:0:0:0:
256,128,133832,1,0,0:0:0:0:
256,128,133936,1,0,0:0:0:0:
256,128,134040,1,8,0:0:0:0:
256,128,134247,1,8,0:0:0:0:
256,128,134350,1,8,0:0:0:0:
256,128,134454,1,0,0:0:0:0:
256,128,134557,1,8,0:0:0:0:
256,128,134764,1,0,0:0:0:0:
256,128,134868,1,0,0:0:0:0:
256,128,134971,1,0,0:0:0:0:
256,128,135073,1,8,0:0:0:0:
256,128,135281,1,8,0:0:0:0:
256,128,135385,1,0,0:0:0:0:
256,128,135592,1,0,0:0:0:0:
256,128,135695,1,8,0:0:0:0:
256,128,135902,1,0,0:0:0:0:
256,128,136005,1,8,0:0:0:0:
256,128,136109,1,0,0:0:0:0:
256,128,136212,1,0,0:0:0:0:
256,128,136316,1,8,0:0:0:0:
256,128,136523,1,0,0:0:0:0:
256,128,136626,1,0,0:0:0:0:
256,128,136730,1,8,0:0:0:0:
256,128,136936,1,0,0:0:0:0:
256,128,137040,1,0,0:0:0:0:
256,128,137247,1,0,0:0:0:0:
256,128,137350,1,8,0:0:0:0:
256,128,137557,1,8,0:0:0:0:
256,128,137661,1,8,0:0:0:0:
256,128,137764,1,0,0:0:0:0:
256,128,137868,1,8,0:0:0:0:
256,128,137970,1,0,0:0:0:0:
256,128,138074,1,0,0:0:0:0:
256,128,138178,1,8,0:0:0:0:
256,128,138281,1,0,0:0:0:0:
256,128,138385,1,8,0:0:0:0:
256,128,138487,1,8,0:0:0:0:
256,128,138592,1,0,0:0:0:0:
256,128,138695,1,0,0:0:0:0:
256,128,138798,1,8,0:0:0:0:
256,128,138901,1,0,0:0:0:0:
256,128,139005,1,0,0:0:0:0:
256,128,139109,1,0,0:0:0:0:
256,128,139211,1,8,0:0:0:0:
256,128,139280,1,8,0:0:0:0:
256,128,139349,1,8,0:0:0:0:
256,128,139419,1,0,0:0:0:0:
256,128,139487,1,0,0:0:0:0:
256,128,139556,1,0,0:0:0:0:
256,128,139626,1,8,0:0:0:0:
256,128,140040,1,12,0:0:0:0:
256,128,140246,1,8,0:0:0:0:
256,128,140349,1,8,0:0:0:0:
256,128,140453,1,8,0:0:0:0:
256,128,140660,1,8,0:0:0:0:
256,128,140763,1,8,0:0:0:0:
256,128,140867,1,8,0:0:0:0:
256,128,140970,1,8,0:0:0:0:
256,128,141073,1,8,0:0:0:0:
256,128,141280,1,8,0:0:0:0:
256,128,141694,1,8,0:0:0:0:
256,128,141901,1,8,0:0:0:0:
256,128,142005,1,8,0:0:0:0:
256,128,142108,1,8,0:0:0:0:
256,128,142315,1,8,0:0:0:0:
256,128,142418,1,8,0:0:0:0:
256,128,142522,1,8,0:0:0:0:
256,128,142625,1,8,0:0:0:0:
256,128,142729,1,8,0:0:0:0:
256,128,142936,1,8,0:0:0:0:
256,128,143142,1,8,0:0:0:0:
256,128,143349,1,8,0:0:0:0:
256,128,143556,1,8,0:0:0:0:
256,128,143660,1,8,0:0:0:0:
256,128,143763,1,8,0:0:0:0:
256,128,143970,1,8,0:0:0:0:
256,128,144073,1,8,0:0:0:0:
256,128,144177,1,8,0:0:0:0:
256,128,144280,1,8,0:0:0:0:
256,128,144384,1,8,0:0:0:0:
256,128,144591,1,8,0:0:0:0:
256,128,144798,1,8,0:0:0:0:
256,128,144901,1,8,0:0:0:0:
256,128,145005,1,8,0:0:0:0:
256,128,145211,1,8,0:0:0:0:
256,128,145315,1,8,0:0:0:0:
256,128,145418,1,8,0:0:0:0:
256,128,145625,1,8,0:0:0:0:
256,128,145729,1,8,0:0:0:0:
256,128,145832,1,0,0:0:0:0:
256,128,145936,1,8,0:0:0:0:
256,128,146039,1,0,0:0:0:0:
256,128,146142,1,0,0:0:0:0:
256,128,146246,1,8,0:0:0:0:
256,128,146453,1,8,0:0:0:0:
256,128,146660,1,4,0:0:0:0:
256,128,146867,1,0,0:0:0:0:
256,128,147073,1,8,0:0:0:0:
256,128,147280,1,8,0:0:0:0:
256,128,147487,1,0,0:0:0:0:
256,128,147694,1,0,0:0:0:0:
256,128,147901,1,8,0:0:0:0:
256,128,148108,1,4,0:0:0:0:
256,128,148315,1,0,0:0:0:0:
256,128,148418,1,8,0:0:0:0:
256,128,148625,1,8,0:0:0:0:
256,128,148729,1,0,0:0:0:0:
256,128,148936,1,8,0:0:0:0:
256,128,149142,1,0,0:0:0:0:
256,128,149246,1,0,0:0:0:0:
256,128,149453,1,8,0:0:0:0:
256,128,149556,1,0,0:0:0:0:
256,128,149763,1,8,0:0:0:0:
256,128,149970,2,4,L|398:129,7,112.500004291535
256,128,151625,1,0,0:0:0:0:
256,128,151729,1,8,0:0:0:0:
256,128,151936,1,8,0:0:0:0:
256,128,152039,1,0,0:0:0:0:
256,128,152142,1,0,0:0:0:0:
256,128,152246,1,8,0:0:0:0:
256,128,152453,1,8,0:0:0:0:
256,128,152556,1,8,0:0:0:0:
256,128,152660,1,0,0:0:0:0:
256,128,152763,1,0,0:0:0:0:
256,128,152867,1,8,0:0:0:0:
256,128,153280,1,4,0:0:0:0:
256,128,153487,1,8,0:0:0:0:
256,128,153591,1,8,0:0:0:0:
256,128,153694,1,0,0:0:0:0:
256,128,153901,1,8,0:0:0:0:
256,128,154108,1,0,0:0:0:0:
256,128,154211,1,8,0:0:0:0:
256,128,154315,1,0,0:0:0:0:
256,128,154522,1,8,0:0:0:0:
256,128,154729,1,0,0:0:0:0:
256,128,154832,1,0,0:0:0:0:
256,128,154936,1,8,0:0:0:0:
256,128,155039,1,0,0:0:0:0:
256,128,155142,1,0,0:0:0:0:
256,128,155246,1,8,0:0:0:0:
256,128,155453,1,8,0:0:0:0:
256,128,155556,1,0,0:0:0:0:
256,128,155763,1,8,0:0:0:0:
256,128,155867,1,8,0:0:0:0:
256,128,155970,1,0,0:0:0:0:
256,128,156073,1,0,0:0:0:0:
256,128,156177,1,8,0:0:0:0:
256,128,156280,1,0,0:0:0:0:
256,128,156384,1,8,0:0:0:0:
256,128,156487,1,8,0:0:0:0:
256,128,156591,1,0,0:0:0:0:
256,128,156798,1,8,0:0:0:0:
256,128,156901,1,8,0:0:0:0:
256,128,157005,1,0,0:0:0:0:
256,128,157211,1,8,0:0:0:0:
256,128,157418,1,0,0:0:0:0:
256,128,157522,1,0,0:0:0:0:
256,128,157729,1,0,0:0:0:0:
256,128,157832,1,8,0:0:0:0:
256,128,158039,1,8,0:0:0:0:
256,128,158246,1,4,0:0:0:0:
256,128,158453,1,8,0:0:0:0:
256,128,158556,1,8,0:0:0:0:
256,128,158660,1,0,0:0:0:0:
256,128,158867,1,12,0:0:0:0:
256,128,159073,1,0,0:0:0:0:
256,128,159177,1,8,0:0:0:0:
256,128,159384,1,8,0:0:0:0:
256,128,159487,1,0,0:0:0:0:
256,128,159591,1,0,0:0:0:0:
256,128,159694,1,8,0:0:0:0:
256,128,159901,1,4,0:0:0:0:
256,128,160108,1,8,0:0:0:0:
256,128,160212,1,8,0:0:0:0:
256,128,160315,1,0,0:0:0:0:
256,128,160418,1,0,0:0:0:0:
256,128,160522,1,8,0:0:0:0:
256,128,160625,1,0,0:0:0:0:
256,128,160729,1,8,0:0:0:0:
256,128,160832,1,8,0:0:0:0:
256,128,160936,1,0,0:0:0:0:
256,128,161143,1,8,0:0:0:0:
256,128,161350,1,0,0:0:0:0:
256,128,161453,1,0,0:0:0:0:
256,128,161557,1,8,0:0:0:0:
256,128,161660,1,0,0:0:0:0:
256,128,161763,1,0,0:0:0:0:
256,128,161867,1,8,0:0:0:0:
256,128,162074,1,8,0:0:0:0:
256,128,162177,1,0,0:0:0:0:
256,128,162384,1,0,0:0:0:0:
256,128,162488,1,8,0:0:0:0:
256,128,162591,1,0,0:0:0:0:
256,128,162694,1,0,0:0:0:0:
256,128,162798,1,8,0:0:0:0:
256,128,162901,1,0,0:0:0:0:
256,128,163005,1,8,0:0:0:0:
256,128,163108,1,8,0:0:0:0:
256,128,163212,1,0,0:0:0:0:
256,128,163419,1,8,0:0:0:0:
256,128,163522,1,8,0:0:0:0:
256,128,163729,1,8,0:0:0:0:
256,128,163832,1,0,0:0:0:0:
256,128,163936,1,0,0:0:0:0:
256,128,164039,1,8,0:0:0:0:
256,128,164142,1,0,0:0:0:0:
256,128,164349,1,8,0:0:0:0:
256,128,164453,1,0,0:0:0:0:
256,128,164660,1,0,0:0:0:0:
256,128,164763,1,8,0:0:0:0:
256,128,164867,1,0,0:0:0:0:
256,128,165073,1,8,0:0:0:0:
256,128,165280,1,0,0:0:0:0:
256,128,165384,1,8,0:0:0:0:
256,128,165591,1,8,0:0:0:0:
256,128,165694,1,0,0:0:0:0:
256,128,165798,1,0,0:0:0:0:
256,128,165901,1,8,0:0:0:0:
256,128,166005,1,8,0:0:0:0:
256,128,166108,1,8,0:0:0:0:
256,128,166211,1,8,0:0:0:0:
256,128,166315,1,0,0:0:0:0:
256,128,166522,1,4,0:0:0:0:
256,128,166729,1,8,0:0:0:0:
256,128,166832,1,8,0:0:0:0:
256,128,167039,1,0,0:0:0:0:
256,128,167142,1,8,0:0:0:0:
256,128,167349,1,0,0:0:0:0:
256,128,167453,1,0,0:0:0:0:
256,128,167556,1,8,0:0:0:0:
256,128,167660,1,8,0:0:0:0:
256,128,167763,1,0,0:0:0:0:
256,128,167867,1,0,0:0:0:0:
256,128,167970,1,8,0:0:0:0:
256,128,168177,1,0,0:0:0:0:
256,128,168384,1,8,0:0:0:0:
256,128,168487,1,8,0:0:0:0:
256,128,168591,1,8,0:0:0:0:
256,128,168694,1,0,0:0:0:0:
256,128,168798,1,8,0:0:0:0:
256,128,168901,1,0,0:0:0:0:
256,128,169005,1,0,0:0:0:0:
256,128,169108,1,8,0:0:0:0:
256,128,169315,1,8,0:0:0:0:
256,128,169418,1,0,0:0:0:0:
256,128,169625,1,8,0:0:0:0:
256,128,169729,1,8,0:0:0:0:
256,128,169832,1,0,0:0:0:0:
256,128,169936,1,0,0:0:0:0:
256,128,170039,1,8,0:0:0:0:
256,128,170142,1,0,0:0:0:0:
256,128,170246,1,0,0:0:0:0:
256,128,170349,1,0,0:0:0:0:
256,128,170453,1,8,0:0:0:0:
256,128,170660,1,0,0:0:0:0:
256,128,170763,1,8,0:0:0:0:
256,128,170867,1,0,0:0:0:0:
256,128,170970,1,0,0:0:0:0:
256,128,171073,1,8,0:0:0:0:
256,128,171280,1,8,0:0:0:0:
256,128,171487,1,4,0:0:0:0:
256,128,171694,1,8,0:0:0:0:
256,128,171798,1,8,0:0:0:0:
256,128,171901,1,0,0:0:0:0:
256,128,172108,1,12,0:0:0:0:
256,128,172315,1,0,0:0:0:0:
256,128,172418,1,0,0:0:0:0:
256,128,172522,1,8,0:0:0:0:
256,128,172625,1,0,0:0:0:0:
256,128,172729,1,8,0:0:0:0:
256,128,172832,1,8,0:0:0:0:
256,128,172936,1,0,0:0:0:0:
256,128,173142,1,4,0:0:0:0:
256,128,173350,1,8,0:0:0:0:
256,128,173453,1,8,0:0:0:0:
256,128,173660,1,0,0:0:0:0:
256,128,173763,1,8,0:0:0:0:
256,128,173970,1,8,0:0:0:0:
256,128,174074,1,0,0:0:0:0:
256,128,174177,1,8,0:0:0:0:
256,128,174281,1,8,0:0:0:0:
256,128,174384,1,0,0:0:0:0:
256,128,174487,1,0,0:0:0:0:
256,128,174591,1,8,0:0:0:0:
256,128,174798,1,0,0:0:0:0:
256,128,175005,1,8,0:0:0:0:
256,128,175108,1,8,0:0:0:0:
256,128,175212,1,0,0:0:0:0:
256,128,175315,1,0,0:0:0:0:
256,128,175419,1,8,0:0:0:0:
256,128,175522,1,0,0:0:0:0:
256,128,175626,1,0,0:0:0:0:
256,128,175729,1,8,0:0:0:0:
256,128,175936,1,8,0:0:0:0:
256,128,176039,1,0,0:0:0:0:
256,128,176246,1,8,0:0:0:0:
256,128,176453,1,0,0:0:0:0:
256,128,176556,1,8,0:0:0:0:
256,128,176660,1,8,0:0:0:0:
256,128,176763,1,8,0:0:0:0:
256,128,176867,1,0,0:0:0:0:
256,128,176970,1,0,0:0:0:0:
256,128,177074,1,8,0:0:0:0:
256,128,177281,1,0,0:0:0:0:
256,128,177384,1,8,0:0:0:0:
256,128,177488,1,0,0:0:0:0:
256,128,177591,1,0,0:0:0:0:
256,128,177694,1,8,0:0:0:0:
256,128,177798,1,8,0:0:0:0:
256,128,177901,1,0,0:0:0:0:
256,128,178005,1,0,0:0:0:0:
256,128,178108,1,8,0:0:0:0:
256,128,178211,1,0,0:0:0:0:
256,128,178315,1,8,0:0:0:0:
256,128,178419,1,8,0:0:0:0:
256,128,178522,1,0,0:0:0:0:
256,128,178625,1,0,0:0:0:0:
256,128,178729,1,8,0:0:0:0:
256,128,178832,1,0,0:0:0:0:
256,128,178936,1,8,0:0:0:0:
256,128,178987,1,8,0:0:0:0:
256,128,179039,1,8,0:0:0:0:
256,128,179143,1,0,0:0:0:0:
256,128,179246,1,8,0:0:0:0:
256,128,179453,1,0,0:0:0:0:
256,128,179557,1,8,0:0:0:0:
256,128,179763,1,4,0:0:0:0:
256,128,180177,1,0,0:0:0:0:
256,128,180384,1,8,0:0:0:0:
256,128,180591,1,0,0:0:0:0:
256,128,180694,1,8,0:0:0:0:
256,128,180901,1,8,0:0:0:0:
256,128,181005,1,0,0:0:0:0:
256,128,181108,1,0,0:0:0:0:
256,128,181212,1,8,0:0:0:0:
256,128,181418,1,0,0:0:0:0:
256,128,181626,1,8,0:0:0:0:
256,128,181729,1,8,0:0:0:0:
256,128,181832,1,0,0:0:0:0:
256,128,182039,1,8,0:0:0:0:
256,128,182246,1,0,0:0:0:0:
256,128,182349,1,0,0:0:0:0:
256,128,182453,1,8,0:0:0:0:
256,128,182556,1,8,0:0:0:0:
256,128,182660,1,0,0:0:0:0:
256,128,182867,1,8,0:0:0:0:
256,128,183074,1,4,0:0:0:0:
256,128,183487,1,0,0:0:0:0:
256,128,183694,1,8,0:0:0:0:
256,128,183901,1,0,0:0:0:0:
256,128,184005,1,0,0:0:0:0:
256,128,184212,1,8,0:0:0:0:
256,128,184315,1,0,0:0:0:0:
256,128,184522,1,8,0:0:0:0:
256,128,184729,1,0,0:0:0:0:
256,128,184832,1,8,0:0:0:0:
256,128,184936,1,8,0:0:0:0:
256,128,185039,1,0,0:0:0:0:
256,128,185143,1,8,0:0:0:0:
256,128,185246,1,0,0:0:0:0:
256,128,185349,1,0,0:0:0:0:
256,128,185556,1,8,0:0:0:0:
256,128,185660,1,8,0:0:0:0:
256,128,185763,1,0,0:0:0:0:
256,128,185867,1,8,0:0:0:0:
256,128,185970,1,0,0:0:0:0:
256,128,186074,1,0,0:0:0:0:
256,128,186177,1,0,0:0:0:0:
256,128,186280,1,8,0:0:0:0:
256,128,186384,1,0,0:0:0:0:
256,128,186798,1,0,0:0:0:0:
256,128,187005,1,8,0:0:0:0:
256,128,187212,1,0,0:0:0:0:
256,128,187315,1,8,0:0:0:0:
256,128,187522,1,8,0:0:0:0:
256,128,187625,1,0,0:0:0:0:
256,128,187729,1,0,0:0:0:0:
256,128,187832,1,8,0:0:0:0:
256,128,188039,1,0,0:0:0:0:
256,128,188247,1,8,0:0:0:0:
256,128,188349,1,8,0:0:0:0:
256,128,188453,1,0,0:0:0:0:
256,128,188660,1,8,0:0:0:0:
256,128,188867,1,0,0:0:0:0:
256,128,188970,1,8,0:0:0:0:
256,128,189074,1,8,0:0:0:0:
256,128,189177,1,8,0:0:0:0:
256,128,189281,1,0,0:0:0:0:
256,128,189487,1,8,0:0:0:0:
256,128,189694,1,4,0:0:0:0:
256,128,190108,1,0,0:0:0:0:
256,128,190315,1,8,0:0:0:0:
256,128,190522,1,0,0:0:0:0:
256,128,190625,1,0,0:0:0:0:
256,128,190832,1,8,0:0:0:0:
256,128,190936,1,0,0:0:0:0:
256,128,191143,1,8,0:0:0:0:
256,128,191349,1,0,0:0:0:0:
256,128,191453,1,8,0:0:0:0:
256,128,191556,1,8,0:0:0:0:
256,128,191660,1,0,0:0:0:0:
256,128,191763,1,8,0:0:0:0:
256,128,191867,1,0,0:0:0:0:
256,128,191970,1,0,0:0:0:0:
256,128,192177,1,8,0:0:0:0:
256,128,192281,1,8,0:0:0:0:
256,128,192384,1,0,0:0:0:0:
256,128,192487,1,8,0:0:0:0:
256,128,192591,1,0,0:0:0:0:
256,128,193005,1,4,0:0:0:0:
256,128,193212,1,8,0:0:0:0:
256,128,193315,1,8,0:0:0:0:
256,128,193418,1,0,0:0:0:0:
256,128,193625,1,8,0:0:0:0:
256,128,193832,1,0,0:0:0:0:
256,128,193936,1,8,0:0:0:0:
256,128,194039,1,8,0:0:0:0:
256,128,194143,1,0,0:0:0:0:
256,128,194246,1,8,0:0:0:0:
256,128,194453,1,0,0:0:0:0:
256,128,194556,1,0,0:0:0:0:
256,128,194660,1,8,0:0:0:0:
256,128,194763,1,8,0:0:0:0:
256,128,194867,1,8,0:0:0:0:
256,128,194970,1,0,0:0:0:0:
256,128,195177,1,8,0:0:0:0:
256,128,195281,1,0,0:0:0:0:
256,128,195487,1,0,0:0:0:0:
256,128,195591,1,8,0:0:0:0:
256,128,195694,1,0,0:0:0:0:
256,128,195798,1,0,0:0:0:0:
256,128,195901,1,8,0:0:0:0:
256,128,196005,1,8,0:0:0:0:
256,128,196108,1,0,0:0:0:0:
256,128,196315,1,0,0:0:0:0:
256,128,196522,1,8,0:0:0:0:
256,128,196729,1,0,0:0:0:0:
256,128,196832,1,0,0:0:0:0:
256,128,196936,1,8,0:0:0:0:
256,128,197143,1,0,0:0:0:0:
256,128,197246,1,8,0:0:0:0:
256,128,197349,1,8,0:0:0:0:
256,128,197453,1,0,0:0:0:0:
256,128,197556,1,8,0:0:0:0:
256,128,197763,1,0,0:0:0:0:
256,128,197867,1,0,0:0:0:0:
256,128,197970,1,8,0:0:0:0:
256,128,198073,1,0,0:0:0:0:
256,128,198177,1,8,0:0:0:0:
256,128,198281,1,8,0:0:0:0:
256,128,198384,1,0,0:0:0:0:
256,128,198591,1,8,0:0:0:0:
256,128,198798,1,8,0:0:0:0:
256,128,198901,1,8,0:0:0:0:
256,128,199005,1,0,0:0:0:0:
256,128,199108,1,8,0:0:0:0:
256,128,199212,1,0,0:0:0:0:
256,128,199418,1,12,0:0:0:0:
256,128,199625,1,0,0:0:0:0:
256,128,199832,1,8,0:0:0:0:
256,128,199936,1,8,0:0:0:0:
256,128,200039,1,0,0:0:0:0:
256,128,200246,1,0,0:0:0:0:
256,128,200453,1,8,0:0:0:0:
256,128,200556,1,0,0:0:0:0:
256,128,200660,1,0,0:0:0:0:
256,128,200763,1,8,0:0:0:0:
256,128,200867,1,0,0:0:0:0:
256,128,201074,1,8,0:0:0:0:
256,128,201177,1,8,0:0:0:0:
256,128,201281,1,0,0:0:0:0:
256,128,201384,1,8,0:0:0:0:
256,128,201487,1,0,0:0:0:0:
256,128,201694,1,8,0:0:0:0:
256,128,201901,1,8,0:0:0:0:
256,128,202005,1,0,0:0:0:0:
256,128,202108,1,8,0:0:0:0:
256,128,202212,1,8,0:0:0:0:
256,128,202315,1,0,0:0:0:0:
256,128,202418,1,0,0:0:0:0:
256,128,202522,1,8,0:0:0:0:
256,128,202729,1,8,0:0:0:0:
256,128,202936,1,0,0:0:0:0:
256,128,203145,1,8,0:0:0:0:
256,128,203351,1,0,0:0:0:0:
256,128,203455,1,8,0:0:0:0:
256,128,203558,1,8,0:0:0:0:
256,128,203662,1,8,0:0:0:0:
256,128,203765,1,0,0:0:0:0:
256,128,203869,1,8,0:0:0:0:
256,128,203972,1,0,0:0:0:0:
256,128,204076,1,0,0:0:0:0:
256,128,204179,1,8,0:0:0:0:
256,128,204283,1,0,0:0:0:0:
256,128,204386,1,8,0:0:0:0:
256,128,204489,1,8,0:0:0:0:
256,128,204593,1,0,0:0:0:0:
256,128,204800,1,0,0:0:0:0:
256,128,204903,1,8,0:0:0:0:
256,128,205110,1,8,0:0:0:0:
256,128,205214,1,0,0:0:0:0:
256,128,205317,1,0,0:0:0:0:
256,128,205418,1,8,0:0:0:0:
256,128,205472,1,8,0:0:0:0:
256,128,205524,1,8,0:0:0:0:
256,128,205625,1,0,0:0:0:0:
256,128,205729,1,0,0:0:0:0:
256,128,205834,1,8,0:0:0:0:
256,128,205938,1,8,0:0:0:0:
256,128,206039,1,0,0:0:0:0:
256,128,206142,1,0,0:0:0:0:
256,128,206246,1,8,0:0:0:0:
256,128,206660,1,0,0:0:0:0:
256,128,206867,1,8,0:0:0:0:
256,128,207073,1,0,0:0:0:0:
256,128,207177,1,8,0:0:0:0:
256,128,207280,1,0,0:0:0:0:
256,128,207384,1,0,0:0:0:0:
256,128,207487,1,8,0:0:0:0:
256,128,207901,1,4,0:0:0:0:
256,128,208211,1,12,0:0:0:0:
256,128,208522,1,4,0:0:0:0:
256,128,208832,1,12,0:0:0:0:
256,128,209142,1,12,0:0:0:0:
256,128,209349,1,4,0:0:0:0:
256,128,209556,1,12,0:0:0:0:
256,128,209763,1,12,0:0:0:0:
