osu file format v14

[General]
AudioFilename: audio.mp3
AudioLeadIn: 0
PreviewTime: 94917
Countdown: 0
SampleSet: Soft
StackLeniency: 0.2
Mode: 0
LetterboxInBreaks: 0
WidescreenStoryboard: 1

[Editor]
Bookmarks: 13752,26903,40054,53204,66355,79506,92656,95944,109095
DistanceSpacing: 0.6
BeatDivisor: 8
GridSize: 16
TimelineZoom: 2.1

[Metadata]
Title:Insane Techniques
TitleUnicode:Insane Techniques
Artist:kors k
ArtistUnicode:kors k
Creator:Plasma
Version:Yokes' EX
Source:beatmania IIDX 21 SPADA
Tags:electronic hi-tech full on video game instrumental english bemani konami ajt yokespai captin1
BeatmapID:3664066
BeatmapSetID:1783252

[Difficulty]
HPDrainRate:6
CircleSize:3.8
OverallDifficulty:9
ApproachRate:9.2
SliderMultiplier:2
SliderTickRate:1

[Events]
//Background and Video events
0,0,"insane.png",0,0
//Break Periods
//Storyboard Layer 0 (Background)
//Storyboard Layer 1 (Fail)
//Storyboard Layer 2 (Pass)
//Storyboard Layer 3 (Foreground)
//Storyboard Layer 4 (Overlay)
//Storyboard Sound Samples

[TimingPoints]
537,410.958904109589,4,2,0,50,1,0
537,-100,4,2,0,50,0,0
12865,-250,4,2,0,50,0,0
13276,-83.3333333333333,4,2,0,50,0,0
13482,-125,4,2,0,50,0,0
13687,-62.5,4,2,0,60,0,0
20673,-55.5555555555556,4,2,0,30,0,0
21084,-50,4,2,0,40,0,0
21495,-45.4545454545455,4,2,0,60,0,0
21906,-62.5,4,2,0,60,0,0
24372,-125,4,2,0,60,0,0
24783,-62.5,4,2,0,60,0,0
24989,-100,4,2,0,60,0,0
25194,-83.3333333333333,4,2,0,60,0,0
25605,-111.111111111111,4,2,0,60,0,0
25810,-100,4,2,0,50,0,0
26838,-62.5,4,2,0,70,0,0
36290,-83.3333333333333,4,2,0,70,0,0
36701,-50,4,2,0,70,0,0
39372,-83.3333333333333,4,2,0,70,0,0
39578,-62.5,4,2,0,70,0,0
46564,-125,4,2,0,70,0,0
47078,-62.5,4,2,0,70,0,0
49441,-83.3333333333333,4,2,0,70,0,0
49800,-83.3333333333333,4,2,0,5,0,0
49852,-100,4,2,0,60,0,0
53139,-100,4,2,0,40,0,0
66290,-166.666666666667,4,2,0,40,0,0
79441,-100,4,2,0,60,0,0
79749,-83.3333333333333,4,2,0,60,0,0
81393,-71.4285714285714,4,2,0,60,0,0
82728,-83.3333333333333,4,2,0,60,0,0
85605,-62.5,4,2,0,60,0,0
86016,-62.5,4,2,0,70,0,0
92591,-399.999999999997,4,2,0,70,0,0
94235,-166.666666666667,4,2,0,70,0,0
95057,-83.3333333333333,4,2,0,70,0,0
95879,-50,4,2,0,80,0,1
98756,-62.5,4,2,0,80,0,1
98961,-50,4,2,0,80,0,1
107386,-50,4,2,0,60,0,0
107591,-83.3333333333333,4,2,0,60,0,0
107797,-50,4,2,0,60,0,0
108002,-83.3333333333333,4,2,0,60,0,0
108208,-166.666666666667,4,2,0,60,0,0
109030,-50,4,2,0,80,0,1
111906,-58.8235294117647,4,2,0,80,0,1
112317,-50,4,2,0,80,0,1
113961,-83.3333333333333,4,2,0,60,0,0
115194,-62.5,4,2,0,60,0,0
115400,-50,4,2,0,60,0,0
115605,-50,4,2,0,80,0,1
122180,-399.999999999997,4,2,0,50,0,0
124543,-399.999999999997,4,2,0,5,0,0

[Colours]
Combo1 : 236,0,0
Combo2 : 192,192,192
Combo3 : 154,154,154
Combo4 : 91,173,255
Combo5 : 11,133,255
Combo6 : 255,89,89

[HitObjects]
0,0,537,5,8,3:0:0:0:
16,31,639,1,0,0:0:0:0:
47,48,742,1,0,0:0:0:0:
82,47,845,1,2,0:0:0:0:
118,41,947,1,0,0:0:0:0:
152,47,1050,1,0,0:0:0:0:
181,69,1153,1,2,0:0:0:0:
199,99,1256,1,0,0:0:0:0:
141,160,1358,5,2,0:0:0:0:
208,108,1461,2,0,L|274:103,1,50,2|0,0:0|0:0,0:0:0:0:
296,30,1667,2,0,L|362:35,1,50,2|0,0:0|0:0,0:0:0:0:
475,6,1872,1,0,0:0:0:0:
427,23,1975,1,2,0:0:0:0:
421,72,2078,1,0,0:0:0:0:
497,117,2180,69,2,0:0:0:0:
507,150,2282,1,0,0:0:0:0:
495,183,2385,1,0,0:0:0:0:
467,205,2488,1,2,0:0:0:0:
439,228,2590,1,0,0:0:0:0:
423,259,2693,1,0,0:0:0:0:
422,295,2796,1,2,0:0:0:0:
436,327,2899,1,0,0:0:0:0:
512,368,3002,5,2,0:0:0:0:
426,336,3105,2,0,L|341:354,1,50,2|0,0:0|0:0,0:0:0:0:
299,384,3310,2,0,L|214:366,1,50,2|0,0:0|0:0,0:0:0:0:
193,215,3516,1,0,0:0:0:0:
188,264,3619,1,2,0:0:0:0:
183,313,3721,1,0,0:0:0:0:
106,383,3824,69,2,0:0:0:0:
102,347,3926,1,0,0:0:0:0:
78,322,4029,1,0,0:0:0:0:
49,302,4132,1,2,0:0:0:0:
28,273,4234,1,0,0:0:0:0:
22,238,4337,1,0,0:0:0:0:
29,204,4440,1,2,0:0:0:0:
46,172,4543,1,0,0:0:0:0:
131,148,4646,5,2,0:0:0:0:
34,165,4749,2,0,L|25:105,1,50,2|0,0:0|0:0,0:0:0:0:
100,68,4954,2,0,L|109:8,1,50,2|0,0:0|0:0,0:0:0:0:
202,0,5160,1,0,0:0:0:0:
195,49,5263,1,2,0:0:0:0:
241,30,5365,1,0,0:0:0:0:
332,38,5468,69,2,0:0:0:0:
331,73,5570,1,0,0:0:0:0:
308,99,5673,1,0,0:0:0:0:
276,114,5776,1,2,0:0:0:0:
247,135,5878,1,0,0:0:0:0:
229,165,5981,1,0,0:0:0:0:
225,200,6084,1,2,0:0:0:0:
233,235,6187,1,0,0:0:0:0:
316,195,6290,5,2,0:0:0:0:
243,244,6393,2,0,L|236:314,1,50,2|0,0:0|0:0,0:0:0:0:
318,325,6598,2,0,L|325:395,1,50,2|0,0:0|0:0,0:0:0:0:
454,360,6804,1,0,0:0:0:0:
408,341,6907,1,2,0:0:0:0:
447,311,7009,1,0,0:0:0:0:
496,240,7112,5,2,3:2:0:0:
498,204,7214,1,0,3:0:0:0:
478,176,7317,1,0,3:0:0:0:
448,157,7420,1,2,3:2:0:0:
423,132,7522,1,0,3:0:0:0:
408,100,7625,1,0,3:0:0:0:
408,64,7728,1,2,3:2:0:0:
420,31,7831,1,0,3:0:0:0:
511,14,7934,5,2,3:2:0:0:
419,18,8036,2,0,L|345:23,1,50,2|0,3:2|3:0,3:0:0:0:
278,25,8242,2,0,L|204:30,1,50,2|0,3:2|3:0,3:0:0:0:
142,27,8447,1,0,3:0:0:0:
91,29,8550,1,0,3:0:0:0:
40,31,8653,1,0,3:0:0:0:
1,111,8756,69,2,3:2:0:0:
21,139,8858,1,0,3:0:0:0:
55,150,8961,1,0,3:0:0:0:
90,148,9064,1,2,3:2:0:0:
125,154,9167,1,0,3:0:0:0:
153,175,9269,1,0,3:0:0:0:
168,207,9372,1,2,3:2:0:0:
170,243,9475,1,0,3:0:0:0:
90,266,9578,5,2,3:2:0:0:
177,254,9680,2,0,L|182:339,1,50,2|0,3:2|3:0,3:0:0:0:
6,347,9886,2,0,L|11:262,1,50,2|0,3:2|3:0,3:0:0:0:
107,102,10091,1,0,3:0:0:0:
99,184,10195,1,2,3:2:0:0:
90,266,10297,1,0,3:0:0:0:
256,192,10400,12,0,12660,0:0:0:0:
90,266,12865,6,2,B|78:289|87:314|100:291|91:266,1,60,0|0,3:0|0:0,0:1:0:0:
86,258,13276,2,2,B|81:235|92:214|97:236|89:262,1,59.9999981689454,0|0,3:0|0:0,0:1:0:0:
24,351,13482,2,4,B|0:348|0:348|26:357,1,40,4|4,0:3|0:3,0:3:0:0:
203,374,13687,54,0,B|238:327|206:270|194:305|142:222|200:153,1,240,4|0,1:0|0:0,0:0:0:0:
329,170,14098,2,0,P|302:207|255:217,1,80,8|0,0:0|0:0,0:0:0:0:
104,148,14304,1,2,3:2:0:0:
315,37,14509,5,0,1:0:0:0:
309,49,14612,1,2,0:0:0:0:
346,88,14715,1,0,3:0:0:0:
333,12,14817,1,2,0:0:0:0:
225,41,14920,2,0,B|229:51|229:51|324:55,1,80,8|0,0:0|0:0,0:0:0:0:
504,108,15126,2,0,B|500:98|500:98|405:94,1,80,2|0,3:0|0:0,0:0:0:0:
9,84,15331,6,0,B|150:88|150:88|147:82|147:82|23:79,1,240,0|0,1:0|0:0,0:0:0:0:
90,167,15742,2,0,L|191:170,1,80,8|0,0:0|0:0,0:0:0:0:
18,1,15947,1,2,3:2:0:0:
21,258,16153,5,0,1:0:0:0:
31,249,16256,1,2,0:0:0:0:
13,208,16358,1,0,3:0:0:0:
43,302,16461,1,2,0:0:0:0:
100,178,16564,2,0,B|114:182|114:182|143:274,1,80,8|0,0:0|0:0,0:0:0:0:
125,353,16769,2,0,P|130:332|130:357,1,80,2|0,3:0|0:0,0:0:0:0:
240,286,16975,38,0,B|210:275|207:239|243:250|245:283,1,80,0|0,1:0|0:0,0:0:0:0:
222,384,17180,1,0,3:0:0:0:
232,372,17283,1,0,3:0:0:0:
392,342,17386,2,0,B|384:350|384:350|306:353,1,80,8|0,0:0|0:0,0:0:0:0:
265,175,17591,2,0,B|303:173|303:173|308:169|308:169|313:172|313:172|350:171,1,80,2|0,3:2|0:0,0:0:0:0:
426,261,17797,5,0,1:0:0:0:
452,182,17900,1,2,0:0:0:0:
356,177,18002,1,0,3:0:0:0:
432,268,18105,1,2,0:0:0:0:
336,263,18208,2,0,B|340:243|340:243|346:236|346:236|360:159,1,80,8|0,0:0|0:0,0:0:0:0:
512,308,18413,2,0,B|508:328|508:328|502:335|502:335|488:412,1,80,2|0,3:0|0:0,0:0:0:0:
268,194,18619,5,0,1:0:0:0:
495,82,18824,2,0,B|517:92|517:92|419:103,1,80,2|0,3:0|0:0,0:0:0:0:
383,20,19030,1,8,0:0:0:0:
386,32,19132,1,0,3:0:0:0:
339,38,19235,1,2,3:2:0:0:
429,13,19338,2,2,B|318:60|386:9|274:50,1,160,2|0,3:0|0:0,0:1:0:0:
205,128,19646,6,0,B|212:97|197:68|185:101|202:129,1,80,10|0,3:2|0:0,0:0:0:0:
111,145,19852,1,8,0:0:0:0:
214,134,19954,1,2,3:0:0:0:
201,9,20057,1,2,3:0:0:0:
33,84,20263,5,0,1:0:0:0:
43,0,20468,2,0,B|27:56|49:18|40:94,1,80,2|0,3:2|0:0,0:0:0:0:
135,202,20673,6,0,B|145:209|155:209|155:209|151:176|117:143,1,89.9999972534181,10|0,0:1|0:0,0:0:0:0:
22,261,20879,2,0,B|9:259|1:264|1:264|21:291|67:303,1,89.9999972534181,2|0,0:1|0:0,0:0:0:0:
277,137,21084,6,0,B|289:127|288:110|288:110|250:117|209:155,1,100,2|0,1:1|0:0,0:0:0:0:
205,336,21290,2,0,B|198:350|208:364|208:364|238:339|253:286,1,100,2|0,0:1|0:0,0:0:0:0:
377,22,21495,6,0,B|367:9|349:5|349:5|351:48|377:75,1,110.000003356934,10|0,0:1|0:0,0:0:0:0:
499,312,21701,2,0,B|513:318|531:312|531:312|508:276|472:265,1,110.000003356934,2|0,0:1|0:0,0:0:0:0:
47,183,21906,5,0,1:0:0:0:
128,151,22112,2,0,B|137:159|137:159|151:195|151:195|141:187|141:187|129:159,1,80,2|0,3:2|0:0,0:0:0:0:
144,281,22317,2,0,B|146:261|146:261|153:256|153:256|166:144,1,80,10|0,3:2|0:0,0:0:0:0:
54,89,22523,5,2,3:0:0:0:
126,139,22626,1,8,3:0:0:0:
93,41,22728,1,2,1:3:0:0:
135,129,22831,1,8,3:0:0:0:
152,22,22934,1,2,3:0:0:0:
148,129,23036,1,8,3:0:0:0:
287,159,23139,6,0,L|397:181,1,80,8|0,0:0|0:0,0:0:0:0:
287,62,23345,2,0,B|254:55|254:55|261:50|261:50|314:61,1,80,4|0,3:0|0:0,0:0:0:0:
454,276,23550,70,2,B|452:258|452:258|457:260|457:260|451:201|451:201|455:205|455:205|447:137|447:137|452:140|452:140|442:40,1,240,0|0,1:0|0:0,0:1:0:0:
363,4,23961,1,10,0:1:0:0:
454,54,24064,1,2,0:1:0:0:
371,181,24167,1,2,0:1:0:0:
462,231,24372,6,0,B|465:171|465:171|459:170|459:170|457:231,1,120,12|0,3:0|0:0,0:0:0:0:
475,363,24783,2,0,B|467:352|467:352|364:344,1,80,4|0,0:0|0:0,0:0:0:0:
305,372,24989,2,0,B|317:368|317:368|314:355|314:355|301:359|301:359|305:374,1,50,2|0,3:0|0:0,0:0:0:0:
6,253,25194,5,0,1:0:0:0:
243,34,25400,1,0,1:0:0:0:
310,364,25605,2,0,B|320:346|320:346|315:342|315:342|326:317,1,44.999998626709,2|0,0:1|0:0,0:0:0:0:
414,13,25810,69,2,0:3:0:0:
249,45,26016,1,2,0:0:0:0:
417,23,26119,5,2,0:3:0:0:
420,33,26324,69,2,0:3:0:0:
423,43,26632,5,2,0:3:0:0:
474,175,26838,6,0,B|485:166|485:166|495:74,1,80,2|0,1:0|0:0,0:0:0:0:
338,77,27043,2,0,B|327:86|327:86|317:178,1,80,2|0,1:0|0:0,0:0:0:0:
484,184,27249,5,8,0:0:0:0:
324,167,27352,2,0,B|299:165|304:172|304:172|373:177,1,80,0|0,3:0|0:0,0:0:0:0:
506,268,27557,2,0,L|499:374,1,80,2|0,3:0|1:0,0:0:0:0:
367,358,27763,1,2,3:0:0:0:
375,348,27865,1,0,3:0:0:0:
493,355,27968,1,2,3:0:0:0:
359,368,28071,1,10,3:2:0:0:
295,311,28276,1,2,3:0:0:0:
287,321,28379,1,0,3:0:0:0:
194,375,28482,38,0,B|208:364|208:364|200:273,1,80,2|0,1:0|0:0,0:0:0:0:
43,267,28687,2,0,B|29:278|29:278|34:339,1,80,2|0,1:0|0:0,0:0:0:0:
206,297,28893,2,0,P|195:220|86:142,1,160,8|0,0:0|0:0,0:0:0:0:
26,185,29201,1,2,3:0:0:0:
137,168,29304,1,0,1:0:0:0:
59,107,29406,1,2,3:0:0:0:
70,112,29509,1,0,3:0:0:0:
79,104,29612,1,2,3:0:0:0:
17,25,29715,2,0,B|-6:11|-50:33|0:46|17:31,1,80,10|0,3:2|0:0,0:0:0:0:
108,21,29920,2,0,B|125:6|175:19|131:41|108:27,1,80,2|0,3:0|0:0,0:0:0:0:
20,192,30126,6,0,B|26:205|26:205|112:216,1,80,2|0,1:0|0:0,0:0:0:0:
261,118,30331,2,0,B|255:105|255:105|169:94,1,80,2|0,1:0|0:0,0:0:0:0:
103,218,30536,5,8,0:0:0:0:
254,129,30639,2,0,L|240:231,1,80,0|0,3:0|0:0,0:0:0:0:
230,295,30845,2,0,B|225:333|225:333|218:344|218:344|227:280,1,80,2|0,3:0|0:0,0:0:0:0:
232,202,31050,1,2,3:0:0:0:
242,300,31153,1,0,3:0:0:0:
254,305,31256,1,2,3:0:0:0:
220,197,31358,1,10,3:2:0:0:
266,310,31564,1,2,3:0:0:0:
278,315,31667,1,0,3:0:0:0:
357,226,31769,6,0,B|351:239|351:239|365:319,1,80,2|0,1:0|0:0,0:0:0:0:
512,362,31975,2,0,B|518:349|518:349|504:269,1,80,2|0,1:0|0:0,0:0:0:0:
371,313,32180,2,0,B|359:242|359:242|365:228|365:228|351:147,1,160,8|0,0:0|0:0,0:0:0:0:
292,97,32489,2,0,P|317:141|380:144,1,80,2|0,3:0|1:0,0:0:0:0:
498,53,32694,1,2,3:0:0:0:
495,66,32797,1,0,3:0:0:0:
404,0,32900,1,2,3:0:0:0:
424,110,33002,1,10,3:2:0:0:
245,24,33208,1,2,3:0:0:0:
333,235,33413,38,0,B|342:228|342:228|358:146,1,80,2|0,1:0|0:0,0:0:0:0:
185,90,33619,2,0,B|176:97|176:97|160:179,1,80,2|0,1:0|0:0,0:0:0:0:
328,246,33824,2,0,B|321:240|308:236|308:236|301:240|301:240|288:232|276:229|276:229|270:234|270:234|258:228|243:228|243:228|237:234|237:234|223:234|211:235|211:235|208:243|208:243|194:245|182:256,1,160,8|0,0:0|0:0,0:0:0:0:
191,344,34132,2,0,L|181:246,1,80,2|0,3:0|1:0,0:0:0:0:
101,290,34338,1,2,3:0:0:0:
97,304,34441,1,0,3:0:0:0:
180,351,34543,1,2,3:0:0:0:
105,276,34646,1,10,3:2:0:0:
27,377,34852,1,2,3:0:0:0:
23,363,34955,1,0,3:0:0:0:
16,280,35057,6,0,B|20:269|20:269|5:195,1,80,2|0,1:0|0:0,0:0:0:0:
130,63,35263,2,0,B|126:74|126:74|141:148,1,80,2|0,1:0|0:0,0:0:0:0:
11,193,35468,2,0,B|52:188|69:152|69:152|75:173|75:173|104:143|163:150,1,160,8|0,0:0|0:0,0:0:0:0:
222,196,35776,1,2,3:0:0:0:
145,154,35879,1,0,1:0:0:0:
231,148,35981,1,2,3:0:0:0:
231,165,36084,1,0,3:0:0:0:
228,181,36187,1,2,3:0:0:0:
133,68,36290,2,2,B|112:62|95:45|95:45|163:28|240:75,1,179.999994506836,10|0,3:2|0:0,0:1:0:0:
316,139,36701,38,0,B|336:120|341:96|341:96|340:121|352:144,1,100,2|0,1:0|0:0,0:0:0:0:
435,101,36906,1,4,3:0:0:0:
358,152,37009,2,0,B|368:180|410:199|395:175|484:233|434:332,1,200,2|0,1:0|0:0,0:0:0:0:
336,292,37317,2,0,P|354:262|343:295,1,100,2|0,1:0|0:0,0:0:0:0:
158,279,37523,5,4,3:0:0:0:
318,376,37626,2,0,B|264:365|243:318|274:332|232:246|149:274,1,200,2|4,1:0|3:0,0:0:0:0:
67,380,37934,2,0,B|83:371|83:371|75:261,1,100,2|0,1:0|0:0,0:0:0:0:
10,183,38139,2,0,B|-6:174|-6:174|2:64,1,100,2|0,1:0|0:0,0:0:0:0:
9,0,38345,1,0,1:0:0:0:
256,192,38447,12,0,39167,0:0:0:0:
9,0,39372,6,0,P|21:7|78:11,1,59.9999981689454,2|0,3:0|0:0,0:0:0:0:
135,69,39578,2,0,P|172:43|225:61,1,80,8|0,0:0|0:0,0:0:0:0:
246,223,39783,1,2,3:0:0:0:
265,111,39886,1,2,3:0:0:0:
332,269,39989,6,0,P|322:260|330:272,4,40,4|0|0|0|0,1:0|3:0|3:0|3:0|3:0,0:0:0:0:
255,321,40297,1,2,3:0:0:0:
482,316,40400,1,12,0:0:0:0:
472,305,40502,2,0,L|476:210,1,80,2|0,3:0|0:0,0:0:0:0:
454,98,40708,2,0,P|502:122|508:170,1,80,2|0,3:0|1:0,0:0:0:0:
276,185,40913,2,0,P|250:137|273:95,1,80,2|0,3:0|0:0,0:0:0:0:
504,19,41119,1,2,3:0:0:0:
371,71,41221,1,10,3:2:0:0:
304,19,41427,1,0,3:0:0:0:
290,22,41530,1,0,3:0:0:0:
208,12,41632,6,0,B|195:28|195:28|213:103,1,80,2|0,1:3|0:0,0:0:0:0:
161,237,41838,2,0,B|174:221|174:221|156:146,1,80,2|0,3:0|0:0,0:0:0:0:
32,59,42043,1,8,0:0:0:0:
101,101,42146,2,0,P|79:68|42:53,1,80,2|0,3:0|0:0,0:0:0:0:
35,172,42352,1,2,0:0:0:0:
37,158,42454,1,2,1:3:0:0:
79,274,42557,1,2,0:0:0:0:
75,246,42660,1,2,3:0:0:0:
21,337,42763,1,2,3:0:0:0:
150,322,42865,2,0,B|172:320|172:320|239:338,1,80,10|0,3:2|0:0,0:0:0:0:
240,343,43071,2,0,B|218:345|218:345|151:327,1,80,2|0,3:0|0:0,0:0:0:0:
169,160,43276,6,0,B|192:162|192:162|196:167|196:167|265:171,1,80,2|0,1:3|0:0,0:0:0:0:
393,238,43482,2,0,B|370:236|370:236|366:231|366:231|297:227,1,80,2|0,3:0|0:0,0:0:0:0:
253,161,43687,1,10,3:2:0:0:
394,249,43790,1,2,3:0:0:0:
165,150,43995,1,2,3:0:0:0:
481,270,44201,1,2,3:0:0:0:
247,152,44406,1,2,3:0:0:0:
397,260,44509,1,10,3:2:0:0:
327,197,44715,1,0,3:0:0:0:
318,211,44817,1,0,3:0:0:0:
411,172,44920,38,0,B|414:150|414:150|402:84,1,80,2|0,1:3|0:0,0:0:0:0:
238,234,45126,2,0,B|235:256|235:256|247:322,1,80,2|0,3:0|0:0,0:0:0:0:
449,12,45331,1,8,0:0:0:0:
413,91,45434,2,0,L|429:179,1,80,2|0,3:0|0:0,0:0:0:0:
191,378,45639,1,2,3:0:0:0:
257,316,45742,53,0,1:0:0:0:
264,328,45845,1,2,0:0:0:0:
347,339,45947,1,2,3:0:0:0:
354,351,46050,1,2,0:0:0:0:
391,260,46153,5,10,3:2:0:0:
481,237,46256,1,2,3:0:0:0:
398,248,46358,1,2,3:0:0:0:
488,225,46461,1,2,3:0:0:0:
312,164,46564,6,2,B|295:174|295:174|292:190|292:190|302:204|302:204|320:205|320:205|332:192|332:192|329:174|329:174|317:165,1,120,2|0,1:0|0:0,0:1:0:0:
260,98,46975,1,10,3:2:0:0:
186,218,47078,2,0,B|196:204|196:204|185:129,1,80,2|0,3:0|0:0,0:0:0:0:
54,34,47283,2,0,B|44:48|44:48|55:123,1,80,2|0,3:0|1:0,0:0:0:0:
193,230,47489,2,0,B|203:244|203:244|192:319,1,80,2|0,3:0|0:0,0:0:0:0:
32,339,47694,1,2,3:0:0:0:
185,315,47797,1,10,3:2:0:0:
246,376,48002,1,0,3:0:0:0:
256,366,48105,1,0,3:0:0:0:
313,262,48208,6,0,B|312:279|312:279|346:350,1,80,2|0,1:3|0:0,0:0:0:0:
512,384,48413,2,0,B|513:367|513:367|479:296,1,80,2|0,3:0|0:0,0:0:0:0:
319,251,48619,1,8,0:0:0:0:
437,243,48721,2,0,L|449:138,1,80,2|0,3:0|0:0,0:0:0:0:
367,162,48927,2,0,P|426:164|447:145,1,80,2|0,3:0|1:0,0:0:0:0:
512,8,49132,1,2,0:0:0:0:
443,61,49235,1,0,3:0:0:0:
451,71,49338,1,2,0:0:0:0:
370,16,49441,2,2,B|361:8|347:7|347:7|347:12|347:12|332:12|320:18|320:18|325:23|325:23|310:24|300:37|300:37|297:33|297:33|294:43|284:52|284:52|283:45|283:45|277:55|263:60|263:60|265:52|265:52|251:59|241:52|241:52|234:56|234:56|227:56|220:49,1,209.999993591309,10|0,0:1|0:0,0:1:0:0:
215,41,49852,5,0,1:0:0:0:
22,0,50263,1,8,0:0:0:0:
210,51,50673,1,8,0:0:0:0:
17,10,51084,1,8,0:0:0:0:
205,61,51495,5,8,0:0:0:0:
12,20,51701,1,8,0:0:0:0:
200,71,51906,1,8,0:0:0:0:
7,30,52112,1,8,0:0:0:0:
128,105,52317,5,8,0:0:0:0:
63,87,52420,1,8,0:0:0:0:
123,118,52523,1,8,0:0:0:0:
58,100,52626,1,8,0:0:0:0:
102,129,52728,5,8,0:0:0:0:
67,120,52797,1,8,0:0:0:0:
97,142,52865,1,8,0:0:0:0:
62,133,52934,1,8,0:0:0:0:
92,155,53002,1,8,0:0:0:0:
57,146,53071,1,8,0:0:0:0:
87,168,53139,5,6,0:0:0:0:
0,209,53345,1,2,0:0:0:0:
95,179,53756,5,2,0:0:0:0:
107,274,53962,1,2,0:0:0:0:
107,174,54372,69,2,0:0:0:0:
201,192,54578,1,2,0:0:0:0:
107,162,54989,5,2,0:0:0:0:
153,77,55195,1,2,0:0:0:0:
94,157,55606,69,2,0:0:0:0:
28,87,55810,1,2,0:0:0:0:
87,168,56222,5,2,0:0:0:0:
0,209,56427,1,2,0:0:0:0:
95,179,56838,69,2,0:0:0:0:
107,274,57043,1,2,0:0:0:0:
107,174,57454,5,2,0:0:0:0:
201,192,57660,1,2,0:0:0:0:
107,162,58071,69,2,0:0:0:0:
153,77,58277,1,2,0:0:0:0:
94,157,58687,5,2,0:0:0:0:
28,87,58893,1,2,0:0:0:0:
0,209,59098,5,2,0:0:0:0:
107,274,59304,1,2,0:0:0:0:
201,192,59509,1,2,0:0:0:0:
425,216,59715,53,2,0:0:0:0:
512,175,59921,1,2,0:0:0:0:
417,205,60332,5,2,0:0:0:0:
405,110,60538,1,2,0:0:0:0:
405,210,60947,69,2,0:0:0:0:
311,192,61154,1,2,0:0:0:0:
405,222,61565,5,2,0:0:0:0:
359,307,61769,1,2,0:0:0:0:
418,227,62180,69,2,0:0:0:0:
484,297,62386,1,2,0:0:0:0:
425,216,62798,5,2,0:0:0:0:
512,175,63003,1,2,0:0:0:0:
417,205,63414,69,2,0:0:0:0:
405,110,63619,1,2,0:0:0:0:
405,210,64030,5,2,0:0:0:0:
311,192,64236,1,2,0:0:0:0:
405,222,64646,69,2,0:0:0:0:
359,307,64853,1,2,0:0:0:0:
418,227,65263,5,2,0:0:0:0:
484,297,65469,1,2,0:0:0:0:
512,175,65674,5,2,0:0:0:0:
405,110,65880,1,2,0:0:0:0:
311,192,66085,1,2,0:0:0:0:
256,384,66290,6,0,P|284:362|308:355,1,59.9999981689454,4|0,0:0|0:0,0:0:0:0:
145,291,66598,1,0,3:0:0:0:
205,312,66701,2,0,P|177:290|153:283,1,59.9999981689454,2|0,0:0|0:0,0:0:0:0:
274,260,67112,2,0,P|302:238|326:231,1,59.9999981689454,0|0,3:0|0:0,0:0:0:0:
163,167,67420,1,0,3:0:0:0:
223,188,67523,2,0,P|195:166|171:159,1,59.9999981689454,2|0,0:0|0:0,0:0:0:0:
292,136,67934,2,0,P|320:114|344:107,1,59.9999981689454,0|0,3:0|0:0,0:0:0:0:
181,43,68242,1,0,3:0:0:0:
241,64,68345,2,0,P|213:42|189:35,1,59.9999981689454,2|0,0:0|0:0,0:0:0:0:
343,107,68756,2,0,P|314:116|292:136,1,59.9999981689454,2|0,0:0|0:0,0:0:0:0:
512,192,69372,69,2,0:0:0:0:
512,192,69578,6,0,P|497:227|496:269,1,59.9999981689454,0|0,3:0|0:0,0:0:0:0:
436,75,69886,1,0,3:0:0:0:
444,140,69989,2,0,P|429:105|428:63,1,59.9999981689454,2|0,0:0|0:0,0:0:0:0:
398,213,70400,2,0,P|383:248|382:290,1,59.9999981689454,0|0,3:0|0:0,0:0:0:0:
322,96,70708,1,0,3:0:0:0:
330,161,70811,2,0,P|315:126|314:84,1,59.9999981689454,2|0,0:0|0:0,0:0:0:0:
284,234,71221,2,0,P|269:269|268:311,1,59.9999981689454,0|0,3:0|0:0,0:0:0:0:
208,117,71529,1,0,3:0:0:0:
216,182,71632,2,0,P|201:147|200:105,1,59.9999981689454,2|0,0:0|0:0,0:0:0:0:
266,290,72043,2,2,P|271:261|284:234,1,59.9999981689454
0,192,72454,69,2,0:0:0:0:
60,24,72660,5,2,3:0:0:0:
5,13,72763,1,2,3:0:0:0:
70,32,72865,2,0,L|84:110,1,59.9999981689454,4|0,0:0|3:0,0:0:0:0:
232,82,73173,1,0,3:0:0:0:
167,101,73275,2,0,L|153:179,1,59.9999981689454,2|0,0:0|3:0,0:0:0:0:
451,140,73687,2,0,L|437:218,1,59.9999981689454,0|0,3:0|3:0,0:0:0:0:
289,190,73995,1,0,3:0:0:0:
354,209,74097,2,0,L|368:287,1,59.9999981689454,2|0,0:0|3:0,0:0:0:0:
12,256,74509,2,0,L|26:334,1,59.9999981689454,0|0,3:0|3:0,0:0:0:0:
174,306,74817,1,0,3:0:0:0:
109,325,74920,2,0,L|95:403,1,59.9999981689454,2|0,0:0|3:0,0:0:0:0:
22,315,75331,2,2,L|12:256,1,59.9999981689454
490,350,75947,69,0,0:0:0:0:
433,365,76050,1,0,0:0:0:0:
499,357,76153,2,0,L|506:283,1,59.9999981689454,2|0,3:0|3:0,0:0:0:0:
339,289,76461,1,0,3:0:0:0:
415,279,76564,2,0,L|422:205,1,59.9999981689454,2|0,3:0|3:0,0:0:0:0:
230,211,76872,1,0,3:0:0:0:
315,201,76975,2,0,L|322:127,1,59.9999981689454,2|0,3:0|3:0,0:0:0:0:
83,145,77283,1,0,3:0:0:0:
185,130,77386,2,0,L|192:56,1,59.9999981689454,2|0,3:0|3:0,0:0:0:0:
0,37,77694,1,0,3:0:0:0:
120,0,77797,53,8,3:0:0:0:
126,14,77900,1,2,0:0:0:0:
141,17,78002,1,2,0:0:0:0:
135,3,78105,1,2,0:0:0:0:
120,0,78207,5,2,0:0:0:0:
129,21,78310,1,2,0:0:0:0:
151,25,78412,1,2,0:0:0:0:
142,4,78515,1,2,0:0:0:0:
120,0,78619,37,2,0:3:0:0:
133,31,78722,1,2,0:3:0:0:
166,37,78824,1,2,0:3:0:0:
153,6,78927,1,2,0:3:0:0:
120,0,79030,5,2,0:3:0:0:
139,46,79133,1,2,0:3:0:0:
189,55,79235,1,2,0:3:0:0:
239,64,79338,1,2,0:3:0:0:
308,18,79441,6,0,L|424:31,1,100,2|0,1:3|0:0,0:0:0:0:
490,50,79749,2,0,L|360:35,1,119.999996337891,2|0,3:0|0:0,0:0:0:0:
293,27,80057,1,2,3:0:0:0:
498,145,80263,5,2,0:0:0:0:
488,134,80365,1,2,0:0:0:0:
409,122,80468,1,2,0:0:0:0:
369,51,80571,1,2,0:0:0:0:
307,106,80673,1,8,0:3:0:0:
407,137,80879,1,8,0:3:0:0:
175,191,81084,6,0,B|183:178|183:178|177:235,2,59.9999981689454,2|0|0,1:3|0:0|0:0,0:0:0:0:
89,244,81393,2,0,B|97:257|97:257|91:200,2,69.9999978637696,2|0|0,3:0|0:0|0:0,0:0:0:0:
17,157,81701,2,0,B|11:141|11:141|4:220,1,69.9999978637696,2|0,3:0|0:0,0:0:0:0:
191,226,81906,5,2,0:0:0:0:
178,180,82009,1,2,0:0:0:0:
85,259,82112,1,2,0:0:0:0:
95,194,82215,1,2,0:0:0:0:
8,204,82317,1,8,0:3:0:0:
7,132,82523,1,8,0:3:0:0:
297,283,82728,37,2,1:3:0:0:
306,268,82831,1,0,3:0:0:0:
324,268,82934,1,0,3:0:0:0:
395,314,83037,5,2,3:0:0:0:
417,326,83140,1,8,3:2:0:0:
440,312,83243,1,0,3:0:0:0:
494,203,83345,37,2,3:0:0:0:
497,250,83447,1,0,3:0:0:0:
507,365,83550,5,2,3:0:0:0:
446,324,83653,1,0,3:0:0:0:
368,353,83756,1,2,3:0:0:0:
332,280,83858,1,0,3:0:0:0:
261,331,83961,1,10,3:2:0:0:
224,223,84167,1,8,3:0:0:0:
48,237,84372,5,2,1:3:0:0:
25,213,84475,1,0,3:0:0:0:
26,180,84578,1,0,3:0:0:0:
100,143,84680,5,2,3:0:0:0:
105,91,84783,1,8,3:2:0:0:
110,39,84886,1,0,3:0:0:0:
28,15,84989,37,2,3:0:0:0:
96,48,85091,1,0,3:0:0:0:
182,20,85194,5,2,3:0:0:0:
222,96,85297,1,0,3:0:0:0:
281,20,85400,1,2,3:0:0:0:
233,102,85502,1,0,3:0:0:0:
338,104,85605,2,0,L|448:104,1,80,10|0,1:0|0:0,0:0:0:0:
218,109,85810,2,0,L|108:109,1,80,2|0,1:0|0:0,0:0:0:0:
482,252,86016,5,2,1:3:0:0:
471,233,86119,1,0,1:0:0:0:
474,212,86221,1,0,1:0:0:0:
384,270,86324,5,2,1:3:0:0:
387,249,86426,1,0,1:3:0:0:
376,230,86529,1,0,1:3:0:0:
489,282,86632,5,2,1:3:0:0:
478,263,86735,1,0,1:3:0:0:
391,300,86838,5,2,1:3:0:0:
394,279,86941,1,0,1:3:0:0:
496,312,87043,5,2,1:3:0:0:
485,293,87146,1,0,1:3:0:0:
398,330,87249,5,2,1:0:0:0:
401,309,87454,1,2,0:1:0:0:
30,252,87660,22,0,B|45:215|45:215|31:94,1,160,2|0,1:3|0:0,0:0:0:0:
127,269,87968,2,0,B|125:226|125:226|179:106,1,160,2|0,3:0|0:0,0:0:0:0:
23,282,88276,5,2,3:2:0:0:
34,263,88379,1,2,3:2:0:0:
121,300,88482,5,2,3:2:0:0:
118,279,88585,1,2,3:2:0:0:
16,312,88687,5,2,1:0:0:0:
27,293,88893,1,2,1:0:0:0:
114,330,89098,5,0,1:0:0:0:
111,309,89201,1,0,1:0:0:0:
55,384,89304,6,2,B|65:370|65:370|233:352,1,160,2|0,1:0|0:0,0:1:0:0:
305,355,89612,2,2,B|447:371|447:371|457:385,1,160,2|0,1:0|0:0,0:1:0:0:
473,192,89920,2,2,L|313:192,1,160,2|0,1:0|0:0,0:1:0:0:
199,192,90228,2,2,L|39:192,1,160,2|0,1:0|0:0,0:1:0:0:
0,0,90537,2,2,B|12:13|12:13|80:18,1,80,2|0,1:0|0:0,0:1:0:0:
437,17,90742,2,2,B|500:13|500:13|512:0,1,80,2|0,1:0|0:0,0:1:0:0:
203,0,90947,5,2,1:3:0:0:
203,16,91050,1,2,1:3:0:0:
309,0,91153,1,2,1:3:0:0:
309,16,91256,1,2,1:3:0:0:
164,95,91358,5,2,1:3:0:0:
192,124,91461,1,2,1:3:0:0:
348,95,91564,1,2,1:3:0:0:
320,124,91667,1,2,1:3:0:0:
122,186,91769,6,0,L|166:210,2,40,2|0|0,3:0|3:0|3:0,3:0:0:0:
390,186,91975,2,0,L|346:210,2,40,2|0|0,3:0|3:0|3:0,3:0:0:0:
60,255,92180,2,0,L|104:279,2,40,2|0|0,3:0|3:0|3:0,3:0:0:0:
452,255,92386,2,0,L|408:279,2,40,2|0|0,3:0|3:0|3:0,3:0:0:0:
256,192,92591,5,4,1:0:0:0:
256,192,92694,12,2,95057,0:0:0:0:
256,192,95468,5,8,0:3:0:0:
4,227,95879,38,0,B|32:205|32:205|129:219,1,100,6|0,1:0|0:0,0:0:0:0:
146,384,96084,1,0,3:0:0:0:
154,280,96187,2,0,B|181:236|181:236|158:389,1,200,2|0,3:1|3:0,0:0:0:0:
64,305,96495,1,2,3:1:0:0:
71,296,96598,1,2,3:2:0:0:
95,214,96701,5,2,1:3:0:0:
154,280,96804,1,2,3:2:0:0:
162,164,96906,1,2,3:0:0:0:
165,285,97009,1,2,3:2:0:0:
243,173,97112,1,8,3:2:0:0:
173,295,97317,1,2,3:0:0:0:
264,359,97523,6,0,B|248:349|248:349|338:356,1,100,2|0,1:0|0:0,0:0:0:0:
469,230,97728,1,0,3:0:0:0:
478,239,97831,2,0,B|493:258|493:258|478:359,1,100,2|0,3:1|0:0,0:0:0:0:
409,383,98036,1,0,3:0:0:0:
386,290,98139,2,0,B|374:215|374:215|389:196,1,100,2|0,3:1|0:0,0:0:0:0:
510,152,98345,5,2,1:3:0:0:
392,185,98447,1,2,3:2:0:0:
455,129,98550,1,2,3:0:0:0:
482,140,98653,1,2,3:2:0:0:
451,115,98756,2,0,B|432:106|432:106|428:111|428:111|406:97|406:97|406:103|406:103|376:100,1,80,10|0,3:2|0:0,0:0:0:0:
457,20,98961,2,0,B|438:9|438:9|334:18,1,100,2|0,3:0|0:0,0:0:0:0:
280,98,99167,38,0,B|299:85|299:85|189:98,1,100,2|0,1:0|0:0,0:0:0:0:
37,145,99372,1,0,3:0:0:0:
6,66,99475,2,0,B|17:3|17:3|32:182,1,200,2|0,3:1|3:0,0:0:0:0:
81,221,99783,5,2,3:1:0:0:
146,166,99886,1,2,3:2:0:0:
124,78,99989,1,2,1:3:0:0:
139,161,100092,1,2,3:2:0:0:
226,186,100194,1,2,3:3:0:0:
146,158,100297,1,2,3:2:0:0:
81,221,100400,1,10,3:2:0:0:
146,166,100605,1,2,3:0:0:0:
0,317,100810,6,0,B|9:302|9:302|215:311,1,200,2|0,1:0|3:0,0:0:0:0:
317,363,101119,2,0,B|326:378|326:378|532:369,1,200,2|0,3:1|3:0,0:0:0:0:
482,281,101427,1,2,3:1:0:0:
510,362,101530,1,2,3:2:0:0:
394,265,101632,5,2,1:3:0:0:
474,290,101735,1,2,3:2:0:0:
499,210,101838,1,0,3:0:0:0:
419,185,101941,1,2,3:2:0:0:
386,269,102043,1,10,3:2:0:0:
394,265,102249,1,2,3:0:0:0:
305,372,102454,38,0,B|313:358|313:358|300:276,1,100,6|0,1:0|0:0,0:0:0:0:
180,236,102660,1,0,3:0:0:0:
258,202,102763,2,0,B|250:188|250:188|276:2,1,200,2|0,3:1|3:0,0:0:0:0:
382,12,103071,2,0,B|361:23|361:23|275:12,1,100,2|0,3:1|0:0,0:0:0:0:
345,124,103276,5,2,1:3:0:0:
347,107,103379,1,2,3:2:0:0:
433,147,103482,1,2,3:0:0:0:
427,84,103584,1,2,3:2:0:0:
498,195,103687,1,10,3:2:0:0:
502,40,103893,1,2,3:0:0:0:
421,226,104098,6,0,B|427:242|427:242|295:227,1,100,2|0,1:0|0:0,0:0:0:0:
262,187,104304,1,0,3:0:0:0:
265,107,104406,2,0,B|281:101|281:101|271:183,1,100,2|0,3:1|0:0,0:0:0:0:
228,266,104612,1,0,3:0:0:0:
128,250,104715,2,0,B|144:267|144:267|237:277,1,100,2|0,3:1|0:0,0:0:0:0:
500,326,104920,5,2,1:3:0:0:
429,366,105023,1,2,3:2:0:0:
385,297,105126,1,2,3:0:0:0:
320,377,105228,1,2,3:2:0:0:
236,277,105331,2,0,B|229:268|229:268|244:172,1,100,10|0,3:2|0:0,0:0:0:0:
129,261,105536,2,0,B|136:270|136:270|121:366,1,100,2|0,3:0|0:0,0:0:0:0:
10,376,105742,38,0,L|42:162,1,200,6|0,1:0|0:0,0:0:0:0:
8,32,106050,2,0,B|37:0|37:0|10:186,1,200,2|0,3:1|0:0,0:0:0:0:
47,234,106358,1,2,3:1:0:0:
99,137,106461,1,2,3:2:0:0:
175,173,106564,5,2,1:3:0:0:
177,186,106667,1,2,3:2:0:0:
232,259,106769,1,2,3:0:0:0:
257,151,106872,1,2,3:2:0:0:
365,176,106975,1,10,3:2:0:0:
340,284,107180,1,2,3:0:0:0:
14,42,107386,6,0,B|44:38|44:38|46:31|46:31|168:20,1,100,2|0,1:0|0:0,0:0:0:0:
360,49,107591,2,0,B|381:51|381:51|385:47|385:47|424:50,1,59.9999981689454,2|0,1:3|0:0,0:0:0:0:
498,342,107797,2,0,B|467:345|467:345|465:352|465:352|343:363,1,100,2|0,1:0|0:0,0:0:0:0:
152,335,108002,2,0,B|131:333|131:333|127:337|127:337|88:334,1,59.9999981689454,2|0,1:3|0:0,0:0:0:0:
63,181,108208,6,2,B|89:183|89:183|95:188|95:188|117:190|117:190|124:194|124:194|149:195,1,89.9999972534181,2|0,1:0|0:0,0:1:0:0:
160,202,108619,5,10,3:2:0:0:
163,171,108721,1,2,0:0:0:0:
245,120,108824,1,2,3:0:0:0:
235,269,108927,1,2,0:0:0:0:
236,112,109030,22,0,B|245:98|245:98|434:80,1,200,6|0,1:0|0:0,0:0:0:0:
511,69,109338,1,2,1:0:0:0:
446,185,109441,2,0,B|432:176|432:176|420:42,1,100,10|0,3:2|0:0,0:0:0:0:
496,3,109646,1,2,3:1:0:0:
503,57,109749,1,2,3:2:0:0:
429,102,109852,5,2,1:3:0:0:
384,24,109954,1,2,3:2:0:0:
279,59,110057,1,2,3:0:0:0:
371,168,110160,1,2,3:2:0:0:
373,249,110263,1,10,3:2:0:0:
199,167,110468,1,2,3:0:0:0:
512,321,110673,6,0,B|501:310|501:310|405:321,1,100,2|0,1:0|0:0,0:0:0:0:
293,274,110879,1,0,3:0:0:0:
345,384,110982,1,2,3:1:0:0:
355,380,111084,2,0,B|347:366|347:366|254:352,1,100,10|0,3:2|3:0,3:0:0:0:
93,355,111290,2,0,B|101:369|101:369|189:382,1,100,2|0,3:1|3:0,3:0:0:0:
141,283,111495,5,2,1:3:0:0:
35,289,111598,1,2,3:2:0:0:
25,281,111701,1,2,3:0:0:0:
147,272,111804,1,2,3:2:0:0:
4,274,111906,2,2,B|79:265|79:265|85:261|85:261|92:264|92:264|181:255,1,170.000003242493,10|0,3:2|0:0,0:1:0:0:
7,0,112317,38,0,B|-1:12|-1:12|17:124,1,100,2|0,1:0|0:0,0:0:0:0:
27,179,112523,1,0,3:0:0:0:
245,104,112626,2,0,B|267:73|267:73|96:84,1,200,2|0,3:1|0:0,0:0:0:0:
123,174,112934,1,2,3:1:0:0:
93,84,113036,1,2,3:2:0:0:
239,110,113139,5,2,1:3:0:0:
246,116,113242,1,2,3:2:0:0:
123,182,113345,1,2,3:0:0:0:
86,77,113447,1,2,3:2:0:0:
237,121,113550,1,10,3:2:0:0:
244,127,113756,1,2,3:0:0:0:
332,83,113961,38,0,B|339:95|339:95|328:166,1,59.9999981689454,2|0,1:3|0:0,0:0:0:0:
340,90,114115,6,0,B|347:102|347:102|336:173,1,59.9999981689454,2|0,0:3|0:0,0:0:0:0:
348,97,114269,70,0,B|355:109|355:109|344:180,1,59.9999981689454,2|0,0:3|0:0,0:0:0:0:
356,104,114424,6,0,B|363:116|363:116|352:187,1,59.9999981689454,2|0,0:3|0:0,0:0:0:0:
364,111,114578,70,0,B|371:123|371:123|360:194,1,59.9999981689454,2|0,0:3|0:0,0:0:0:0:
301,232,114783,54,0,B|278:237|257:222|282:216|301:229,1,59.9999981689454,8|0,3:0|0:0,0:0:0:0:
397,251,114989,2,0,B|416:264|441:258|420:243|397:248,1,59.9999981689454,4|0,3:0|0:0,0:0:0:0:
230,308,115194,6,0,L|340:327,1,80,2|0,3:0|0:0,0:0:0:0:
485,368,115400,2,0,B|481:356|481:356|365:335,1,100,2|0,0:1|0:0,0:0:0:0:
0,214,115605,38,0,B|13:201|13:201|198:236,1,200,2|0,1:0|3:0,0:0:0:0:
239,313,115913,2,0,B|252:326|252:326|444:286,1,200,2|0,3:1|3:0,0:0:0:0:
495,231,116221,1,2,3:1:0:0:
500,247,116324,1,2,3:2:0:0:
416,196,116427,5,2,1:3:0:0:
490,147,116530,1,2,3:2:0:0:
371,110,116632,1,2,3:0:0:0:
501,142,116735,1,2,3:2:0:0:
425,22,116838,1,10,3:2:0:0:
509,154,117043,1,2,3:0:0:0:
512,0,117249,6,0,B|505:12|505:12|307:26,1,200,0|0,1:0|3:0,0:0:0:0:
281,113,117557,2,0,B|274:101|274:101|76:87,1,200,2|0,3:1|3:0,0:0:0:0:
7,3,117865,2,0,L|-1:131,1,100,2|0,3:1|0:0,0:0:0:0:
60,279,118071,22,0,B|59:257|59:257|50:294,2,50,0|0|0,1:0|3:0|3:0,1:0:0:0:
59,171,118276,1,0,3:0:0:0:
145,266,118379,1,0,1:0:0:0:
145,279,118482,1,0,3:0:0:0:
96,357,118584,69,2,3:0:0:0:
155,289,118687,1,2,1:3:0:0:
214,221,118790,1,2,3:0:0:0:
207,117,118893,38,0,B|216:141|216:141|319:153,1,100,0|0,1:0|0:0,0:0:0:0:
305,267,119098,2,0,B|296:243|296:243|193:231,1,100,0|0,1:0|0:0,0:0:0:0:
134,152,119304,1,8,0:0:0:0:
378,232,119509,1,2,3:0:0:0:
391,237,119612,1,0,3:0:0:0:
462,192,119715,6,0,B|473:166|473:166|458:68,1,100,0|0,1:0|0:0,0:0:0:0:
50,192,119920,2,0,B|39:218|39:218|54:316,1,100,0|0,1:0|0:0,0:0:0:0:
314,146,120126,1,8,0:0:0:0:
309,97,120228,1,2,0:0:0:0:
198,238,120331,1,2,0:0:0:0:
203,287,120433,1,2,0:0:0:0:
285,333,120536,6,0,B|295:320|295:320|287:232,1,100,4|0,3:2|0:0,0:0:0:0:
225,36,120742,1,2,3:0:0:0:
302,89,120845,1,2,3:0:0:0:
202,111,120947,1,2,3:0:0:0:
309,97,121050,1,2,3:0:0:0:
245,172,121153,1,2,3:0:0:0:
316,106,121256,1,2,3:0:0:0:
357,2,121358,5,0,1:0:0:0:
351,21,121461,1,0,1:0:0:0:
378,49,121564,1,0,1:0:0:0:
436,36,121667,1,0,1:0:0:0:
425,114,121769,1,0,1:0:0:0:
483,101,121872,1,0,1:0:0:0:
510,129,121975,1,0,1:0:0:0:
504,148,122078,1,0,1:0:0:0:
500,138,122180,1,4,1:0:0:0:
256,192,122283,12,0,124646,0:0:0:0:
