osu file format v14

[General]
AudioFilename: audio.mp3
AudioLeadIn: 0
PreviewTime: 94917
Countdown: 0
SampleSet: Soft
StackLeniency: 0.4
Mode: 0
LetterboxInBreaks: 0
WidescreenStoryboard: 1

[Editor]
DistanceSpacing: 1.2
BeatDivisor: 4
GridSize: 32
TimelineZoom: 2

[Metadata]
Title:Insane Techniques
TitleUnicode:Insane Techniques
Artist:kors k
ArtistUnicode:kors k
Creator:Plasma
Version:Normal
Source:beatmania IIDX 21 SPADA
Tags:electronic hi-tech full on video game instrumental english bemani konami ajt yokespai captin1
BeatmapID:3666619
BeatmapSetID:1783252

[Difficulty]
HPDrainRate:3
CircleSize:3.2
OverallDifficulty:4
ApproachRate:5
SliderMultiplier:1.2
SliderTickRate:1

[Events]
//Background and Video events
0,0,"insane.png",0,0
//Break Periods
2,53339,65090
//Storyboard Layer 0 (Background)
//Storyboard Layer 1 (Fail)
//Storyboard Layer 2 (Pass)
//Storyboard Layer 3 (Foreground)
//Storyboard Layer 4 (Overlay)
//Storyboard Sound Samples

[TimingPoints]
537,410.958904109589,4,2,0,50,1,0
13687,-100,4,2,0,60,0,0
20673,-100,4,2,0,30,0,0
21084,-100,4,2,0,40,0,0
21495,-100,4,2,0,60,0,0
25194,-111.111111111111,4,2,0,60,0,0
25810,-111.111111111111,4,2,0,50,0,0
26838,-95.2380952380952,4,2,0,70,0,0
49852,-95.2380952380952,4,2,0,60,0,0
53139,-95.2380952380952,4,2,0,40,0,0
66290,-117.647058823529,4,2,0,40,0,0
79441,-100,4,2,0,60,0,0
86016,-100,4,2,0,70,0,0
95879,-90.9090909090909,4,2,0,80,0,1
107386,-100,4,2,0,60,0,0
109030,-90.9090909090909,4,2,0,80,0,1
113961,-100,4,2,0,60,0,0
114783,-100,4,2,0,60,0,0
115605,-90.9090909090909,4,2,0,80,0,1
118071,-100,4,2,0,80,0,1
118893,-83.3333333333333,4,2,0,80,0,1
120536,-81.3008130081301,4,2,0,80,0,1
122180,-81.3008130081301,4,2,0,50,0,0
124543,-100,4,2,0,5,0,0
124646,-100,4,2,0,5,0,0

[Colours]
Combo1 : 27,113,158
Combo2 : 238,145,145
Combo3 : 234,38,38
Combo4 : 112,182,194

[HitObjects]
256,192,10400,12,0,12865,3:0:0:0:
439,56,13687,6,0,L|426:184,1,120,4|8,1:0|0:0,0:0:0:0:
448,231,14304,1,2,3:2:0:0:
468,287,14509,2,0,P|457:334|432:355,2,60,0|0|8,1:0|3:0|0:0,0:0:0:0:
360,233,15331,2,0,L|232:220,1,120,0|8,1:0|0:0,0:0:0:0:
185,244,15947,1,2,3:2:0:0:
143,287,16153,2,0,P|154:334|179:355,2,60,0|0|8,1:0|3:0|0:0,0:0:0:0:
155,167,16975,6,0,L|168:39,1,120,0|8,1:0|0:0,0:0:0:0:
214,10,17591,1,2,3:2:0:0:
271,26,17797,2,0,P|300:23|326:8,2,60,0|0|8,1:0|3:0|0:0,0:0:0:0:
279,146,18619,2,0,P|345:137|403:100,1,120,0|8,1:0|0:0,0:0:0:0:
432,67,19235,2,0,L|455:202,1,120,2|10,3:2|3:2,0:0:0:0:
495,227,19852,2,0,L|483:294,1,60,8|2,0:0|3:0,0:0:0:0:
462,341,20263,5,0,1:0:0:0:
394,242,20673,2,0,P|316:203|268:206,1,120,10|2,0:1|1:1,0:0:0:0:
231,226,21290,1,2,0:1:0:0:
231,226,21495,2,0,P|203:259|193:287,1,60,10|2,0:1|0:1,0:0:0:0:
158,320,21906,2,0,L|136:194,1,120,0|10,1:0|3:2,0:0:0:0:
165,150,22523,1,2,3:0:0:0:
165,150,22728,2,0,L|154:86,1,60,2|2,1:3|3:0,0:0:0:0:
183,38,23139,1,8,0:0:0:0:
63,42,23550,6,2,B|28:56|28:56|10:152,1,120,0|10,1:0|0:1,0:1:0:0:
8,200,24167,1,2,0:1:0:0:
8,200,24372,2,0,P|56:214|145:183,1,120,12|4,3:0|0:0,0:0:0:0:
208,136,25194,6,0,B|332:117|332:117|375:75|375:75|514:54,1,323.999990112305,0|0,1:0|0:0,0:0:0:0:
488,160,26838,6,0,L|467:287,1,125.999996154785,2|8,1:0|0:0,0:0:0:0:
417,321,27454,1,0,0:0:0:0:
417,321,27660,1,0,1:0:0:0:
299,291,28071,1,10,3:2:0:0:
299,291,28276,1,2,3:0:0:0:
236,296,28482,2,0,L|150:305,1,62.9999980773926,2|2,1:0|1:0,0:0:0:0:
110,308,28893,2,0,P|65:264|61:201,1,125.999996154785,8|0,0:0|1:0,0:0:0:0:
74,145,29509,1,0,3:0:0:0:
74,145,29715,2,0,L|85:61,1,62.9999980773926,10|2,3:2|3:0,0:0:0:0:
94,20,30126,6,0,B|155:38|155:38|241:12,1,125.999996154785,2|8,1:0|0:0,0:0:0:0:
199,144,30947,2,0,B|260:126|260:126|319:144,1,125.999996154785,0|10,0:0|3:2,0:0:0:0:
387,37,31769,2,0,B|447:56,1,62.9999980773926,2|2,1:0|1:0,0:0:0:0:
431,117,32180,2,0,P|422:190|457:253,1,125.999996154785,8|0,0:0|1:0,0:0:0:0:
482,292,32797,1,0,3:0:0:0:
482,292,33002,2,0,L|410:308,1,62.9999980773926,10|2,3:2|3:0,0:0:0:0:
401,365,33413,6,0,P|314:362|272:323,1,125.999996154785,2|8,1:0|0:0,0:0:0:0:
251,293,34030,1,0,0:0:0:0:
251,293,34235,1,0,1:0:0:0:
130,325,34646,1,10,3:2:0:0:
130,325,34852,1,2,3:0:0:0:
74,296,35057,2,0,L|61:211,1,62.9999980773926,2|2,1:0|1:0,0:0:0:0:
53,171,35468,2,0,P|36:104|56:26,1,125.999996154785,8|0,0:0|1:0,0:0:0:0:
91,5,36084,1,0,3:0:0:0:
91,5,36290,1,10,3:2:0:0:
177,96,36701,6,0,L|283:83,1,94.499997116089,2|2,1:0|1:0,0:0:0:0:
335,153,37317,2,0,L|428:164,1,94.499997116089,2|2,1:0|1:0,0:0:0:0:
479,244,37934,2,0,L|486:306,1,62.9999980773926,2|2,1:0|1:0,0:0:0:0:
454,361,38345,1,0,1:0:0:0:
209,333,39372,1,2,3:0:0:0:
209,333,39578,2,0,P|205:298|228:255,1,62.9999980773926,8|2,0:0|3:0,0:0:0:0:
261,230,39989,6,0,L|237:91,1,125.999996154785,4|12,1:0|0:0,0:0:0:0:
227,43,40605,1,0,0:0:0:0:
227,43,40810,1,0,1:0:0:0:
100,44,41221,2,0,L|89:125,1,62.9999980773926,10|0,3:2|3:0,0:0:0:0:
41,145,41632,2,0,L|64:283,1,125.999996154785,2|8,1:3|0:0,0:0:0:0:
160,347,42454,2,0,L|246:361,1,62.9999980773926,2|2,1:3|3:0,0:0:0:0:
272,319,42865,2,0,L|334:308,1,62.9999980773926,10|2,3:2|3:0,0:0:0:0:
391,333,43276,6,0,P|456:311|471:249,1,125.999996154785,2|10,1:3|3:2,0:0:0:0:
465,197,43893,1,0,0:0:0:0:
465,197,44098,2,0,L|445:55,1,125.999996154785,0|10,0:0|3:2,0:0:0:0:
333,18,44920,2,0,B|265:7|265:7|208:48,1,125.999996154785,2|8,1:3|0:0,0:0:0:0:
182,91,45536,1,0,0:0:0:0:
120,75,45742,2,0,P|88:73|60:87,1,62.9999980773926,0|2,1:0|3:0,0:0:0:0:
28,140,46153,2,0,P|26:171|40:199,1,62.9999980773926,10|2,3:2|3:0,0:0:0:0:
93,232,46564,5,2,1:0:0:0:
200,167,46975,2,0,L|336:148,1,125.999996154785,10|0,3:2|1:0,0:0:0:0:
387,140,47591,1,0,0:0:0:0:
435,100,47797,2,0,L|511:89,1,62.9999980773926,10|0,3:2|3:0,0:0:0:0:
506,153,48208,2,0,P|503:208|443:245,1,125.999996154785,2|8,1:3|0:0,0:0:0:0:
388,255,48824,1,0,0:0:0:0:
388,255,49030,2,0,L|401:325,2,62.9999980773926,0|0|10,1:0|3:0|0:1,0:0:0:0:
365,130,49852,6,0,P|300:108|261:49,1,125.999996154785,0|8,1:0|0:0,0:0:0:0:
141,86,50673,2,0,P|118:149|60:188,1,125.999996154785,8|8,0:0|0:0,0:0:0:0:
152,281,51495,2,0,P|172:255|209:233,1,62.9999980773926,8|8,0:0|0:0,0:0:0:0:
258,224,51906,2,0,P|289:226|330:242,1,62.9999980773926,8|8,0:0|0:0,0:0:0:0:
365,278,52317,2,0,L|381:129,1,125.999996154785,8|8,0:0|0:0,0:0:0:0:
391,27,53139,5,6,0:0:0:0:
442,137,66290,6,0,L|462:19,2,102.000001945496,4|2|0,0:0|0:0|3:0,0:0:0:0:
345,171,67523,1,2,0:0:0:0:
247,139,67934,2,0,L|227:21,2,102.000001945496,0|2|2,3:0|0:0|0:0,0:0:0:0:
373,247,69578,6,0,L|424:239,1,51.0000009727478,0|0,3:0|0:0,0:0:0:0:
473,227,69989,2,0,L|456:127,2,102.000001945496,2|0|2,0:0|3:0|0:0,0:0:0:0:
421,315,71221,2,0,L|320:332,2,102.000001945496,0|2|2,3:0|0:0|0:0,0:0:0:0:
406,213,72454,2,0,L|394:144,1,51.0000009727478,2|2,0:0|3:0,0:0:0:0:
390,112,72865,5,4,0:0:0:0:
368,12,73276,2,0,B|319:2|319:2|270:20,2,102.000001945496,2|0|2,0:0|3:0|0:0,0:0:0:0:
305,93,74509,2,0,B|256:111|256:111|207:101,2,102.000001945496,0|2|2,3:0|0:0|0:0,0:0:0:0:
142,207,76153,6,0,L|155:281,1,51.0000009727478,2|0,3:0|3:0,0:0:0:0:
157,307,76564,2,0,P|115:336|53:327,2,102.000001945496,2|2|2,3:0|3:0|3:0,0:0:0:0:
238,368,77797,5,8,3:0:0:0:
470,153,79441,6,0,P|473:211|459:265,2,90,2|2|2,1:3|3:0|3:0,0:0:0:0:
434,104,80263,2,0,P|425:51|434:20,2,60,2|2|8,0:0|0:0|0:3,0:0:0:0:
368,204,81084,2,0,P|331:249|272:254,1,120,2|0,1:3|0:0,0:0:0:0:
194,163,81906,2,0,L|121:150,1,60,2|2,0:0|0:0,0:0:0:0:
111,102,82317,1,8,0:3:0:0:
111,102,82523,1,8,0:3:0:0:
134,46,82728,6,0,P|193:39|236:82,1,120,2|8,1:3|3:2,0:0:0:0:
250,136,83345,1,2,3:0:0:0:
250,136,83550,2,0,L|241:198,1,60,2|2,3:0|3:0,0:0:0:0:
190,226,83961,2,0,L|199:288,1,60,10|8,3:2|3:0,0:0:0:0:
214,343,84372,2,0,P|273:345|319:309,1,120,2|8,1:3|3:2,0:0:0:0:
345,191,85194,2,0,P|381:221|412:224,1,60,2|2,3:0|3:0,0:0:0:0:
456,218,85605,1,10,1:0:0:0:
456,218,85810,1,2,1:0:0:0:
447,158,86016,6,0,L|439:91,1,60,2|0,1:3|1:0,0:0:0:0:
394,58,86427,2,0,L|334:65,1,60,0|2,1:3|1:3,0:0:0:0:
282,95,86838,2,0,L|215:87,1,60,2|2,1:3|1:3,0:0:0:0:
190,36,87249,1,2,1:0:0:0:
190,36,87454,1,2,0:1:0:0:
124,43,87660,6,0,P|61:64|31:114,1,120,2|0,1:3|0:0,0:0:0:0:
28,177,88276,1,2,3:2:0:0:
28,177,88482,2,0,L|23:252,1,60,2|2,3:2|1:0,0:0:0:0:
18,296,88893,1,2,1:0:0:0:
135,356,89304,6,2,P|188:340|218:297,1,90,2|2,1:0|1:0,0:1:0:0:
280,275,89920,2,2,P|287:221|261:175,1,90,2|2,1:0|1:0,0:1:0:0:
219,128,90537,2,2,P|199:105|190:76,1,60,2|2,1:0|1:0,0:1:0:0:
211,21,90947,6,0,L|276:30,1,60,2|2,1:3|1:3,0:0:0:0:
324,56,91358,2,0,L|384:48,1,60,2|2,1:3|1:3,0:0:0:0:
442,38,91769,2,0,B|453:57|476:65|476:65|483:112|483:112|486:151|459:172|459:172|424:198|430:242,1,240,2|4,3:0|1:0,3:0:0:0:
256,192,93002,12,2,95057,0:0:0:0:
322,128,95879,6,0,P|299:71|344:12,1,132.00000402832,6|0,1:0|0:0,0:0:0:0:
412,0,96495,1,2,3:1:0:0:
426,77,96701,2,0,L|494:87,1,66.0000020141602,2|2,1:3|3:0,0:0:0:0:
503,165,97112,1,8,3:2:0:0:
359,232,97523,2,0,P|343:289|377:354,1,132.00000402832,2|0,1:0|0:0,0:0:0:0:
430,288,98139,1,2,3:1:0:0:
430,288,98345,2,0,L|507:299,1,66.0000020141602,2|2,1:3|3:0,0:0:0:0:
506,218,98756,2,0,L|429:207,1,66.0000020141602,10|2,3:2|3:0,0:0:0:0:
381,155,99167,6,0,P|331:131|252:179,1,132.00000402832,2|0,1:0|0:0,0:0:0:0:
232,233,99783,1,2,3:1:0:0:
232,233,99989,2,0,L|155:222,1,66.0000020141602,2|2,1:3|3:3,0:0:0:0:
89,204,100400,1,10,3:2:0:0:
8,68,100810,2,0,B|22:41|22:41|132:20,1,132.00000402832,2|0,1:0|0:0,0:0:0:0:
203,8,101427,1,2,3:1:0:0:
203,8,101632,2,0,P|247:33|276:36,1,66.0000020141602,2|0,1:3|3:0,0:0:0:0:
338,53,102043,2,0,P|327:102|333:131,1,66.0000020141602,10|2,3:2|3:0,0:0:0:0:
362,189,102454,6,0,L|500:204,1,132.00000402832,6|0,1:0|0:0,0:0:0:0:
511,285,103071,1,2,3:1:0:0:
511,285,103276,2,0,P|503:323|479:354,1,66.0000020141602,2|2,1:3|3:0,0:0:0:0:
409,355,103687,1,10,3:2:0:0:
275,270,104098,2,0,L|117:255,1,132.00000402832,2|0,1:0|0:0,0:0:0:0:
78,301,104715,1,2,3:1:0:0:
78,301,104920,2,0,L|-3:290,1,66.0000020141602,2|2,1:3|3:0,0:0:0:0:
26,214,105331,2,0,L|34:148,1,66.0000020141602,10|2,3:2|3:0,0:0:0:0:
56,72,105742,6,0,P|116:47|177:65,1,132.00000402832,6|0,1:0|0:0,0:0:0:0:
222,134,106358,1,2,3:1:0:0:
222,134,106564,2,0,P|218:183|201:211,1,66.0000020141602,2|2,1:3|3:0,0:0:0:0:
151,248,106975,1,10,3:2:0:0:
151,248,107180,1,2,3:0:0:0:
224,276,107386,6,0,L|304:263,1,60,2|2,1:0|1:3,0:0:0:0:
347,310,107797,2,0,L|427:297,1,60,2|2,1:0|1:3,0:0:0:0:
482,282,108208,2,2,B|474:252|449:235|449:235|436:165,1,120,2|10,1:0|3:2,0:1:0:0:
404,19,109030,5,6,1:0:0:0:
248,53,109441,2,0,B|229:95|229:95|246:210,1,132.00000402832,10|2,3:2|1:3,0:0:0:0:
308,232,110057,1,2,3:0:0:0:
308,232,110263,2,0,L|295:298,1,66.0000020141602,10|2,3:2|3:0,0:0:0:0:
261,368,110673,1,2,1:0:0:0:
155,249,111084,2,0,P|90:257|47:305,1,132.00000402832,10|2,3:2|1:3,3:0:0:0:
91,376,111701,1,2,3:0:0:0:
91,376,111906,2,2,P|154:365|196:317,1,132.00000402832,10|2,3:2|1:0,0:1:0:0:
232,161,112728,6,0,L|253:26,1,132.00000402832,10|2,3:2|1:3,0:0:0:0:
180,10,113345,1,2,3:0:0:0:
180,10,113550,2,0,P|130:4|92:23,1,66.0000020141602,10|2,3:2|3:0,0:0:0:0:
51,52,113961,2,0,B|55:77|44:99|44:99|50:149|92:168|92:168|121:166|145:175,1,180,2|2,1:3|0:3,0:0:0:0:
212,183,114783,2,0,L|194:256,1,60,8|4,3:0|3:0,0:0:0:0:
249,300,115194,2,0,L|267:373,1,60,2|2,3:0|0:1,0:0:0:0:
343,374,115605,5,2,1:0:0:0:
467,276,116016,2,0,B|479:237|452:205|456:218|426:189|441:151,1,132.00000402832,10|2,3:2|1:3,0:0:0:0:
382,98,116632,1,2,3:0:0:0:
382,98,116838,2,0,L|303:91,1,66.0000020141602,10|2,3:2|3:0,0:0:0:0:
259,36,117249,2,0,P|165:39|131:126,1,198.000006042481,0|2,1:0|3:1,0:0:0:0:
160,198,118071,2,0,B|171:236|149:272|114:283|114:283|71:297|56:343,1,180,0|2,1:0|1:3,1:0:0:0:
136,361,118893,6,0,L|278:340,1,143.999995605469,0|8,1:0|0:0,0:0:0:0:
284,260,119509,1,2,3:0:0:0:
355,293,119715,2,0,L|519:269,1,143.999995605469,0|8,1:0|0:0,0:0:0:0:
501,165,120536,2,0,L|332:137,1,147.600002252197,4|2,3:2|3:0,0:0:0:0:
283,176,121152,1,2,3:0:0:0:
224,119,121358,2,0,L|127:103,1,73.8000011260987,0|0,1:0|1:0,0:0:0:0:
81,148,121769,2,0,P|59:196|77:236,1,73.8000011260987,0|0,1:0|1:0,0:0:0:0:
123,268,122180,5,4,1:0:0:0:
256,192,122386,12,0,124646,0:0:0:0:
