osu file format v14

[General]
AudioFilename: audio.mp3
AudioLeadIn: 0
PreviewTime: 94917
Countdown: 0
SampleSet: Normal
StackLeniency: 0.5
Mode: 0
LetterboxInBreaks: 0
WidescreenStoryboard: 0

[Editor]
DistanceSpacing: 1.5
BeatDivisor: 4
GridSize: 16
TimelineZoom: 2

[Metadata]
Title:Insane Techniques
TitleUnicode:Insane Techniques
Artist:kors k
ArtistUnicode:kors k
Creator:Plasma
Version:AJT's Insane
Source:beatmania IIDX 21 SPADA
Tags:electronic hi-tech full on video game instrumental english bemani konami ajt yokespai captin1
BeatmapID:3679273
BeatmapSetID:1783252

[Difficulty]
HPDrainRate:6
CircleSize:4
OverallDifficulty:8
ApproachRate:8.8
SliderMultiplier:1.8
SliderTickRate:2

[Events]
//Background and Video events
0,0,"insane.png",0,0
//Break Periods
2,56627,65661
//Storyboard Layer 0 (Background)
//Storyboard Layer 1 (Fail)
//Storyboard Layer 2 (Pass)
//Storyboard Layer 3 (Foreground)
//Storyboard Layer 4 (Overlay)
//Storyboard Sound Samples

[TimingPoints]
537,410.958904109589,4,1,0,30,1,0
11221,-100,4,1,0,35,0,0
11427,-100,4,1,0,40,0,0
11632,-100,4,1,0,45,0,0
11838,-100,4,1,0,50,0,0
12043,-100,4,1,0,55,0,0
12249,-100,4,1,0,35,0,0
12454,-100,4,1,0,30,0,0
12660,-100,4,1,0,25,0,0
12865,-100,4,1,2,20,0,0
13482,-100,4,1,2,60,0,0
25810,-100,4,1,2,40,0,0
26838,-90.9090909090909,4,1,2,70,0,1
36290,-76.9230769230769,4,1,2,70,0,1
39989,-100,4,1,2,70,0,0
40400,-100,4,1,2,50,0,0
40451,-100,4,1,0,70,0,0
46564,-200,4,1,0,70,0,0
46975,-100,4,1,0,50,0,0
47026,-100,4,1,0,70,0,0
77797,-100,4,1,0,50,0,0
79441,-100,4,1,0,40,0,0
82728,-100,4,1,0,50,0,0
85605,-100,4,1,0,60,0,0
87249,-100,4,1,0,70,0,0
89304,-100,4,1,0,80,0,0
94954,-100,4,1,0,5,0,0
95057,-100,4,1,0,70,0,0
95468,-66.6666666666667,4,1,0,70,0,0
95879,-76.9230769230769,4,1,0,80,0,1
111906,-50,4,1,0,80,0,1
111958,-50,4,2,1,80,0,1
112317,-76.9230769230769,4,2,1,80,0,1
113961,-76.9230769230769,4,2,1,70,0,0
115605,-76.9230769230769,4,2,1,70,0,1
117660,-76.9230769230769,4,2,1,70,0,1
118893,-76.9230769230769,4,2,1,70,0,1
119817,-100,4,2,1,70,0,1
120536,-76.9230769230769,4,2,1,70,0,1
122180,-76.9230769230769,4,2,1,70,0,0
124646,-76.9230769230769,4,2,1,5,0,0

[Colours]
Combo1 : 174,174,255
Combo2 : 0,217,217
Combo3 : 255,0,0
Combo4 : 0,128,255

[HitObjects]
256,192,10400,12,0,12865,2:0:0:0:
512,144,13482,6,0,P|484:149|464:163,1,45,0|0,1:0|1:0,1:0:0:0:
432,224,13687,6,0,L|423:123,1,90,4|0,1:0|1:0,1:0:0:0:
352,272,14098,2,0,L|343:373,1,90,10|0,1:0|1:0,1:0:0:0:
272,224,14509,1,0,1:0:0:0:
248,213,14612,1,0,1:0:0:0:
224,215,14715,1,0,1:0:0:0:
199,221,14817,1,0,1:0:0:0:
181,238,14920,1,8,1:0:0:0:
235,311,15126,1,0,1:0:0:0:
112,352,15331,6,0,L|16:336,1,90,0|0,1:0|1:0,1:0:0:0:
180,237,15742,2,0,L|127:246,1,45,10|0,1:0|1:0,1:0:0:0:
136,245,15947,2,0,L|152:149,1,90,0|0,1:0|1:0,1:0:0:0:
166,135,16256,1,0,1:0:0:0:
189,124,16358,1,0,1:0:0:0:
214,124,16461,1,0,1:0:0:0:
237,134,16564,2,0,L|221:38,1,90,10|0,1:0|1:0,1:0:0:0:
80,0,16975,5,0,1:0:0:0:
224,16,17180,2,0,L|275:22,1,45,0|0,1:0|1:0,1:0:0:0:
336,80,17386,2,0,B|387:77|368:41|415:47,1,90,10|0,1:0|1:0,1:0:0:0:
512,112,17797,1,0,1:0:0:0:
503,127,17900,1,0,1:0:0:0:
477,152,18002,1,0,1:0:0:0:
486,167,18105,1,0,1:0:0:0:
473,186,18208,2,0,P|470:218|456:274,1,90,8|0,1:0|1:0,1:0:0:0:
448,304,18619,5,0,1:0:0:0:
320,280,18824,1,0,1:0:0:0:
192,384,19030,1,8,1:0:0:0:
320,280,19235,6,2,B|281:230|344:216|296:144,1,135,0|0,1:0|1:0,1:0:0:0:
300,151,19646,1,8,1:0:0:0:
241,28,19852,1,8,1:0:0:0:
192,16,19954,1,0,1:0:0:0:
144,32,20057,2,0,P|133:64|130:124,2,90,2|0|0,1:0|1:0|1:0,1:0:0:0:
32,144,20673,5,8,1:0:0:0:
64,288,20879,1,0,1:0:0:0:
144,384,21084,1,2,1:0:0:0:
179,225,21290,1,2,1:0:0:0:
240,112,21495,1,10,1:0:0:0:
278,286,21701,1,2,1:0:0:0:
278,286,22112,6,0,L|365:305,1,90,2|8,1:0|1:0,1:0:0:0:
390,384,22523,5,0,1:0:0:0:
395,339,22626,1,0,1:0:0:0:
400,294,22728,1,0,1:0:0:0:
405,249,22831,1,0,1:0:0:0:
410,205,22934,1,0,1:0:0:0:
416,160,23037,1,0,1:0:0:0:
421,115,23139,2,0,L|431:32,1,45,10|0,1:0|1:0,1:0:0:0:
432,26,23345,1,0,1:0:0:0:
256,0,23550,6,2,B|248:17|248:17|261:23|261:23|247:36|247:36|260:40|260:40|244:83|275:124,1,135,0|0,1:0|1:0,1:0:0:0:
296,179,23961,1,10,1:0:0:0:
280,203,24064,1,0,1:0:0:0:
257,187,24167,1,2,1:0:0:0:
192,384,24372,5,4,1:3:0:0:
144,0,24783,6,0,P|136:55|125:98,1,90,8|0,1:0|1:0,1:0:0:0:
16,224,25194,2,0,P|5:180|0:135,1,90,0|0,1:0|1:0,1:0:0:0:
112,288,25605,2,2,P|104:343|93:386,2,90,2|0|0,1:0|1:0|1:0,1:0:0:0:
112,288,26119,5,0,1:0:0:0:
174,280,26324,1,0,1:0:0:0:
266,262,26632,1,0,1:0:0:0:
389,240,26838,6,0,P|386:191|386:133,1,99,0|0,1:0|1:0,1:0:0:0:
506,0,27249,2,0,P|509:49|509:107,1,99,8|0,1:0|1:0,1:0:0:0:
463,163,27557,1,0,1:0:0:0:
320,80,27763,2,0,P|269:59|217:50,1,99,2|0,1:0|1:0,1:0:0:0:
160,112,28071,1,8,1:0:0:0:
80,0,28276,1,2,1:0:0:0:
112,176,28482,6,0,P|104:236|88:291,1,99,0|0,1:0|1:0,1:0:0:0:
94,273,28790,1,0,1:0:0:0:
94,273,28893,1,8,1:0:0:0:
0,384,29098,1,0,1:0:0:0:
0,384,29201,1,0,1:0:0:0:
208,336,29406,1,0,1:0:0:0:
233,353,29508,1,0,0:0:0:0:
263,364,29611,1,0,0:0:0:0:
294,367,29714,1,8,1:0:0:0:
389,283,29920,1,2,1:0:0:0:
253,182,30126,6,0,P|243:141|248:83,1,99,0|0,1:0|1:0,1:0:0:0:
94,5,30536,1,8,1:0:0:0:
94,5,30639,2,0,P|142:-5|192:0,1,99,0|0,1:0|1:0,1:0:0:0:
252,181,31050,2,0,P|242:133|247:84,1,99,2|0,1:0|1:0,1:0:0:0:
191,0,31358,2,0,P|142:-5|94:5,2,99,8|2|0,1:0|1:0|1:0,1:0:0:0:
340,132,31975,5,0,1:0:0:0:
340,132,32078,1,0,1:0:0:0:
340,132,32180,1,8,1:0:0:0:
272,304,32386,1,0,1:0:0:0:
272,304,32489,2,0,P|217:313|175:322,1,99,0|2,1:0|1:0,1:0:0:0:
64,352,32797,2,0,L|123:376,1,49.5,0|0,1:0|1:0,1:0:0:0:
160,192,33002,1,8,1:0:0:0:
256,384,33208,1,2,1:0:0:0:
448,272,33413,6,0,P|395:259|342:256,1,99,4|0,1:0|1:0,1:0:0:0:
448,112,33824,2,0,P|395:125|342:128,1,99,8|0,1:0|1:0,1:0:0:0:
350,128,34132,1,0,1:0:0:0:
448,272,34338,2,0,P|395:259|342:256,1,99,2|0,1:0|1:0,1:0:0:0:
256,192,34646,1,8,1:0:0:0:
350,128,34852,1,2,1:0:0:0:
256,192,35057,5,0,1:0:0:0:
159,175,35263,1,0,1:0:0:0:
256,32,35468,1,8,1:0:0:0:
158,47,35673,1,0,1:0:0:0:
158,47,35776,1,0,1:0:0:0:
256,192,35982,1,2,1:0:0:0:
209,174,36084,1,0,1:0:0:0:
159,175,36187,1,0,1:0:0:0:
96,224,36290,6,2,P|116:304|144:256,1,175.5,10|0,1:0|1:0,1:0:0:0:
240,320,36701,6,0,P|269:332|350:376,1,117,4|0,1:0|1:0,1:0:0:0:
512,272,37009,2,0,P|483:284|402:328,1,117,4|0,1:0|1:0,1:0:0:0:
240,288,37317,2,0,P|269:300|350:344,1,117,4|0,1:0|1:0,1:0:0:0:
512,240,37626,2,2,P|483:252|402:296,1,117,6|0,1:0|1:0,1:0:0:0:
240,256,37934,1,2,1:0:0:0:
344,372,38139,1,2,1:0:0:0:
464,128,38345,5,0,1:0:0:0:
256,192,38447,12,0,39680,1:0:0:0:
32,80,39783,5,8,1:0:0:0:
32,80,39886,1,8,1:0:0:0:
32,80,39989,2,0,P|71:109|99:142,1,90,4|0,1:0|1:0,1:0:0:0:
128,208,40297,1,0,0:0:0:0:
128,208,40400,1,12,1:0:0:0:
128,208,40502,2,0,P|139:162|146:112,1,90,0|0,1:0|1:0,1:0:0:0:
256,0,40913,2,0,P|300:9|340:30,1,90,2|0,1:0|1:0,1:0:0:0:
339,29,41221,1,8,1:0:0:0:
338,199,41427,1,2,1:0:0:0:
496,192,41632,6,0,P|454:170|403:158,1,90,0|0,1:0|1:0,1:0:0:0:
412,159,41941,1,0,1:0:0:0:
412,159,42043,1,8,1:0:0:0:
336,320,42249,1,0,1:0:0:0:
336,320,42352,1,0,1:0:0:0:
336,320,42454,2,0,P|298:335|271:336,1,45,0|0,1:0|1:0,1:0:0:0:
192,384,42660,1,0,1:0:0:0:
192,384,42763,1,0,1:0:0:0:
192,384,42865,1,8,1:0:0:0:
256,192,43071,1,2,1:0:0:0:
192,128,43276,6,0,P|136:143|104:157,1,90,0|0,1:0|1:0,1:0:0:0:
0,384,43687,1,8,1:0:0:0:
123,294,43893,1,0,1:0:0:0:
123,294,43995,1,0,1:0:0:0:
106,155,44201,6,0,P|148:138|192:128,1,90,2|0,1:0|1:0,1:0:0:0:
256,0,44509,1,8,1:0:0:0:
336,96,44715,1,2,1:0:0:0:
191,128,44920,6,0,P|148:138|106:155,1,90,0|0,1:0|1:0,1:0:0:0:
0,0,45331,2,0,P|10:43|27:85,1,90,8|0,1:0|1:0,1:0:0:0:
67,104,45639,1,0,1:0:0:0:
59,157,45742,1,0,1:0:0:0:
49,210,45845,1,2,1:0:0:0:
36,274,45947,1,0,1:0:0:0:
36,274,46050,1,0,1:0:0:0:
15,342,46153,2,0,P|40:349|67:355,1,45,8|0,1:0|1:0,1:0:0:0:
144,384,46358,2,0,P|169:377|196:371,1,45,0|0,1:0|1:0,1:0:0:0:
288,368,46564,6,0,P|276:342|257:360,1,45,6|0,1:0|1:0,1:0:0:0:
375,163,46975,5,12,1:0:0:0:
375,163,47078,2,0,L|365:109,1,45,0|0,1:0|1:0,1:0:0:0:
432,64,47283,1,0,1:0:0:0:
256,0,47489,2,0,P|213:16|177:43,1,90,2|0,1:0|1:0,1:0:0:0:
178,42,47797,1,8,1:0:0:0:
174,199,48002,1,2,1:0:0:0:
16,192,48208,6,0,P|58:170|109:158,1,90,0|0,1:0|1:0,1:0:0:0:
99,159,48516,1,0,1:0:0:0:
99,159,48619,1,8,1:0:0:0:
176,288,48824,1,0,1:0:0:0:
176,288,48927,2,0,P|209:312|261:327,1,90,0|0,1:0|1:0,1:0:0:0:
320,384,49235,1,0,1:0:0:0:
380,366,49338,1,0,1:0:0:0:
441,352,49441,6,0,B|449:277|398:260|407:177,1,180,0|4,1:0|1:0,1:0:0:0:
241,41,50263,1,0,1:0:0:0:
105,207,50673,1,0,1:0:0:0:
271,343,51084,1,0,1:0:0:0:
166,138,51495,5,0,1:0:0:0:
78,118,51701,1,0,1:0:0:0:
346,138,51906,5,0,1:0:0:0:
434,118,52112,1,0,1:0:0:0:
256,0,52317,5,0,1:0:0:0:
272,48,52420,1,0,1:0:0:0:
240,96,52523,1,0,1:0:0:0:
272,144,52626,1,0,1:0:0:0:
240,192,52728,2,0,L|237:223,5,30,0|0|0|0|0|0,1:0|1:0|1:0|1:0|1:0|1:0,1:0:0:0:
272,256,53139,5,2,1:2:0:0:
256,192,53242,12,0,56427,2:0:0:0:
512,0,66290,6,0,L|496:105,1,90,6|0,2:0|2:0,2:0:0:0:
498,88,66906,6,0,L|393:72,1,90,2|0,2:0|2:0,2:0:0:0:
409,74,67523,6,0,L|393:179,1,90,2|0,2:0|2:0,2:0:0:0:
395,162,68139,6,0,L|411:267,1,90,2|0,2:0|2:0,2:0:0:0:
408,250,68756,6,0,L|303:234,1,90,2|0,2:0|2:0,2:0:0:0:
319,236,69372,5,2,2:0:0:0:
272,384,69578,2,0,L|256:279,1,90,0|0,2:0|2:0,2:0:0:0:
192,256,69886,1,0,2:0:0:0:
192,256,69989,6,0,L|87:240,1,90,2|0,2:0|2:0,2:0:0:0:
103,242,70605,6,0,L|87:137,1,90,2|0,2:0|2:0,2:0:0:0:
89,153,71221,6,0,L|-16:169,1,90,2|0,2:0|2:0,2:0:0:0:
0,166,71838,5,2,2:0:0:0:
79,69,72043,1,0,2:0:0:0:
201,99,72249,1,0,2:0:0:0:
288,8,72454,1,2,2:0:0:0:
419,35,72660,1,0,2:0:0:0:
419,35,72763,1,0,2:0:0:0:
419,35,72865,5,6,2:0:0:0:
428,160,73071,1,0,2:0:0:0:
419,35,73482,5,2,2:0:0:0:
428,160,73687,1,0,2:0:0:0:
419,35,74098,5,2,2:0:0:0:
428,160,74304,1,0,2:0:0:0:
93,349,74715,5,2,2:0:0:0:
84,224,74920,1,0,2:0:0:0:
93,349,75331,5,2,2:0:0:0:
84,224,75537,1,0,2:0:0:0:
93,349,75947,5,2,2:0:0:0:
84,224,76153,2,0,L|79:134,1,90,0|0,2:0|2:0,2:0:0:0:
74,57,76461,1,0,2:0:0:0:
74,57,76564,5,2,2:0:0:0:
84,224,76769,1,0,2:0:0:0:
74,57,77180,5,2,2:0:0:0:
84,224,77386,1,0,2:0:0:0:
496,288,77797,6,0,L|436:296,1,45,0|0,1:0|2:0,2:0:0:0:
451,293,78002,2,0,L|391:301,1,45,0|0,2:0|2:0,2:0:0:0:
406,298,78208,2,0,L|346:306,1,45,2|0,2:0|2:0,2:0:0:0:
361,303,78413,2,0,L|301:311,1,45,0|0,2:0|2:0,2:0:0:0:
240,384,78619,6,0,L|244:340,1,45,2|0,2:0|2:0,2:0:0:0:
192,224,78824,2,0,L|177:282,1,45,0|0,2:0|2:0,2:0:0:0:
245,91,79030,2,0,L|249:135,1,45,2|0,2:0|2:0,2:0:0:0:
181,267,79235,2,0,L|196:209,1,45,2|0,2:0|2:0,2:0:0:0:
224,0,79441,5,4,1:0:0:0:
224,0,79646,1,0,1:0:0:0:
224,0,79749,2,0,B|171:0|157:56|99:50,1,135,2|0,1:0|1:0,1:0:0:0:
48,0,80263,5,0,1:0:0:0:
52,44,80365,1,0,1:0:0:0:
56,89,80468,1,0,1:0:0:0:
60,134,80571,1,0,1:0:0:0:
64,179,80673,1,2,1:0:0:0:
64,179,80879,1,0,1:0:0:0:
144,384,81084,5,0,1:0:0:0:
144,384,81290,1,0,1:0:0:0:
144,384,81393,2,0,B|197:384|211:328|269:334,1,135,2|0,1:0|1:0,1:0:0:0:
320,384,81906,5,0,1:0:0:0:
316,340,82009,1,0,1:0:0:0:
312,295,82112,1,0,1:0:0:0:
308,250,82215,1,2,1:0:0:0:
304,205,82317,1,0,1:0:0:0:
288,79,82523,1,2,1:0:0:0:
240,16,82728,6,0,P|209:9|167:9,3,45,0|0|0|2,1:0|1:0|1:0|1:0,1:0:0:0:
144,64,83139,2,0,P|113:71|71:71,3,45,0|0|0|0,1:0|1:0|1:0|1:0,1:0:0:0:
41,0,83550,5,0,1:0:0:0:
45,44,83653,1,0,1:0:0:0:
49,89,83756,1,0,1:0:0:0:
53,134,83858,1,0,1:0:0:0:
57,179,83961,2,0,L|66:285,1,90,2|0,1:0|1:0,1:0:0:0:
256,368,84372,6,0,P|287:375|329:375,3,45,0|0|0|2,1:0|1:0|1:0|1:0,1:0:0:0:
352,320,84783,2,0,P|383:313|425:313,3,45,0|0|0|0,1:0|1:0|1:0|1:0,1:0:0:0:
455,384,85194,5,0,1:0:0:0:
451,340,85297,1,0,1:0:0:0:
447,295,85400,1,0,1:0:0:0:
443,250,85502,1,2,1:0:0:0:
439,205,85605,2,0,L|433:148,1,45,4|0,1:0|1:0,1:0:0:0:
431,115,85810,1,4,1:0:0:0:
480,16,86016,5,0,1:0:0:0:
435,6,86119,1,0,1:0:0:0:
391,5,86221,1,0,1:0:0:0:
346,11,86324,1,2,1:0:0:0:
303,24,86427,1,0,1:0:0:0:
263,44,86530,1,0,1:0:0:0:
227,71,86632,1,0,1:0:0:0:
195,103,86735,1,0,1:0:0:0:
170,140,86838,2,0,P|155:169|148:194,1,45
139,224,87043,2,0,P|133:251|132:283,1,45
137,313,87249,5,4,1:0:0:0:
0,384,87454,1,4,1:0:0:0:
137,313,87660,6,0,P|187:317|235:335,1,90,0|0,1:0|1:0,1:0:0:0:
384,368,87968,2,0,P|334:372|286:390,1,90,2|0,1:0|1:0,1:0:0:0:
296,384,88276,6,0,L|303:328,1,45,8|0,1:0|1:0,1:0:0:0:
314,226,88482,2,0,L|321:170,1,45,8|0,1:0|1:0,1:0:0:0:
343,0,88687,5,2,1:0:0:0:
208,32,88893,2,0,P|248:59|295:58,1,90,2|8,1:0|1:0,1:0:0:0:
288,59,89201,1,8,1:0:0:0:
352,112,89304,6,0,P|379:152|378:199,1,90,4|0,1:0|1:0,1:0:0:0:
433,226,89612,2,0,P|423:273|389:305,1,90,4|0,1:0|1:0,1:0:0:0:
428,356,89920,2,0,P|388:383|341:382,1,90,4|0,1:0|1:0,1:0:0:0:
347,383,90228,1,4,1:0:0:0:
165,1,90537,6,0,L|172:57,1,45,4|0,1:0|1:0,1:0:0:0:
183,159,90742,2,0,L|190:215,1,45,4|0,1:0|1:0,1:0:0:0:
256,384,90947,5,0,1:0:0:0:
271,342,91050,1,0,1:0:0:0:
266,298,91153,1,0,1:0:0:0:
242,261,91256,1,0,1:0:0:0:
205,237,91358,1,0,1:0:0:0:
161,233,91461,1,0,1:0:0:0:
120,246,91564,1,0,1:0:0:0:
89,278,91667,1,0,1:0:0:0:
74,319,91769,6,0,P|69:337|70:355,14,22.5,0|0|0|0|0|0|0|0|0|0|0|0|0|0|0,1:0|1:0|1:0|1:0|1:0|1:0|1:0|1:0|1:0|1:0|1:0|1:0|1:0|1:0|1:0,1:0:0:0:
112,384,92591,5,4,1:0:0:0:
256,192,92694,12,0,94954,2:0:0:0:
256,192,95057,5,0,1:0:0:0:
256,192,95263,1,0,1:0:0:0:
288,112,95468,6,0,B|320:120|332:144|332:144|327:102|348:52,1,135,4|0,1:3|1:0,1:0:0:0:
112,16,95879,6,0,P|52:28|17:80,1,117,4|0,1:0|1:0,1:0:0:0:
64,128,96187,2,0,P|76:188|128:223,1,117,10|0,1:0|1:0,1:0:0:0:
118,220,96495,1,0,1:0:0:0:
118,220,96598,1,0,1:0:0:0:
192,284,96701,1,0,1:0:0:0:
144,348,96804,1,0,1:0:0:0:
80,300,96906,2,0,L|21:307,1,58.5,0|0,1:0|1:0,1:0:0:0:
240,352,97112,2,0,L|365:367,1,117,10|0,1:0|1:0,1:0:0:0:
464,288,97523,5,0,1:0:0:0:
448,128,97728,1,0,1:0:0:0:
448,128,97831,2,0,P|436:188|384:223,1,117,10|0,1:0|1:0,1:0:0:0:
394,220,98139,1,0,1:0:0:0:
464,288,98345,5,0,1:0:0:0:
441,340,98447,1,0,1:0:0:0:
390,368,98550,1,0,1:0:0:0:
334,360,98653,1,0,1:0:0:0:
294,319,98756,1,10,1:0:0:0:
112,336,98961,1,0,1:0:0:0:
193,172,99167,5,0,1:0:0:0:
193,172,99475,2,0,P|253:184|288:236,1,117,10|0,1:0|1:0,1:0:0:0:
309,384,99783,5,0,0:0:0:0:
321,301,99885,1,0,0:0:0:0:
336,224,99988,1,0,0:0:0:0:
336,224,100091,1,0,0:0:0:0:
336,224,100194,2,0,L|346:165,1,58.5,0|0,1:0|1:0,1:0:0:0:
375,0,100400,2,0,L|355:117,1,117,10|0,1:0|1:0,1:0:0:0:
208,224,100810,5,0,1:0:0:0:
208,224,101016,1,0,1:0:0:0:
208,224,101119,2,0,P|148:212|113:160,1,117,10|0,1:0|1:0,1:0:0:0:
32,96,101427,6,0,L|39:155,1,58.5,0|0,1:0|1:0,1:0:0:0:
51,263,101632,2,0,L|58:322,1,58.5,0|0,1:0|1:0,1:0:0:0:
65,379,101838,2,0,L|57:320,1,58.5,8|0,1:0|1:0,1:0:0:0:
46,212,102043,1,10,1:0:0:0:
20,0,102249,1,0,1:0:0:0:
192,112,102454,6,0,P|252:100|287:48,1,117,4|0,1:0|1:0,1:0:0:0:
352,16,102763,2,0,P|412:28|447:80,1,117,10|0,1:0|1:0,1:0:0:0:
444,70,103071,1,0,1:0:0:0:
444,70,103173,1,0,1:0:0:0:
512,132,103276,1,0,1:0:0:0:
464,196,103379,1,0,1:0:0:0:
400,148,103482,2,0,L|341:155,1,58.5,0|0,1:0|1:0,1:0:0:0:
176,176,103687,6,0,L|51:191,2,117,10|0|0,1:0|1:0|1:0,1:0:0:0:
224,260,104304,1,0,1:0:0:0:
224,260,104406,2,0,P|212:320|160:355,1,117,10|0,1:0|1:0,1:0:0:0:
170,352,104715,1,0,1:0:0:0:
0,384,104920,5,0,1:0:0:0:
23,332,105023,1,0,1:0:0:0:
74,304,105126,1,0,1:0:0:0:
130,312,105228,1,0,1:0:0:0:
170,353,105331,1,10,1:0:0:0:
333,333,105537,1,0,1:0:0:0:
496,313,105742,6,0,B|494:222|459:248|456:137,1,175.5,4|10,1:0|1:0,1:0:0:0:
456,143,106153,2,0,P|445:116|425:96,1,58.5,0|0,1:0|1:0,1:0:0:0:
368,32,106358,2,0,P|338:45|318:66,1,58.5,0|0,1:0|1:0,1:0:0:0:
272,208,106564,5,0,1:0:0:0:
305,153,106667,1,0,1:0:0:0:
298,88,106769,1,8,1:0:0:0:
256,42,106872,1,0,1:0:0:0:
194,31,106975,1,10,1:0:0:0:
153,159,107180,1,0,1:0:0:0:
0,0,107386,5,0,1:0:0:0:
153,159,107591,1,0,1:0:0:0:
194,31,107797,1,8,1:0:0:0:
0,192,108002,1,0,1:0:0:0:
91,258,108208,6,2,B|127:264|127:264|156:330|248:349,1,175.5,0|0,1:0|1:0,1:0:0:0:
160,384,108619,5,0,1:0:0:0:
228,375,108721,1,0,1:0:0:0:
296,367,108824,1,0,1:0:0:0:
364,359,108927,1,0,1:0:0:0:
432,351,109030,1,0,1:0:0:0:
512,0,109338,5,0,1:0:0:0:
464,64,109441,2,2,B|392:18|364:72|285:11,1,175.5,10|0,1:0|1:0,1:0:0:0:
297,19,109852,2,0,P|270:30|249:50,1,58.5,0|0,1:0|1:0,1:0:0:0:
186,107,110057,2,0,P|199:137|220:157,1,58.5,0|0,1:0|1:0,1:0:0:0:
160,240,110263,2,0,P|173:269|194:289,1,58.5,8|0,1:0|1:0,1:0:0:0:
248,351,110468,2,0,P|278:338|298:317,1,58.5,0|0,1:0|1:0,1:0:0:0:
480,384,110673,2,0,P|437:346|358:315,1,117,0|0,1:0|1:0,1:0:0:0:
383,320,110982,1,0,1:0:0:0:
336,242,111084,6,2,B|365:162|333:170|377:57,1,175.5,10|0,1:0|1:0,1:0:0:0:
440,69,111495,1,0,1:0:0:0:
400,26,111598,1,0,1:0:0:0:
346,4,111701,1,0,1:0:0:0:
288,9,111804,1,0,1:0:0:0:
192,0,111906,6,0,L|164:194,1,180,0|0,1:0|2:0,0:0:0:0:
0,176,112317,6,0,P|60:196|108:240,1,117,0|0,1:0|1:0,1:0:0:0:
32,304,112626,1,0,1:0:0:0:
112,368,112728,6,2,P|191:372|264:304,1,175.5,10|0,1:0|1:0,1:0:0:0:
352,304,113139,1,0,1:0:0:0:
329,252,113242,1,0,1:0:0:0:
278,224,113345,1,0,1:0:0:0:
222,232,113447,1,0,1:0:0:0:
182,273,113550,2,0,L|165:124,2,117,8|0|0,1:0|1:0|1:0,1:0:0:0:
256,192,114064,12,0,114783,1:0:0:0:
240,192,114989,5,0,1:0:0:0:
256,176,115194,1,8,1:0:0:0:
272,192,115400,1,2,1:0:0:0:
256,208,115605,1,4,1:0:0:0:
0,384,115913,5,0,1:0:0:0:
48,320,116016,2,2,B|120:366|148:312|227:373,1,175.5,10|0,1:0|1:0,1:0:0:0:
214,364,116427,2,0,P|243:351|263:330,1,58.5,0|0,1:0|1:0,1:0:0:0:
326,277,116632,2,0,P|313:247|292:227,1,58.5,0|0,1:0|1:0,1:0:0:0:
352,144,116838,2,0,P|339:115|318:95,1,58.5,8|0,1:0|1:0,1:0:0:0:
264,33,117043,2,0,P|234:46|214:67,1,58.5,0|0,1:0|1:0,1:0:0:0:
32,0,117249,2,0,P|75:38|154:69,1,117,0|0,1:0|1:0,1:0:0:0:
128,63,117557,1,0,1:0:0:0:
168,146,117660,6,2,B|152:179|152:179|168:170|168:170|153:185|153:185|169:181|169:181|154:192|154:192|168:188|168:188|153:196|153:196|166:194|166:194|156:203|156:203|147:238,1,175.5,4|0,1:2|1:0,1:0:0:0:
96,272,118071,5,0,1:0:0:0:
96,272,118173,1,0,1:0:0:0:
0,336,118379,2,0,P|51:321|141:316,1,117,0|0,1:0|1:0,1:0:0:0:
180,384,118687,2,0,P|205:381|241:370,1,58.5,0|0,1:0|1:0,1:0:0:0:
292,306,118893,5,2,1:0:0:0:
295,275,118995,1,0,1:0:0:0:
298,245,119098,1,0,1:0:0:0:
302,215,119201,1,0,1:0:0:0:
305,185,119304,1,8,1:0:0:0:
309,155,119406,1,0,1:0:0:0:
312,124,119509,1,0,1:0:0:0:
316,94,119612,1,8,1:0:0:0:
319,64,119715,5,0,1:0:0:0:
319,64,119817,2,0,L|263:75,1,45,0|0,1:0|1:0,1:0:0:0:
128,0,120023,1,0,1:0:0:0:
128,0,120126,1,8,1:0:0:0:
128,0,120228,1,0,1:0:0:0:
128,0,120331,2,0,L|184:11,1,45,0|0,1:0|1:0,1:0:0:0:
274,72,120536,6,0,P|272:123|233:184,1,117,2|0,1:0|1:0,1:0:0:0:
144,224,120845,1,0,1:0:0:0:
201,218,120947,1,8,1:0:0:0:
257,235,121050,1,0,1:0:0:0:
302,272,121153,1,0,1:0:0:0:
331,322,121256,1,0,1:0:0:0:
349,379,121358,6,0,L|406:369,1,58.5,10|0,1:0|1:0,1:0:0:0:
224,336,121564,2,0,L|167:326,1,58.5,2|0,1:0|1:0,1:0:0:0:
16,384,121769,2,0,L|73:374,1,58.5,10|0,1:0|1:0,1:0:0:0:
256,192,121975,2,0,L|315:198,1,58.5,2|0,1:0|1:0,1:0:0:0:
512,384,122180,5,4,1:0:0:0:
256,192,122283,12,0,124646,2:0:0:0:
