osu file format v14

[General]
AudioFilename: audio.mp3
AudioLeadIn: 0
PreviewTime: 138670
Countdown: 0
SampleSet: None
StackLeniency: 0.7
Mode: 1
LetterboxInBreaks: 0
WidescreenStoryboard: 1

[Editor]
Bookmarks: 25250,59766,72917,99218,112369,138670,230725,243876,275109,288259,313739,314561,340862,367164
DistanceSpacing: 0.8
BeatDivisor: 4
GridSize: 32
TimelineZoom: 2.999999

[Metadata]
Title:Insane Techniques (Extended)
TitleUnicode:Insane Techniques (Extended)
Artist:kors k
ArtistUnicode:kors k
Creator:Loopy542
Version:Insane Remap
Source:
Tags:
BeatmapID:1655906
BeatmapSetID:722052

[Difficulty]
HPDrainRate:3
CircleSize:5
OverallDifficulty:7
ApproachRate:9
SliderMultiplier:1.4
SliderTickRate:1

[Events]
//Background and Video events
0,0,"Insane Techniques Background.png",0,0
//Break Periods
2,165172,177522
//Storyboard Layer 0 (Background)
//Storyboard Layer 1 (Fail)
//Storyboard Layer 2 (Pass)
//Storyboard Layer 3 (Foreground)
//Storyboard Sound Samples

[TimingPoints]
588.681967621984,410.958904109589,4,1,0,100,1,0
25246,-80,4,1,0,100,0,0
26890,-66.6666666666667,4,1,0,100,0,0
59766,-80,4,1,0,100,0,0
72917,-66.6666666666667,4,1,0,100,0,0
112574,-69.4444444444444,4,1,0,100,0,0
112780,-72.463768115942,4,1,0,100,0,0
112883,-74.0740740740741,4,1,0,100,0,0
113191,-80,4,1,0,100,0,0
138670,-66.6666666666667,4,1,0,100,0,1
164972,-66.6666666666667,4,1,0,100,0,0
178122,-100,4,1,0,100,0,0
204424,-80,4,1,0,100,0,0
229081,-75.7575757575758,4,1,0,100,0,0
229184,-76.9230769230769,4,1,0,100,0,0
229287,-78.125,4,1,0,100,0,0
229390,-79.3650793650794,4,1,0,100,0,0
229492,-80.6451612903226,4,1,0,100,0,0
229595,-81.9672131147541,4,1,0,100,0,0
229698,-83.3333333333333,4,1,0,100,0,0
229801,-84.7457627118644,4,1,0,100,0,0
229903,-86.2068965517241,4,1,0,100,0,0
230006,-87.719298245614,4,1,0,100,0,0
230109,-89.2857142857143,4,1,0,100,0,0
230211,-90.9090909090909,4,1,0,100,0,0
230314,-92.5925925925926,4,1,0,100,0,0
230417,-94.3396226415094,4,1,0,100,0,0
230520,-96.1538461538461,4,1,0,100,0,0
230622,-98.0392156862745,4,1,0,100,0,0
230725,-100,4,1,0,100,0,0
243876,-80,4,1,0,100,0,0
256684,-77.5193798449612,4,1,0,100,0,0
256753,-75.187969924812,4,1,0,100,0,0
256821,-72.992700729927,4,1,0,100,0,0
256890,-70.4225352112676,4,1,0,100,0,0
256958,-68.4931506849315,4,1,0,100,0,0
257027,-66.6666666666667,4,1,0,100,0,0
274287,-133.333333333333,4,1,0,100,0,0
275109,-100,4,1,0,100,0,0
287437,-80,4,1,0,100,0,0
288259,-66.6666666666667,4,1,0,100,0,1
314561,-57.1428571428571,4,1,0,100,0,1
340862,-57.1428571428571,4,1,0,100,0,0
342506,-66.6666666666667,4,1,0,100,0,0
354013,-80,4,1,0,100,0,0
367164,-100,4,1,0,100,0,0

[HitObjects]
224,160,588,5,0,0:0:0:0:
224,160,1307,1,0,0:0:0:0:
288,160,1410,1,8,0:0:0:0:
224,160,1616,1,0,0:0:0:0:
224,160,1821,1,0,0:0:0:0:
224,160,2232,1,0,0:0:0:0:
288,160,2848,1,8,0:0:0:0:
224,160,2951,1,0,0:0:0:0:
288,160,3054,1,8,0:0:0:0:
224,160,3259,1,0,0:0:0:0:
224,160,3465,1,0,0:0:0:0:
224,160,3876,1,0,0:0:0:0:
224,160,4595,1,0,0:0:0:0:
288,160,4698,1,8,0:0:0:0:
224,160,4903,1,0,0:0:0:0:
224,160,5109,1,0,0:0:0:0:
224,160,5520,1,0,0:0:0:0:
288,160,6136,1,8,0:0:0:0:
224,160,6239,1,0,0:0:0:0:
288,160,6342,1,8,0:0:0:0:
288,160,6547,1,8,0:0:0:0:
288,160,6753,1,8,0:0:0:0:
224,160,7164,1,0,0:0:0:0:
288,160,7780,1,8,0:0:0:0:
288,160,7883,1,8,0:0:0:0:
288,160,7985,1,8,0:0:0:0:
224,160,8191,1,0,0:0:0:0:
224,160,8396,1,0,0:0:0:0:
224,160,8807,1,0,0:0:0:0:
288,160,9424,1,8,0:0:0:0:
224,160,9527,1,0,0:0:0:0:
288,160,9629,1,8,0:0:0:0:
288,160,9835,1,8,0:0:0:0:
224,160,10040,1,0,0:0:0:0:
224,160,10451,1,0,0:0:0:0:
224,160,11068,1,0,0:0:0:0:
224,160,11170,1,0,0:0:0:0:
288,160,11273,1,8,0:0:0:0:
224,160,11479,1,0,0:0:0:0:
224,160,11684,1,0,0:0:0:0:
224,160,12095,1,0,0:0:0:0:
288,160,12711,1,8,0:0:0:0:
224,160,12814,1,0,0:0:0:0:
288,160,12917,1,8,0:0:0:0:
288,160,13122,1,8,0:0:0:0:
224,160,13328,1,0,0:0:0:0:
224,160,13739,1,0,0:0:0:0:
224,160,13842,1,0,0:0:0:0:
288,160,13944,1,8,0:0:0:0:
288,160,14150,1,8,0:0:0:0:
288,160,14355,1,8,0:0:0:0:
224,160,14458,1,0,0:0:0:0:
288,160,14561,1,8,0:0:0:0:
224,160,14766,1,0,0:0:0:0:
224,160,14972,1,0,0:0:0:0:
288,160,15074,1,8,0:0:0:0:
288,160,15177,1,8,0:0:0:0:
288,160,15280,1,8,0:0:0:0:
224,160,15383,1,0,0:0:0:0:
288,160,15588,1,8,0:0:0:0:
224,160,15691,1,0,0:0:0:0:
288,160,15794,1,8,0:0:0:0:
224,160,15999,1,0,0:0:0:0:
224,160,16102,1,0,0:0:0:0:
288,160,16205,1,8,0:0:0:0:
224,160,16410,1,0,0:0:0:0:
288,160,16513,1,8,0:0:0:0:
288,160,16616,1,8,0:0:0:0:
224,160,16718,1,0,0:0:0:0:
288,160,16821,1,8,0:0:0:0:
224,160,17027,1,0,0:0:0:0:
288,160,17129,1,8,0:0:0:0:
288,160,17232,1,8,0:0:0:0:
288,160,17437,1,8,0:0:0:0:
288,160,17643,1,8,0:0:0:0:
224,160,17746,1,0,0:0:0:0:
288,160,17848,1,8,0:0:0:0:
224,160,18054,1,0,0:0:0:0:
288,160,18157,1,8,0:0:0:0:
288,160,18259,1,8,0:0:0:0:
224,160,18362,1,0,0:0:0:0:
288,160,18465,1,8,0:0:0:0:
288,160,18568,1,8,0:0:0:0:
224,160,18670,1,0,0:0:0:0:
288,160,18773,1,8,0:0:0:0:
288,160,18876,1,8,0:0:0:0:
288,160,19081,1,8,0:0:0:0:
288,160,19287,1,8,0:0:0:0:
224,160,19390,1,0,0:0:0:0:
288,160,19492,1,8,0:0:0:0:
224,160,19698,1,0,0:0:0:0:
224,160,19903,1,0,0:0:0:0:
288,160,20006,1,8,0:0:0:0:
224,160,20109,1,0,0:0:0:0:
224,160,20314,1,0,0:0:0:0:
288,160,20417,1,8,0:0:0:0:
288,160,20520,1,8,0:0:0:0:
224,160,20622,1,0,0:0:0:0:
288,160,20725,1,8,0:0:0:0:
288,160,20828,1,8,0:0:0:0:
224,160,20931,1,0,0:0:0:0:
224,160,21033,1,0,0:0:0:0:
288,160,21136,1,8,0:0:0:0:
224,160,21239,1,0,0:0:0:0:
224,160,21342,1,0,0:0:0:0:
224,160,21444,1,0,0:0:0:0:
288,160,21547,1,8,0:0:0:0:
224,160,21650,1,0,0:0:0:0:
288,160,21753,1,8,0:0:0:0:
288,160,21855,1,8,0:0:0:0:
224,160,21958,1,0,0:0:0:0:
288,160,22061,1,8,0:0:0:0:
288,160,22164,1,8,0:0:0:0:
288,160,22266,1,8,0:0:0:0:
224,160,22369,1,0,0:0:0:0:
224,160,22472,1,0,0:0:0:0:
224,160,22574,1,0,0:0:0:0:
224,160,22677,1,0,0:0:0:0:
288,160,22780,1,8,0:0:0:0:
224,160,22883,1,0,0:0:0:0:
288,160,22985,1,8,0:0:0:0:
288,160,23088,1,8,0:0:0:0:
288,160,23191,1,8,0:0:0:0:
224,160,23294,1,0,0:0:0:0:
224,160,23396,1,0,0:0:0:0:
224,160,23499,1,0,0:0:0:0:
288,160,23602,1,8,0:0:0:0:
256,192,23705,12,0,25040,0:0:0:0:
224,224,25246,5,4,0:0:0:0:
224,224,25554,1,4,0:0:0:0:
224,224,25862,1,4,0:0:0:0:
288,160,26273,1,8,0:0:0:0:
288,160,26479,1,8,0:0:0:0:
288,160,26547,1,8,0:0:0:0:
288,160,26616,1,8,0:0:0:0:
288,160,26684,1,8,0:0:0:0:
224,224,26890,1,4,0:0:0:0:
224,224,27095,1,4,0:0:0:0:
224,160,27301,1,0,0:0:0:0:
224,160,27403,1,0,0:0:0:0:
288,160,27506,1,8,0:0:0:0:
224,160,27609,1,0,0:0:0:0:
288,160,27711,1,8,0:0:0:0:
224,160,27917,1,0,0:0:0:0:
224,160,28122,1,0,0:0:0:0:
288,160,28225,1,8,0:0:0:0:
288,160,28328,1,8,0:0:0:0:
288,160,28533,1,8,0:0:0:0:
288,160,28636,1,8,0:0:0:0:
288,160,28739,1,8,0:0:0:0:
288,160,28944,1,8,0:0:0:0:
224,160,29047,1,0,0:0:0:0:
288,160,29150,1,8,0:0:0:0:
288,160,29355,1,8,0:0:0:0:
224,160,29458,1,0,0:0:0:0:
224,160,29561,1,0,0:0:0:0:
288,160,29664,1,8,0:0:0:0:
288,160,29766,1,8,0:0:0:0:
224,160,29972,1,0,0:0:0:0:
224,224,30177,1,4,0:0:0:0:
224,224,30383,1,4,0:0:0:0:
288,160,30588,1,8,0:0:0:0:
288,160,30691,1,8,0:0:0:0:
288,160,30794,1,8,0:0:0:0:
288,160,30999,1,8,0:0:0:0:
288,160,31102,1,8,0:0:0:0:
224,160,31205,1,0,0:0:0:0:
288,160,31307,1,8,0:0:0:0:
288,160,31410,1,8,0:0:0:0:
288,160,31616,1,8,0:0:0:0:
288,160,31718,1,8,0:0:0:0:
224,160,31821,1,0,0:0:0:0:
288,160,32027,1,8,0:0:0:0:
224,160,32232,1,0,0:0:0:0:
288,160,32335,1,8,0:0:0:0:
288,160,32437,1,8,0:0:0:0:
288,160,32643,1,8,0:0:0:0:
288,160,32746,1,8,0:0:0:0:
288,160,32848,1,8,0:0:0:0:
288,160,33054,1,8,0:0:0:0:
224,224,33259,1,4,0:0:0:0:
224,224,33465,1,4,0:0:0:0:
224,224,33670,1,4,0:0:0:0:
288,160,33876,1,8,0:0:0:0:
224,160,33979,1,0,0:0:0:0:
288,160,34081,1,8,0:0:0:0:
224,160,34287,1,0,0:0:0:0:
224,160,34492,1,0,0:0:0:0:
224,160,34698,1,0,0:0:0:0:
224,160,34801,1,0,0:0:0:0:
224,160,34903,1,0,0:0:0:0:
288,160,35109,1,8,0:0:0:0:
224,160,35211,1,0,0:0:0:0:
288,160,35314,1,8,0:0:0:0:
224,160,35417,1,0,0:0:0:0:
288,160,35520,1,8,0:0:0:0:
288,160,35622,1,8,0:0:0:0:
224,160,35725,1,0,0:0:0:0:
224,160,35828,1,0,0:0:0:0:
288,160,35931,1,8,0:0:0:0:
288,160,36033,1,8,0:0:0:0:
288,160,36136,1,8,0:0:0:0:
288,160,36342,1,8,0:0:0:0:
224,224,36547,1,4,0:0:0:0:
224,224,36753,1,4,0:0:0:0:
224,224,36958,1,4,0:0:0:0:
224,160,37164,1,0,0:0:0:0:
288,160,37266,1,8,0:0:0:0:
288,160,37369,1,8,0:0:0:0:
288,160,37574,1,8,0:0:0:0:
288,160,37677,1,8,0:0:0:0:
224,160,37780,1,0,0:0:0:0:
224,160,37883,1,0,0:0:0:0:
288,160,37985,1,8,0:0:0:0:
288,160,38191,1,8,0:0:0:0:
224,160,38294,1,0,0:0:0:0:
224,160,38396,1,0,0:0:0:0:
288,160,38499,1,8,0:0:0:0:
224,160,38602,1,0,0:0:0:0:
288,160,38807,1,8,0:0:0:0:
288,160,38910,1,8,0:0:0:0:
224,160,39013,1,0,0:0:0:0:
288,160,39218,1,8,0:0:0:0:
288,160,39321,1,8,0:0:0:0:
288,160,39424,1,8,0:0:0:0:
224,160,39527,1,0,0:0:0:0:
288,160,39629,1,8,0:0:0:0:
224,224,40040,1,4,0:0:0:0:
224,224,40246,1,4,0:0:0:0:
224,160,40451,1,0,0:0:0:0:
224,160,40554,1,0,0:0:0:0:
224,160,40657,1,0,0:0:0:0:
288,160,40862,1,8,0:0:0:0:
288,160,41068,1,8,0:0:0:0:
224,160,41170,1,0,0:0:0:0:
288,160,41273,1,8,0:0:0:0:
224,224,41479,1,4,0:0:0:0:
224,224,41684,1,4,0:0:0:0:
224,224,41890,1,4,0:0:0:0:
224,160,42095,1,0,0:0:0:0:
288,160,42198,1,8,0:0:0:0:
288,160,42301,1,8,0:0:0:0:
288,160,42506,1,8,0:0:0:0:
288,160,42609,1,8,0:0:0:0:
224,160,42711,1,0,0:0:0:0:
288,160,42814,1,8,0:0:0:0:
288,160,42917,1,8,0:0:0:0:
224,224,43328,1,4,0:0:0:0:
224,224,43533,1,4,0:0:0:0:
288,160,43739,1,8,0:0:0:0:
224,160,43842,1,0,0:0:0:0:
288,160,43944,1,8,0:0:0:0:
288,160,44150,1,8,0:0:0:0:
288,160,44253,1,8,0:0:0:0:
224,160,44355,1,0,0:0:0:0:
224,160,44458,1,0,0:0:0:0:
288,160,44561,1,8,0:0:0:0:
224,224,44766,1,4,0:0:0:0:
224,224,44972,1,4,0:0:0:0:
224,224,45177,1,4,0:0:0:0:
288,160,45383,1,8,0:0:0:0:
288,160,45485,1,8,0:0:0:0:
288,160,45588,1,8,0:0:0:0:
224,160,45794,1,0,0:0:0:0:
288,160,45896,1,8,0:0:0:0:
288,160,45999,1,8,0:0:0:0:
224,160,46102,1,0,0:0:0:0:
288,160,46205,1,8,0:0:0:0:
224,224,46410,1,4,0:0:0:0:
224,224,46616,1,4,0:0:0:0:
224,224,46821,1,4,0:0:0:0:
224,224,47232,1,4,0:0:0:0:
224,224,47437,1,4,0:0:0:0:
224,224,47643,1,4,0:0:0:0:
224,224,48054,1,4,0:0:0:0:
224,224,48259,1,4,0:0:0:0:
224,224,48465,1,4,0:0:0:0:
224,224,48876,1,4,0:0:0:0:
224,224,49081,1,4,0:0:0:0:
288,224,49287,1,12,0:0:0:0:
288,224,49492,1,12,0:0:0:0:
224,160,49698,1,0,0:0:0:0:
224,224,49903,1,4,0:0:0:0:
288,160,50109,1,8,0:0:0:0:
224,224,50211,1,4,0:0:0:0:
224,224,50520,1,4,0:0:0:0:
288,160,50725,1,8,0:0:0:0:
224,224,50828,1,4,0:0:0:0:
224,224,51136,1,4,0:0:0:0:
288,160,51342,1,8,0:0:0:0:
224,224,51444,1,4,0:0:0:0:
224,224,51753,1,4,0:0:0:0:
288,160,51958,1,8,0:0:0:0:
224,224,52061,1,4,0:0:0:0:
224,224,52369,1,4,0:0:0:0:
224,224,52574,1,4,0:0:0:0:
224,224,52780,1,4,0:0:0:0:
224,224,52985,1,4,0:0:0:0:
224,224,53191,1,4,0:0:0:0:
256,192,53294,12,0,58944,0:0:0:0:
288,224,59766,5,12,0:0:0:0:
224,160,59972,1,0,0:0:0:0:
288,160,60177,1,8,0:0:0:0:
288,160,60280,1,8,0:0:0:0:
224,160,60383,1,0,0:0:0:0:
224,160,60588,1,0,0:0:0:0:
288,160,60691,1,8,0:0:0:0:
224,160,60794,1,0,0:0:0:0:
224,160,60896,1,0,0:0:0:0:
224,160,60999,1,0,0:0:0:0:
224,160,61205,1,0,0:0:0:0:
224,160,61410,1,0,0:0:0:0:
224,160,61513,1,0,0:0:0:0:
224,160,61616,1,0,0:0:0:0:
288,160,61821,1,8,0:0:0:0:
288,160,61924,1,8,0:0:0:0:
224,160,62027,1,0,0:0:0:0:
224,160,62232,1,0,0:0:0:0:
224,160,62437,1,0,0:0:0:0:
288,160,62540,1,8,0:0:0:0:
288,160,62643,1,8,0:0:0:0:
288,160,62711,1,8,0:0:0:0:
224,160,62780,1,0,0:0:0:0:
288,160,62848,1,8,0:0:0:0:
224,160,63054,1,0,0:0:0:0:
224,160,63259,1,0,0:0:0:0:
288,160,63465,1,8,0:0:0:0:
224,160,63568,1,0,0:0:0:0:
288,160,63670,1,8,0:0:0:0:
288,160,63876,1,8,0:0:0:0:
224,160,63979,1,0,0:0:0:0:
224,160,64081,1,0,0:0:0:0:
288,160,64184,1,8,0:0:0:0:
288,160,64287,1,8,0:0:0:0:
288,160,64492,1,8,0:0:0:0:
224,160,64698,1,0,0:0:0:0:
224,160,64903,1,0,0:0:0:0:
288,160,65109,1,8,0:0:0:0:
224,160,65211,1,0,0:0:0:0:
288,160,65314,1,8,0:0:0:0:
224,160,65520,1,0,0:0:0:0:
288,160,65622,1,8,0:0:0:0:
224,160,65725,1,0,0:0:0:0:
288,224,65931,1,12,0:0:0:0:
288,160,66136,1,8,0:0:0:0:
288,160,66205,1,8,0:0:0:0:
288,160,66273,1,8,0:0:0:0:
224,160,66342,1,0,0:0:0:0:
224,160,66547,1,0,0:0:0:0:
288,160,66753,1,8,0:0:0:0:
224,160,66855,1,0,0:0:0:0:
288,160,66958,1,8,0:0:0:0:
224,160,67164,1,0,0:0:0:0:
288,160,67266,1,8,0:0:0:0:
288,160,67369,1,8,0:0:0:0:
224,160,67472,1,0,0:0:0:0:
224,160,67574,1,0,0:0:0:0:
224,160,67780,1,0,0:0:0:0:
224,160,67985,1,0,0:0:0:0:
224,160,68088,1,0,0:0:0:0:
224,160,68191,1,0,0:0:0:0:
288,160,68396,1,8,0:0:0:0:
224,160,68499,1,0,0:0:0:0:
224,160,68602,1,0,0:0:0:0:
224,160,68807,1,0,0:0:0:0:
224,160,68910,1,0,0:0:0:0:
288,160,69013,1,8,0:0:0:0:
224,160,69116,1,0,0:0:0:0:
288,160,69218,1,8,0:0:0:0:
288,160,69287,1,8,0:0:0:0:
224,160,69355,1,0,0:0:0:0:
224,160,69424,1,0,0:0:0:0:
224,160,69629,1,0,0:0:0:0:
288,160,69732,1,8,0:0:0:0:
224,160,69835,1,0,0:0:0:0:
224,160,70040,1,0,0:0:0:0:
224,160,70246,1,0,0:0:0:0:
288,160,70348,1,8,0:0:0:0:
288,160,70451,1,8,0:0:0:0:
224,160,70657,1,0,0:0:0:0:
288,160,70862,1,8,0:0:0:0:
288,160,70965,1,8,0:0:0:0:
288,160,71068,1,8,0:0:0:0:
224,160,71170,1,0,0:0:0:0:
288,160,71273,1,8,0:0:0:0:
288,160,71479,1,8,0:0:0:0:
224,160,71787,1,0,0:0:0:0:
224,160,71890,1,0,0:0:0:0:
288,160,72095,1,8,0:0:0:0:
288,160,72164,1,8,0:0:0:0:
288,160,72232,1,8,0:0:0:0:
288,160,72301,1,8,0:0:0:0:
224,160,72506,1,0,0:0:0:0:
224,160,72574,1,0,0:0:0:0:
224,160,72643,1,0,0:0:0:0:
224,160,72711,1,0,0:0:0:0:
288,224,72917,1,12,0:0:0:0:
224,160,73225,1,0,0:0:0:0:
288,160,73328,1,8,0:0:0:0:
288,160,73431,1,8,0:0:0:0:
224,160,73533,1,0,0:0:0:0:
288,160,73739,1,8,0:0:0:0:
224,160,73842,1,0,0:0:0:0:
288,160,73944,1,8,0:0:0:0:
224,160,74047,1,0,0:0:0:0:
288,160,74150,1,8,0:0:0:0:
288,160,74355,1,8,0:0:0:0:
288,160,74458,1,8,0:0:0:0:
224,160,74561,1,0,0:0:0:0:
224,160,74766,1,0,0:0:0:0:
288,160,74869,1,8,0:0:0:0:
288,160,74972,1,8,0:0:0:0:
224,160,75177,1,0,0:0:0:0:
224,160,75383,1,0,0:0:0:0:
288,160,75451,1,8,0:0:0:0:
288,160,75520,1,8,0:0:0:0:
288,160,75588,1,8,0:0:0:0:
288,160,75794,1,8,0:0:0:0:
288,160,75896,1,8,0:0:0:0:
288,160,75999,1,8,0:0:0:0:
224,160,76205,1,0,0:0:0:0:
224,160,76410,1,0,0:0:0:0:
288,160,76513,1,8,0:0:0:0:
288,160,76616,1,8,0:0:0:0:
224,160,76821,1,0,0:0:0:0:
224,160,77027,1,0,0:0:0:0:
288,160,77129,1,8,0:0:0:0:
288,160,77232,1,8,0:0:0:0:
224,160,77335,1,0,0:0:0:0:
288,160,77437,1,8,0:0:0:0:
288,160,77643,1,8,0:0:0:0:
224,160,77848,1,0,0:0:0:0:
288,160,77951,1,8,0:0:0:0:
224,160,78054,1,0,0:0:0:0:
288,160,78259,1,8,0:0:0:0:
288,160,78362,1,8,0:0:0:0:
224,160,78465,1,0,0:0:0:0:
224,160,78568,1,0,0:0:0:0:
288,160,78670,1,8,0:0:0:0:
224,160,78876,1,0,0:0:0:0:
224,160,79081,1,0,0:0:0:0:
224,160,79150,1,0,0:0:0:0:
288,160,79218,1,8,0:0:0:0:
288,160,79287,1,8,0:0:0:0:
224,160,79492,1,0,0:0:0:0:
224,160,79698,1,0,0:0:0:0:
288,160,79801,1,8,0:0:0:0:
288,160,79903,1,8,0:0:0:0:
224,160,80109,1,0,0:0:0:0:
224,160,80314,1,0,0:0:0:0:
288,160,80383,1,8,0:0:0:0:
288,160,80451,1,8,0:0:0:0:
288,160,80520,1,8,0:0:0:0:
288,160,80725,1,8,0:0:0:0:
288,160,80828,1,8,0:0:0:0:
288,160,80931,1,8,0:0:0:0:
224,160,81136,1,0,0:0:0:0:
288,160,81342,1,8,0:0:0:0:
224,160,81444,1,0,0:0:0:0:
288,160,81547,1,8,0:0:0:0:
288,160,81753,1,8,0:0:0:0:
224,160,81958,1,0,0:0:0:0:
224,160,82061,1,0,0:0:0:0:
224,160,82164,1,0,0:0:0:0:
224,160,82369,1,0,0:0:0:0:
288,160,82472,1,8,0:0:0:0:
224,224,82780,1,4,0:0:0:0:
224,160,84424,1,0,0:0:0:0:
224,160,85246,1,0,0:0:0:0:
288,160,85314,1,8,0:0:0:0:
288,160,85383,1,8,0:0:0:0:
288,160,85451,1,8,0:0:0:0:
288,160,85520,1,8,0:0:0:0:
288,160,85588,1,8,0:0:0:0:
224,160,85657,1,0,0:0:0:0:
288,160,85862,1,8,0:0:0:0:
288,160,85999,1,8,0:0:0:0:
224,160,86068,1,0,0:0:0:0:
224,160,86273,1,0,0:0:0:0:
288,160,86479,1,8,0:0:0:0:
288,160,86684,1,8,0:0:0:0:
224,160,86890,1,0,0:0:0:0:
224,160,87095,1,0,0:0:0:0:
288,160,87301,1,8,0:0:0:0:
224,160,87506,1,0,0:0:0:0:
224,160,87711,1,0,0:0:0:0:
288,160,87917,1,8,0:0:0:0:
288,160,88020,1,8,0:0:0:0:
224,160,88122,1,0,0:0:0:0:
288,160,88328,1,8,0:0:0:0:
224,160,88533,1,0,0:0:0:0:
288,224,88739,1,12,0:0:0:0:
224,160,88944,1,0,0:0:0:0:
224,160,89047,1,0,0:0:0:0:
224,160,89150,1,0,0:0:0:0:
288,224,89355,1,12,0:0:0:0:
224,160,89561,1,0,0:0:0:0:
224,160,89766,1,0,0:0:0:0:
288,160,89869,1,8,0:0:0:0:
288,160,89972,1,8,0:0:0:0:
224,160,90177,1,0,0:0:0:0:
288,160,90280,1,8,0:0:0:0:
288,160,90383,1,8,0:0:0:0:
224,160,90485,1,0,0:0:0:0:
288,160,90588,1,8,0:0:0:0:
288,160,90691,1,8,0:0:0:0:
224,160,90794,1,0,0:0:0:0:
288,160,90999,1,8,0:0:0:0:
224,160,91205,1,0,0:0:0:0:
288,160,91307,1,8,0:0:0:0:
288,160,91410,1,8,0:0:0:0:
224,160,91616,1,0,0:0:0:0:
288,160,91821,1,8,0:0:0:0:
224,160,91924,1,0,0:0:0:0:
288,160,92027,1,8,0:0:0:0:
224,160,92129,1,0,0:0:0:0:
288,160,92232,1,8,0:0:0:0:
288,160,92335,1,8,0:0:0:0:
224,160,92437,1,0,0:0:0:0:
224,160,92540,1,0,0:0:0:0:
224,160,92643,1,0,0:0:0:0:
288,224,92848,1,12,0:0:0:0:
224,160,93054,1,0,0:0:0:0:
288,160,93259,1,8,0:0:0:0:
224,160,93465,1,0,0:0:0:0:
288,160,93670,1,8,0:0:0:0:
288,160,93773,1,8,0:0:0:0:
224,160,93876,1,0,0:0:0:0:
288,160,94081,1,8,0:0:0:0:
224,160,94287,1,0,0:0:0:0:
288,160,94492,1,8,0:0:0:0:
288,160,94595,1,8,0:0:0:0:
224,160,94698,1,0,0:0:0:0:
288,160,94903,1,8,0:0:0:0:
224,160,95109,1,0,0:0:0:0:
288,160,95314,1,8,0:0:0:0:
224,160,95417,1,0,0:0:0:0:
224,160,95520,1,0,0:0:0:0:
224,160,95725,1,0,0:0:0:0:
288,224,95931,1,12,0:0:0:0:
224,160,96136,1,0,0:0:0:0:
288,224,96753,1,12,0:0:0:0:
288,160,96958,1,8,0:0:0:0:
288,160,97164,1,8,0:0:0:0:
288,224,97574,1,12,0:0:0:0:
224,160,97985,1,0,0:0:0:0:
288,160,98396,1,8,0:0:0:0:
224,224,99218,1,4,0:0:0:0:
224,160,99424,1,0,0:0:0:0:
288,160,99629,1,8,0:0:0:0:
224,160,99732,1,0,0:0:0:0:
288,160,99835,1,8,0:0:0:0:
224,160,100040,1,0,0:0:0:0:
288,160,100143,1,8,0:0:0:0:
288,160,100246,1,8,0:0:0:0:
224,160,100451,1,0,0:0:0:0:
224,160,100657,1,0,0:0:0:0:
288,160,100725,1,8,0:0:0:0:
224,160,100862,1,0,0:0:0:0:
288,160,101068,1,8,0:0:0:0:
224,160,101273,1,0,0:0:0:0:
224,160,101479,1,0,0:0:0:0:
288,160,101684,1,8,0:0:0:0:
224,160,101787,1,0,0:0:0:0:
224,160,101890,1,0,0:0:0:0:
288,160,102095,1,8,0:0:0:0:
288,160,102198,1,8,0:0:0:0:
224,160,102301,1,0,0:0:0:0:
288,160,102506,1,8,0:0:0:0:
224,160,102711,1,0,0:0:0:0:
288,160,102814,1,8,0:0:0:0:
224,160,102917,1,0,0:0:0:0:
288,160,103122,1,8,0:0:0:0:
224,160,103328,1,0,0:0:0:0:
288,160,103431,1,8,0:0:0:0:
288,160,103533,1,8,0:0:0:0:
224,160,103739,1,0,0:0:0:0:
288,160,103944,1,8,0:0:0:0:
224,160,104013,1,0,0:0:0:0:
288,224,104150,1,12,0:0:0:0:
288,224,104355,1,12,0:0:0:0:
288,224,104561,1,12,0:0:0:0:
288,224,104766,1,12,0:0:0:0:
224,160,104972,1,0,0:0:0:0:
224,160,105177,1,0,0:0:0:0:
224,160,105246,1,0,0:0:0:0:
224,160,105383,1,0,0:0:0:0:
288,160,105451,1,8,0:0:0:0:
288,160,105588,1,8,0:0:0:0:
288,160,105657,1,8,0:0:0:0:
288,224,105794,1,12,0:0:0:0:
224,160,105999,1,0,0:0:0:0:
288,160,106205,1,8,0:0:0:0:
288,160,106307,1,8,0:0:0:0:
288,160,106410,1,8,0:0:0:0:
224,160,106616,1,0,0:0:0:0:
224,160,106718,1,0,0:0:0:0:
288,160,106821,1,8,0:0:0:0:
224,160,106924,1,0,0:0:0:0:
288,160,107027,1,8,0:0:0:0:
288,160,107232,1,8,0:0:0:0:
288,160,107335,1,8,0:0:0:0:
224,160,107437,1,0,0:0:0:0:
224,160,107643,1,0,0:0:0:0:
224,160,107848,1,0,0:0:0:0:
288,160,108054,1,8,0:0:0:0:
288,160,108157,1,8,0:0:0:0:
224,160,108259,1,0,0:0:0:0:
224,160,108362,1,0,0:0:0:0:
224,160,108465,1,0,0:0:0:0:
224,160,108568,1,0,0:0:0:0:
224,160,108670,1,0,0:0:0:0:
224,160,108773,1,0,0:0:0:0:
224,160,108876,1,0,0:0:0:0:
224,160,108979,1,0,0:0:0:0:
288,160,109081,1,8,0:0:0:0:
288,224,109698,1,12,0:0:0:0:
288,224,109903,1,12,0:0:0:0:
288,224,110109,1,12,0:0:0:0:
224,160,110417,1,0,0:0:0:0:
224,160,110520,1,0,0:0:0:0:
224,160,110588,1,0,0:0:0:0:
224,160,110657,1,0,0:0:0:0:
224,160,110725,1,0,0:0:0:0:
224,160,111547,1,0,0:0:0:0:
224,160,111616,1,0,0:0:0:0:
224,160,111684,1,0,0:0:0:0:
224,160,111753,1,0,0:0:0:0:
288,160,111958,1,8,0:0:0:0:
288,160,112027,1,8,0:0:0:0:
288,160,112095,1,8,0:0:0:0:
288,160,112164,1,8,0:0:0:0:
224,224,112369,1,4,0:0:0:0:
288,160,112574,1,8,0:0:0:0:
224,160,112780,1,0,0:0:0:0:
288,160,112883,1,8,0:0:0:0:
288,160,113191,1,8,0:0:0:0:
224,160,113294,1,0,0:0:0:0:
224,160,113396,1,0,0:0:0:0:
224,160,113499,1,0,0:0:0:0:
288,160,113602,1,8,0:0:0:0:
224,160,113807,1,0,0:0:0:0:
288,160,114013,1,8,0:0:0:0:
288,160,114116,1,8,0:0:0:0:
224,160,114218,1,0,0:0:0:0:
224,160,114424,1,0,0:0:0:0:
224,160,114629,1,0,0:0:0:0:
224,160,114835,1,0,0:0:0:0:
288,160,114937,1,8,0:0:0:0:
288,160,115040,1,8,0:0:0:0:
288,160,115246,1,8,0:0:0:0:
224,160,115451,1,0,0:0:0:0:
288,160,115657,1,8,0:0:0:0:
224,160,115759,1,0,0:0:0:0:
224,160,115862,1,0,0:0:0:0:
224,160,116068,1,0,0:0:0:0:
224,160,116170,1,0,0:0:0:0:
224,160,116273,1,0,0:0:0:0:
224,160,116479,1,0,0:0:0:0:
288,160,116581,1,8,0:0:0:0:
288,160,116684,1,8,0:0:0:0:
288,160,116787,1,8,0:0:0:0:
224,160,116890,1,0,0:0:0:0:
224,160,117095,1,0,0:0:0:0:
288,160,117301,1,8,0:0:0:0:
288,160,117403,1,8,0:0:0:0:
224,160,117506,1,0,0:0:0:0:
224,160,117711,1,0,0:0:0:0:
224,160,117814,1,0,0:0:0:0:
224,160,117917,1,0,0:0:0:0:
224,160,118122,1,0,0:0:0:0:
288,160,118225,1,8,0:0:0:0:
288,160,118328,1,8,0:0:0:0:
224,160,118431,1,0,0:0:0:0:
288,160,118533,1,8,0:0:0:0:
224,160,118739,1,0,0:0:0:0:
288,160,118944,1,8,0:0:0:0:
224,160,119150,1,0,0:0:0:0:
288,160,119253,1,8,0:0:0:0:
288,160,119355,1,8,0:0:0:0:
224,160,119561,1,0,0:0:0:0:
288,160,119766,1,8,0:0:0:0:
224,160,119869,1,0,0:0:0:0:
224,160,120074,1,0,0:0:0:0:
224,160,120177,1,0,0:0:0:0:
288,160,120383,1,8,0:0:0:0:
288,160,120588,1,8,0:0:0:0:
224,160,120691,1,0,0:0:0:0:
288,160,120794,1,8,0:0:0:0:
224,160,120999,1,0,0:0:0:0:
288,160,121102,1,8,0:0:0:0:
224,160,121205,1,0,0:0:0:0:
224,160,121410,1,0,0:0:0:0:
288,160,121513,1,8,0:0:0:0:
224,160,121616,1,0,0:0:0:0:
224,160,121718,1,0,0:0:0:0:
224,160,121821,1,0,0:0:0:0:
288,160,122027,1,8,0:0:0:0:
288,160,122232,1,8,0:0:0:0:
224,160,122335,1,0,0:0:0:0:
288,160,122437,1,8,0:0:0:0:
224,160,122643,1,0,0:0:0:0:
288,160,122746,1,8,0:0:0:0:
288,160,122951,1,8,0:0:0:0:
288,160,123157,1,8,0:0:0:0:
224,160,123362,1,0,0:0:0:0:
224,160,123465,1,0,0:0:0:0:
288,160,123670,1,8,0:0:0:0:
288,160,123876,1,8,0:0:0:0:
288,160,123979,1,8,0:0:0:0:
224,160,124081,1,0,0:0:0:0:
224,160,124287,1,0,0:0:0:0:
288,160,124390,1,8,0:0:0:0:
288,160,124595,1,8,0:0:0:0:
224,160,124801,1,0,0:0:0:0:
288,160,124903,1,8,0:0:0:0:
288,160,125006,1,8,0:0:0:0:
288,160,125109,1,8,0:0:0:0:
288,160,125314,1,8,0:0:0:0:
224,160,125417,1,0,0:0:0:0:
288,160,125520,1,8,0:0:0:0:
224,160,125725,1,0,0:0:0:0:
224,160,125931,1,0,0:0:0:0:
224,160,126033,1,0,0:0:0:0:
288,160,126239,1,8,0:0:0:0:
288,160,126444,1,8,0:0:0:0:
224,160,126650,1,0,0:0:0:0:
224,160,126753,1,0,0:0:0:0:
224,160,126958,1,0,0:0:0:0:
288,160,127164,1,8,0:0:0:0:
224,160,127266,1,0,0:0:0:0:
288,160,127369,1,8,0:0:0:0:
224,160,127574,1,0,0:0:0:0:
288,160,127677,1,8,0:0:0:0:
288,160,127883,1,8,0:0:0:0:
288,160,128088,1,8,0:0:0:0:
224,160,128294,1,0,0:0:0:0:
224,160,128396,1,0,0:0:0:0:
288,160,128602,1,8,0:0:0:0:
288,160,128807,1,8,0:0:0:0:
288,160,128910,1,8,0:0:0:0:
224,160,129013,1,0,0:0:0:0:
224,160,129218,1,0,0:0:0:0:
224,160,129321,1,0,0:0:0:0:
224,160,129527,1,0,0:0:0:0:
288,160,129732,1,8,0:0:0:0:
224,160,129937,1,0,0:0:0:0:
288,160,130040,1,8,0:0:0:0:
288,160,130246,1,8,0:0:0:0:
288,160,130451,1,8,0:0:0:0:
288,160,130554,1,8,0:0:0:0:
224,160,130657,1,0,0:0:0:0:
224,160,130862,1,0,0:0:0:0:
288,160,130965,1,8,0:0:0:0:
224,160,131068,1,0,0:0:0:0:
288,160,131170,1,8,0:0:0:0:
288,160,131376,1,8,0:0:0:0:
224,160,131479,1,0,0:0:0:0:
224,160,131581,1,0,0:0:0:0:
288,160,131684,1,8,0:0:0:0:
288,160,131890,1,8,0:0:0:0:
224,160,131992,1,0,0:0:0:0:
288,160,132095,1,8,0:0:0:0:
288,160,132198,1,8,0:0:0:0:
224,160,132301,1,0,0:0:0:0:
224,160,132506,1,0,0:0:0:0:
288,160,132609,1,8,0:0:0:0:
288,160,132711,1,8,0:0:0:0:
288,160,132814,1,8,0:0:0:0:
224,160,132917,1,0,0:0:0:0:
288,160,133020,1,8,0:0:0:0:
224,160,133225,1,0,0:0:0:0:
224,160,133328,1,0,0:0:0:0:
224,160,133431,1,0,0:0:0:0:
288,160,133533,1,8,0:0:0:0:
288,160,133739,1,8,0:0:0:0:
288,160,133842,1,8,0:0:0:0:
224,160,133944,1,0,0:0:0:0:
224,160,134150,1,0,0:0:0:0:
288,160,134253,1,8,0:0:0:0:
224,160,134355,1,0,0:0:0:0:
224,160,134561,1,0,0:0:0:0:
288,160,134664,1,8,0:0:0:0:
224,160,134766,1,0,0:0:0:0:
224,160,134869,1,0,0:0:0:0:
288,160,134972,1,8,0:0:0:0:
288,160,135074,1,8,0:0:0:0:
224,160,135177,1,0,0:0:0:0:
256,192,135383,12,0,136821,0:0:0:0:
288,160,137027,5,8,0:0:0:0:
288,160,137129,1,8,0:0:0:0:
288,160,137232,1,8,0:0:0:0:
288,160,137335,1,8,0:0:0:0:
288,160,137437,1,8,0:0:0:0:
288,160,137540,1,8,0:0:0:0:
288,160,137643,1,8,0:0:0:0:
288,160,137746,1,8,0:0:0:0:
288,160,137848,1,8,0:0:0:0:
288,160,137917,1,8,0:0:0:0:
288,160,137985,1,8,0:0:0:0:
288,160,138054,1,8,0:0:0:0:
288,160,138122,1,8,0:0:0:0:
288,160,138191,1,8,0:0:0:0:
288,160,138259,1,8,0:0:0:0:
224,160,138465,1,0,0:0:0:0:
288,160,138670,1,8,0:0:0:0:
288,160,138739,1,8,0:0:0:0:
288,160,138807,1,8,0:0:0:0:
224,160,138876,1,0,0:0:0:0:
224,160,139081,1,0,0:0:0:0:
288,160,139184,1,8,0:0:0:0:
288,160,139390,1,8,0:0:0:0:
288,160,139595,1,8,0:0:0:0:
224,160,139698,1,0,0:0:0:0:
224,160,139903,1,0,0:0:0:0:
288,160,140109,1,8,0:0:0:0:
288,160,140314,1,8,0:0:0:0:
288,160,140383,1,8,0:0:0:0:
288,160,140451,1,8,0:0:0:0:
224,160,140520,1,0,0:0:0:0:
224,160,140725,1,0,0:0:0:0:
288,160,140828,1,8,0:0:0:0:
224,160,140931,1,0,0:0:0:0:
224,160,141033,1,0,0:0:0:0:
288,160,141239,1,8,0:0:0:0:
288,160,141342,1,8,0:0:0:0:
224,160,141444,1,0,0:0:0:0:
224,160,141547,1,0,0:0:0:0:
288,160,141753,1,8,0:0:0:0:
224,160,141855,1,0,0:0:0:0:
288,160,141958,1,8,0:0:0:0:
288,160,142027,1,8,0:0:0:0:
288,160,142095,1,8,0:0:0:0:
224,160,142164,1,0,0:0:0:0:
224,160,142369,1,0,0:0:0:0:
224,160,142472,1,0,0:0:0:0:
288,160,142677,1,8,0:0:0:0:
288,160,142883,1,8,0:0:0:0:
288,160,142985,1,8,0:0:0:0:
224,160,143191,1,0,0:0:0:0:
224,160,143294,1,0,0:0:0:0:
288,160,143396,1,8,0:0:0:0:
288,160,143602,1,8,0:0:0:0:
288,160,143670,1,8,0:0:0:0:
288,160,143739,1,8,0:0:0:0:
224,160,143807,1,0,0:0:0:0:
224,160,144013,1,0,0:0:0:0:
288,160,144116,1,8,0:0:0:0:
288,160,144218,1,8,0:0:0:0:
288,160,144321,1,8,0:0:0:0:
288,160,144527,1,8,0:0:0:0:
224,160,144732,1,0,0:0:0:0:
288,160,144835,1,8,0:0:0:0:
288,160,145040,1,8,0:0:0:0:
288,160,145143,1,8,0:0:0:0:
288,160,145246,1,8,0:0:0:0:
288,160,145314,1,8,0:0:0:0:
288,160,145383,1,8,0:0:0:0:
224,160,145451,1,0,0:0:0:0:
288,160,145657,1,8,0:0:0:0:
224,160,145759,1,0,0:0:0:0:
288,160,145965,1,8,0:0:0:0:
288,160,146170,1,8,0:0:0:0:
224,160,146376,1,0,0:0:0:0:
288,160,146479,1,8,0:0:0:0:
288,160,146684,1,8,0:0:0:0:
288,160,146890,1,8,0:0:0:0:
288,160,146958,1,8,0:0:0:0:
288,160,147027,1,8,0:0:0:0:
224,160,147095,1,0,0:0:0:0:
288,160,147301,1,8,0:0:0:0:
288,160,147403,1,8,0:0:0:0:
224,160,147506,1,0,0:0:0:0:
288,160,147609,1,8,0:0:0:0:
288,160,147814,1,8,0:0:0:0:
224,160,147917,1,0,0:0:0:0:
224,160,148020,1,0,0:0:0:0:
288,160,148122,1,8,0:0:0:0:
288,160,148328,1,8,0:0:0:0:
224,160,148431,1,0,0:0:0:0:
288,160,148533,1,8,0:0:0:0:
288,160,148602,1,8,0:0:0:0:
288,160,148670,1,8,0:0:0:0:
224,160,148739,1,0,0:0:0:0:
224,160,148944,1,0,0:0:0:0:
288,160,149047,1,8,0:0:0:0:
288,160,149150,1,8,0:0:0:0:
288,160,149253,1,8,0:0:0:0:
224,160,149355,1,0,0:0:0:0:
288,160,149458,1,8,0:0:0:0:
288,160,149561,1,8,0:0:0:0:
288,160,149664,1,8,0:0:0:0:
224,160,149766,1,0,0:0:0:0:
288,160,149835,1,8,0:0:0:0:
288,160,149903,1,8,0:0:0:0:
288,160,149972,1,8,0:0:0:0:
288,224,150177,1,12,0:0:0:0:
224,224,150485,1,4,0:0:0:0:
224,224,150794,1,4,0:0:0:0:
288,224,151102,1,12,0:0:0:0:
224,160,151410,1,0,0:0:0:0:
224,160,151513,1,0,0:0:0:0:
288,160,151616,1,8,0:0:0:0:
288,160,151821,1,8,0:0:0:0:
288,160,151924,1,8,0:0:0:0:
224,160,152027,1,0,0:0:0:0:
288,160,152232,1,8,0:0:0:0:
288,160,152335,1,8,0:0:0:0:
224,160,152437,1,0,0:0:0:0:
288,160,152540,1,8,0:0:0:0:
288,160,152746,1,8,0:0:0:0:
224,160,152848,1,0,0:0:0:0:
288,160,153054,1,8,0:0:0:0:
288,160,153105,1,8,0:0:0:0:
224,160,153157,1,0,0:0:0:0:
224,160,153259,1,0,0:0:0:0:
288,160,153465,1,8,0:0:0:0:
288,160,153516,1,8,0:0:0:0:
224,160,153568,1,0,0:0:0:0:
224,160,153670,1,0,0:0:0:0:
288,160,153773,1,8,0:0:0:0:
288,160,153876,1,8,0:0:0:0:
224,160,153979,1,0,0:0:0:0:
288,160,154184,1,8,0:0:0:0:
288,160,154287,1,8,0:0:0:0:
288,160,154492,1,8,0:0:0:0:
224,160,154595,1,0,0:0:0:0:
288,160,154698,1,8,0:0:0:0:
224,160,154766,1,0,0:0:0:0:
224,160,154835,1,0,0:0:0:0:
288,160,154903,1,8,0:0:0:0:
288,160,155109,1,8,0:0:0:0:
288,160,155160,1,8,0:0:0:0:
224,160,155211,1,0,0:0:0:0:
224,160,155314,1,0,0:0:0:0:
288,160,155417,1,8,0:0:0:0:
288,160,155520,1,8,0:0:0:0:
288,160,155622,1,8,0:0:0:0:
288,160,155828,1,8,0:0:0:0:
224,160,156033,1,0,0:0:0:0:
288,160,156085,1,8,0:0:0:0:
288,160,156136,1,8,0:0:0:0:
224,160,156239,1,0,0:0:0:0:
288,160,156342,1,8,0:0:0:0:
288,160,156444,1,8,0:0:0:0:
224,160,156547,1,0,0:0:0:0:
288,160,156753,1,8,0:0:0:0:
224,160,156804,1,0,0:0:0:0:
224,160,156855,1,0,0:0:0:0:
224,160,156958,1,0,0:0:0:0:
288,160,157061,1,8,0:0:0:0:
288,160,157266,1,8,0:0:0:0:
288,160,157472,1,8,0:0:0:0:
288,160,157574,1,8,0:0:0:0:
288,160,157780,1,8,0:0:0:0:
224,160,157883,1,0,0:0:0:0:
288,160,157985,1,8,0:0:0:0:
224,160,158054,1,0,0:0:0:0:
224,160,158122,1,0,0:0:0:0:
288,160,158191,1,8,0:0:0:0:
224,160,158259,1,0,0:0:0:0:
224,160,158328,1,0,0:0:0:0:
288,160,158396,1,8,0:0:0:0:
288,160,158499,1,8,0:0:0:0:
224,160,158602,1,0,0:0:0:0:
288,160,158807,1,8,0:0:0:0:
288,160,158910,1,8,0:0:0:0:
224,160,159013,1,0,0:0:0:0:
288,160,159116,1,8,0:0:0:0:
288,160,159321,1,8,0:0:0:0:
224,160,159424,1,0,0:0:0:0:
288,160,159629,1,8,0:0:0:0:
224,160,159681,1,0,0:0:0:0:
224,160,159732,1,0,0:0:0:0:
288,160,159835,1,8,0:0:0:0:
288,160,160040,1,8,0:0:0:0:
288,160,160092,1,8,0:0:0:0:
224,160,160143,1,0,0:0:0:0:
288,160,160246,1,8,0:0:0:0:
288,160,160451,1,8,0:0:0:0:
288,160,160554,1,8,0:0:0:0:
224,160,160657,1,0,0:0:0:0:
288,160,160759,1,8,0:0:0:0:
288,160,160965,1,8,0:0:0:0:
288,160,161016,1,8,0:0:0:0:
224,160,161068,1,0,0:0:0:0:
224,160,161170,1,0,0:0:0:0:
288,160,161273,1,8,0:0:0:0:
288,160,161376,1,8,0:0:0:0:
224,160,161479,1,0,0:0:0:0:
288,224,161684,1,12,0:0:0:0:
288,160,162095,1,8,0:0:0:0:
288,160,162506,1,8,0:0:0:0:
288,160,162917,1,8,0:0:0:0:
288,160,163328,1,8,0:0:0:0:
288,160,163533,1,8,0:0:0:0:
288,160,163739,1,8,0:0:0:0:
288,160,163944,1,8,0:0:0:0:
288,160,164150,1,8,0:0:0:0:
288,160,164253,1,8,0:0:0:0:
288,160,164355,1,8,0:0:0:0:
288,160,164458,1,8,0:0:0:0:
288,160,164561,1,8,0:0:0:0:
288,160,164629,1,8,0:0:0:0:
288,160,164698,1,8,0:0:0:0:
288,160,164766,1,8,0:0:0:0:
288,160,164835,1,8,0:0:0:0:
288,160,164903,1,8,0:0:0:0:
288,160,164972,1,8,0:0:0:0:
288,224,178122,5,12,0:0:0:0:
224,160,178328,1,0,0:0:0:0:
288,160,178739,1,8,0:0:0:0:
224,160,178944,1,0,0:0:0:0:
288,160,179355,1,8,0:0:0:0:
224,160,179561,1,0,0:0:0:0:
288,160,179972,1,8,0:0:0:0:
224,160,180177,1,0,0:0:0:0:
288,160,180588,1,8,0:0:0:0:
224,160,180794,1,0,0:0:0:0:
224,160,181410,1,0,0:0:0:0:
288,160,181821,1,8,0:0:0:0:
224,160,182027,1,0,0:0:0:0:
288,160,182437,1,8,0:0:0:0:
224,160,182643,1,0,0:0:0:0:
288,160,183054,1,8,0:0:0:0:
224,160,183259,1,0,0:0:0:0:
288,160,183670,1,8,0:0:0:0:
224,160,183876,1,0,0:0:0:0:
288,160,184081,1,8,0:0:0:0:
288,160,184287,1,8,0:0:0:0:
224,160,184492,1,0,0:0:0:0:
288,160,184698,1,8,0:0:0:0:
224,160,184903,1,0,0:0:0:0:
288,160,185314,1,8,0:0:0:0:
224,160,185520,1,0,0:0:0:0:
288,160,185931,1,8,0:0:0:0:
224,160,186136,1,0,0:0:0:0:
288,160,186547,1,8,0:0:0:0:
224,160,186753,1,0,0:0:0:0:
288,160,187164,1,8,0:0:0:0:
224,160,187369,1,0,0:0:0:0:
224,160,187472,1,0,0:0:0:0:
288,160,187574,1,8,0:0:0:0:
224,160,187677,1,0,0:0:0:0:
288,160,187780,1,8,0:0:0:0:
224,160,187883,1,0,0:0:0:0:
288,160,187985,1,8,0:0:0:0:
288,160,188088,1,8,0:0:0:0:
288,160,188191,1,8,0:0:0:0:
224,160,188294,1,0,0:0:0:0:
288,160,188396,1,8,0:0:0:0:
224,160,188602,1,0,0:0:0:0:
288,160,189013,1,8,0:0:0:0:
224,160,189218,1,0,0:0:0:0:
288,160,189629,1,8,0:0:0:0:
224,160,189835,1,0,0:0:0:0:
288,160,190246,1,8,0:0:0:0:
224,160,190451,1,0,0:0:0:0:
288,160,190657,1,8,0:0:0:0:
288,160,190862,1,8,0:0:0:0:
224,160,191068,1,0,0:0:0:0:
224,160,191273,1,0,0:0:0:0:
288,160,191376,1,8,0:0:0:0:
288,160,191479,1,8,0:0:0:0:
224,160,191684,1,0,0:0:0:0:
288,160,191787,1,8,0:0:0:0:
288,160,191890,1,8,0:0:0:0:
224,160,192095,1,0,0:0:0:0:
288,160,192198,1,8,0:0:0:0:
288,160,192301,1,8,0:0:0:0:
224,160,192403,1,0,0:0:0:0:
288,160,192506,1,8,0:0:0:0:
288,160,192609,1,8,0:0:0:0:
224,160,192711,1,0,0:0:0:0:
288,160,192917,1,8,0:0:0:0:
224,160,193020,1,0,0:0:0:0:
224,160,193122,1,0,0:0:0:0:
288,160,193328,1,8,0:0:0:0:
224,160,193431,1,0,0:0:0:0:
224,160,193533,1,0,0:0:0:0:
288,160,193739,1,8,0:0:0:0:
224,160,193842,1,0,0:0:0:0:
224,160,193944,1,0,0:0:0:0:
288,160,194047,1,8,0:0:0:0:
224,160,194150,1,0,0:0:0:0:
224,160,194253,1,0,0:0:0:0:
288,160,194355,1,8,0:0:0:0:
288,160,194561,1,8,0:0:0:0:
288,160,194664,1,8,0:0:0:0:
224,160,194766,1,0,0:0:0:0:
288,160,194972,1,8,0:0:0:0:
288,160,195074,1,8,0:0:0:0:
224,160,195177,1,0,0:0:0:0:
288,160,195383,1,8,0:0:0:0:
288,160,195485,1,8,0:0:0:0:
224,160,195588,1,0,0:0:0:0:
288,160,195691,1,8,0:0:0:0:
288,160,195794,1,8,0:0:0:0:
224,160,195896,1,0,0:0:0:0:
288,160,195999,1,8,0:0:0:0:
288,160,196205,1,8,0:0:0:0:
224,160,196307,1,0,0:0:0:0:
224,160,196410,1,0,0:0:0:0:
288,160,196616,1,8,0:0:0:0:
288,160,196718,1,8,0:0:0:0:
224,160,196821,1,0,0:0:0:0:
288,160,197027,1,8,0:0:0:0:
224,160,197129,1,0,0:0:0:0:
224,160,197232,1,0,0:0:0:0:
288,160,197335,1,8,0:0:0:0:
288,160,197437,1,8,0:0:0:0:
224,160,197540,1,0,0:0:0:0:
288,160,197643,1,8,0:0:0:0:
288,160,197848,1,8,0:0:0:0:
224,160,197951,1,0,0:0:0:0:
288,160,198054,1,8,0:0:0:0:
288,160,198259,1,8,0:0:0:0:
224,160,198362,1,0,0:0:0:0:
288,160,198465,1,8,0:0:0:0:
288,160,198670,1,8,0:0:0:0:
224,160,198773,1,0,0:0:0:0:
288,160,198876,1,8,0:0:0:0:
288,160,198979,1,8,0:0:0:0:
224,160,199081,1,0,0:0:0:0:
288,160,199184,1,8,0:0:0:0:
288,160,199287,1,8,0:0:0:0:
224,160,199492,1,0,0:0:0:0:
288,160,199595,1,8,0:0:0:0:
224,160,199698,1,0,0:0:0:0:
224,160,199903,1,0,0:0:0:0:
288,160,200006,1,8,0:0:0:0:
224,160,200109,1,0,0:0:0:0:
224,160,200314,1,0,0:0:0:0:
288,160,200417,1,8,0:0:0:0:
224,160,200520,1,0,0:0:0:0:
224,160,200622,1,0,0:0:0:0:
288,160,200725,1,8,0:0:0:0:
224,160,200828,1,0,0:0:0:0:
224,160,200931,1,0,0:0:0:0:
224,160,201136,1,0,0:0:0:0:
288,160,201239,1,8,0:0:0:0:
288,160,201342,1,8,0:0:0:0:
224,160,201547,1,0,0:0:0:0:
224,160,201650,1,0,0:0:0:0:
288,160,201753,1,8,0:0:0:0:
224,160,201958,1,0,0:0:0:0:
288,160,202061,1,8,0:0:0:0:
288,160,202164,1,8,0:0:0:0:
224,160,202266,1,0,0:0:0:0:
224,160,202369,1,0,0:0:0:0:
288,160,202472,1,8,0:0:0:0:
224,160,202574,1,0,0:0:0:0:
288,160,202780,1,8,0:0:0:0:
288,160,202883,1,8,0:0:0:0:
224,160,202985,1,0,0:0:0:0:
224,160,203191,1,0,0:0:0:0:
288,160,203294,1,8,0:0:0:0:
288,160,203396,1,8,0:0:0:0:
288,160,203602,1,8,0:0:0:0:
288,160,203705,1,8,0:0:0:0:
224,160,203807,1,0,0:0:0:0:
224,160,203910,1,0,0:0:0:0:
288,160,204013,1,8,0:0:0:0:
288,160,204116,1,8,0:0:0:0:
288,160,204218,1,8,0:0:0:0:
288,160,204424,1,8,0:0:0:0:
224,160,204629,1,0,0:0:0:0:
224,160,204835,1,0,0:0:0:0:
224,160,204937,1,0,0:0:0:0:
288,160,205040,1,8,0:0:0:0:
224,160,205246,1,0,0:0:0:0:
224,160,205451,1,0,0:0:0:0:
288,160,205657,1,8,0:0:0:0:
224,160,205862,1,0,0:0:0:0:
224,160,206068,1,0,0:0:0:0:
288,160,206170,1,8,0:0:0:0:
288,160,206273,1,8,0:0:0:0:
288,160,206479,1,8,0:0:0:0:
288,160,206581,1,8,0:0:0:0:
224,160,206684,1,0,0:0:0:0:
224,160,206890,1,0,0:0:0:0:
288,160,206992,1,8,0:0:0:0:
288,160,207095,1,8,0:0:0:0:
288,160,207198,1,8,0:0:0:0:
288,160,207301,1,8,0:0:0:0:
224,160,207403,1,0,0:0:0:0:
288,160,207506,1,8,0:0:0:0:
224,160,207711,1,0,0:0:0:0:
288,160,208122,1,8,0:0:0:0:
224,160,208328,1,0,0:0:0:0:
224,160,208533,1,0,0:0:0:0:
288,160,208636,1,8,0:0:0:0:
224,160,208739,1,0,0:0:0:0:
224,160,208944,1,0,0:0:0:0:
224,160,209047,1,0,0:0:0:0:
288,160,209150,1,8,0:0:0:0:
288,160,209355,1,8,0:0:0:0:
288,160,209458,1,8,0:0:0:0:
224,160,209561,1,0,0:0:0:0:
224,160,209766,1,0,0:0:0:0:
288,160,209869,1,8,0:0:0:0:
224,160,209972,1,0,0:0:0:0:
288,160,210177,1,8,0:0:0:0:
288,160,210280,1,8,0:0:0:0:
224,160,210383,1,0,0:0:0:0:
224,160,210485,1,0,0:0:0:0:
288,160,210588,1,8,0:0:0:0:
224,160,210691,1,0,0:0:0:0:
288,160,210794,1,8,0:0:0:0:
288,160,210999,1,8,0:0:0:0:
224,160,211205,1,0,0:0:0:0:
224,160,211410,1,0,0:0:0:0:
288,160,211513,1,8,0:0:0:0:
288,160,211616,1,8,0:0:0:0:
224,160,211821,1,0,0:0:0:0:
224,160,211924,1,0,0:0:0:0:
224,160,212027,1,0,0:0:0:0:
288,160,212232,1,8,0:0:0:0:
224,160,212437,1,0,0:0:0:0:
224,160,212643,1,0,0:0:0:0:
224,160,212746,1,0,0:0:0:0:
288,160,212848,1,8,0:0:0:0:
224,160,213054,1,0,0:0:0:0:
224,160,213259,1,0,0:0:0:0:
288,160,213465,1,8,0:0:0:0:
224,160,213670,1,0,0:0:0:0:
224,160,213876,1,0,0:0:0:0:
224,160,213979,1,0,0:0:0:0:
288,160,214081,1,8,0:0:0:0:
224,160,214287,1,0,0:0:0:0:
288,160,214698,1,8,0:0:0:0:
224,160,214903,1,0,0:0:0:0:
224,160,215109,1,0,0:0:0:0:
288,160,215211,1,8,0:0:0:0:
288,160,215314,1,8,0:0:0:0:
288,160,215520,1,8,0:0:0:0:
224,160,215622,1,0,0:0:0:0:
288,160,215725,1,8,0:0:0:0:
288,160,215931,1,8,0:0:0:0:
224,160,216136,1,0,0:0:0:0:
288,160,216342,1,8,0:0:0:0:
288,160,216444,1,8,0:0:0:0:
288,160,216547,1,8,0:0:0:0:
224,160,216753,1,0,0:0:0:0:
224,160,216958,1,0,0:0:0:0:
288,160,217164,1,8,0:0:0:0:
224,160,217369,1,0,0:0:0:0:
288,224,217574,1,12,0:0:0:0:
224,160,217780,1,0,0:0:0:0:
224,160,218191,1,0,0:0:0:0:
288,160,218396,1,8,0:0:0:0:
288,160,218807,1,8,0:0:0:0:
224,160,219013,1,0,0:0:0:0:
288,160,219424,1,8,0:0:0:0:
224,160,219629,1,0,0:0:0:0:
288,160,220040,1,8,0:0:0:0:
224,160,220657,1,0,0:0:0:0:
224,160,220862,1,0,0:0:0:0:
288,160,221273,1,8,0:0:0:0:
224,160,221479,1,0,0:0:0:0:
288,160,221684,1,8,0:0:0:0:
224,160,222095,1,0,0:0:0:0:
288,160,222301,1,8,0:0:0:0:
224,160,222711,1,0,0:0:0:0:
224,160,222917,1,0,0:0:0:0:
288,160,223328,1,8,0:0:0:0:
224,160,223944,1,0,0:0:0:0:
288,224,224150,1,12,0:0:0:0:
224,160,224355,1,0,0:0:0:0:
224,160,224766,1,0,0:0:0:0:
288,160,224972,1,8,0:0:0:0:
288,160,225383,1,8,0:0:0:0:
224,160,225588,1,0,0:0:0:0:
288,160,225999,1,8,0:0:0:0:
224,160,226205,1,0,0:0:0:0:
288,160,226616,1,8,0:0:0:0:
224,160,227232,1,0,0:0:0:0:
224,224,227437,1,4,0:0:0:0:
288,160,227848,1,8,0:0:0:0:
224,160,228054,1,0,0:0:0:0:
288,160,228259,1,8,0:0:0:0:
224,160,228670,1,0,0:0:0:0:
288,160,228876,1,8,0:0:0:0:
224,160,229081,1,0,0:0:0:0:
224,160,229184,1,0,0:0:0:0:
288,160,229287,1,8,0:0:0:0:
224,160,229390,1,0,0:0:0:0:
288,160,229492,1,8,0:0:0:0:
288,160,229595,1,8,0:0:0:0:
288,160,229698,1,8,0:0:0:0:
288,160,229801,1,8,0:0:0:0:
224,160,229903,1,0,0:0:0:0:
288,160,230006,1,8,0:0:0:0:
288,160,230109,1,8,0:0:0:0:
288,160,230211,1,8,0:0:0:0:
224,160,230314,1,0,0:0:0:0:
224,160,230417,1,0,0:0:0:0:
288,160,230520,1,8,0:0:0:0:
288,160,230622,1,8,0:0:0:0:
224,160,230725,1,0,0:0:0:0:
288,160,231342,1,8,0:0:0:0:
224,160,231444,1,0,0:0:0:0:
288,160,231547,1,8,0:0:0:0:
224,160,231753,1,0,0:0:0:0:
224,160,231958,1,0,0:0:0:0:
224,160,232369,1,0,0:0:0:0:
288,160,232574,1,8,0:0:0:0:
224,160,232780,1,0,0:0:0:0:
288,160,232985,1,8,0:0:0:0:
224,160,233088,1,0,0:0:0:0:
288,160,233191,1,8,0:0:0:0:
224,224,233602,1,4,0:0:0:0:
224,224,233807,1,4,0:0:0:0:
224,160,234013,1,0,0:0:0:0:
288,160,234116,1,8,0:0:0:0:
288,160,234218,1,8,0:0:0:0:
288,160,234424,1,8,0:0:0:0:
224,160,234629,1,0,0:0:0:0:
224,160,234835,1,0,0:0:0:0:
288,160,234937,1,8,0:0:0:0:
288,160,235040,1,8,0:0:0:0:
224,160,235143,1,0,0:0:0:0:
224,160,235348,1,0,0:0:0:0:
288,160,235451,1,8,0:0:0:0:
288,160,235554,1,8,0:0:0:0:
224,160,235657,1,0,0:0:0:0:
224,160,235862,1,0,0:0:0:0:
288,160,235965,1,8,0:0:0:0:
288,160,236068,1,8,0:0:0:0:
224,160,236273,1,0,0:0:0:0:
288,160,236479,1,8,0:0:0:0:
224,160,236581,1,0,0:0:0:0:
224,160,236684,1,0,0:0:0:0:
224,224,236890,1,4,0:0:0:0:
224,224,237095,1,4,0:0:0:0:
224,160,237301,1,0,0:0:0:0:
224,160,237403,1,0,0:0:0:0:
224,160,237506,1,0,0:0:0:0:
288,160,237609,1,8,0:0:0:0:
288,160,237711,1,8,0:0:0:0:
224,160,237917,1,0,0:0:0:0:
224,160,238020,1,0,0:0:0:0:
288,160,238122,1,8,0:0:0:0:
224,160,238328,1,0,0:0:0:0:
288,160,238431,1,8,0:0:0:0:
224,160,238533,1,0,0:0:0:0:
224,160,238636,1,0,0:0:0:0:
288,160,238739,1,8,0:0:0:0:
224,160,238944,1,0,0:0:0:0:
288,160,239047,1,8,0:0:0:0:
224,160,239150,1,0,0:0:0:0:
288,160,239253,1,8,0:0:0:0:
288,160,239355,1,8,0:0:0:0:
288,160,239561,1,8,0:0:0:0:
224,160,239664,1,0,0:0:0:0:
288,160,239766,1,8,0:0:0:0:
288,160,239869,1,8,0:0:0:0:
224,160,239972,1,0,0:0:0:0:
224,224,240177,1,4,0:0:0:0:
224,224,240383,1,4,0:0:0:0:
224,160,240588,1,0,0:0:0:0:
288,160,240691,1,8,0:0:0:0:
224,160,240794,1,0,0:0:0:0:
288,160,240896,1,8,0:0:0:0:
288,160,240999,1,8,0:0:0:0:
288,160,241102,1,8,0:0:0:0:
224,160,241205,1,0,0:0:0:0:
288,160,241307,1,8,0:0:0:0:
224,160,241410,1,0,0:0:0:0:
224,160,241616,1,0,0:0:0:0:
288,160,241718,1,8,0:0:0:0:
288,160,241821,1,8,0:0:0:0:
224,160,241924,1,0,0:0:0:0:
288,160,242027,1,8,0:0:0:0:
288,160,242129,1,8,0:0:0:0:
224,160,242232,1,0,0:0:0:0:
224,160,242335,1,0,0:0:0:0:
288,160,242437,1,8,0:0:0:0:
288,160,242643,1,8,0:0:0:0:
224,160,242746,1,0,0:0:0:0:
224,160,242848,1,0,0:0:0:0:
224,160,242951,1,0,0:0:0:0:
224,160,243054,1,0,0:0:0:0:
288,160,243157,1,8,0:0:0:0:
224,160,243259,1,0,0:0:0:0:
224,224,243465,1,4,0:0:0:0:
224,224,243670,1,4,0:0:0:0:
224,160,243876,1,0,0:0:0:0:
224,160,244081,1,0,0:0:0:0:
288,160,244184,1,8,0:0:0:0:
224,160,244390,1,0,0:0:0:0:
288,160,244492,1,8,0:0:0:0:
224,160,244698,1,0,0:0:0:0:
288,160,244801,1,8,0:0:0:0:
288,160,244903,1,8,0:0:0:0:
224,160,245006,1,0,0:0:0:0:
288,160,245109,1,8,0:0:0:0:
224,160,245314,1,0,0:0:0:0:
224,160,245520,1,0,0:0:0:0:
224,160,245622,1,0,0:0:0:0:
224,160,245725,1,0,0:0:0:0:
288,160,245828,1,8,0:0:0:0:
224,160,246033,1,0,0:0:0:0:
224,160,246136,1,0,0:0:0:0:
224,160,246342,1,0,0:0:0:0:
288,160,246444,1,8,0:0:0:0:
224,160,246547,1,0,0:0:0:0:
288,160,246650,1,8,0:0:0:0:
224,160,246753,1,0,0:0:0:0:
288,160,246958,1,8,0:0:0:0:
288,160,247027,1,8,0:0:0:0:
288,160,247095,1,8,0:0:0:0:
224,160,247164,1,0,0:0:0:0:
224,160,247369,1,0,0:0:0:0:
288,160,247472,1,8,0:0:0:0:
224,160,247677,1,0,0:0:0:0:
288,160,247780,1,8,0:0:0:0:
224,160,247985,1,0,0:0:0:0:
288,160,248088,1,8,0:0:0:0:
224,160,248191,1,0,0:0:0:0:
288,160,248294,1,8,0:0:0:0:
288,160,248396,1,8,0:0:0:0:
288,160,248602,1,8,0:0:0:0:
288,160,248705,1,8,0:0:0:0:
224,160,248807,1,0,0:0:0:0:
224,160,248910,1,0,0:0:0:0:
224,160,249013,1,0,0:0:0:0:
288,160,249116,1,8,0:0:0:0:
224,160,249321,1,0,0:0:0:0:
288,160,249424,1,8,0:0:0:0:
288,160,249527,1,8,0:0:0:0:
224,160,249629,1,0,0:0:0:0:
288,160,249732,1,8,0:0:0:0:
224,160,249835,1,0,0:0:0:0:
288,160,249937,1,8,0:0:0:0:
224,160,250040,1,0,0:0:0:0:
224,160,250109,1,0,0:0:0:0:
288,160,250246,1,8,0:0:0:0:
288,160,250314,1,8,0:0:0:0:
224,160,250451,1,0,0:0:0:0:
224,160,250657,1,0,0:0:0:0:
288,160,250759,1,8,0:0:0:0:
224,160,250965,1,0,0:0:0:0:
288,160,251068,1,8,0:0:0:0:
224,160,251273,1,0,0:0:0:0:
224,160,251376,1,0,0:0:0:0:
288,160,251479,1,8,0:0:0:0:
224,160,251581,1,0,0:0:0:0:
288,160,251684,1,8,0:0:0:0:
224,160,251890,1,0,0:0:0:0:
288,160,251992,1,8,0:0:0:0:
224,160,252095,1,0,0:0:0:0:
288,160,252198,1,8,0:0:0:0:
224,160,252301,1,0,0:0:0:0:
288,160,252403,1,8,0:0:0:0:
224,160,252609,1,0,0:0:0:0:
224,160,252711,1,0,0:0:0:0:
224,160,252917,1,0,0:0:0:0:
288,160,253020,1,8,0:0:0:0:
224,160,253122,1,0,0:0:0:0:
288,160,253225,1,8,0:0:0:0:
224,160,253328,1,0,0:0:0:0:
224,160,253533,1,0,0:0:0:0:
288,160,253602,1,8,0:0:0:0:
288,160,253670,1,8,0:0:0:0:
224,160,253739,1,0,0:0:0:0:
224,160,253944,1,0,0:0:0:0:
288,160,254047,1,8,0:0:0:0:
224,160,254253,1,0,0:0:0:0:
224,160,254355,1,0,0:0:0:0:
224,160,254561,1,0,0:0:0:0:
224,160,254664,1,0,0:0:0:0:
288,160,254766,1,8,0:0:0:0:
288,160,254869,1,8,0:0:0:0:
288,160,254972,1,8,0:0:0:0:
224,160,255177,1,0,0:0:0:0:
224,160,255383,1,0,0:0:0:0:
224,160,255485,1,0,0:0:0:0:
224,160,255588,1,0,0:0:0:0:
288,160,255691,1,8,0:0:0:0:
224,160,255896,1,0,0:0:0:0:
288,160,255999,1,8,0:0:0:0:
224,160,256205,1,0,0:0:0:0:
288,160,256307,1,8,0:0:0:0:
224,160,256410,1,0,0:0:0:0:
288,160,256513,1,8,0:0:0:0:
224,160,256616,1,0,0:0:0:0:
224,160,256684,1,0,0:0:0:0:
224,160,256753,1,0,0:0:0:0:
288,160,256821,1,8,0:0:0:0:
288,160,256890,1,8,0:0:0:0:
288,160,256958,1,8,0:0:0:0:
224,160,257027,1,0,0:0:0:0:
224,160,257129,1,0,0:0:0:0:
288,160,257335,1,8,0:0:0:0:
224,160,257540,1,0,0:0:0:0:
288,160,257643,1,8,0:0:0:0:
224,160,257848,1,0,0:0:0:0:
224,160,257951,1,0,0:0:0:0:
288,160,258054,1,8,0:0:0:0:
224,160,258157,1,0,0:0:0:0:
288,160,258259,1,8,0:0:0:0:
288,160,258465,1,8,0:0:0:0:
224,160,258670,1,0,0:0:0:0:
224,160,258773,1,0,0:0:0:0:
224,160,258876,1,0,0:0:0:0:
288,160,258979,1,8,0:0:0:0:
224,160,259081,1,0,0:0:0:0:
224,160,259184,1,0,0:0:0:0:
288,160,259287,1,8,0:0:0:0:
224,160,259390,1,0,0:0:0:0:
224,160,259492,1,0,0:0:0:0:
288,160,259595,1,8,0:0:0:0:
224,160,259698,1,0,0:0:0:0:
288,160,259801,1,8,0:0:0:0:
224,160,259903,1,0,0:0:0:0:
224,160,260109,1,0,0:0:0:0:
288,160,260177,1,8,0:0:0:0:
288,160,260246,1,8,0:0:0:0:
224,160,260314,1,0,0:0:0:0:
224,160,260417,1,0,0:0:0:0:
224,160,260520,1,0,0:0:0:0:
288,160,260622,1,8,0:0:0:0:
224,160,260828,1,0,0:0:0:0:
288,160,260931,1,8,0:0:0:0:
288,160,261033,1,8,0:0:0:0:
224,160,261136,1,0,0:0:0:0:
288,160,261239,1,8,0:0:0:0:
288,160,261342,1,8,0:0:0:0:
288,160,261444,1,8,0:0:0:0:
288,160,261547,1,8,0:0:0:0:
224,160,261753,1,0,0:0:0:0:
288,160,261958,1,8,0:0:0:0:
224,160,262061,1,0,0:0:0:0:
224,160,262164,1,0,0:0:0:0:
288,160,262266,1,8,0:0:0:0:
224,160,262369,1,0,0:0:0:0:
224,160,262472,1,0,0:0:0:0:
288,160,262574,1,8,0:0:0:0:
224,160,262677,1,0,0:0:0:0:
224,160,262780,1,0,0:0:0:0:
288,160,262883,1,8,0:0:0:0:
224,160,262985,1,0,0:0:0:0:
224,160,263088,1,0,0:0:0:0:
288,224,263191,1,12,0:0:0:0:
224,224,263396,1,4,0:0:0:0:
288,160,263602,1,8,0:0:0:0:
224,160,263705,1,0,0:0:0:0:
224,160,263807,1,0,0:0:0:0:
288,160,263910,1,8,0:0:0:0:
224,160,264013,1,0,0:0:0:0:
288,160,264116,1,8,0:0:0:0:
288,160,264218,1,8,0:0:0:0:
224,160,264321,1,0,0:0:0:0:
224,160,264424,1,0,0:0:0:0:
288,160,264527,1,8,0:0:0:0:
288,160,264629,1,8,0:0:0:0:
288,160,264732,1,8,0:0:0:0:
224,224,264835,1,4,0:0:0:0:
224,224,265040,1,4,0:0:0:0:
288,224,265246,1,12,0:0:0:0:
224,160,265451,1,0,0:0:0:0:
288,160,265554,1,8,0:0:0:0:
224,160,265657,1,0,0:0:0:0:
288,160,265862,1,8,0:0:0:0:
288,160,265965,1,8,0:0:0:0:
224,160,266068,1,0,0:0:0:0:
224,160,266170,1,0,0:0:0:0:
288,224,266273,1,12,0:0:0:0:
288,224,266479,1,12,0:0:0:0:
288,160,266684,1,8,0:0:0:0:
288,160,266787,1,8,0:0:0:0:
224,160,266890,1,0,0:0:0:0:
224,160,267198,1,0,0:0:0:0:
288,160,267506,1,8,0:0:0:0:
288,160,267814,1,8,0:0:0:0:
288,160,268122,1,8,0:0:0:0:
288,160,268328,1,8,0:0:0:0:
224,160,268533,1,0,0:0:0:0:
224,160,268636,1,0,0:0:0:0:
288,160,268739,1,8,0:0:0:0:
288,160,268842,1,8,0:0:0:0:
224,160,268944,1,0,0:0:0:0:
288,160,269047,1,8,0:0:0:0:
288,160,269150,1,8,0:0:0:0:
288,160,269253,1,8,0:0:0:0:
288,160,269355,1,8,0:0:0:0:
288,160,269458,1,8,0:0:0:0:
288,160,269561,1,8,0:0:0:0:
288,160,269664,1,8,0:0:0:0:
224,160,269766,1,0,0:0:0:0:
288,160,269835,1,8,0:0:0:0:
288,160,269903,1,8,0:0:0:0:
224,160,269972,1,0,0:0:0:0:
288,160,270040,1,8,0:0:0:0:
288,160,270109,1,8,0:0:0:0:
288,160,270177,1,8,0:0:0:0:
256,192,270280,12,0,274081,0:0:0:0:
224,160,274287,5,0,0:0:0:0:
224,160,274698,1,0,0:0:0:0:
224,224,275109,1,4,0:0:0:0:
288,160,275417,1,8,0:0:0:0:
224,160,275725,1,0,0:0:0:0:
224,160,275931,1,0,0:0:0:0:
288,160,276033,1,8,0:0:0:0:
224,160,276136,1,0,0:0:0:0:
288,160,276239,1,8,0:0:0:0:
288,160,276342,1,8,0:0:0:0:
288,160,276547,1,8,0:0:0:0:
224,160,276753,1,0,0:0:0:0:
224,160,276958,1,0,0:0:0:0:
288,160,277061,1,8,0:0:0:0:
224,160,277266,1,0,0:0:0:0:
288,160,277369,1,8,0:0:0:0:
224,160,277574,1,0,0:0:0:0:
288,160,277677,1,8,0:0:0:0:
224,160,277780,1,0,0:0:0:0:
288,160,277883,1,8,0:0:0:0:
224,160,277985,1,0,0:0:0:0:
224,160,278191,1,0,0:0:0:0:
288,160,278259,1,8,0:0:0:0:
288,160,278328,1,8,0:0:0:0:
224,160,278396,1,0,0:0:0:0:
224,160,278602,1,0,0:0:0:0:
288,160,278705,1,8,0:0:0:0:
224,160,278910,1,0,0:0:0:0:
288,160,279013,1,8,0:0:0:0:
288,160,279116,1,8,0:0:0:0:
288,160,279218,1,8,0:0:0:0:
288,160,279321,1,8,0:0:0:0:
224,160,279424,1,0,0:0:0:0:
224,160,279527,1,0,0:0:0:0:
288,160,279629,1,8,0:0:0:0:
224,160,279835,1,0,0:0:0:0:
288,160,280040,1,8,0:0:0:0:
224,160,280143,1,0,0:0:0:0:
224,160,280246,1,0,0:0:0:0:
288,160,280348,1,8,0:0:0:0:
224,160,280554,1,0,0:0:0:0:
288,160,280657,1,8,0:0:0:0:
224,160,280759,1,0,0:0:0:0:
224,160,280862,1,0,0:0:0:0:
288,160,280965,1,8,0:0:0:0:
224,160,281068,1,0,0:0:0:0:
224,160,281170,1,0,0:0:0:0:
288,160,281273,1,8,0:0:0:0:
288,160,281479,1,8,0:0:0:0:
288,160,281581,1,8,0:0:0:0:
224,224,281684,1,4,0:0:0:0:
224,160,281890,1,0,0:0:0:0:
288,160,281992,1,8,0:0:0:0:
224,160,282198,1,0,0:0:0:0:
288,160,282301,1,8,0:0:0:0:
288,160,282506,1,8,0:0:0:0:
288,160,282609,1,8,0:0:0:0:
224,160,282711,1,0,0:0:0:0:
288,160,282814,1,8,0:0:0:0:
288,160,282917,1,8,0:0:0:0:
288,160,283122,1,8,0:0:0:0:
288,160,283191,1,8,0:0:0:0:
288,160,283259,1,8,0:0:0:0:
224,160,283328,1,0,0:0:0:0:
224,160,283431,1,0,0:0:0:0:
224,160,283533,1,0,0:0:0:0:
288,160,283636,1,8,0:0:0:0:
224,160,283842,1,0,0:0:0:0:
288,160,283944,1,8,0:0:0:0:
224,160,284047,1,0,0:0:0:0:
224,160,284150,1,0,0:0:0:0:
288,160,284253,1,8,0:0:0:0:
224,160,284355,1,0,0:0:0:0:
288,160,284458,1,8,0:0:0:0:
224,160,284561,1,0,0:0:0:0:
224,160,284766,1,0,0:0:0:0:
224,160,284835,1,0,0:0:0:0:
288,160,284903,1,8,0:0:0:0:
224,160,284972,1,0,0:0:0:0:
224,160,285177,1,0,0:0:0:0:
288,160,285280,1,8,0:0:0:0:
224,160,285485,1,0,0:0:0:0:
288,160,285588,1,8,0:0:0:0:
288,160,285691,1,8,0:0:0:0:
224,160,285794,1,0,0:0:0:0:
224,160,285896,1,0,0:0:0:0:
288,160,285999,1,8,0:0:0:0:
224,160,286102,1,0,0:0:0:0:
288,160,286205,1,8,0:0:0:0:
288,160,286410,1,8,0:0:0:0:
288,160,286513,1,8,0:0:0:0:
224,224,286616,1,4,0:0:0:0:
288,160,287437,1,8,0:0:0:0:
224,160,287540,1,0,0:0:0:0:
288,160,287643,1,8,0:0:0:0:
224,160,287711,1,0,0:0:0:0:
288,160,287780,1,8,0:0:0:0:
224,160,287848,1,0,0:0:0:0:
288,160,287951,1,8,0:0:0:0:
224,160,288054,1,0,0:0:0:0:
288,160,288157,1,8,0:0:0:0:
224,224,288259,1,4,0:0:0:0:
224,160,288465,1,0,0:0:0:0:
288,160,288568,1,8,0:0:0:0:
224,160,288670,1,0,0:0:0:0:
224,160,288773,1,0,0:0:0:0:
288,160,288876,1,8,0:0:0:0:
224,160,289081,1,0,0:0:0:0:
288,160,289184,1,8,0:0:0:0:
224,160,289287,1,0,0:0:0:0:
288,160,289390,1,8,0:0:0:0:
288,160,289492,1,8,0:0:0:0:
224,160,289698,1,0,0:0:0:0:
224,160,289749,1,0,0:0:0:0:
288,160,289801,1,8,0:0:0:0:
224,160,289903,1,0,0:0:0:0:
224,160,290006,1,0,0:0:0:0:
224,160,290109,1,0,0:0:0:0:
288,160,290211,1,8,0:0:0:0:
224,160,290417,1,0,0:0:0:0:
288,160,290520,1,8,0:0:0:0:
224,160,290622,1,0,0:0:0:0:
224,160,290725,1,0,0:0:0:0:
288,160,290828,1,8,0:0:0:0:
288,160,291033,1,8,0:0:0:0:
224,160,291136,1,0,0:0:0:0:
224,160,291187,1,0,0:0:0:0:
224,160,291239,1,0,0:0:0:0:
288,160,291342,1,8,0:0:0:0:
288,160,291393,1,8,0:0:0:0:
288,160,291444,1,8,0:0:0:0:
224,160,291547,1,0,0:0:0:0:
224,160,291753,1,0,0:0:0:0:
288,160,291855,1,8,0:0:0:0:
288,160,292061,1,8,0:0:0:0:
288,160,292164,1,8,0:0:0:0:
224,160,292266,1,0,0:0:0:0:
288,160,292369,1,8,0:0:0:0:
288,160,292472,1,8,0:0:0:0:
224,160,292574,1,0,0:0:0:0:
288,160,292677,1,8,0:0:0:0:
288,160,292780,1,8,0:0:0:0:
288,160,292985,1,8,0:0:0:0:
288,160,293037,1,8,0:0:0:0:
224,160,293088,1,0,0:0:0:0:
288,160,293191,1,8,0:0:0:0:
224,160,293396,1,0,0:0:0:0:
288,160,293499,1,8,0:0:0:0:
224,160,293602,1,0,0:0:0:0:
224,160,293705,1,0,0:0:0:0:
288,160,293807,1,8,0:0:0:0:
224,160,294013,1,0,0:0:0:0:
288,160,294116,1,8,0:0:0:0:
288,160,294218,1,8,0:0:0:0:
224,160,294321,1,0,0:0:0:0:
288,160,294424,1,8,0:0:0:0:
224,160,294475,1,0,0:0:0:0:
224,160,294527,1,0,0:0:0:0:
288,160,294629,1,8,0:0:0:0:
288,160,294681,1,8,0:0:0:0:
224,160,294732,1,0,0:0:0:0:
224,160,294835,1,0,0:0:0:0:
224,160,295040,1,0,0:0:0:0:
288,160,295143,1,8,0:0:0:0:
224,160,295246,1,0,0:0:0:0:
224,160,295348,1,0,0:0:0:0:
288,160,295451,1,8,0:0:0:0:
224,160,295657,1,0,0:0:0:0:
288,160,295759,1,8,0:0:0:0:
224,160,295862,1,0,0:0:0:0:
288,160,295965,1,8,0:0:0:0:
288,160,296068,1,8,0:0:0:0:
224,160,296170,1,0,0:0:0:0:
224,160,296273,1,0,0:0:0:0:
288,160,296324,1,8,0:0:0:0:
288,160,296376,1,8,0:0:0:0:
224,160,296479,1,0,0:0:0:0:
224,160,296684,1,0,0:0:0:0:
288,160,296787,1,8,0:0:0:0:
224,160,296890,1,0,0:0:0:0:
224,160,296992,1,0,0:0:0:0:
288,160,297095,1,8,0:0:0:0:
224,160,297301,1,0,0:0:0:0:
288,160,297403,1,8,0:0:0:0:
224,160,297506,1,0,0:0:0:0:
288,160,297609,1,8,0:0:0:0:
224,160,297711,1,0,0:0:0:0:
224,160,297763,1,0,0:0:0:0:
224,160,297814,1,0,0:0:0:0:
288,160,297917,1,8,0:0:0:0:
288,160,297968,1,8,0:0:0:0:
288,160,298020,1,8,0:0:0:0:
224,160,298122,1,0,0:0:0:0:
224,160,298328,1,0,0:0:0:0:
288,160,298431,1,8,0:0:0:0:
288,160,298636,1,8,0:0:0:0:
288,160,298739,1,8,0:0:0:0:
288,160,298842,1,8,0:0:0:0:
224,160,298944,1,0,0:0:0:0:
288,160,299047,1,8,0:0:0:0:
224,160,299150,1,0,0:0:0:0:
288,160,299253,1,8,0:0:0:0:
288,160,299355,1,8,0:0:0:0:
288,160,299561,1,8,0:0:0:0:
288,160,299629,1,8,0:0:0:0:
288,160,299698,1,8,0:0:0:0:
224,160,299766,1,0,0:0:0:0:
224,160,299972,1,0,0:0:0:0:
288,160,300074,1,8,0:0:0:0:
224,160,300280,1,0,0:0:0:0:
288,160,300383,1,8,0:0:0:0:
288,160,300485,1,8,0:0:0:0:
224,224,300588,1,4,0:0:0:0:
224,224,300691,1,4,0:0:0:0:
224,224,300896,1,4,0:0:0:0:
224,224,301102,1,4,0:0:0:0:
224,224,301205,1,4,0:0:0:0:
224,160,301410,1,0,0:0:0:0:
224,160,301616,1,0,0:0:0:0:
288,160,301718,1,8,0:0:0:0:
224,160,301821,1,0,0:0:0:0:
224,160,301924,1,0,0:0:0:0:
288,160,302027,1,8,0:0:0:0:
224,160,302232,1,0,0:0:0:0:
288,160,302335,1,8,0:0:0:0:
288,160,302386,1,8,0:0:0:0:
288,160,302437,1,8,0:0:0:0:
224,160,302540,1,0,0:0:0:0:
288,160,302643,1,8,0:0:0:0:
288,160,302848,1,8,0:0:0:0:
288,160,302900,1,8,0:0:0:0:
224,160,302951,1,0,0:0:0:0:
224,160,303054,1,0,0:0:0:0:
224,160,303259,1,0,0:0:0:0:
288,160,303362,1,8,0:0:0:0:
224,160,303465,1,0,0:0:0:0:
288,160,303568,1,8,0:0:0:0:
224,160,303670,1,0,0:0:0:0:
224,160,303722,1,0,0:0:0:0:
288,160,303773,1,8,0:0:0:0:
224,160,303876,1,0,0:0:0:0:
288,160,303979,1,8,0:0:0:0:
224,160,304081,1,0,0:0:0:0:
288,160,304184,1,8,0:0:0:0:
224,160,304287,1,0,0:0:0:0:
224,160,304355,1,0,0:0:0:0:
224,160,304424,1,0,0:0:0:0:
288,160,304492,1,8,0:0:0:0:
288,160,304561,1,8,0:0:0:0:
288,160,304629,1,8,0:0:0:0:
224,160,304698,1,0,0:0:0:0:
224,160,304903,1,0,0:0:0:0:
288,160,305006,1,8,0:0:0:0:
224,160,305109,1,0,0:0:0:0:
224,160,305211,1,0,0:0:0:0:
288,160,305314,1,8,0:0:0:0:
288,160,305417,1,8,0:0:0:0:
224,160,305520,1,0,0:0:0:0:
288,160,305622,1,8,0:0:0:0:
288,160,305725,1,8,0:0:0:0:
224,160,305828,1,0,0:0:0:0:
288,160,305931,1,8,0:0:0:0:
288,160,305982,1,8,0:0:0:0:
288,160,306033,1,8,0:0:0:0:
224,160,306136,1,0,0:0:0:0:
224,160,306187,1,0,0:0:0:0:
224,160,306239,1,0,0:0:0:0:
288,160,306342,1,8,0:0:0:0:
224,160,306444,1,0,0:0:0:0:
224,160,306547,1,0,0:0:0:0:
288,160,306650,1,8,0:0:0:0:
224,160,306855,1,0,0:0:0:0:
288,160,306958,1,8,0:0:0:0:
224,160,307164,1,0,0:0:0:0:
288,160,307266,1,8,0:0:0:0:
224,160,307369,1,0,0:0:0:0:
224,160,307472,1,0,0:0:0:0:
288,160,307574,1,8,0:0:0:0:
224,160,307643,1,0,0:0:0:0:
224,160,307711,1,0,0:0:0:0:
288,160,307780,1,8,0:0:0:0:
224,160,307985,1,0,0:0:0:0:
224,160,308191,1,0,0:0:0:0:
288,160,308294,1,8,0:0:0:0:
224,160,308499,1,0,0:0:0:0:
288,160,308602,1,8,0:0:0:0:
224,160,308705,1,0,0:0:0:0:
224,160,308807,1,0,0:0:0:0:
288,160,308910,1,8,0:0:0:0:
288,160,308961,1,8,0:0:0:0:
288,160,309013,1,8,0:0:0:0:
224,160,309116,1,0,0:0:0:0:
288,160,309218,1,8,0:0:0:0:
288,160,309270,1,8,0:0:0:0:
288,160,309321,1,8,0:0:0:0:
224,160,309424,1,0,0:0:0:0:
224,160,309629,1,0,0:0:0:0:
224,160,309835,1,0,0:0:0:0:
288,160,309937,1,8,0:0:0:0:
224,160,310040,1,0,0:0:0:0:
224,160,310092,1,0,0:0:0:0:
224,160,310143,1,0,0:0:0:0:
288,160,310246,1,8,0:0:0:0:
224,160,310348,1,0,0:0:0:0:
224,160,310451,1,0,0:0:0:0:
288,160,310554,1,8,0:0:0:0:
224,160,310657,1,0,0:0:0:0:
288,160,310759,1,8,0:0:0:0:
224,160,310862,1,0,0:0:0:0:
224,160,310914,1,0,0:0:0:0:
224,160,310965,1,0,0:0:0:0:
288,160,311068,1,8,0:0:0:0:
288,160,311170,1,8,0:0:0:0:
288,160,311273,1,8,0:0:0:0:
224,160,311479,1,0,0:0:0:0:
288,160,311581,1,8,0:0:0:0:
224,160,311684,1,0,0:0:0:0:
224,160,311787,1,0,0:0:0:0:
288,160,311890,1,8,0:0:0:0:
288,160,311941,1,8,0:0:0:0:
224,160,311992,1,0,0:0:0:0:
224,160,312095,1,0,0:0:0:0:
288,160,312198,1,8,0:0:0:0:
288,160,312301,1,8,0:0:0:0:
224,160,312403,1,0,0:0:0:0:
288,160,312506,1,8,0:0:0:0:
288,160,312557,1,8,0:0:0:0:
224,160,312609,1,0,0:0:0:0:
288,160,312711,1,8,0:0:0:0:
288,160,312763,1,8,0:0:0:0:
224,160,312814,1,0,0:0:0:0:
288,160,312917,1,8,0:0:0:0:
224,160,313122,1,0,0:0:0:0:
288,160,313225,1,8,0:0:0:0:
224,160,313328,1,0,0:0:0:0:
224,160,313431,1,0,0:0:0:0:
288,160,313533,1,8,0:0:0:0:
224,160,313636,1,0,0:0:0:0:
288,160,313739,1,8,0:0:0:0:
256,192,313842,12,0,314355,0:0:0:0:
288,160,314561,5,8,0:0:0:0:
224,160,314612,1,0,0:0:0:0:
224,160,314664,1,0,0:0:0:0:
224,160,314766,1,0,0:0:0:0:
288,160,314869,1,8,0:0:0:0:
288,160,314920,1,8,0:0:0:0:
224,160,314972,1,0,0:0:0:0:
224,160,315074,1,0,0:0:0:0:
288,160,315177,1,8,0:0:0:0:
224,160,315383,1,0,0:0:0:0:
288,160,315485,1,8,0:0:0:0:
288,160,315588,1,8,0:0:0:0:
224,160,315691,1,0,0:0:0:0:
288,160,315794,1,8,0:0:0:0:
224,160,315845,1,0,0:0:0:0:
224,160,315896,1,0,0:0:0:0:
288,160,315999,1,8,0:0:0:0:
224,160,316051,1,0,0:0:0:0:
224,160,316102,1,0,0:0:0:0:
288,160,316205,1,8,0:0:0:0:
224,160,316256,1,0,0:0:0:0:
224,160,316307,1,0,0:0:0:0:
224,160,316410,1,0,0:0:0:0:
288,160,316513,1,8,0:0:0:0:
288,160,316564,1,8,0:0:0:0:
224,160,316616,1,0,0:0:0:0:
224,160,316718,1,0,0:0:0:0:
288,160,316821,1,8,0:0:0:0:
224,160,317027,1,0,0:0:0:0:
224,160,317078,1,0,0:0:0:0:
288,160,317129,1,8,0:0:0:0:
288,160,317181,1,8,0:0:0:0:
224,160,317232,1,0,0:0:0:0:
288,160,317335,1,8,0:0:0:0:
224,160,317437,1,0,0:0:0:0:
224,160,317540,1,0,0:0:0:0:
224,160,317592,1,0,0:0:0:0:
288,160,317643,1,8,0:0:0:0:
288,160,317746,1,8,0:0:0:0:
288,160,317848,1,8,0:0:0:0:
288,160,317900,1,8,0:0:0:0:
224,160,317951,1,0,0:0:0:0:
224,160,318054,1,0,0:0:0:0:
224,160,318157,1,0,0:0:0:0:
288,160,318208,1,8,0:0:0:0:
288,160,318259,1,8,0:0:0:0:
224,160,318362,1,0,0:0:0:0:
288,160,318465,1,8,0:0:0:0:
224,160,318670,1,0,0:0:0:0:
288,160,318773,1,8,0:0:0:0:
224,160,318876,1,0,0:0:0:0:
224,160,318927,1,0,0:0:0:0:
224,160,318979,1,0,0:0:0:0:
288,160,319081,1,8,0:0:0:0:
288,160,319133,1,8,0:0:0:0:
224,160,319184,1,0,0:0:0:0:
288,160,319287,1,8,0:0:0:0:
224,160,319390,1,0,0:0:0:0:
288,160,319492,1,8,0:0:0:0:
288,160,319544,1,8,0:0:0:0:
224,160,319595,1,0,0:0:0:0:
224,160,319698,1,0,0:0:0:0:
288,160,319801,1,8,0:0:0:0:
224,160,319852,1,0,0:0:0:0:
288,160,319903,1,8,0:0:0:0:
224,160,320006,1,0,0:0:0:0:
288,160,320109,1,8,0:0:0:0:
288,160,320160,1,8,0:0:0:0:
224,160,320211,1,0,0:0:0:0:
224,160,320314,1,0,0:0:0:0:
288,160,320417,1,8,0:0:0:0:
224,160,320520,1,0,0:0:0:0:
224,160,320622,1,0,0:0:0:0:
288,160,320725,1,8,0:0:0:0:
224,160,320777,1,0,0:0:0:0:
224,160,320828,1,0,0:0:0:0:
224,160,320879,1,0,0:0:0:0:
288,160,320931,1,8,0:0:0:0:
288,160,321136,1,8,0:0:0:0:
224,160,321187,1,0,0:0:0:0:
224,160,321239,1,0,0:0:0:0:
224,160,321342,1,0,0:0:0:0:
288,160,321444,1,8,0:0:0:0:
288,160,321496,1,8,0:0:0:0:
224,160,321547,1,0,0:0:0:0:
224,160,321650,1,0,0:0:0:0:
288,160,321753,1,8,0:0:0:0:
224,160,321958,1,0,0:0:0:0:
224,160,322009,1,0,0:0:0:0:
288,160,322061,1,8,0:0:0:0:
288,160,322112,1,8,0:0:0:0:
224,160,322164,1,0,0:0:0:0:
288,160,322266,1,8,0:0:0:0:
288,160,322369,1,8,0:0:0:0:
224,160,322472,1,0,0:0:0:0:
288,160,322574,1,8,0:0:0:0:
288,160,322626,1,8,0:0:0:0:
224,160,322677,1,0,0:0:0:0:
288,160,322780,1,8,0:0:0:0:
224,160,322831,1,0,0:0:0:0:
224,160,322883,1,0,0:0:0:0:
224,160,322985,1,0,0:0:0:0:
288,160,323088,1,8,0:0:0:0:
288,160,323140,1,8,0:0:0:0:
224,160,323191,1,0,0:0:0:0:
224,160,323294,1,0,0:0:0:0:
288,160,323396,1,8,0:0:0:0:
224,160,323602,1,0,0:0:0:0:
224,160,323653,1,0,0:0:0:0:
224,160,323705,1,0,0:0:0:0:
288,160,323756,1,8,0:0:0:0:
224,160,323807,1,0,0:0:0:0:
288,160,323910,1,8,0:0:0:0:
224,160,324013,1,0,0:0:0:0:
224,160,324081,1,0,0:0:0:0:
224,160,324150,1,0,0:0:0:0:
288,160,324218,1,8,0:0:0:0:
288,160,324287,1,8,0:0:0:0:
288,160,324355,1,8,0:0:0:0:
224,160,324424,1,0,0:0:0:0:
224,160,324475,1,0,0:0:0:0:
224,160,324527,1,0,0:0:0:0:
224,160,324629,1,0,0:0:0:0:
288,160,324732,1,8,0:0:0:0:
288,160,324783,1,8,0:0:0:0:
224,160,324835,1,0,0:0:0:0:
224,160,324937,1,0,0:0:0:0:
288,160,325040,1,8,0:0:0:0:
224,160,325246,1,0,0:0:0:0:
224,160,325297,1,0,0:0:0:0:
288,160,325348,1,8,0:0:0:0:
224,160,325451,1,0,0:0:0:0:
288,160,325554,1,8,0:0:0:0:
288,160,325657,1,8,0:0:0:0:
288,160,325708,1,8,0:0:0:0:
224,160,325759,1,0,0:0:0:0:
224,160,325811,1,0,0:0:0:0:
288,160,325862,1,8,0:0:0:0:
224,160,325965,1,0,0:0:0:0:
288,160,326068,1,8,0:0:0:0:
288,160,326170,1,8,0:0:0:0:
224,160,326273,1,0,0:0:0:0:
288,160,326479,1,8,0:0:0:0:
288,160,326547,1,8,0:0:0:0:
288,160,326616,1,8,0:0:0:0:
288,160,326684,1,8,0:0:0:0:
288,160,326753,1,8,0:0:0:0:
288,160,326821,1,8,0:0:0:0:
288,160,326890,1,8,0:0:0:0:
288,160,327095,1,8,0:0:0:0:
224,160,327146,1,0,0:0:0:0:
224,160,327198,1,0,0:0:0:0:
288,160,327301,1,8,0:0:0:0:
224,160,327403,1,0,0:0:0:0:
288,160,327506,1,8,0:0:0:0:
224,160,327557,1,0,0:0:0:0:
224,160,327609,1,0,0:0:0:0:
288,160,327711,1,8,0:0:0:0:
224,160,327763,1,0,0:0:0:0:
224,160,327814,1,0,0:0:0:0:
224,160,327917,1,0,0:0:0:0:
288,160,328020,1,8,0:0:0:0:
288,160,328071,1,8,0:0:0:0:
224,160,328122,1,0,0:0:0:0:
224,160,328225,1,0,0:0:0:0:
288,160,328328,1,8,0:0:0:0:
224,160,328379,1,0,0:0:0:0:
288,160,328431,1,8,0:0:0:0:
224,160,328533,1,0,0:0:0:0:
224,160,328585,1,0,0:0:0:0:
288,160,328636,1,8,0:0:0:0:
224,160,328687,1,0,0:0:0:0:
288,160,328739,1,8,0:0:0:0:
224,160,328842,1,0,0:0:0:0:
288,160,328944,1,8,0:0:0:0:
224,160,329047,1,0,0:0:0:0:
288,160,329150,1,8,0:0:0:0:
288,160,329201,1,8,0:0:0:0:
224,160,329253,1,0,0:0:0:0:
224,160,329355,1,0,0:0:0:0:
224,160,329407,1,0,0:0:0:0:
224,160,329458,1,0,0:0:0:0:
224,160,329561,1,0,0:0:0:0:
288,160,329664,1,8,0:0:0:0:
224,160,329715,1,0,0:0:0:0:
224,160,329766,1,0,0:0:0:0:
224,160,329869,1,0,0:0:0:0:
288,160,329972,1,8,0:0:0:0:
288,160,330023,1,8,0:0:0:0:
224,160,330074,1,0,0:0:0:0:
224,160,330177,1,0,0:0:0:0:
288,160,330229,1,8,0:0:0:0:
224,160,330280,1,0,0:0:0:0:
288,160,330331,1,8,0:0:0:0:
224,160,330383,1,0,0:0:0:0:
224,160,330434,1,0,0:0:0:0:
288,160,330485,1,8,0:0:0:0:
224,160,330588,1,0,0:0:0:0:
224,160,330657,1,0,0:0:0:0:
224,160,330725,1,0,0:0:0:0:
288,160,330794,1,8,0:0:0:0:
288,160,330862,1,8,0:0:0:0:
288,160,330931,1,8,0:0:0:0:
224,160,330999,1,0,0:0:0:0:
288,160,331051,1,8,0:0:0:0:
224,160,331102,1,0,0:0:0:0:
224,160,331205,1,0,0:0:0:0:
288,160,331307,1,8,0:0:0:0:
288,160,331359,1,8,0:0:0:0:
224,160,331410,1,0,0:0:0:0:
224,160,331513,1,0,0:0:0:0:
224,160,331564,1,0,0:0:0:0:
288,160,331616,1,8,0:0:0:0:
224,160,331667,1,0,0:0:0:0:
288,160,331718,1,8,0:0:0:0:
224,160,331821,1,0,0:0:0:0:
288,160,331872,1,8,0:0:0:0:
288,160,331924,1,8,0:0:0:0:
288,160,332027,1,8,0:0:0:0:
224,160,332129,1,0,0:0:0:0:
288,160,332232,1,8,0:0:0:0:
224,160,332283,1,0,0:0:0:0:
224,160,332335,1,0,0:0:0:0:
224,160,332386,1,0,0:0:0:0:
288,160,332437,1,8,0:0:0:0:
288,160,332489,1,8,0:0:0:0:
224,160,332540,1,0,0:0:0:0:
256,192,332643,12,0,333259,0:0:0:0:
224,160,333465,5,0,0:0:0:0:
288,160,333568,1,8,0:0:0:0:
288,160,333670,1,8,0:0:0:0:
288,160,333722,1,8,0:0:0:0:
224,160,333773,1,0,0:0:0:0:
224,160,333876,1,0,0:0:0:0:
224,160,333944,1,0,0:0:0:0:
224,160,334013,1,0,0:0:0:0:
288,160,334081,1,8,0:0:0:0:
288,160,334133,1,8,0:0:0:0:
224,160,334184,1,0,0:0:0:0:
224,160,334235,1,0,0:0:0:0:
288,160,334287,1,8,0:0:0:0:
224,160,334338,1,0,0:0:0:0:
224,160,334390,1,0,0:0:0:0:
224,160,334492,1,0,0:0:0:0:
288,160,334595,1,8,0:0:0:0:
288,160,334646,1,8,0:0:0:0:
224,160,334698,1,0,0:0:0:0:
224,160,334801,1,0,0:0:0:0:
224,160,334852,1,0,0:0:0:0:
288,160,334903,1,8,0:0:0:0:
288,160,334955,1,8,0:0:0:0:
288,160,335006,1,8,0:0:0:0:
224,160,335109,1,0,0:0:0:0:
288,160,335160,1,8,0:0:0:0:
224,160,335211,1,0,0:0:0:0:
224,160,335263,1,0,0:0:0:0:
288,160,335314,1,8,0:0:0:0:
288,160,335366,1,8,0:0:0:0:
224,160,335417,1,0,0:0:0:0:
288,160,335520,1,8,0:0:0:0:
288,160,335571,1,8,0:0:0:0:
224,160,335622,1,0,0:0:0:0:
288,160,335674,1,8,0:0:0:0:
224,160,335725,1,0,0:0:0:0:
288,160,335777,1,8,0:0:0:0:
224,160,335828,1,0,0:0:0:0:
224,160,335931,1,0,0:0:0:0:
288,160,335982,1,8,0:0:0:0:
224,160,336033,1,0,0:0:0:0:
224,160,336085,1,0,0:0:0:0:
224,160,336136,1,0,0:0:0:0:
288,160,336239,1,8,0:0:0:0:
224,160,336342,1,0,0:0:0:0:
224,160,336393,1,0,0:0:0:0:
224,160,336444,1,0,0:0:0:0:
288,160,336547,1,8,0:0:0:0:
224,160,336650,1,0,0:0:0:0:
288,160,336753,1,8,0:0:0:0:
288,160,336804,1,8,0:0:0:0:
224,160,336855,1,0,0:0:0:0:
224,160,337061,1,0,0:0:0:0:
224,160,337369,1,0,0:0:0:0:
288,160,337574,1,8,0:0:0:0:
224,160,337626,1,0,0:0:0:0:
224,160,337677,1,0,0:0:0:0:
288,160,337780,1,8,0:0:0:0:
288,160,337883,1,8,0:0:0:0:
288,160,337934,1,8,0:0:0:0:
288,160,337985,1,8,0:0:0:0:
288,160,338037,1,8,0:0:0:0:
288,160,338088,1,8,0:0:0:0:
224,160,338191,1,0,0:0:0:0:
224,160,338294,1,0,0:0:0:0:
288,160,338345,1,8,0:0:0:0:
288,160,338396,1,8,0:0:0:0:
224,160,338448,1,0,0:0:0:0:
224,160,338499,1,0,0:0:0:0:
224,160,338602,1,0,0:0:0:0:
224,160,338705,1,0,0:0:0:0:
224,160,338756,1,0,0:0:0:0:
288,160,338807,1,8,0:0:0:0:
288,160,338910,1,8,0:0:0:0:
288,160,339013,1,8,0:0:0:0:
224,160,339064,1,0,0:0:0:0:
224,160,339116,1,0,0:0:0:0:
288,160,339167,1,8,0:0:0:0:
288,160,339218,1,8,0:0:0:0:
224,160,339321,1,0,0:0:0:0:
224,160,339372,1,0,0:0:0:0:
288,160,339424,1,8,0:0:0:0:
288,160,339475,1,8,0:0:0:0:
288,160,339527,1,8,0:0:0:0:
288,160,339629,1,8,0:0:0:0:
224,160,339681,1,0,0:0:0:0:
224,160,339732,1,0,0:0:0:0:
224,160,339783,1,0,0:0:0:0:
224,160,339835,1,0,0:0:0:0:
288,160,339937,1,8,0:0:0:0:
288,160,339989,1,8,0:0:0:0:
288,160,340040,1,8,0:0:0:0:
224,160,340143,1,0,0:0:0:0:
288,160,340246,1,8,0:0:0:0:
288,160,340297,1,8,0:0:0:0:
224,160,340348,1,0,0:0:0:0:
288,160,340451,1,8,0:0:0:0:
224,160,340503,1,0,0:0:0:0:
224,160,340554,1,0,0:0:0:0:
224,160,340605,1,0,0:0:0:0:
288,160,340657,1,8,0:0:0:0:
224,160,340708,1,0,0:0:0:0:
224,160,340759,1,0,0:0:0:0:
224,160,340811,1,0,0:0:0:0:
288,160,340862,1,8,0:0:0:0:
256,192,340965,12,0,343944,0:0:0:0:
288,160,344150,5,8,0:0:0:0:
288,160,344253,1,8,0:0:0:0:
224,160,344355,1,0,0:0:0:0:
224,160,344458,1,0,0:0:0:0:
288,160,344561,1,8,0:0:0:0:
288,160,344766,1,8,0:0:0:0:
288,160,344869,1,8,0:0:0:0:
224,160,344972,1,0,0:0:0:0:
288,160,345074,1,8,0:0:0:0:
224,160,345177,1,0,0:0:0:0:
288,160,345280,1,8,0:0:0:0:
288,160,345383,1,8,0:0:0:0:
288,160,345485,1,8,0:0:0:0:
224,160,345588,1,0,0:0:0:0:
288,160,345794,1,8,0:0:0:0:
224,160,345896,1,0,0:0:0:0:
288,160,345999,1,8,0:0:0:0:
224,160,346102,1,0,0:0:0:0:
224,160,346205,1,0,0:0:0:0:
288,160,346273,1,8,0:0:0:0:
288,160,346342,1,8,0:0:0:0:
288,160,346410,1,8,0:0:0:0:
288,160,346513,1,8,0:0:0:0:
224,160,346718,1,0,0:0:0:0:
288,160,346821,1,8,0:0:0:0:
288,160,346924,1,8,0:0:0:0:
288,160,347027,1,8,0:0:0:0:
288,160,347129,1,8,0:0:0:0:
224,160,347232,1,0,0:0:0:0:
224,160,347437,1,0,0:0:0:0:
224,160,347489,1,0,0:0:0:0:
224,160,347540,1,0,0:0:0:0:
288,160,347643,1,8,0:0:0:0:
224,160,347746,1,0,0:0:0:0:
288,160,347848,1,8,0:0:0:0:
288,160,347951,1,8,0:0:0:0:
224,160,348054,1,0,0:0:0:0:
224,160,348157,1,0,0:0:0:0:
288,160,348259,1,8,0:0:0:0:
288,160,348362,1,8,0:0:0:0:
224,160,348465,1,0,0:0:0:0:
288,160,348568,1,8,0:0:0:0:
224,160,348773,1,0,0:0:0:0:
288,160,348876,1,8,0:0:0:0:
288,160,349081,1,8,0:0:0:0:
288,160,349184,1,8,0:0:0:0:
224,160,349287,1,0,0:0:0:0:
224,160,349390,1,0,0:0:0:0:
288,160,349492,1,8,0:0:0:0:
288,160,349595,1,8,0:0:0:0:
224,160,349698,1,0,0:0:0:0:
224,160,349766,1,0,0:0:0:0:
224,160,349835,1,0,0:0:0:0:
288,160,349903,1,8,0:0:0:0:
288,160,350006,1,8,0:0:0:0:
224,160,350109,1,0,0:0:0:0:
288,160,350211,1,8,0:0:0:0:
288,160,350314,1,8,0:0:0:0:
224,160,350417,1,0,0:0:0:0:
288,160,350520,1,8,0:0:0:0:
224,160,350725,1,0,0:0:0:0:
224,160,350777,1,0,0:0:0:0:
224,160,350828,1,0,0:0:0:0:
288,160,350931,1,8,0:0:0:0:
224,160,351033,1,0,0:0:0:0:
288,160,351136,1,8,0:0:0:0:
288,160,351187,1,8,0:0:0:0:
288,160,351239,1,8,0:0:0:0:
224,160,351342,1,0,0:0:0:0:
224,160,351444,1,0,0:0:0:0:
288,160,351547,1,8,0:0:0:0:
288,160,351650,1,8,0:0:0:0:
224,160,351753,1,0,0:0:0:0:
288,160,351855,1,8,0:0:0:0:
224,160,352061,1,0,0:0:0:0:
288,160,352164,1,8,0:0:0:0:
288,160,352369,1,8,0:0:0:0:
224,160,352472,1,0,0:0:0:0:
288,160,352574,1,8,0:0:0:0:
224,160,352677,1,0,0:0:0:0:
288,160,352780,1,8,0:0:0:0:
224,160,352848,1,0,0:0:0:0:
224,160,352917,1,0,0:0:0:0:
288,160,352985,1,8,0:0:0:0:
288,160,353088,1,8,0:0:0:0:
224,160,353191,1,0,0:0:0:0:
224,160,353294,1,0,0:0:0:0:
224,160,353396,1,0,0:0:0:0:
288,160,353499,1,8,0:0:0:0:
288,160,353602,1,8,0:0:0:0:
288,160,353705,1,8,0:0:0:0:
224,160,353807,1,0,0:0:0:0:
288,224,354013,1,12,0:0:0:0:
224,160,354218,1,0,0:0:0:0:
224,160,354321,1,0,0:0:0:0:
288,160,354424,1,8,0:0:0:0:
288,160,354527,1,8,0:0:0:0:
224,160,354629,1,0,0:0:0:0:
224,160,354732,1,0,0:0:0:0:
288,160,354835,1,8,0:0:0:0:
288,160,354937,1,8,0:0:0:0:
224,160,355040,1,0,0:0:0:0:
288,160,355143,1,8,0:0:0:0:
288,160,355246,1,8,0:0:0:0:
224,160,355348,1,0,0:0:0:0:
288,160,355451,1,8,0:0:0:0:
288,160,355657,1,8,0:0:0:0:
224,160,355759,1,0,0:0:0:0:
224,160,355862,1,0,0:0:0:0:
288,160,355965,1,8,0:0:0:0:
224,160,356068,1,0,0:0:0:0:
224,160,356170,1,0,0:0:0:0:
288,160,356273,1,8,0:0:0:0:
224,160,356342,1,0,0:0:0:0:
224,160,356410,1,0,0:0:0:0:
288,160,356479,1,8,0:0:0:0:
288,160,356581,1,8,0:0:0:0:
224,160,356684,1,0,0:0:0:0:
288,160,356787,1,8,0:0:0:0:
288,160,356890,1,8,0:0:0:0:
224,160,356992,1,0,0:0:0:0:
288,160,357095,1,8,0:0:0:0:
288,160,357301,1,8,0:0:0:0:
224,160,357403,1,0,0:0:0:0:
288,160,357506,1,8,0:0:0:0:
288,160,357609,1,8,0:0:0:0:
224,160,357711,1,0,0:0:0:0:
224,160,357814,1,0,0:0:0:0:
288,160,357917,1,8,0:0:0:0:
224,160,358020,1,0,0:0:0:0:
288,160,358122,1,8,0:0:0:0:
288,160,358225,1,8,0:0:0:0:
224,160,358328,1,0,0:0:0:0:
288,160,358431,1,8,0:0:0:0:
288,160,358533,1,8,0:0:0:0:
288,160,358636,1,8,0:0:0:0:
224,160,358739,1,0,0:0:0:0:
288,160,358944,1,8,0:0:0:0:
224,160,359047,1,0,0:0:0:0:
224,160,359150,1,0,0:0:0:0:
288,160,359253,1,8,0:0:0:0:
224,160,359355,1,0,0:0:0:0:
224,160,359424,1,0,0:0:0:0:
224,160,359492,1,0,0:0:0:0:
288,160,359561,1,8,0:0:0:0:
288,160,359664,1,8,0:0:0:0:
288,160,359766,1,8,0:0:0:0:
288,160,359869,1,8,0:0:0:0:
224,160,359972,1,0,0:0:0:0:
288,160,360074,1,8,0:0:0:0:
288,160,360177,1,8,0:0:0:0:
224,160,360280,1,0,0:0:0:0:
288,160,360383,1,8,0:0:0:0:
288,160,360588,1,8,0:0:0:0:
224,160,360691,1,0,0:0:0:0:
224,160,360794,1,0,0:0:0:0:
224,160,360896,1,0,0:0:0:0:
288,160,360999,1,8,0:0:0:0:
288,160,361102,1,8,0:0:0:0:
224,160,361205,1,0,0:0:0:0:
224,160,361307,1,0,0:0:0:0:
288,160,361410,1,8,0:0:0:0:
288,160,361513,1,8,0:0:0:0:
224,160,361616,1,0,0:0:0:0:
288,160,361718,1,8,0:0:0:0:
224,160,361821,1,0,0:0:0:0:
224,160,361924,1,0,0:0:0:0:
288,160,362027,1,8,0:0:0:0:
288,160,362232,1,8,0:0:0:0:
224,160,362437,1,0,0:0:0:0:
288,160,362540,1,8,0:0:0:0:
288,160,362643,1,8,0:0:0:0:
224,160,362746,1,0,0:0:0:0:
288,160,362848,1,8,0:0:0:0:
288,160,362917,1,8,0:0:0:0:
288,160,362985,1,8,0:0:0:0:
224,160,363054,1,0,0:0:0:0:
224,160,363157,1,0,0:0:0:0:
224,160,363259,1,0,0:0:0:0:
288,160,363362,1,8,0:0:0:0:
288,160,363568,1,8,0:0:0:0:
224,160,363670,1,0,0:0:0:0:
288,160,363876,1,8,0:0:0:0:
224,160,363979,1,0,0:0:0:0:
288,160,364081,1,8,0:0:0:0:
288,160,364184,1,8,0:0:0:0:
224,160,364287,1,0,0:0:0:0:
288,160,364390,1,8,0:0:0:0:
224,160,364492,1,0,0:0:0:0:
224,160,364595,1,0,0:0:0:0:
288,160,364698,1,8,0:0:0:0:
288,160,364801,1,8,0:0:0:0:
224,160,364903,1,0,0:0:0:0:
288,160,365006,1,8,0:0:0:0:
288,160,365109,1,8,0:0:0:0:
288,160,365211,1,8,0:0:0:0:
224,160,365314,1,0,0:0:0:0:
288,224,365520,1,12,0:0:0:0:
224,160,365725,1,0,0:0:0:0:
288,160,365828,1,8,0:0:0:0:
224,160,365931,1,0,0:0:0:0:
224,160,365999,1,0,0:0:0:0:
224,160,366068,1,0,0:0:0:0:
288,160,366136,1,8,0:0:0:0:
288,160,366239,1,8,0:0:0:0:
224,160,366444,1,0,0:0:0:0:
288,160,366547,1,8,0:0:0:0:
288,160,366650,1,8,0:0:0:0:
288,160,366753,1,8,0:0:0:0:
288,160,366855,1,8,0:0:0:0:
224,160,366958,1,0,0:0:0:0:
288,224,367164,1,12,0:0:0:0:
288,160,367369,1,8,0:0:0:0:
288,160,367472,1,8,0:0:0:0:
224,160,367574,1,0,0:0:0:0:
224,160,367677,1,0,0:0:0:0:
224,160,367780,1,0,0:0:0:0:
224,160,367985,1,0,0:0:0:0:
288,160,368088,1,8,0:0:0:0:
224,160,368191,1,0,0:0:0:0:
224,160,368294,1,0,0:0:0:0:
288,160,368396,1,8,0:0:0:0:
224,160,368602,1,0,0:0:0:0:
288,160,368807,1,8,0:0:0:0:
288,160,369013,1,8,0:0:0:0:
288,160,369116,1,8,0:0:0:0:
288,160,369218,1,8,0:0:0:0:
288,160,369321,1,8,0:0:0:0:
224,160,369424,1,0,0:0:0:0:
288,160,369527,1,8,0:0:0:0:
224,160,369629,1,0,0:0:0:0:
288,160,369732,1,8,0:0:0:0:
224,160,369835,1,0,0:0:0:0:
288,160,369937,1,8,0:0:0:0:
288,160,370040,1,8,0:0:0:0:
224,160,370246,1,0,0:0:0:0:
288,160,370451,1,8,0:0:0:0:
288,160,370657,1,8,0:0:0:0:
288,160,370759,1,8,0:0:0:0:
224,160,370862,1,0,0:0:0:0:
288,160,370965,1,8,0:0:0:0:
224,160,371068,1,0,0:0:0:0:
224,160,371273,1,0,0:0:0:0:
224,160,371376,1,0,0:0:0:0:
224,160,371479,1,0,0:0:0:0:
288,160,371581,1,8,0:0:0:0:
288,160,371684,1,8,0:0:0:0:
224,160,371890,1,0,0:0:0:0:
288,160,372095,1,8,0:0:0:0:
288,160,372301,1,8,0:0:0:0:
288,160,372403,1,8,0:0:0:0:
224,160,372506,1,0,0:0:0:0:
288,160,372609,1,8,0:0:0:0:
224,160,372711,1,0,0:0:0:0:
224,160,372814,1,0,0:0:0:0:
288,160,372917,1,8,0:0:0:0:
288,160,373020,1,8,0:0:0:0:
224,160,373122,1,0,0:0:0:0:
288,160,373225,1,8,0:0:0:0:
288,160,373328,1,8,0:0:0:0:
224,160,373533,1,0,0:0:0:0:
224,160,373739,1,0,0:0:0:0:
288,160,373944,1,8,0:0:0:0:
288,160,374047,1,8,0:0:0:0:
224,160,374253,1,0,0:0:0:0:
224,160,374355,1,0,0:0:0:0:
288,160,374561,1,8,0:0:0:0:
288,160,374664,1,8,0:0:0:0:
224,160,374766,1,0,0:0:0:0:
288,160,374869,1,8,0:0:0:0:
224,160,374972,1,0,0:0:0:0:
224,160,375177,1,0,0:0:0:0:
288,160,375383,1,8,0:0:0:0:
288,160,375588,1,8,0:0:0:0:
288,160,375691,1,8,0:0:0:0:
288,160,375896,1,8,0:0:0:0:
224,160,375999,1,0,0:0:0:0:
224,160,376205,1,0,0:0:0:0:
288,160,376307,1,8,0:0:0:0:
224,160,376410,1,0,0:0:0:0:
288,160,376513,1,8,0:0:0:0:
224,160,376616,1,0,0:0:0:0:
288,160,376821,1,8,0:0:0:0:
224,160,377027,1,0,0:0:0:0:
288,160,377437,1,8,0:0:0:0:
224,160,377848,1,0,0:0:0:0:
288,160,378259,1,8,0:0:0:0:
224,160,378670,1,0,0:0:0:0:
224,160,379081,1,0,0:0:0:0:
224,160,379492,1,0,0:0:0:0:
224,160,379903,1,0,0:0:0:0:
