osu file format v14

[General]
AudioFilename: audio.mp3
AudioLeadIn: 0
PreviewTime: 274084
Countdown: 0
SampleSet: Normal
StackLeniency: 0.7
Mode: 1
LetterboxInBreaks: 0
EpilepsyWarning: 1
WidescreenStoryboard: 1

[Editor]
Bookmarks: 25248,59769,99221,112371,138673,152234,160454,230625,340864
DistanceSpacing: 0.9
BeatDivisor: 4
GridSize: 32
TimelineZoom: 2.900005

[Metadata]
Title:Insane Techniques (Extended)
TitleUnicode:Insane Techniques (Extended)
Artist:kors k
ArtistUnicode:kors k
Creator:LittleFox
Version:Oni Tech
Source:beatmania IIDX 21 SPADA
Tags:Hi-TECH FULL ON EXIT TUNES japanese Konami Bemani Yuji Murata 村田裕次 Let's Do It Now!! electronic instrumental english
BeatmapID:1543228
BeatmapSetID:731278

[Difficulty]
HPDrainRate:6
CircleSize:5
OverallDifficulty:6
ApproachRate:10
SliderMultiplier:1.05
SliderTickRate:1

[Events]
//Background and Video events
0,0,"BG-insaneTechniques.jpg",0,0
//Break Periods
2,165174,177675
//Storyboard Layer 0 (Background)
//Storyboard Layer 1 (Fail)
//Storyboard Layer 2 (Pass)
//Storyboard Layer 3 (Foreground)
//Storyboard Layer 4 (Overlay)
//Storyboard Sound Samples

[TimingPoints]
591,410.958904109589,4,1,0,100,1,0
591,-100,4,1,0,30,0,0
25248,-66.6666666666667,4,1,0,100,0,0
25556,-74.0740740740741,4,1,0,100,0,0
25864,-83.3333333333333,4,1,0,100,0,0
26481,-57.1428571428571,4,1,0,60,0,0
26549,-58.8235294117647,4,1,0,60,0,0
26618,-60.6060606060606,4,1,0,60,0,0
26686,-62.5,4,1,0,60,0,0
26789,-64.5161290322581,4,1,0,60,0,0
26892,-66.6666666666667,4,1,0,60,0,0
27097,-68.0272108843537,4,1,0,60,0,0
27303,-68.9655172413793,4,1,0,60,0,0
30180,-57.1428571428571,4,1,0,60,0,0
30590,-58.8235294117647,4,1,0,60,0,0
30693,-60.6060606060606,4,1,0,60,0,0
30796,-62.5,4,1,0,60,0,0
31001,-64.5161290322581,4,1,0,60,0,0
31104,-65.359477124183,4,1,0,60,0,0
31207,-66.2251655629139,4,1,0,60,0,0
31310,-67.1140939597315,4,1,0,60,0,0
31412,-68.0272108843537,4,1,0,60,0,0
31618,-68.9655172413793,4,1,0,60,0,0
33262,-57.1428571428571,4,1,0,60,0,0
33878,-58.8235294117647,4,1,0,60,0,0
33981,-60.6060606060606,4,1,0,60,0,0
34084,-62.5,4,1,0,60,0,0
34289,-64.5161290322581,4,1,0,60,0,0
34392,-65.359477124183,4,1,0,60,0,0
34495,-66.2251655629139,4,1,0,60,0,0
34597,-67.1140939597315,4,1,0,60,0,0
34700,-68.0272108843537,4,1,0,60,0,0
34906,-68.9655172413793,4,1,0,60,0,0
36549,-57.1428571428571,4,1,0,60,0,0
37166,-58.8235294117647,4,1,0,60,0,0
37269,-60.6060606060606,4,1,0,60,0,0
37371,-62.5,4,1,0,60,0,0
37577,-64.5161290322581,4,1,0,60,0,0
37680,-65.359477124183,4,1,0,60,0,0
37782,-66.2251655629139,4,1,0,60,0,0
37885,-67.1140939597315,4,1,0,60,0,0
37988,-68.0272108843537,4,1,0,60,0,0
38193,-68.9655172413793,4,1,0,60,0,0
40043,-57.1428571428571,4,1,0,60,0,0
40248,-58.8235294117647,4,1,0,60,0,0
40454,-68.9655172413793,4,1,0,80,0,0
41481,-57.1428571428571,4,1,0,80,0,0
41686,-58.8235294117647,4,1,0,80,0,0
41892,-60.6060606060606,4,1,0,80,0,0
42097,-68.9655172413793,4,1,0,80,0,0
43330,-57.1428571428571,4,1,0,80,0,0
43536,-58.8235294117647,4,1,0,80,0,0
43741,-68.9655172413793,4,1,0,80,0,0
44769,-57.1428571428571,4,1,0,80,0,0
44974,-58.8235294117647,4,1,0,80,0,0
45180,-60.6060606060606,4,1,0,80,0,0
45385,-68.9655172413793,4,1,0,80,0,0
46412,-64.5161290322581,4,1,0,100,0,0
47234,-62.5,4,1,0,100,0,0
48056,-60.6060606060606,4,1,0,100,0,0
48878,-58.8235294117647,4,1,0,100,0,0
50111,-64.5161290322581,4,1,0,100,0,0
50727,-63.6942675159236,4,1,0,100,0,0
51344,-62.8930817610063,4,1,0,100,0,0
51960,-61.7283950617284,4,1,0,100,0,0
52371,-60.6060606060606,4,1,0,100,0,0
54837,-50,4,1,0,100,0,0
56481,-33.3333333333333,4,1,0,100,0,0
58125,-25,4,1,0,100,0,0
58947,-52.6315789473684,4,1,0,100,0,0
59974,-56.4971751412429,4,1,0,100,0,0
60180,-57.8034682080925,4,1,0,100,0,0
60282,-59.5238095238095,4,1,0,100,0,0
60385,-60.6060606060606,4,1,0,100,0,0
60590,-61.7283950617284,4,1,0,100,0,0
60693,-62.8930817610063,4,1,0,100,0,0
60796,-64.1025641025641,4,1,0,100,0,0
60899,-65.359477124183,4,1,0,100,0,0
61001,-66.6666666666667,4,1,0,100,0,0
63056,-57.1428571428571,4,1,0,100,0,0
63262,-57.8034682080925,4,1,0,100,0,0
63467,-58.4795321637427,4,1,0,100,0,0
63570,-59.5238095238095,4,1,0,100,0,0
63673,-60.6060606060606,4,1,0,100,0,0
63878,-61.7283950617284,4,1,0,100,0,0
63981,-62.8930817610063,4,1,0,100,0,0
64084,-64.1025641025641,4,1,0,100,0,0
64186,-65.359477124183,4,1,0,100,0,0
64289,-66.6666666666667,4,1,0,100,0,0
66344,-57.1428571428571,4,1,0,100,0,0
66549,-57.8034682080925,4,1,0,100,0,0
66755,-58.4795321637427,4,1,0,100,0,0
66858,-59.5238095238095,4,1,0,100,0,0
66960,-60.6060606060606,4,1,0,100,0,0
67166,-61.7283950617284,4,1,0,100,0,0
67269,-62.8930817610063,4,1,0,100,0,0
67371,-64.1025641025641,4,1,0,100,0,0
67474,-65.359477124183,4,1,0,100,0,0
67577,-66.6666666666667,4,1,0,100,0,0
69632,-57.1428571428571,4,1,0,100,0,0
69837,-57.8034682080925,4,1,0,100,0,0
70043,-58.4795321637427,4,1,0,100,0,0
70145,-59.5238095238095,4,1,0,100,0,0
70248,-60.6060606060606,4,1,0,100,0,0
70454,-61.7283950617284,4,1,0,100,0,0
70556,-62.8930817610063,4,1,0,100,0,0
70659,-64.1025641025641,4,1,0,100,0,0
70762,-65.359477124183,4,1,0,100,0,0
70864,-66.6666666666667,4,1,0,100,0,0
70967,-64.1025641025641,4,1,0,100,0,0
71070,-60.9756097560976,4,1,0,100,0,0
71173,-58.1395348837209,4,1,0,100,0,0
71275,-55.5555555555556,4,1,0,100,0,0
71686,-66.6666666666667,4,1,0,30,0,0
71892,-68.9655172413793,4,1,0,30,0,0
72097,-71.4285714285714,4,1,0,30,0,0
72508,-66.6666666666667,4,1,0,30,0,0
72919,-60.6060606060606,4,1,0,100,0,0
73125,-63.6942675159236,4,1,0,100,0,0
73330,-66.6666666666667,4,1,0,100,0,0
75385,-66.6666666666667,4,1,0,100,0,0
75488,-65.359477124183,4,1,0,100,0,0
75591,-63.6942675159236,4,1,0,100,0,0
75693,-62.5,4,1,0,100,0,0
75796,-61.3496932515337,4,1,0,100,0,0
75899,-59.8802395209581,4,1,0,100,0,0
76001,-58.8235294117647,4,1,0,100,0,0
76207,-66.6666666666667,4,1,0,100,0,0
80317,-66.6666666666667,4,1,0,100,0,0
80419,-65.359477124183,4,1,0,100,0,0
80522,-63.6942675159236,4,1,0,100,0,0
80625,-62.5,4,1,0,100,0,0
80727,-61.3496932515337,4,1,0,100,0,0
80830,-59.8802395209581,4,1,0,100,0,0
80933,-58.8235294117647,4,1,0,100,0,0
81138,-66.6666666666667,4,1,0,100,0,0
82782,-52.6315789473684,4,1,0,100,0,0
84426,-100,4,1,0,100,0,0
85043,-71.4285714285714,4,1,0,100,0,0
85248,-66.6666666666667,4,1,0,100,0,0
85659,-58.8235294117647,4,1,0,100,0,0
85864,-71.4285714285714,4,1,0,100,0,0
86070,-62.5,4,1,0,100,0,0
86275,-58.8235294117647,4,1,0,100,0,0
86481,-62.5,4,1,0,100,0,0
86686,-63.6942675159236,4,1,0,100,0,0
86892,-64.9350649350649,4,1,0,100,0,0
86995,-65.7894736842105,4,1,0,100,0,0
87097,-66.6666666666667,4,1,0,100,0,0
88741,-58.8235294117647,4,1,0,100,0,0
88947,-66.6666666666667,4,1,0,100,0,0
89358,-55.5555555555556,4,1,0,100,0,0
89769,-63.2911392405063,4,1,0,100,0,0
89974,-64.1025641025641,4,1,0,100,0,0
90180,-64.9350649350649,4,1,0,100,0,0
90282,-65.7894736842105,4,1,0,100,0,0
90385,-66.6666666666667,4,1,0,100,0,0
91412,-64.5161290322581,4,1,0,100,0,0
91515,-64.9350649350649,4,1,0,100,0,0
91618,-64.1025641025641,4,1,0,100,0,0
91721,-63.2911392405063,4,1,0,100,0,0
91823,-58.8235294117647,4,1,0,100,0,0
92029,-52.6315789473684,4,1,0,100,0,0
92440,-55.5555555555556,4,1,0,100,0,0
92645,-58.8235294117647,4,1,0,100,0,0
92851,-60.6060606060606,4,1,0,100,0,0
93056,-62.5,4,1,0,100,0,0
93262,-64.5161290322581,4,1,0,100,0,0
93467,-66.6666666666667,4,1,0,100,0,0
95111,-62.5,4,1,0,100,0,0
95522,-58.8235294117647,4,1,0,100,0,0
95727,-62.5,4,1,0,100,0,0
95933,-68.9655172413793,4,1,0,100,0,0
96755,-76.9230769230769,4,1,0,100,0,0
97988,-68.0272108843537,4,1,0,100,0,0
98399,-62.5,4,1,0,100,0,0
98810,-55.5555555555556,4,1,0,100,0,0
99221,-62.5,4,1,0,100,0,0
99426,-63.6942675159236,4,1,0,100,0,0
99632,-64.9350649350649,4,1,0,100,0,0
99734,-65.7894736842105,4,1,0,100,0,0
99837,-66.6666666666667,4,1,0,100,0,0
101686,-64.5161290322581,4,1,0,100,0,0
101892,-62.5,4,1,0,100,0,0
102097,-60.6060606060606,4,1,0,100,0,0
102303,-62.5,4,1,0,100,0,0
102508,-64.5161290322581,4,1,0,100,0,0
102714,-64.9350649350649,4,1,0,100,0,0
102817,-65.7894736842105,4,1,0,100,0,0
102919,-66.6666666666667,4,1,0,100,0,0
103330,-64.5161290322581,4,1,0,100,0,0
103536,-62.5,4,1,0,100,0,0
103638,-61.3496932515337,4,1,0,100,0,0
103741,-60.6060606060606,4,1,0,100,0,0
103947,-58.8235294117647,4,1,0,100,0,0
104152,-57.1428571428571,4,1,0,100,0,0
104358,-55.5555555555556,4,1,0,100,0,0
104563,-54.054054054054,4,1,0,100,0,0
104769,-52.6315789473684,4,1,0,100,0,0
104974,-51.2820512820513,4,1,0,100,0,0
105180,-66.6666666666667,4,1,0,100,0,0
105385,-68.9655172413793,4,1,0,100,0,0
105590,-71.4285714285714,4,1,0,100,0,0
105796,-58.8235294117647,4,1,0,100,0,0
106001,-61.7283950617284,4,1,0,100,0,0
106104,-62.8930817610063,4,1,0,100,0,0
106207,-64.1025641025641,4,1,0,100,0,0
106412,-66.6666666666667,4,1,0,100,0,0
108878,-66.6666666666667,4,1,0,100,0,0
108981,-60.6060606060606,4,1,0,100,0,0
109084,-55.5555555555556,4,1,0,100,0,0
109700,-52.6315789473684,4,1,0,100,0,0
109906,-55.5555555555556,4,1,0,100,0,0
110111,-58.8235294117647,4,1,0,100,0,0
110317,-62.5,4,1,0,100,0,0
112371,-55.5555555555556,4,1,0,100,0,0
112680,-55.5555555555556,4,1,0,20,0,0
112782,-100,4,1,0,20,0,0
117714,-97.5606860941302,4,1,0,20,0,0
118124,-95.2375434530707,4,1,0,20,0,0
118535,-93.0224661875389,4,1,0,20,0,0
118946,-90.9080853887844,4,1,0,20,0,0
119357,-88.8876872330071,4,1,0,20,0,0
119768,-86.9551417689378,4,1,0,20,0,0
120179,-85.1048407973078,4,1,0,20,0,0
120384,-84.2110655737705,4,1,0,20,0,0
120590,-83.3316435161716,4,1,0,20,0,0
121000,-81.6348827969805,4,1,0,20,0,0
121411,-80.0019467562175,4,1,0,20,0,0
121720,-78.8166474875336,4,1,0,20,0,0
121822,-78.4330565893692,4,1,0,20,0,0
122028,-77.6696276696277,4,1,0,20,0,0
122233,-76.9245168234358,4,1,0,20,0,0
122644,-75.4729109274564,4,1,0,20,0,0
123055,-74.0750754810509,4,1,0,20,0,0
123158,-73.7328429173769,4,1,0,20,0,0
123363,-73.0610249344415,4,1,0,20,0,0
123466,-72.7280771613132,4,1,0,20,0,0
123672,-72.0712030866363,4,1,0,20,0,0
123877,-71.4291921957155,4,1,0,20,0,0
124288,-70.1758879781421,4,1,0,20,0,0
124699,-68.965806586952,4,1,0,20,0,0
125007,-68.0859876568778,4,1,0,20,0,0
125110,-67.796749979378,4,1,0,20,0,0
125316,-67.2255848192377,4,1,0,20,0,0
125522,-66.6666666666667,4,1,0,60,0,0
138159,-65.7894736842105,4,1,0,60,0,0
138262,-64.9350649350649,4,1,0,60,0,0
138364,-64.1025641025641,4,1,0,60,0,0
138467,-63.2911392405063,4,1,0,60,0,0
138570,-62.8930817610063,4,1,0,60,0,0
138673,-60.6060606060606,4,1,0,60,0,0
138878,-62.5,4,1,0,100,0,0
150180,-58.8235294117647,4,1,0,100,0,0
150488,-55.5555555555556,4,1,0,100,0,0
150796,-52.6315789473684,4,1,0,100,0,0
151104,-57.1428571428571,4,1,0,100,0,0
151412,-76.9230769230769,4,1,0,100,0,0
151618,-66.6666666666667,4,1,0,100,0,0
151823,-62.5,4,1,0,100,0,0
151926,-64.5161290322581,4,1,0,100,0,0
152029,-66.6666666666667,4,1,0,100,0,0
152234,-58.8235294117647,4,1,0,100,0,0
152440,-62.5,4,1,0,100,0,0
158399,-55.5555555555556,4,1,0,100,0,0
158604,-58.8235294117647,4,1,0,100,0,0
158810,-55.5555555555556,4,1,0,100,0,0
158912,-58.8235294117647,4,1,0,100,0,0
159015,-59.8802395209581,4,1,0,100,0,0
159118,-61.3496932515337,4,1,0,100,0,0
159323,-62.5,4,1,0,100,0,0
161481,-83.3333333333333,4,1,0,100,0,0
161686,-80.6451612903226,4,1,0,100,0,0
162097,-78.125,4,1,0,100,0,0
162508,-75.7575757575758,4,1,0,100,0,0
162919,-73.5294117647059,4,1,0,100,0,0
163330,-71.4285714285714,4,1,0,100,0,0
163536,-70.4225352112676,4,1,0,100,0,0
163741,-68.9655172413793,4,1,0,100,0,0
163947,-67.1140939597315,4,1,0,100,0,0
164152,-65.359477124183,4,1,0,100,0,0
164255,-63.6942675159236,4,1,0,100,0,0
164358,-62.5,4,1,0,100,0,0
164460,-60.6060606060606,4,1,0,100,0,0
164563,-58.8235294117647,4,1,0,100,0,0
164632,-57.8034682080925,4,1,0,100,0,0
164700,-56.4971751412429,4,1,0,100,0,0
164769,-55.5555555555556,4,1,0,100,0,0
164871,-54.054054054054,4,1,0,100,0,0
164974,-52.6315789473684,4,1,0,100,0,0
165385,-72.463768115942,4,1,0,100,0,0
166618,-78.7401574803149,4,1,0,100,0,0
168262,-86.2068965517241,4,1,0,100,0,0
169906,-95.2380952380952,4,1,0,100,0,0
171549,-106.382978723404,4,1,0,100,0,0
173193,-120.481927710843,4,1,0,100,0,0
174837,-138.888888888889,4,1,0,100,0,0
176481,-163.934426229508,4,1,0,100,0,0
178125,-200,4,1,0,30,0,0
190248,-192.307692307692,4,1,0,30,0,0
190454,-185.185185185185,4,1,0,30,0,0
190659,-178.571428571429,4,1,0,30,0,0
190864,-169.491525423729,4,1,0,30,0,0
191070,-161.290322580645,4,1,0,30,0,0
191275,-153.846153846154,4,1,0,30,0,0
191481,-147.058823529412,4,1,0,30,0,0
191892,-142.857142857143,4,1,0,50,0,0
203399,-140.845070422535,4,1,0,50,0,0
203604,-136.986301369863,4,1,0,50,0,0
203810,-133.333333333333,4,1,0,50,0,0
204015,-129.87012987013,4,1,0,50,0,0
204221,-126.582278481013,4,1,0,50,0,0
204426,-123.456790123457,4,1,0,80,0,0
204632,-120.481927710843,4,1,0,80,0,0
217577,-100,4,1,0,80,0,0
229084,-98.0392156862745,4,1,0,100,0,0
229186,-96.1538461538461,4,1,0,100,0,0
229289,-93.4579439252336,4,1,0,100,0,0
229392,-90.9090909090909,4,1,0,100,0,0
229495,-89.2857142857143,4,1,0,100,0,0
229597,-87.719298245614,4,1,0,100,0,0
229700,-85.4700854700855,4,1,0,100,0,0
229803,-84.0336134453781,4,1,0,100,0,0
229906,-82.6446280991736,4,1,0,100,0,0
230008,-80.6451612903226,4,1,0,100,0,0
230111,-79.3650793650794,4,1,0,100,0,0
230214,-78.125,4,1,0,100,0,0
230317,-76.9230769230769,4,1,0,100,0,0
230419,-75.7575757575758,4,1,0,100,0,0
230522,-74.0740740740741,4,1,0,100,0,0
230625,-72.992700729927,4,1,0,100,0,0
230727,-71.4285714285714,4,1,0,100,0,0
233604,-52.6315789473684,4,1,0,100,0,1
233810,-52.6315789473684,4,1,0,100,0,0
234015,-71.4285714285714,4,1,0,100,0,0
236378,-71.4285714285714,4,1,0,100,0,0
236892,-52.6315789473684,4,1,0,100,0,1
237097,-52.6315789473684,4,1,0,100,0,0
237303,-71.4285714285714,4,1,0,100,0,0
240180,-52.6315789473684,4,1,0,100,0,1
240385,-52.6315789473684,4,1,0,100,0,0
240590,-71.4285714285714,4,1,0,100,0,0
243467,-52.6315789473684,4,1,0,100,0,1
243673,-52.6315789473684,4,1,0,100,0,0
243878,-66.6666666666667,4,1,0,100,0,0
246755,-52.6315789473684,4,1,0,100,0,1
246960,-52.6315789473684,4,1,0,100,0,0
247166,-66.6666666666667,4,1,0,100,0,0
250043,-52.6315789473684,4,1,0,100,0,1
250248,-52.6315789473684,4,1,0,100,0,0
250454,-66.6666666666667,4,1,0,100,0,0
253330,-52.6315789473684,4,1,0,100,0,1
253536,-52.6315789473684,4,1,0,100,0,0
253741,-66.6666666666667,4,1,0,100,0,0
256823,-76.9230769230769,4,1,0,100,0,0
257029,-61.7283950617284,4,1,0,100,0,0
258467,-76.9230769230769,4,1,0,100,0,0
258673,-60.9756097560976,4,1,0,100,0,0
260111,-76.9230769230769,4,1,0,100,0,0
260317,-60.2409638554217,4,1,0,100,0,0
261755,-76.9230769230769,4,1,0,100,0,0
261960,-59.5238095238095,4,1,0,100,0,0
263399,-76.9230769230769,4,1,0,100,0,0
263604,-58.8235294117647,4,1,0,100,0,0
265043,-76.9230769230769,4,1,0,100,0,0
265248,-58.1395348837209,4,1,0,100,0,0
266892,-76.9230769230769,4,1,0,100,0,0
267166,-71.4285714285714,4,1,0,100,0,0
267508,-66.6666666666667,4,1,0,100,0,0
267782,-62.5,4,1,0,100,0,0
268125,-58.8235294117647,4,1,0,100,0,0
268330,-55.5555555555556,4,1,0,100,0,0
274289,-55.5555555555556,4,1,0,100,0,0
275111,-50,4,1,0,100,0,1
275317,-62.5,4,1,0,100,0,1
314563,-62.5,4,1,0,100,0,0
314769,-68.9655172413793,4,1,0,100,0,0
321344,-68.9655172413793,4,1,0,100,0,0
324221,-65.7894736842105,4,1,0,100,0,0
324426,-62.5,4,1,0,100,0,0
324632,-68.9655172413793,4,1,0,100,0,0
326070,-66.6666666666667,4,1,0,100,0,0
326275,-64.5161290322581,4,1,0,100,0,0
326481,-62.5,4,1,0,100,0,0
326686,-60.6060606060606,4,1,0,100,0,0
326892,-61.3496932515337,4,1,0,100,0,0
326995,-62.8930817610063,4,1,0,100,0,0
327097,-64.1025641025641,4,1,0,100,0,0
327200,-66.2251655629139,4,1,0,100,0,0
327303,-68.0272108843537,4,1,0,100,0,0
327508,-68.9655172413793,4,1,0,100,0,0
327714,-64.5161290322581,4,1,0,100,0,0
327919,-65.7894736842105,4,1,0,100,0,0
328022,-67.1140939597315,4,1,0,100,0,0
328125,-68.0272108843537,4,1,0,100,0,0
328330,-68.9655172413793,4,1,0,100,0,0
331823,-68.9655172413793,4,1,0,100,0,0
331926,-66.6666666666667,4,1,0,100,0,0
332029,-64.5161290322581,4,1,0,100,0,0
332132,-62.5,4,1,0,100,0,0
332234,-58.8235294117647,4,1,0,100,0,0
332440,-55.5555555555556,4,1,0,100,0,0
332645,-33.3333333333333,4,1,0,100,0,0
333262,-68.9655172413793,4,1,0,100,0,0
337371,-64.5161290322581,4,1,0,100,0,0
337577,-60.6060606060606,4,1,0,100,0,0
337782,-68.9655172413793,4,1,0,100,0,0
339015,-66.6666666666667,4,1,0,100,0,0
339221,-64.5161290322581,4,1,0,100,0,0
339426,-62.5,4,1,0,100,0,0
339632,-58.8235294117647,4,1,0,100,0,0
339837,-55.5555555555556,4,1,0,100,0,0
340043,-54.054054054054,4,1,0,100,0,0
340145,-57.1428571428571,4,1,0,100,0,0
340248,-60.6060606060606,4,1,0,100,0,0
340351,-64.5161290322581,4,1,0,100,0,0
340454,-68.9655172413793,4,1,0,100,0,0
340864,-58.8235294117647,4,1,0,100,0,0
341070,-90.9090909090909,4,1,0,100,0,0
364084,-90.0900900900901,4,1,0,100,0,0
364186,-89.2857142857143,4,1,0,100,0,0
364289,-87.719298245614,4,1,0,100,0,0
364392,-86.2068965517241,4,1,0,100,0,0
364495,-84.7457627118644,4,1,0,100,0,0
364597,-83.3333333333333,4,1,0,100,0,0
364700,-81.9672131147541,4,1,0,100,0,0
364803,-80.6451612903226,4,1,0,100,0,0
364906,-79.3650793650794,4,1,0,100,0,0
365008,-78.125,4,1,0,100,0,0
365111,-76.9230769230769,4,1,0,100,0,0
365317,-74.0740740740741,4,1,0,100,0,0
365522,-62.5,4,1,0,100,0,0
365830,-60.6060606060606,4,1,0,100,0,0
366138,-58.8235294117647,4,1,0,100,0,0
366755,-76.9230769230769,4,1,0,100,0,0
366960,-74.0740740740741,4,1,0,100,0,0
367166,-71.4285714285714,4,1,0,100,0,0
367577,-67.5675675675676,4,1,0,100,0,0
367988,-66.6666666666667,4,1,0,90,0,0
368399,-68.0272108843537,4,1,0,90,0,0
368810,-68.9655172413793,4,1,0,80,0,0
369221,-69.9300699300699,4,1,0,80,0,0
369632,-71.4285714285714,4,1,0,75,0,0
370043,-72.992700729927,4,1,0,75,0,0
370454,-74.0740740740741,4,1,0,70,0,0
370864,-75.187969924812,4,1,0,70,0,0
371275,-76.9230769230769,4,1,0,65,0,0
371686,-78.7401574803149,4,1,0,65,0,0
372097,-80,4,1,0,60,0,0
372508,-81.3008130081301,4,1,0,60,0,0
372919,-83.3333333333333,4,1,0,55,0,0
373330,-85.4700854700855,4,1,0,55,0,0
373741,-86.9565217391304,4,1,0,50,0,0
374152,-88.4955752212389,4,1,0,50,0,0
374563,-90.9090909090909,4,1,0,45,0,0
374974,-93.4579439252336,4,1,0,45,0,0
375385,-95.2380952380952,4,1,0,40,0,0
375796,-97.0873786407767,4,1,0,40,0,0
376207,-100,4,1,0,30,0,0
376618,-103.092783505155,4,1,0,30,0,0
377029,-105.263157894737,4,1,0,20,0,0
377440,-107.52688172043,4,1,0,20,0,0
377851,-111.111111111111,4,1,0,15,0,0
378262,-114.942528735632,4,1,0,15,0,0
378673,-117.647058823529,4,1,0,10,0,0
379084,-120.481927710843,4,1,0,10,0,0
379495,-125,4,1,0,5,0,0
379906,-129.87012987013,4,1,0,5,0,0

[HitObjects]
256,192,23604,12,0,24837,0:0:0:0:
256,192,25248,5,4,0:0:0:0:
256,192,25556,1,4,0:0:0:0:
256,192,25864,1,4,0:0:0:0:
256,192,26481,1,0,0:0:0:0:
256,192,26549,1,0,0:0:0:0:
256,192,26618,1,0,0:0:0:0:
256,192,26686,1,8,0:0:0:0:
256,160,26789,1,8,0:0:0:0:
256,192,26892,1,4,0:0:0:0:
256,192,27097,1,4,0:0:0:0:
256,192,27303,1,0,0:0:0:0:
256,192,27406,1,0,0:0:0:0:
256,192,27508,1,0,0:0:0:0:
256,192,27714,1,0,0:0:0:0:
256,192,27817,1,0,0:0:0:0:
256,192,27919,1,0,0:0:0:0:
256,192,28022,1,0,0:0:0:0:
256,192,28125,1,8,0:0:0:0:
256,192,28330,1,8,0:0:0:0:
256,192,28536,1,0,0:0:0:0:
256,192,28638,1,0,0:0:0:0:
256,192,28741,1,0,0:0:0:0:
256,192,28947,1,0,0:0:0:0:
256,192,29049,1,0,0:0:0:0:
256,192,29152,1,0,0:0:0:0:
256,192,29358,1,0,0:0:0:0:
256,192,29460,1,0,0:0:0:0:
256,192,29563,1,0,0:0:0:0:
256,192,29666,1,0,0:0:0:0:
256,192,29769,1,0,0:0:0:0:
256,192,30180,1,4,0:0:0:0:
256,192,30385,1,4,0:0:0:0:
256,192,30591,1,8,0:0:0:0:
256,192,30693,1,8,0:0:0:0:
256,192,30796,1,8,0:0:0:0:
256,192,31001,1,8,0:0:0:0:
256,192,31104,1,8,0:0:0:0:
256,192,31207,1,0,0:0:0:0:
256,192,31310,1,0,0:0:0:0:
256,192,31412,1,8,0:0:0:0:
256,192,31618,1,8,0:0:0:0:
256,192,31823,1,0,0:0:0:0:
256,192,31926,1,0,0:0:0:0:
256,192,32029,1,0,0:0:0:0:
256,192,32234,1,0,0:0:0:0:
256,192,32337,1,0,0:0:0:0:
256,192,32440,1,0,0:0:0:0:
256,192,32645,1,0,0:0:0:0:
256,192,32748,1,0,0:0:0:0:
256,192,32851,1,8,0:0:0:0:
256,192,32954,1,8,0:0:0:0:
256,192,33056,1,8,0:0:0:0:
224,192,33262,1,4,0:0:0:0:
256,192,33467,1,4,0:0:0:0:
256,192,33673,1,4,0:0:0:0:
256,192,33878,1,0,0:0:0:0:
256,192,33981,1,0,0:0:0:0:
256,192,34084,1,0,0:0:0:0:
256,192,34289,1,0,0:0:0:0:
256,192,34392,1,0,0:0:0:0:
256,192,34495,1,0,0:0:0:0:
256,192,34597,1,0,0:0:0:0:
256,192,34700,1,8,0:0:0:0:
256,192,34906,1,8,0:0:0:0:
256,192,35111,1,0,0:0:0:0:
256,192,35214,1,0,0:0:0:0:
256,192,35317,1,0,0:0:0:0:
256,192,35522,1,8,0:0:0:0:
256,192,35625,1,0,0:0:0:0:
256,192,35727,1,0,0:0:0:0:
256,192,35933,1,0,0:0:0:0:
256,192,36036,1,0,0:0:0:0:
256,192,36138,1,0,0:0:0:0:
256,192,36241,1,8,0:0:0:0:
256,192,36344,1,8,0:0:0:0:
224,192,36549,1,4,0:0:0:0:
256,192,36755,1,4,0:0:0:0:
256,192,36960,1,4,0:0:0:0:
256,192,37166,1,0,0:0:0:0:
256,192,37269,1,0,0:0:0:0:
256,192,37371,1,0,0:0:0:0:
256,192,37577,1,0,0:0:0:0:
256,192,37680,1,0,0:0:0:0:
256,192,37782,1,8,0:0:0:0:
256,192,37885,1,8,0:0:0:0:
256,192,37988,1,0,0:0:0:0:
256,192,38193,1,0,0:0:0:0:
256,192,38399,1,8,0:0:0:0:
256,192,38501,1,8,0:0:0:0:
256,192,38604,1,8,0:0:0:0:
256,192,38810,1,0,0:0:0:0:
256,192,38912,1,0,0:0:0:0:
256,192,39015,1,0,0:0:0:0:
256,192,39221,1,8,0:0:0:0:
256,192,39323,1,8,0:0:0:0:
256,192,39426,1,0,0:0:0:0:
256,192,39529,1,0,0:0:0:0:
256,192,39632,1,0,0:0:0:0:
256,192,40043,1,4,0:0:0:0:
256,192,40248,1,4,0:0:0:0:
256,192,40454,1,8,0:0:0:0:
256,192,40556,1,0,0:0:0:0:
256,192,40659,1,0,0:0:0:0:
256,192,40864,1,0,0:0:0:0:
256,192,40967,1,8,0:0:0:0:
256,192,41070,1,0,0:0:0:0:
256,192,41173,1,8,0:0:0:0:
256,192,41275,1,8,0:0:0:0:
256,192,41481,1,4,0:0:0:0:
256,192,41686,1,4,0:0:0:0:
256,192,41892,1,4,0:0:0:0:
256,192,42097,1,8,0:0:0:0:
256,192,42200,1,0,0:0:0:0:
256,192,42303,1,0,0:0:0:0:
256,192,42508,1,0,0:0:0:0:
256,192,42611,1,8,0:0:0:0:
256,192,42714,1,8,0:0:0:0:
256,192,42817,1,0,0:0:0:0:
256,192,42919,1,8,0:0:0:0:
256,192,43330,1,4,0:0:0:0:
256,192,43536,1,4,0:0:0:0:
256,192,43741,1,8,0:0:0:0:
256,192,43844,1,0,0:0:0:0:
256,192,43947,1,0,0:0:0:0:
256,192,44152,1,0,0:0:0:0:
256,192,44255,1,8,0:0:0:0:
256,192,44358,1,0,0:0:0:0:
256,192,44460,1,0,0:0:0:0:
256,192,44563,1,8,0:0:0:0:
256,192,44769,1,4,0:0:0:0:
256,192,44974,1,4,0:0:0:0:
256,192,45180,1,4,0:0:0:0:
256,192,45385,1,8,0:0:0:0:
256,192,45488,1,0,0:0:0:0:
256,192,45591,1,0,0:0:0:0:
256,192,45796,1,8,0:0:0:0:
256,192,45899,1,8,0:0:0:0:
256,192,46001,1,0,0:0:0:0:
256,192,46104,1,0,0:0:0:0:
256,192,46207,1,8,0:0:0:0:
224,192,46412,1,4,0:0:0:0:
256,192,46618,1,4,0:0:0:0:
256,192,46823,1,4,0:0:0:0:
256,192,47234,1,4,0:0:0:0:
256,192,47440,1,4,0:0:0:0:
256,192,47645,1,4,0:0:0:0:
256,192,48056,1,4,0:0:0:0:
256,192,48262,1,4,0:0:0:0:
256,192,48467,1,4,0:0:0:0:
256,192,48878,1,4,0:0:0:0:
256,192,49084,1,4,0:0:0:0:
256,192,49289,1,4,0:0:0:0:
256,192,49495,1,4,0:0:0:0:
256,192,49700,1,4,0:0:0:0:
256,192,49906,1,4,0:0:0:0:
256,192,50111,1,0,0:0:0:0:
256,192,50214,1,8,0:0:0:0:
256,192,50317,1,0,0:0:0:0:
256,192,50522,1,8,0:0:0:0:
256,192,50727,1,0,0:0:0:0:
256,192,50830,1,8,0:0:0:0:
256,192,50933,1,0,0:0:0:0:
256,192,51138,1,8,0:0:0:0:
256,192,51344,1,0,0:0:0:0:
256,192,51447,1,8,0:0:0:0:
256,192,51549,1,0,0:0:0:0:
256,192,51755,1,8,0:0:0:0:
256,192,51960,1,0,0:0:0:0:
256,192,52063,1,8,0:0:0:0:
256,192,52166,1,0,0:0:0:0:
256,192,52371,1,8,0:0:0:0:
256,192,52577,1,0,0:0:0:0:
256,192,52782,1,0,0:0:0:0:
256,192,52988,1,0,0:0:0:0:
256,192,53193,12,0,58536,0:0:0:0:
256,192,58947,5,8,0:0:0:0:
256,192,59358,1,8,0:0:0:0:
256,192,59769,1,4,0:0:0:0:
224,192,59974,1,0,0:0:0:0:
224,192,60180,1,8,0:0:0:0:
224,192,60282,1,0,0:0:0:0:
224,192,60385,1,0,0:0:0:0:
224,192,60591,1,0,0:0:0:0:
224,192,60693,1,8,0:0:0:0:
224,192,60796,1,0,0:0:0:0:
224,192,60899,1,0,0:0:0:0:
224,192,61001,1,8,0:0:0:0:
224,192,61207,1,0,0:0:0:0:
224,192,61412,1,0,0:0:0:0:
224,192,61618,1,0,0:0:0:0:
224,192,61823,1,8,0:0:0:0:
224,192,61926,1,0,0:0:0:0:
224,192,62029,1,0,0:0:0:0:
224,192,62234,1,0,0:0:0:0:
224,192,62337,1,8,0:0:0:0:
224,192,62440,1,0,0:0:0:0:
224,192,62543,1,8,0:0:0:0:
288,192,62645,1,8,0:0:0:0:
224,192,63056,1,0,0:0:0:0:
224,192,63262,1,0,0:0:0:0:
224,192,63467,1,8,0:0:0:0:
224,192,63570,1,0,0:0:0:0:
224,192,63673,1,0,0:0:0:0:
224,192,63878,1,0,0:0:0:0:
224,192,63981,1,8,0:0:0:0:
224,192,64084,1,0,0:0:0:0:
224,192,64186,1,0,0:0:0:0:
224,192,64289,1,8,0:0:0:0:
224,192,64495,1,0,0:0:0:0:
224,192,64700,1,0,0:0:0:0:
224,192,64906,1,0,0:0:0:0:
224,192,65111,1,8,0:0:0:0:
224,192,65214,1,0,0:0:0:0:
224,192,65317,1,0,0:0:0:0:
224,192,65522,1,0,0:0:0:0:
224,192,65625,1,8,0:0:0:0:
192,192,65727,1,0,0:0:0:0:
192,192,65830,1,8,0:0:0:0:
192,192,65933,1,8,0:0:0:0:
256,192,66344,1,0,0:0:0:0:
224,192,66549,1,0,0:0:0:0:
224,192,66755,1,8,0:0:0:0:
224,192,66858,1,0,0:0:0:0:
224,192,66960,1,0,0:0:0:0:
224,192,67166,1,0,0:0:0:0:
224,192,67269,1,8,0:0:0:0:
224,192,67371,1,0,0:0:0:0:
224,192,67474,1,0,0:0:0:0:
224,192,67577,1,8,0:0:0:0:
224,192,67782,1,0,0:0:0:0:
224,192,67988,1,0,0:0:0:0:
224,192,68193,1,0,0:0:0:0:
224,192,68399,1,8,0:0:0:0:
224,192,68501,1,0,0:0:0:0:
224,192,68604,1,0,0:0:0:0:
224,192,68810,1,0,0:0:0:0:
224,192,68912,1,8,0:0:0:0:
224,192,69015,1,0,0:0:0:0:
224,192,69118,1,8,0:0:0:0:
320,192,69221,1,8,0:0:0:0:
224,192,69632,1,0,0:0:0:0:
224,192,69837,1,0,0:0:0:0:
224,192,70043,1,8,0:0:0:0:
224,192,70145,1,0,0:0:0:0:
224,192,70248,1,0,0:0:0:0:
224,192,70454,1,0,0:0:0:0:
224,192,70556,1,8,0:0:0:0:
224,192,70659,1,0,0:0:0:0:
224,192,70762,1,0,0:0:0:0:
288,192,70864,1,8,0:0:0:0:
288,192,70967,1,8,0:0:0:0:
288,192,71070,1,0,0:0:0:0:
288,192,71173,1,0,0:0:0:0:
288,192,71275,1,12,0:0:0:0:
224,192,71686,1,0,0:0:0:0:
224,192,71892,1,8,0:0:0:0:
288,192,72097,1,0,0:0:0:0:
160,192,72508,1,8,0:0:0:0:
352,192,72919,1,12,0:0:0:0:
224,192,73125,1,8,0:0:0:0:
224,192,73330,1,0,0:0:0:0:
224,192,73433,1,0,0:0:0:0:
224,192,73536,1,8,0:0:0:0:
224,192,73741,1,0,0:0:0:0:
224,192,73844,1,8,0:0:0:0:
224,192,73947,1,0,0:0:0:0:
224,192,74049,1,0,0:0:0:0:
224,192,74152,1,8,0:0:0:0:
224,192,74358,1,8,0:0:0:0:
224,192,74563,1,0,0:0:0:0:
224,192,74769,1,8,0:0:0:0:
224,192,74974,1,0,0:0:0:0:
224,192,75077,1,0,0:0:0:0:
224,192,75180,1,8,0:0:0:0:
224,192,75385,1,0,0:0:0:0:
224,192,75488,1,8,0:0:0:0:
224,192,75591,1,0,0:0:0:0:
224,192,75693,1,8,0:0:0:0:
224,192,75796,1,8,0:0:0:0:
224,192,75899,1,0,0:0:0:0:
224,192,76001,1,8,0:0:0:0:
224,192,76207,1,0,0:0:0:0:
224,192,76412,1,8,0:0:0:0:
224,192,76618,1,0,0:0:0:0:
224,192,76721,1,0,0:0:0:0:
224,192,76823,1,8,0:0:0:0:
224,192,77029,1,0,0:0:0:0:
224,192,77132,1,8,0:0:0:0:
224,192,77234,1,0,0:0:0:0:
224,192,77337,1,0,0:0:0:0:
224,192,77440,1,8,0:0:0:0:
224,192,77645,1,8,0:0:0:0:
224,192,77851,1,0,0:0:0:0:
224,192,78056,1,8,0:0:0:0:
224,192,78262,1,0,0:0:0:0:
224,192,78364,1,0,0:0:0:0:
224,192,78467,1,8,0:0:0:0:
224,192,78673,1,0,0:0:0:0:
224,192,78775,1,8,0:0:0:0:
192,192,78878,1,0,0:0:0:0:
192,192,78981,1,8,0:0:0:0:
192,192,79084,1,8,0:0:0:0:
256,192,79495,1,0,0:0:0:0:
224,192,79700,1,8,0:0:0:0:
224,192,79906,1,0,0:0:0:0:
224,192,80008,1,0,0:0:0:0:
224,192,80111,1,8,0:0:0:0:
224,192,80317,1,0,0:0:0:0:
224,192,80419,1,8,0:0:0:0:
224,192,80522,1,0,0:0:0:0:
224,192,80625,1,0,0:0:0:0:
224,192,80727,1,8,0:0:0:0:
224,192,80830,1,0,0:0:0:0:
224,192,80933,1,8,0:0:0:0:
224,192,81138,1,0,0:0:0:0:
224,192,81344,1,8,0:0:0:0:
224,192,81549,1,0,0:0:0:0:
224,192,81652,1,0,0:0:0:0:
224,192,81755,1,8,0:0:0:0:
224,192,81960,1,0,0:0:0:0:
224,192,82063,1,8,0:0:0:0:
224,192,82166,1,0,0:0:0:0:
224,192,82269,1,8,0:0:0:0:
224,192,82371,1,8,0:0:0:0:
224,192,82782,1,12,0:0:0:0:
224,192,84426,1,0,0:0:0:0:
224,192,85043,1,4,0:0:0:0:
224,192,85248,1,0,0:0:0:0:
224,192,85659,1,12,0:0:0:0:
224,192,85864,1,0,0:0:0:0:
224,192,86070,1,0,0:0:0:0:
224,192,86275,1,4,0:0:0:0:
162,255,86481,1,0,0:0:0:0:
224,192,86686,1,8,0:0:0:0:
224,192,86892,1,8,0:0:0:0:
224,192,86995,1,0,0:0:0:0:
224,192,87097,1,0,0:0:0:0:
224,192,87303,1,8,0:0:0:0:
224,192,87508,1,0,0:0:0:0:
224,192,87611,1,0,0:0:0:0:
224,192,87714,1,8,0:0:0:0:
256,256,87919,1,8,0:0:0:0:
224,224,88022,1,0,0:0:0:0:
224,192,88125,1,8,0:0:0:0:
256,288,88330,1,8,0:0:0:0:
256,192,88433,1,0,0:0:0:0:
224,192,88536,1,0,0:0:0:0:
224,192,88741,1,12,0:0:0:0:
224,192,88947,1,0,0:0:0:0:
224,192,89358,1,12,0:0:0:0:
224,224,89769,1,8,0:0:0:0:
224,224,89974,1,0,0:0:0:0:
224,224,90180,1,0,0:0:0:0:
224,224,90282,1,0,0:0:0:0:
224,224,90385,1,8,0:0:0:0:
224,224,90591,1,8,0:0:0:0:
219,154,90796,1,0,0:0:0:0:
224,224,91001,1,0,0:0:0:0:
224,224,91104,1,0,0:0:0:0:
224,224,91207,1,8,0:0:0:0:
224,224,91412,1,4,0:0:0:0:
192,224,91618,1,0,0:0:0:0:
192,224,91721,1,0,0:0:0:0:
224,224,91823,1,12,0:0:0:0:
224,224,92029,1,12,0:0:0:0:
219,143,92234,1,0,0:0:0:0:
192,224,92440,1,12,0:0:0:0:
192,224,92645,1,4,0:0:0:0:
192,224,92851,1,0,0:0:0:0:
192,224,93056,1,4,0:0:0:0:
192,224,93262,1,8,0:0:0:0:
192,224,93467,1,0,0:0:0:0:
192,224,93570,1,0,0:0:0:0:
192,224,93673,1,8,0:0:0:0:
192,224,93878,1,8,0:0:0:0:
192,224,94084,1,0,0:0:0:0:
192,224,94289,1,0,0:0:0:0:
192,224,94392,1,0,0:0:0:0:
192,224,94495,1,8,0:0:0:0:
192,224,94700,1,8,0:0:0:0:
192,224,94803,1,0,0:0:0:0:
192,224,94906,1,0,0:0:0:0:
192,224,95111,1,12,0:0:0:0:
239,171,95317,1,0,0:0:0:0:
192,224,95522,1,12,0:0:0:0:
192,224,95727,1,0,0:0:0:0:
192,224,95933,1,4,0:0:0:0:
192,256,96755,1,4,0:0:0:0:
192,256,97577,1,4,0:0:0:0:
192,256,97988,1,4,0:0:0:0:
192,256,98399,1,12,0:0:0:0:
192,256,98810,1,8,0:0:0:0:
192,256,99221,1,4,0:0:0:0:
224,192,99426,1,8,0:0:0:0:
224,192,99632,1,8,0:0:0:0:
224,192,99734,1,0,0:0:0:0:
224,192,99837,1,0,0:0:0:0:
224,192,100043,1,0,0:0:0:0:
224,192,100145,1,8,0:0:0:0:
224,192,100248,1,0,0:0:0:0:
224,192,100351,1,0,0:0:0:0:
224,192,100454,1,8,0:0:0:0:
224,192,100659,1,0,0:0:0:0:
224,192,100864,1,0,0:0:0:0:
224,192,101070,1,0,0:0:0:0:
224,192,101275,1,8,0:0:0:0:
224,192,101378,1,0,0:0:0:0:
224,192,101481,1,0,0:0:0:0:
224,192,101686,1,12,0:0:0:0:
224,192,101892,1,0,0:0:0:0:
224,192,102097,1,12,0:0:0:0:
224,192,102303,1,0,0:0:0:0:
224,192,102508,1,8,0:0:0:0:
192,192,102714,1,8,0:0:0:0:
192,192,102817,1,8,0:0:0:0:
192,192,102919,1,0,0:0:0:0:
224,192,103125,1,8,0:0:0:0:
224,192,103330,1,0,0:0:0:0:
224,192,103536,1,8,0:0:0:0:
224,192,103638,1,0,0:0:0:0:
224,192,103741,1,0,0:0:0:0:
224,192,103947,1,8,0:0:0:0:
224,192,104152,1,4,0:0:0:0:
224,192,104358,1,4,0:0:0:0:
224,192,104563,1,4,0:0:0:0:
224,192,104769,1,4,0:0:0:0:
224,192,104974,1,4,0:0:0:0:
224,192,105180,1,8,0:0:0:0:
224,192,105385,1,0,0:0:0:0:
224,192,105591,1,8,0:0:0:0:
224,192,105796,1,4,0:0:0:0:
224,192,106001,1,8,0:0:0:0:
224,192,106104,1,0,0:0:0:0:
224,192,106207,1,0,0:0:0:0:
224,192,106412,1,8,0:0:0:0:
224,192,106618,1,0,0:0:0:0:
224,192,106721,1,0,0:0:0:0:
224,192,106823,1,8,0:0:0:0:
224,192,107029,1,8,0:0:0:0:
224,192,107132,1,0,0:0:0:0:
224,192,107234,1,0,0:0:0:0:
224,192,107440,1,4,0:0:0:0:
224,192,107645,1,8,0:0:0:0:
224,192,107748,1,8,0:0:0:0:
224,192,107851,1,0,0:0:0:0:
224,192,108056,1,0,0:0:0:0:
224,192,108262,1,0,0:0:0:0:
224,192,108364,1,0,0:0:0:0:
224,192,108467,1,8,0:0:0:0:
224,192,108570,1,8,0:0:0:0:
224,192,108673,1,8,0:0:0:0:
224,192,108878,1,0,0:0:0:0:
237,193,108981,1,0,0:0:0:0:
224,192,109084,1,12,0:0:0:0:
224,192,109700,1,4,0:0:0:0:
224,192,109906,1,4,0:0:0:0:
224,192,110111,1,4,0:0:0:0:
224,192,110317,1,8,0:0:0:0:
224,192,110419,1,8,0:0:0:0:
224,192,110522,1,0,0:0:0:0:
224,192,110591,1,0,0:0:0:0:
224,192,110659,1,0,0:0:0:0:
224,192,110727,1,8,0:0:0:0:
192,160,110830,1,8,0:0:0:0:
224,192,110933,1,0,0:0:0:0:
224,192,111036,1,0,0:0:0:0:
256,192,111138,1,8,0:0:0:0:
224,192,111241,1,0,0:0:0:0:
256,192,111344,1,8,0:0:0:0:
256,192,111549,1,8,0:0:0:0:
256,192,111652,1,8,0:0:0:0:
256,192,111755,1,0,0:0:0:0:
256,192,111858,1,0,0:0:0:0:
256,192,111960,1,8,0:0:0:0:
256,160,112166,1,8,0:0:0:0:
224,192,112371,1,4,0:0:0:0:
256,192,112782,1,0,0:0:0:0:
256,192,113193,1,0,0:0:0:0:
256,224,113604,1,0,0:0:0:0:
256,192,114015,1,0,0:0:0:0:
256,192,114426,1,0,0:0:0:0:
256,192,114837,1,0,0:0:0:0:
256,192,115248,1,0,0:0:0:0:
256,192,115659,1,0,0:0:0:0:
256,192,116070,1,0,0:0:0:0:
256,192,116481,1,0,0:0:0:0:
256,192,116892,1,0,0:0:0:0:
256,192,117303,1,0,0:0:0:0:
256,192,117714,1,0,0:0:0:0:
256,192,118125,1,0,0:0:0:0:
224,192,118536,1,0,0:0:0:0:
256,192,118947,1,0,0:0:0:0:
256,192,119358,1,0,0:0:0:0:
256,192,119769,1,0,0:0:0:0:
256,192,120180,1,0,0:0:0:0:
256,192,120385,1,0,0:0:0:0:
256,192,120591,1,0,0:0:0:0:
256,192,121001,1,0,0:0:0:0:
256,192,121412,1,0,0:0:0:0:
256,192,121721,1,0,0:0:0:0:
256,192,121823,1,0,0:0:0:0:
256,192,122029,1,0,0:0:0:0:
256,192,122234,1,0,0:0:0:0:
256,192,122645,1,0,0:0:0:0:
256,192,123056,1,0,0:0:0:0:
256,192,123159,1,0,0:0:0:0:
256,192,123364,1,0,0:0:0:0:
256,192,123467,1,0,0:0:0:0:
256,192,123673,1,0,0:0:0:0:
256,192,123878,1,0,0:0:0:0:
256,192,124289,1,0,0:0:0:0:
256,192,124700,1,0,0:0:0:0:
256,192,125008,1,0,0:0:0:0:
256,192,125111,1,0,0:0:0:0:
256,192,125317,1,0,0:0:0:0:
256,192,125522,1,8,0:0:0:0:
256,192,125727,1,0,0:0:0:0:
256,192,126036,1,0,0:0:0:0:
256,192,126241,1,0,0:0:0:0:
256,192,126447,1,8,0:0:0:0:
256,192,126652,1,0,0:0:0:0:
256,192,126755,1,8,0:0:0:0:
256,192,126960,1,8,0:0:0:0:
256,192,127166,1,8,0:0:0:0:
256,192,127371,1,0,0:0:0:0:
256,192,127680,1,8,0:0:0:0:
256,192,127885,1,0,0:0:0:0:
256,192,128091,1,8,0:0:0:0:
256,192,128296,1,8,0:0:0:0:
256,192,128399,1,0,0:0:0:0:
224,192,128604,1,0,0:0:0:0:
256,192,128707,1,0,0:0:0:0:
256,192,128810,1,8,0:0:0:0:
256,192,129015,1,0,0:0:0:0:
256,192,129323,1,0,0:0:0:0:
256,192,129529,1,0,0:0:0:0:
256,192,129734,1,8,0:0:0:0:
256,192,129940,1,0,0:0:0:0:
256,192,130043,1,8,0:0:0:0:
256,192,130248,1,8,0:0:0:0:
256,192,130454,1,8,0:0:0:0:
256,192,130659,1,0,0:0:0:0:
256,192,130967,1,0,0:0:0:0:
256,192,131173,1,0,0:0:0:0:
256,192,131378,1,8,0:0:0:0:
256,192,131584,1,0,0:0:0:0:
256,192,131686,1,8,0:0:0:0:
256,192,131789,1,8,0:0:0:0:
224,192,131892,1,0,0:0:0:0:
256,192,131995,1,0,0:0:0:0:
256,192,132097,1,8,0:0:0:0:
256,192,132303,1,0,0:0:0:0:
256,192,132611,1,0,0:0:0:0:
256,192,132817,1,0,0:0:0:0:
256,192,133022,1,8,0:0:0:0:
256,192,133227,1,8,0:0:0:0:
256,192,133330,1,0,0:0:0:0:
256,192,133536,1,8,0:0:0:0:
256,192,133741,1,8,0:0:0:0:
256,192,133947,1,0,0:0:0:0:
256,192,134255,1,0,0:0:0:0:
256,192,134460,1,0,0:0:0:0:
256,192,134666,1,8,0:0:0:0:
256,192,134871,1,0,0:0:0:0:
256,192,134974,1,8,0:0:0:0:
224,192,135180,1,8,0:0:0:0:
128,160,135385,1,12,0:0:0:0:
224,192,135591,1,0,0:0:0:0:
224,192,135796,1,0,0:0:0:0:
224,192,136001,1,0,0:0:0:0:
224,192,136207,1,8,0:0:0:0:
224,192,136412,1,0,0:0:0:0:
224,192,136618,1,0,0:0:0:0:
224,192,136823,1,0,0:0:0:0:
192,192,137029,1,8,0:0:0:0:
192,192,137132,1,8,0:0:0:0:
192,192,137234,1,0,0:0:0:0:
192,192,137337,1,0,0:0:0:0:
192,192,137440,1,8,0:0:0:0:
192,192,137543,1,8,0:0:0:0:
192,192,137645,1,0,0:0:0:0:
192,192,137748,1,0,0:0:0:0:
192,192,137851,1,8,0:0:0:0:
192,192,137919,1,0,0:0:0:0:
192,192,137988,1,0,0:0:0:0:
192,192,138056,1,0,0:0:0:0:
192,192,138159,1,8,0:0:0:0:
192,192,138262,1,8,0:0:0:0:
224,192,138364,1,0,0:0:0:0:
192,192,138467,1,8,0:0:0:0:
192,192,138570,1,0,0:0:0:0:
256,192,138673,1,12,0:0:0:0:
256,192,138878,1,0,0:0:0:0:
256,192,139084,1,8,0:0:0:0:
256,192,139186,1,0,0:0:0:0:
256,192,139392,1,0,0:0:0:0:
256,192,139597,1,8,0:0:0:0:
256,192,139803,1,0,0:0:0:0:
256,192,139906,1,8,0:0:0:0:
256,192,140111,1,8,0:0:0:0:
256,192,140317,1,8,0:0:0:0:
256,192,140522,1,0,0:0:0:0:
256,192,140727,1,8,0:0:0:0:
256,192,140830,1,8,0:0:0:0:
256,192,141036,1,0,0:0:0:0:
256,192,141241,1,8,0:0:0:0:
256,192,141447,1,8,0:0:0:0:
256,192,141549,1,0,0:0:0:0:
224,192,141755,1,8,0:0:0:0:
224,192,141858,1,0,0:0:0:0:
256,192,141960,1,8,0:0:0:0:
256,192,142166,1,0,0:0:0:0:
256,192,142371,1,8,0:0:0:0:
256,192,142474,1,0,0:0:0:0:
256,192,142680,1,0,0:0:0:0:
256,192,142885,1,8,0:0:0:0:
256,192,143091,1,0,0:0:0:0:
256,192,143193,1,8,0:0:0:0:
256,192,143399,1,8,0:0:0:0:
256,192,143604,1,8,0:0:0:0:
256,192,143810,1,0,0:0:0:0:
256,192,144015,1,8,0:0:0:0:
256,192,144118,1,0,0:0:0:0:
256,192,144323,1,0,0:0:0:0:
256,192,144529,1,8,0:0:0:0:
256,192,144734,1,0,0:0:0:0:
256,192,144837,1,8,0:0:0:0:
224,192,145043,1,8,0:0:0:0:
256,192,145248,1,12,0:0:0:0:
256,192,145454,1,0,0:0:0:0:
256,192,145659,1,8,0:0:0:0:
256,192,145762,1,0,0:0:0:0:
256,192,145967,1,0,0:0:0:0:
256,192,146173,1,8,0:0:0:0:
256,192,146378,1,0,0:0:0:0:
256,192,146481,1,8,0:0:0:0:
256,192,146686,1,8,0:0:0:0:
256,192,146892,1,8,0:0:0:0:
256,192,147097,1,0,0:0:0:0:
256,192,147303,1,8,0:0:0:0:
256,192,147406,1,0,0:0:0:0:
256,192,147611,1,0,0:0:0:0:
256,192,147817,1,8,0:0:0:0:
256,192,148022,1,8,0:0:0:0:
256,192,148125,1,0,0:0:0:0:
224,192,148330,1,8,0:0:0:0:
224,192,148433,1,0,0:0:0:0:
128,160,148536,1,8,0:0:0:0:
256,192,148741,1,0,0:0:0:0:
256,192,148947,1,8,0:0:0:0:
256,192,149049,1,0,0:0:0:0:
256,192,149255,1,0,0:0:0:0:
256,192,149460,1,8,0:0:0:0:
256,192,149666,1,0,0:0:0:0:
256,192,149769,1,8,0:0:0:0:
256,192,149974,1,8,0:0:0:0:
256,192,150180,1,4,0:0:0:0:
256,160,150488,1,4,0:0:0:0:
256,160,150796,1,4,0:0:0:0:
256,192,151104,1,12,0:0:0:0:
256,192,151412,1,0,0:0:0:0:
256,192,151618,1,8,0:0:0:0:
256,192,151823,1,8,0:0:0:0:
256,192,151926,1,0,0:0:0:0:
256,192,152029,1,0,0:0:0:0:
256,192,152234,1,12,0:0:0:0:
256,192,152440,1,0,0:0:0:0:
256,192,152543,1,8,0:0:0:0:
256,192,152748,1,8,0:0:0:0:
256,192,152954,1,0,0:0:0:0:
256,192,153056,1,8,0:0:0:0:
256,192,153262,1,8,0:0:0:0:
256,192,153467,1,8,0:0:0:0:
256,192,153673,1,0,0:0:0:0:
256,192,153878,1,8,0:0:0:0:
256,192,153981,1,0,0:0:0:0:
256,192,154186,1,0,0:0:0:0:
256,192,154289,1,0,0:0:0:0:
256,192,154392,1,8,0:0:0:0:
256,192,154495,1,0,0:0:0:0:
256,192,154597,1,0,0:0:0:0:
256,192,154700,1,8,0:0:0:0:
256,192,154906,1,8,0:0:0:0:
256,192,155111,1,8,0:0:0:0:
256,192,155317,1,0,0:0:0:0:
256,192,155522,1,8,0:0:0:0:
256,192,155625,1,0,0:0:0:0:
256,192,155830,1,0,0:0:0:0:
256,192,156036,1,8,0:0:0:0:
256,192,156241,1,0,0:0:0:0:
256,192,156344,1,8,0:0:0:0:
256,192,156549,1,8,0:0:0:0:
256,192,156755,1,8,0:0:0:0:
256,192,156960,1,0,0:0:0:0:
256,192,157166,1,8,0:0:0:0:
256,192,157269,1,8,0:0:0:0:
256,192,157474,1,0,0:0:0:0:
256,192,157577,1,0,0:0:0:0:
256,192,157680,1,0,0:0:0:0:
256,192,157782,1,8,0:0:0:0:
256,192,157885,1,0,0:0:0:0:
256,192,157988,1,8,0:0:0:0:
256,192,158193,1,0,0:0:0:0:
256,192,158399,1,4,0:0:0:0:
256,192,158604,1,0,0:0:0:0:
256,192,158810,1,12,0:0:0:0:
281,210,159015,1,0,0:0:0:0:
256,192,159118,1,0,0:0:0:0:
256,192,159323,1,8,0:0:0:0:
256,192,159529,1,0,0:0:0:0:
256,192,159632,1,8,0:0:0:0:
256,192,159837,1,8,0:0:0:0:
256,192,159940,1,0,0:0:0:0:
256,192,160043,1,8,0:0:0:0:
256,192,160248,1,8,0:0:0:0:
250,187,160351,1,0,0:0:0:0:
256,192,160454,1,8,0:0:0:0:
256,181,160556,1,8,0:0:0:0:
256,192,160659,1,0,0:0:0:0:
240,198,160762,1,0,0:0:0:0:
266,190,160967,1,8,0:0:0:0:
256,192,161173,1,0,0:0:0:0:
256,192,161275,1,8,0:0:0:0:
224,192,161686,1,4,0:0:0:0:
256,192,162097,1,8,0:0:0:0:
256,192,162508,1,8,0:0:0:0:
225,188,162919,1,8,0:0:0:0:
256,192,163330,1,8,0:0:0:0:
256,192,163536,1,8,0:0:0:0:
256,192,163741,1,0,0:0:0:0:
256,192,163947,1,8,0:0:0:0:
256,192,164152,1,8,0:0:0:0:
256,192,164255,1,0,0:0:0:0:
256,192,164358,1,8,0:0:0:0:
256,192,164460,1,8,0:0:0:0:
256,192,164563,1,0,0:0:0:0:
256,192,164632,1,0,0:0:0:0:
256,192,164700,1,0,0:0:0:0:
224,192,164769,1,8,0:0:0:0:
256,192,164871,1,8,0:0:0:0:
256,192,164974,1,0,0:0:0:0:
224,192,178125,5,8,0:0:0:0:
224,192,178330,1,0,0:0:0:0:
224,192,178741,1,8,0:0:0:0:
224,192,178947,1,0,0:0:0:0:
224,192,179358,1,8,0:0:0:0:
224,192,179563,1,0,0:0:0:0:
224,192,179974,1,8,0:0:0:0:
224,192,180180,1,0,0:0:0:0:
224,192,180591,1,8,0:0:0:0:
224,192,180796,1,0,0:0:0:0:
224,192,181207,1,8,0:0:0:0:
224,192,181412,1,0,0:0:0:0:
224,192,181823,1,8,0:0:0:0:
224,192,182029,1,0,0:0:0:0:
224,192,182440,1,8,0:0:0:0:
224,192,182645,1,0,0:0:0:0:
224,192,183056,1,0,0:0:0:0:
224,192,183262,1,0,0:0:0:0:
224,192,183673,1,8,0:0:0:0:
224,192,183878,1,0,0:0:0:0:
224,192,184084,1,0,0:0:0:0:
224,192,184289,1,8,0:0:0:0:
224,192,184495,1,0,0:0:0:0:
224,192,184700,1,8,0:0:0:0:
224,192,184906,1,0,0:0:0:0:
224,192,185317,1,8,0:0:0:0:
224,192,185522,1,0,0:0:0:0:
224,192,185933,1,8,0:0:0:0:
224,192,186138,1,0,0:0:0:0:
224,192,186549,1,8,0:0:0:0:
224,192,186755,1,0,0:0:0:0:
224,192,187166,1,8,0:0:0:0:
224,192,187371,1,0,0:0:0:0:
224,192,187782,1,8,0:0:0:0:
224,192,187988,1,0,0:0:0:0:
224,192,188399,1,8,0:0:0:0:
224,192,188604,1,0,0:0:0:0:
224,192,189015,1,8,0:0:0:0:
224,192,189221,1,0,0:0:0:0:
224,192,189632,1,0,0:0:0:0:
224,192,189837,1,0,0:0:0:0:
224,192,190248,1,8,0:0:0:0:
224,192,190454,1,0,0:0:0:0:
224,192,190659,1,0,0:0:0:0:
224,192,190864,1,8,0:0:0:0:
224,192,191070,1,0,0:0:0:0:
224,192,191275,1,0,0:0:0:0:
224,192,191481,1,8,0:0:0:0:
224,192,191892,1,0,0:0:0:0:
224,192,192097,1,8,0:0:0:0:
224,192,192508,1,0,0:0:0:0:
224,192,192714,1,8,0:0:0:0:
224,192,193125,1,0,0:0:0:0:
224,192,193330,1,8,0:0:0:0:
224,192,193741,1,0,0:0:0:0:
224,192,193947,1,8,0:0:0:0:
224,192,194358,1,0,0:0:0:0:
224,192,194563,1,8,0:0:0:0:
224,192,194974,1,0,0:0:0:0:
192,192,195180,1,8,0:0:0:0:
224,192,195591,1,0,0:0:0:0:
224,192,195796,1,8,0:0:0:0:
224,192,196207,1,0,0:0:0:0:
224,192,196412,1,0,0:0:0:0:
224,192,196823,1,0,0:0:0:0:
224,192,197029,1,8,0:0:0:0:
224,192,197234,1,0,0:0:0:0:
224,192,197440,1,8,0:0:0:0:
224,192,197645,1,8,0:0:0:0:
224,192,197851,1,0,0:0:0:0:
224,192,198056,1,8,0:0:0:0:
224,192,198467,1,0,0:0:0:0:
224,192,198673,1,8,0:0:0:0:
224,192,199084,1,0,0:0:0:0:
224,192,199289,1,8,0:0:0:0:
224,192,199700,1,0,0:0:0:0:
224,192,199906,1,8,0:0:0:0:
224,192,200317,1,0,0:0:0:0:
224,192,200522,1,8,0:0:0:0:
224,192,200933,1,0,0:0:0:0:
224,192,201138,1,8,0:0:0:0:
224,192,201549,1,0,0:0:0:0:
224,192,201755,1,8,0:0:0:0:
224,192,202166,1,0,0:0:0:0:
224,192,202371,1,8,0:0:0:0:
224,192,202782,1,8,0:0:0:0:
224,192,202988,1,8,0:0:0:0:
224,192,203399,1,8,0:0:0:0:
224,192,203604,1,0,0:0:0:0:
224,192,203810,1,0,0:0:0:0:
224,192,204015,1,8,0:0:0:0:
224,192,204221,1,8,0:0:0:0:
224,192,204426,1,8,0:0:0:0:
224,192,204632,1,0,0:0:0:0:
224,192,205043,1,8,0:0:0:0:
224,192,205248,1,0,0:0:0:0:
224,192,205659,1,8,0:0:0:0:
224,192,205864,1,0,0:0:0:0:
224,192,206275,1,0,0:0:0:0:
224,192,206481,1,0,0:0:0:0:
224,192,206892,1,8,0:0:0:0:
224,192,207097,1,0,0:0:0:0:
224,192,207508,1,0,0:0:0:0:
224,192,207714,1,0,0:0:0:0:
224,192,208125,1,8,0:0:0:0:
224,192,208330,1,0,0:0:0:0:
224,192,208741,1,0,0:0:0:0:
224,192,208947,1,8,0:0:0:0:
224,192,209358,1,8,0:0:0:0:
224,192,209563,1,0,0:0:0:0:
224,192,209974,1,8,0:0:0:0:
224,192,210180,1,0,0:0:0:0:
224,192,210385,1,0,0:0:0:0:
224,192,210591,1,8,0:0:0:0:
224,192,210796,1,0,0:0:0:0:
224,192,211001,1,8,0:0:0:0:
224,192,211207,1,0,0:0:0:0:
224,192,211618,1,8,0:0:0:0:
224,192,211823,1,0,0:0:0:0:
224,192,212234,1,8,0:0:0:0:
224,192,212440,1,0,0:0:0:0:
224,192,212851,1,0,0:0:0:0:
224,192,213056,1,0,0:0:0:0:
224,192,213467,1,8,0:0:0:0:
224,192,213673,1,0,0:0:0:0:
224,192,214084,1,0,0:0:0:0:
224,192,214289,1,0,0:0:0:0:
224,192,214700,1,8,0:0:0:0:
224,192,214906,1,0,0:0:0:0:
224,192,215317,1,0,0:0:0:0:
224,192,215522,1,8,0:0:0:0:
224,192,215933,1,8,0:0:0:0:
224,192,216138,5,0,0:0:0:0:
224,192,216549,1,0,0:0:0:0:
224,192,216755,1,0,0:0:0:0:
224,192,216960,1,0,0:0:0:0:
224,192,217166,1,8,0:0:0:0:
224,192,217371,1,8,0:0:0:0:
224,192,217577,1,4,0:0:0:0:
224,192,217782,1,8,0:0:0:0:
224,192,217988,1,0,0:0:0:0:
224,192,218090,1,8,0:0:0:0:
224,192,218193,1,0,0:0:0:0:
224,192,218399,1,8,0:0:0:0:
224,192,218810,1,0,0:0:0:0:
224,192,218912,1,0,0:0:0:0:
224,192,219015,1,0,0:0:0:0:
224,192,219118,1,8,0:0:0:0:
224,192,219221,1,0,0:0:0:0:
256,192,219426,1,8,0:0:0:0:
224,160,219632,1,0,0:0:0:0:
224,160,219734,1,8,0:0:0:0:
224,160,219837,1,0,0:0:0:0:
224,192,220043,1,8,0:0:0:0:
224,192,220248,1,0,0:0:0:0:
224,192,220454,1,0,0:0:0:0:
224,192,220556,1,0,0:0:0:0:
256,192,220659,1,8,0:0:0:0:
256,192,220864,1,0,0:0:0:0:
224,192,221070,1,8,0:0:0:0:
224,192,221275,1,0,0:0:0:0:
224,192,221378,1,8,0:0:0:0:
256,192,221481,1,0,0:0:0:0:
224,192,221686,1,8,0:0:0:0:
256,192,222097,1,0,0:0:0:0:
256,192,222200,1,8,0:0:0:0:
256,192,222303,1,0,0:0:0:0:
256,192,222406,1,8,0:0:0:0:
224,192,222508,1,0,0:0:0:0:
256,192,222714,1,8,0:0:0:0:
256,192,222919,1,0,0:0:0:0:
256,192,223022,1,8,0:0:0:0:
256,192,223125,1,0,0:0:0:0:
224,192,223330,1,8,0:0:0:0:
224,224,223536,1,0,0:0:0:0:
256,192,223741,1,0,0:0:0:0:
224,192,223844,1,0,0:0:0:0:
224,192,223947,1,8,0:0:0:0:
224,192,224152,1,4,0:0:0:0:
224,224,224358,1,0,0:0:0:0:
224,192,224563,1,0,0:0:0:0:
224,192,224666,1,8,0:0:0:0:
224,192,224769,1,0,0:0:0:0:
224,192,224974,1,8,0:0:0:0:
224,192,225385,1,0,0:0:0:0:
224,192,225488,1,0,0:0:0:0:
224,192,225590,1,0,0:0:0:0:
256,192,225693,1,8,0:0:0:0:
256,192,225796,1,0,0:0:0:0:
224,192,226001,1,8,0:0:0:0:
256,192,226207,1,0,0:0:0:0:
256,192,226310,1,8,0:0:0:0:
256,192,226412,1,0,0:0:0:0:
224,192,226618,1,8,0:0:0:0:
256,192,226823,1,0,0:0:0:0:
256,192,227029,1,0,0:0:0:0:
256,192,227132,1,0,0:0:0:0:
192,192,227234,1,8,0:0:0:0:
192,192,227440,1,4,0:0:0:0:
224,192,227645,1,8,0:0:0:0:
224,192,227851,1,0,0:0:0:0:
224,192,227954,1,8,0:0:0:0:
256,192,228056,1,0,0:0:0:0:
192,192,228262,1,8,0:0:0:0:
256,192,228467,1,0,0:0:0:0:
256,192,228673,1,0,0:0:0:0:
256,192,228775,1,0,0:0:0:0:
256,192,228878,1,8,0:0:0:0:
224,192,229084,5,0,0:0:0:0:
192,192,229186,1,0,0:0:0:0:
224,192,229289,1,0,0:0:0:0:
192,192,229392,1,0,0:0:0:0:
224,192,229495,1,8,0:0:0:0:
192,192,229597,1,8,0:0:0:0:
224,192,229700,1,8,0:0:0:0:
192,192,229803,1,8,0:0:0:0:
224,192,229906,1,0,0:0:0:0:
192,192,230008,1,0,0:0:0:0:
192,192,230111,1,0,0:0:0:0:
192,192,230214,1,0,0:0:0:0:
192,192,230317,1,8,0:0:0:0:
192,192,230419,1,8,0:0:0:0:
192,192,230522,1,8,0:0:0:0:
192,192,230625,1,0,0:0:0:0:
256,192,230727,1,8,0:0:0:0:
256,192,230933,1,0,0:0:0:0:
256,192,231138,1,0,0:0:0:0:
256,192,231241,1,0,0:0:0:0:
256,192,231344,1,0,0:0:0:0:
256,192,231549,1,0,0:0:0:0:
256,192,231652,1,0,0:0:0:0:
256,192,231755,1,0,0:0:0:0:
256,192,231858,1,0,0:0:0:0:
256,192,231960,1,0,0:0:0:0:
256,192,232166,1,0,0:0:0:0:
256,192,232371,1,0,0:0:0:0:
256,192,232474,1,0,0:0:0:0:
256,192,232577,1,0,0:0:0:0:
256,192,232782,1,0,0:0:0:0:
256,192,232885,1,0,0:0:0:0:
256,192,232988,1,0,0:0:0:0:
256,192,233193,1,0,0:0:0:0:
256,192,233296,1,0,0:0:0:0:
256,192,233399,1,0,0:0:0:0:
256,192,233501,1,0,0:0:0:0:
256,192,233604,1,0,0:0:0:0:
224,192,233810,1,0,0:0:0:0:
256,192,234015,1,0,0:0:0:0:
224,192,234118,1,0,0:0:0:0:
224,192,234221,1,0,0:0:0:0:
256,192,234426,1,8,0:0:0:0:
256,192,234529,1,0,0:0:0:0:
256,192,234632,1,0,0:0:0:0:
256,192,234837,1,8,0:0:0:0:
256,192,234940,1,8,0:0:0:0:
256,192,235043,1,0,0:0:0:0:
256,192,235145,1,0,0:0:0:0:
256,192,235248,1,8,0:0:0:0:
256,192,235454,1,8,0:0:0:0:
256,192,235659,1,0,0:0:0:0:
256,192,235762,1,0,0:0:0:0:
256,192,235864,1,0,0:0:0:0:
256,192,236070,1,0,0:0:0:0:
256,192,236173,1,0,0:0:0:0:
256,192,236275,1,0,0:0:0:0:
256,192,236481,1,0,0:0:0:0:
256,192,236584,1,0,0:0:0:0:
256,192,236686,1,8,0:0:0:0:
256,192,236789,1,8,0:0:0:0:
256,192,236892,1,0,0:0:0:0:
224,192,237097,1,0,0:0:0:0:
256,192,237303,1,0,0:0:0:0:
256,224,237406,1,0,0:0:0:0:
256,192,237508,1,0,0:0:0:0:
256,192,237714,1,0,0:0:0:0:
256,192,237817,1,0,0:0:0:0:
256,192,237919,1,0,0:0:0:0:
256,192,238125,1,0,0:0:0:0:
256,192,238227,1,0,0:0:0:0:
256,192,238330,1,0,0:0:0:0:
256,192,238433,1,0,0:0:0:0:
256,192,238536,1,8,0:0:0:0:
256,192,238741,1,8,0:0:0:0:
256,192,238947,1,0,0:0:0:0:
256,192,239049,1,0,0:0:0:0:
256,192,239152,1,0,0:0:0:0:
256,192,239358,1,8,0:0:0:0:
256,192,239460,1,0,0:0:0:0:
256,192,239563,1,0,0:0:0:0:
256,192,239769,1,8,0:0:0:0:
256,192,239871,1,8,0:0:0:0:
256,192,239974,1,0,0:0:0:0:
256,192,240077,1,0,0:0:0:0:
256,192,240180,1,8,0:0:0:0:
224,192,240385,1,0,0:0:0:0:
256,192,240591,1,0,0:0:0:0:
256,224,240693,1,0,0:0:0:0:
256,192,240796,1,0,0:0:0:0:
256,192,241001,1,8,0:0:0:0:
256,192,241104,1,0,0:0:0:0:
256,192,241207,1,0,0:0:0:0:
256,192,241412,1,8,0:0:0:0:
256,192,241515,1,0,0:0:0:0:
256,192,241618,1,8,0:0:0:0:
256,192,241721,1,8,0:0:0:0:
256,192,241823,1,0,0:0:0:0:
256,192,242029,1,0,0:0:0:0:
256,192,242234,1,8,0:0:0:0:
256,192,242337,1,8,0:0:0:0:
256,192,242440,1,8,0:0:0:0:
256,192,242645,1,0,0:0:0:0:
256,192,242748,1,0,0:0:0:0:
256,192,242851,1,0,0:0:0:0:
256,192,243056,1,8,0:0:0:0:
256,192,243159,1,8,0:0:0:0:
256,192,243262,1,0,0:0:0:0:
256,192,243364,1,0,0:0:0:0:
256,192,243467,1,0,0:0:0:0:
224,192,243673,1,0,0:0:0:0:
256,192,243878,1,0,0:0:0:0:
256,224,243981,1,0,0:0:0:0:
256,192,244084,1,0,0:0:0:0:
256,192,244186,1,8,0:0:0:0:
256,192,244495,1,0,0:0:0:0:
256,192,244700,1,0,0:0:0:0:
256,192,244803,1,8,0:0:0:0:
256,192,244906,1,0,0:0:0:0:
256,192,245008,1,8,0:0:0:0:
256,192,245111,1,8,0:0:0:0:
256,192,245317,1,0,0:0:0:0:
256,192,245522,1,0,0:0:0:0:
192,192,245727,1,0,0:0:0:0:
256,192,245830,5,8,0:0:0:0:
256,192,246036,1,8,0:0:0:0:
256,192,246138,1,0,0:0:0:0:
256,192,246344,1,8,0:0:0:0:
256,192,246447,1,0,0:0:0:0:
256,192,246549,1,8,0:0:0:0:
256,192,246652,1,8,0:0:0:0:
256,192,246755,1,0,0:0:0:0:
224,192,246960,1,8,0:0:0:0:
256,192,247166,1,0,0:0:0:0:
256,192,247371,1,0,0:0:0:0:
256,192,247474,1,8,0:0:0:0:
256,192,247680,1,0,0:0:0:0:
256,192,247782,1,0,0:0:0:0:
256,192,247988,1,0,0:0:0:0:
256,192,248091,1,8,0:0:0:0:
256,192,248193,1,0,0:0:0:0:
256,192,248296,1,0,0:0:0:0:
256,192,248399,1,8,0:0:0:0:
256,192,248604,1,0,0:0:0:0:
256,192,248810,1,0,0:0:0:0:
256,192,249015,1,0,0:0:0:0:
256,192,249118,1,8,0:0:0:0:
256,192,249323,1,8,0:0:0:0:
256,192,249426,1,0,0:0:0:0:
256,192,249632,1,8,0:0:0:0:
256,192,249734,1,0,0:0:0:0:
256,192,249837,1,0,0:0:0:0:
256,192,249940,1,8,0:0:0:0:
256,192,250043,1,8,0:0:0:0:
256,192,250248,1,0,0:0:0:0:
256,192,250454,1,0,0:0:0:0:
256,224,250556,1,0,0:0:0:0:
256,192,250659,1,0,0:0:0:0:
256,192,250762,1,8,0:0:0:0:
256,192,251070,1,0,0:0:0:0:
256,192,251275,1,0,0:0:0:0:
256,192,251378,1,8,0:0:0:0:
256,192,251481,1,0,0:0:0:0:
256,192,251584,1,8,0:0:0:0:
256,192,251686,1,8,0:0:0:0:
256,192,251892,1,0,0:0:0:0:
256,192,252097,1,0,0:0:0:0:
192,192,252303,1,0,0:0:0:0:
256,192,252406,5,8,0:0:0:0:
256,192,252611,1,8,0:0:0:0:
256,192,252714,1,0,0:0:0:0:
256,192,252919,1,8,0:0:0:0:
256,192,253022,1,0,0:0:0:0:
256,192,253125,1,8,0:0:0:0:
256,192,253227,1,8,0:0:0:0:
256,192,253330,1,0,0:0:0:0:
224,192,253536,1,8,0:0:0:0:
256,192,253741,1,0,0:0:0:0:
256,192,253947,1,0,0:0:0:0:
256,192,254049,1,8,0:0:0:0:
256,192,254255,1,0,0:0:0:0:
256,192,254358,1,0,0:0:0:0:
256,192,254563,1,0,0:0:0:0:
256,192,254666,1,8,0:0:0:0:
256,192,254769,1,0,0:0:0:0:
256,192,254871,1,0,0:0:0:0:
256,192,254974,1,8,0:0:0:0:
256,192,255180,1,0,0:0:0:0:
256,192,255385,1,0,0:0:0:0:
256,192,255591,1,0,0:0:0:0:
256,192,255693,1,8,0:0:0:0:
256,192,255899,1,8,0:0:0:0:
256,192,256001,1,0,0:0:0:0:
256,192,256207,1,8,0:0:0:0:
256,192,256310,1,0,0:0:0:0:
256,192,256412,1,0,0:0:0:0:
256,192,256515,1,8,0:0:0:0:
256,192,256618,1,8,0:0:0:0:
256,192,256823,1,0,0:0:0:0:
256,192,257029,1,0,0:0:0:0:
256,224,257132,1,0,0:0:0:0:
256,192,257234,1,0,0:0:0:0:
256,192,257337,1,8,0:0:0:0:
224,192,257440,1,0,0:0:0:0:
224,192,257543,1,0,0:0:0:0:
256,192,257645,1,8,0:0:0:0:
224,192,257748,1,0,0:0:0:0:
256,192,257851,1,0,0:0:0:0:
256,192,257954,1,8,0:0:0:0:
256,192,258056,1,0,0:0:0:0:
256,192,258159,1,8,0:0:0:0:
256,192,258262,1,8,0:0:0:0:
256,192,258467,1,0,0:0:0:0:
256,192,258673,1,0,0:0:0:0:
224,192,258775,1,0,0:0:0:0:
192,192,258878,1,0,0:0:0:0:
256,192,258981,5,8,0:0:0:0:
224,192,259084,1,0,0:0:0:0:
256,192,259186,1,8,0:0:0:0:
256,192,259289,1,8,0:0:0:0:
224,192,259392,1,0,0:0:0:0:
256,192,259495,1,8,0:0:0:0:
256,192,259597,1,0,0:0:0:0:
256,192,259700,1,8,0:0:0:0:
256,192,259803,1,8,0:0:0:0:
256,192,259906,1,0,0:0:0:0:
224,192,260111,1,8,0:0:0:0:
256,192,260317,1,0,0:0:0:0:
224,192,260419,1,8,0:0:0:0:
256,192,260522,1,0,0:0:0:0:
256,192,260625,1,8,0:0:0:0:
224,192,260727,1,0,0:0:0:0:
256,192,260830,1,0,0:0:0:0:
256,192,260933,1,8,0:0:0:0:
224,192,261036,1,0,0:0:0:0:
256,192,261138,1,8,0:0:0:0:
256,192,261241,1,8,0:0:0:0:
256,192,261344,1,0,0:0:0:0:
256,192,261447,1,0,0:0:0:0:
256,192,261549,1,8,0:0:0:0:
256,192,261755,1,0,0:0:0:0:
256,192,261960,1,0,0:0:0:0:
224,192,262063,1,0,0:0:0:0:
256,192,262166,1,0,0:0:0:0:
256,192,262269,1,8,0:0:0:0:
224,192,262371,1,0,0:0:0:0:
256,192,262474,1,8,0:0:0:0:
256,192,262577,1,8,0:0:0:0:
224,192,262680,1,0,0:0:0:0:
256,192,262782,1,8,0:0:0:0:
256,192,262885,1,8,0:0:0:0:
256,192,262988,1,8,0:0:0:0:
256,192,263091,1,8,0:0:0:0:
256,192,263193,1,0,0:0:0:0:
256,192,263399,1,8,0:0:0:0:
256,192,263604,1,0,0:0:0:0:
256,224,263707,1,0,0:0:0:0:
256,192,263810,1,0,0:0:0:0:
256,192,263912,1,8,0:0:0:0:
224,192,264015,1,0,0:0:0:0:
224,192,264118,1,0,0:0:0:0:
256,192,264221,1,8,0:0:0:0:
224,192,264323,1,0,0:0:0:0:
256,192,264426,1,0,0:0:0:0:
256,192,264529,1,8,0:0:0:0:
256,192,264632,1,0,0:0:0:0:
256,192,264734,1,8,0:0:0:0:
256,192,264837,1,8,0:0:0:0:
256,192,265043,1,0,0:0:0:0:
256,192,265248,1,0,0:0:0:0:
224,192,265351,1,0,0:0:0:0:
192,192,265454,1,0,0:0:0:0:
256,192,265556,5,8,0:0:0:0:
224,192,265659,1,0,0:0:0:0:
256,192,265762,1,8,0:0:0:0:
256,192,265864,1,0,0:0:0:0:
224,192,265967,1,0,0:0:0:0:
256,192,266070,1,8,0:0:0:0:
256,192,266173,1,0,0:0:0:0:
256,192,266275,1,8,0:0:0:0:
256,192,266481,1,0,0:0:0:0:
256,192,266892,1,8,0:0:0:0:
256,192,267200,1,8,0:0:0:0:
256,192,267508,1,8,0:0:0:0:
256,192,267817,1,8,0:0:0:0:
256,192,268125,1,8,0:0:0:0:
256,192,268330,1,8,0:0:0:0:
256,192,268536,1,8,0:0:0:0:
256,192,268638,1,8,0:0:0:0:
256,192,268741,1,0,0:0:0:0:
256,192,268844,1,0,0:0:0:0:
256,192,268947,1,0,0:0:0:0:
256,192,269049,1,8,0:0:0:0:
256,192,269152,1,8,0:0:0:0:
256,192,269255,1,0,0:0:0:0:
256,192,269358,1,8,0:0:0:0:
256,192,269426,1,8,0:0:0:0:
256,192,269495,1,8,0:0:0:0:
288,192,269563,1,0,0:0:0:0:
256,192,269666,1,8,0:0:0:0:
256,192,269769,1,0,0:0:0:0:
256,192,269837,1,0,0:0:0:0:
256,192,269906,1,0,0:0:0:0:
256,192,269974,1,8,0:0:0:0:
256,192,270077,1,8,0:0:0:0:
256,192,270180,1,0,0:0:0:0:
256,192,270385,12,0,273878,0:0:0:0:
256,160,274289,5,8,0:0:0:0:
224,160,274495,1,0,0:0:0:0:
224,160,274597,1,0,0:0:0:0:
256,160,274700,1,8,0:0:0:0:
224,160,274906,1,8,0:0:0:0:
256,160,275111,1,4,0:0:0:0:
256,160,275317,1,0,0:0:0:0:
256,160,275419,1,8,0:0:0:0:
256,160,275625,1,8,0:0:0:0:
256,160,275727,1,0,0:0:0:0:
256,160,275830,1,0,0:0:0:0:
256,160,275933,1,8,0:0:0:0:
256,160,276036,1,8,0:0:0:0:
256,160,276138,1,0,0:0:0:0:
256,160,276241,1,0,0:0:0:0:
256,160,276344,1,8,0:0:0:0:
256,160,276549,1,8,0:0:0:0:
256,160,276755,1,0,0:0:0:0:
256,160,276960,1,0,0:0:0:0:
224,160,277063,1,8,0:0:0:0:
256,160,277269,1,8,0:0:0:0:
256,160,277371,1,0,0:0:0:0:
256,160,277577,1,0,0:0:0:0:
256,160,277680,1,8,0:0:0:0:
256,160,277782,1,0,0:0:0:0:
256,160,277885,1,8,0:0:0:0:
256,160,277988,1,0,0:0:0:0:
256,160,278193,1,8,0:0:0:0:
256,160,278399,1,8,0:0:0:0:
256,160,278604,1,8,0:0:0:0:
256,160,278707,1,0,0:0:0:0:
256,160,278912,1,8,0:0:0:0:
256,160,279015,1,0,0:0:0:0:
256,160,279118,1,0,0:0:0:0:
256,160,279221,1,8,0:0:0:0:
256,160,279323,1,8,0:0:0:0:
256,160,279426,1,8,0:0:0:0:
256,160,279529,1,0,0:0:0:0:
256,160,279632,1,8,0:0:0:0:
256,160,279837,1,0,0:0:0:0:
256,160,280043,1,8,0:0:0:0:
224,160,280248,1,8,0:0:0:0:
224,160,280351,1,0,0:0:0:0:
256,160,280659,1,0,0:0:0:0:
256,160,280762,1,0,0:0:0:0:
256,160,280864,1,0,0:0:0:0:
256,160,280967,1,8,0:0:0:0:
256,160,281070,1,0,0:0:0:0:
256,160,281173,1,8,0:0:0:0:
256,160,281275,1,0,0:0:0:0:
256,160,281481,1,8,0:0:0:0:
256,160,281686,1,4,0:0:0:0:
256,160,281892,1,0,0:0:0:0:
256,160,281995,1,8,0:0:0:0:
256,160,282200,1,8,0:0:0:0:
256,160,282303,1,0,0:0:0:0:
256,192,282406,1,0,0:0:0:0:
256,160,282508,1,8,0:0:0:0:
256,160,282611,1,8,0:0:0:0:
256,160,282714,1,0,0:0:0:0:
256,160,282817,1,0,0:0:0:0:
256,160,282919,1,8,0:0:0:0:
256,160,283125,1,8,0:0:0:0:
256,160,283330,1,0,0:0:0:0:
256,160,283536,1,0,0:0:0:0:
224,160,283638,1,8,0:0:0:0:
256,160,283844,1,8,0:0:0:0:
256,160,283947,1,0,0:0:0:0:
256,160,284152,1,8,0:0:0:0:
256,160,284255,1,0,0:0:0:0:
256,160,284358,1,8,0:0:0:0:
256,160,284460,1,0,0:0:0:0:
256,160,284563,1,0,0:0:0:0:
256,160,284769,1,8,0:0:0:0:
256,160,284974,1,8,0:0:0:0:
256,160,285180,1,8,0:0:0:0:
256,160,285282,1,0,0:0:0:0:
256,160,285488,1,8,0:0:0:0:
256,160,285591,1,0,0:0:0:0:
256,160,285693,1,0,0:0:0:0:
256,160,285796,1,8,0:0:0:0:
256,160,285899,1,8,0:0:0:0:
256,160,286001,1,8,0:0:0:0:
256,160,286104,1,0,0:0:0:0:
256,160,286207,1,8,0:0:0:0:
256,160,286412,1,0,0:0:0:0:
256,160,286618,1,8,0:0:0:0:
256,160,286823,1,8,0:0:0:0:
256,160,286926,1,0,0:0:0:0:
256,160,287234,1,0,0:0:0:0:
256,160,287337,1,0,0:0:0:0:
256,160,287440,1,0,0:0:0:0:
256,160,287543,1,8,0:0:0:0:
256,160,287645,1,0,0:0:0:0:
256,160,287714,1,0,0:0:0:0:
256,160,287782,1,0,0:0:0:0:
256,160,287851,1,8,0:0:0:0:
256,160,287954,1,8,0:0:0:0:
256,160,288056,1,0,0:0:0:0:
256,160,288159,1,8,0:0:0:0:
256,160,288262,1,0,0:0:0:0:
256,160,288467,1,0,0:0:0:0:
256,160,288570,1,8,0:0:0:0:
256,160,288775,1,0,0:0:0:0:
256,160,288878,1,8,0:0:0:0:
256,192,288981,1,0,0:0:0:0:
256,160,289084,1,8,0:0:0:0:
256,160,289186,1,8,0:0:0:0:
256,160,289289,1,0,0:0:0:0:
256,160,289392,1,0,0:0:0:0:
256,160,289495,1,8,0:0:0:0:
256,160,289700,1,8,0:0:0:0:
256,160,289906,1,0,0:0:0:0:
256,160,290111,1,0,0:0:0:0:
224,160,290214,1,8,0:0:0:0:
256,160,290419,1,8,0:0:0:0:
256,160,290522,1,0,0:0:0:0:
256,160,290727,1,0,0:0:0:0:
256,160,290830,1,8,0:0:0:0:
256,160,290933,1,0,0:0:0:0:
256,160,291036,1,8,0:0:0:0:
256,160,291138,1,0,0:0:0:0:
256,160,291344,1,8,0:0:0:0:
256,160,291549,1,8,0:0:0:0:
256,160,291755,1,8,0:0:0:0:
256,160,291858,1,0,0:0:0:0:
256,160,292063,1,8,0:0:0:0:
256,160,292166,1,0,0:0:0:0:
256,160,292269,1,0,0:0:0:0:
256,160,292371,1,8,0:0:0:0:
256,160,292474,1,8,0:0:0:0:
256,160,292577,1,8,0:0:0:0:
256,160,292680,1,0,0:0:0:0:
256,160,292782,1,8,0:0:0:0:
256,160,292988,1,0,0:0:0:0:
256,160,293193,1,8,0:0:0:0:
256,160,293399,1,8,0:0:0:0:
256,160,293501,1,0,0:0:0:0:
256,160,293810,1,0,0:0:0:0:
256,160,293912,1,8,0:0:0:0:
256,160,294015,1,0,0:0:0:0:
256,160,294118,1,8,0:0:0:0:
256,160,294221,1,0,0:0:0:0:
256,160,294323,1,0,0:0:0:0:
256,160,294426,1,8,0:0:0:0:
256,160,294632,1,8,0:0:0:0:
256,160,294837,1,4,0:0:0:0:
256,160,295043,1,0,0:0:0:0:
256,160,295145,1,8,0:0:0:0:
256,160,295351,1,0,0:0:0:0:
256,160,295454,1,8,0:0:0:0:
256,160,295556,1,0,0:0:0:0:
256,160,295659,1,8,0:0:0:0:
256,160,295762,1,8,0:0:0:0:
256,160,295864,1,0,0:0:0:0:
256,160,295967,1,0,0:0:0:0:
256,160,296070,1,8,0:0:0:0:
256,160,296275,1,8,0:0:0:0:
256,160,296481,1,0,0:0:0:0:
256,160,296686,1,0,0:0:0:0:
224,160,296789,1,8,0:0:0:0:
256,160,296995,1,8,0:0:0:0:
256,160,297097,1,0,0:0:0:0:
256,160,297303,1,8,0:0:0:0:
256,160,297406,1,0,0:0:0:0:
256,160,297508,1,8,0:0:0:0:
256,160,297611,1,0,0:0:0:0:
256,160,297714,1,0,0:0:0:0:
256,160,297919,1,8,0:0:0:0:
256,160,298125,1,0,0:0:0:0:
256,160,298330,1,8,0:0:0:0:
256,160,298433,1,0,0:0:0:0:
256,160,298638,1,8,0:0:0:0:
256,160,298741,1,0,0:0:0:0:
256,160,298844,1,0,0:0:0:0:
256,160,298947,1,8,0:0:0:0:
256,160,299049,1,8,0:0:0:0:
256,160,299152,1,8,0:0:0:0:
256,160,299255,1,0,0:0:0:0:
256,160,299358,1,8,0:0:0:0:
256,160,299563,1,0,0:0:0:0:
256,160,299769,1,0,0:0:0:0:
256,160,299974,1,8,0:0:0:0:
256,160,300077,1,0,0:0:0:0:
256,160,300385,1,0,0:0:0:0:
256,160,300488,1,0,0:0:0:0:
256,160,300591,1,8,0:0:0:0:
256,160,300693,1,0,0:0:0:0:
224,160,300796,1,8,0:0:0:0:
256,160,300899,1,8,0:0:0:0:
256,160,301104,1,0,0:0:0:0:
256,160,301207,1,8,0:0:0:0:
256,160,301310,1,8,0:0:0:0:
256,160,301412,1,0,0:0:0:0:
256,160,301618,1,0,0:0:0:0:
256,160,301721,1,8,0:0:0:0:
256,160,301926,1,8,0:0:0:0:
256,160,302029,1,0,0:0:0:0:
256,160,302132,1,8,0:0:0:0:
256,160,302234,1,0,0:0:0:0:
256,160,302337,1,0,0:0:0:0:
256,160,302440,1,8,0:0:0:0:
256,160,302543,1,0,0:0:0:0:
256,160,302645,1,8,0:0:0:0:
256,160,302851,1,8,0:0:0:0:
256,160,303056,1,0,0:0:0:0:
256,160,303262,1,0,0:0:0:0:
224,160,303364,1,8,0:0:0:0:
256,160,303570,1,8,0:0:0:0:
256,160,303673,1,0,0:0:0:0:
256,160,303878,1,0,0:0:0:0:
256,160,303981,1,8,0:0:0:0:
256,160,304084,1,0,0:0:0:0:
256,160,304186,1,8,0:0:0:0:
256,160,304289,1,0,0:0:0:0:
256,160,304495,1,8,0:0:0:0:
256,160,304700,1,8,0:0:0:0:
256,160,304906,1,8,0:0:0:0:
256,160,305008,1,0,0:0:0:0:
256,160,305214,1,8,0:0:0:0:
256,160,305317,1,0,0:0:0:0:
256,160,305419,1,0,0:0:0:0:
256,160,305522,1,8,0:0:0:0:
256,160,305625,1,8,0:0:0:0:
256,160,305727,1,8,0:0:0:0:
256,160,305830,1,0,0:0:0:0:
256,160,305933,1,8,0:0:0:0:
256,160,306138,1,0,0:0:0:0:
256,160,306344,1,0,0:0:0:0:
256,160,306549,1,8,0:0:0:0:
256,160,306652,1,0,0:0:0:0:
256,160,306960,1,0,0:0:0:0:
256,160,307063,1,0,0:0:0:0:
256,160,307166,1,8,0:0:0:0:
256,160,307269,1,8,0:0:0:0:
256,160,307371,1,0,0:0:0:0:
256,160,307474,1,0,0:0:0:0:
256,160,307577,1,8,0:0:0:0:
256,160,307782,1,8,0:0:0:0:
256,160,307988,1,4,0:0:0:0:
256,160,308193,1,0,0:0:0:0:
256,160,308296,1,8,0:0:0:0:
256,160,308501,1,8,0:0:0:0:
256,160,308604,1,0,0:0:0:0:
256,160,308707,1,8,0:0:0:0:
256,160,308810,1,0,0:0:0:0:
256,160,308912,1,0,0:0:0:0:
256,160,309015,1,8,0:0:0:0:
256,160,309118,1,0,0:0:0:0:
256,160,309221,1,8,0:0:0:0:
256,160,309426,1,8,0:0:0:0:
256,160,309632,1,0,0:0:0:0:
256,160,309837,1,0,0:0:0:0:
224,160,309940,1,8,0:0:0:0:
256,160,310145,1,8,0:0:0:0:
256,160,310248,1,0,0:0:0:0:
256,160,310454,1,8,0:0:0:0:
256,160,310556,1,0,0:0:0:0:
256,160,310659,1,8,0:0:0:0:
256,160,310762,1,0,0:0:0:0:
256,160,310864,1,0,0:0:0:0:
256,160,311070,1,8,0:0:0:0:
256,160,311275,1,8,0:0:0:0:
256,160,311481,1,8,0:0:0:0:
256,160,311584,1,0,0:0:0:0:
256,160,311789,1,8,0:0:0:0:
256,160,311892,1,0,0:0:0:0:
256,160,311995,1,0,0:0:0:0:
256,160,312097,1,8,0:0:0:0:
256,160,312200,1,0,0:0:0:0:
256,160,312303,1,8,0:0:0:0:
256,160,312406,1,0,0:0:0:0:
256,160,312508,1,8,0:0:0:0:
256,160,312714,1,0,0:0:0:0:
256,160,312919,1,0,0:0:0:0:
256,160,313125,1,8,0:0:0:0:
256,160,313227,1,0,0:0:0:0:
256,160,313536,1,0,0:0:0:0:
256,160,313638,1,0,0:0:0:0:
256,160,313741,1,0,0:0:0:0:
256,160,313844,1,8,0:0:0:0:
256,160,313947,1,0,0:0:0:0:
256,160,314049,1,0,0:0:0:0:
256,160,314152,1,8,0:0:0:0:
256,160,314255,1,8,0:0:0:0:
256,160,314358,1,0,0:0:0:0:
256,160,314460,1,8,0:0:0:0:
256,160,314563,1,0,0:0:0:0:
256,192,314769,1,0,0:0:0:0:
256,192,314871,1,0,0:0:0:0:
256,192,314974,1,8,0:0:0:0:
256,192,315180,1,0,0:0:0:0:
256,192,315385,1,0,0:0:0:0:
256,192,315488,1,8,0:0:0:0:
256,192,315591,1,0,0:0:0:0:
256,192,315693,1,0,0:0:0:0:
256,192,315796,1,8,0:0:0:0:
256,192,316001,1,0,0:0:0:0:
256,192,316207,1,8,0:0:0:0:
256,192,316412,1,0,0:0:0:0:
256,192,316515,1,0,0:0:0:0:
256,192,316618,1,8,0:0:0:0:
256,192,316823,1,0,0:0:0:0:
256,192,317029,1,8,0:0:0:0:
256,192,317132,1,0,0:0:0:0:
256,192,317234,1,8,0:0:0:0:
256,192,317337,1,8,0:0:0:0:
256,192,317440,1,0,0:0:0:0:
256,192,317645,1,8,0:0:0:0:
256,192,317851,1,0,0:0:0:0:
256,192,318056,1,8,0:0:0:0:
256,192,318159,1,0,0:0:0:0:
256,192,318262,1,8,0:0:0:0:
256,192,318467,1,0,0:0:0:0:
256,192,318673,1,8,0:0:0:0:
256,192,318775,1,8,0:0:0:0:
256,192,318878,1,0,0:0:0:0:
256,192,318981,1,0,0:0:0:0:
256,192,319084,1,8,0:0:0:0:
256,192,319289,1,0,0:0:0:0:
256,192,319495,1,8,0:0:0:0:
288,192,319597,1,0,0:0:0:0:
288,192,319700,1,0,0:0:0:0:
256,192,319803,1,8,0:0:0:0:
256,192,320008,1,0,0:0:0:0:
256,192,320111,1,0,0:0:0:0:
256,192,320317,1,0,0:0:0:0:
256,192,320419,1,8,0:0:0:0:
256,192,320522,1,8,0:0:0:0:
256,192,320625,1,8,0:0:0:0:
256,192,320727,1,0,0:0:0:0:
256,192,320933,1,8,0:0:0:0:
256,160,321138,1,4,0:0:0:0:
256,192,321344,1,0,0:0:0:0:
256,192,321447,1,0,0:0:0:0:
256,192,321549,1,8,0:0:0:0:
256,192,321755,1,0,0:0:0:0:
256,192,321960,1,0,0:0:0:0:
256,192,322063,1,8,0:0:0:0:
256,192,322166,1,0,0:0:0:0:
256,192,322269,1,0,0:0:0:0:
256,192,322371,1,8,0:0:0:0:
256,192,322577,1,0,0:0:0:0:
256,192,322782,1,8,0:0:0:0:
256,192,322988,1,0,0:0:0:0:
256,192,323091,1,0,0:0:0:0:
256,192,323193,1,8,0:0:0:0:
256,192,323399,1,0,0:0:0:0:
256,192,323604,1,8,0:0:0:0:
256,192,323707,1,0,0:0:0:0:
256,192,323810,1,8,0:0:0:0:
256,192,323912,1,8,0:0:0:0:
256,192,324015,1,0,0:0:0:0:
256,192,324221,1,8,0:0:0:0:
256,192,324426,1,4,0:0:0:0:
256,192,324632,1,8,0:0:0:0:
256,192,324734,1,0,0:0:0:0:
256,192,324837,1,8,0:0:0:0:
256,192,325043,1,0,0:0:0:0:
256,192,325248,1,8,0:0:0:0:
256,192,325351,1,8,0:0:0:0:
256,192,325454,1,0,0:0:0:0:
256,192,325556,1,0,0:0:0:0:
256,192,325659,1,8,0:0:0:0:
256,192,325864,1,0,0:0:0:0:
256,192,326070,1,12,0:0:0:0:
256,192,326275,1,12,0:0:0:0:
256,192,326481,1,12,0:0:0:0:
256,192,326686,1,4,0:0:0:0:
256,192,326892,1,0,0:0:0:0:
256,192,326995,1,8,0:0:0:0:
256,192,327097,1,8,0:0:0:0:
256,192,327200,1,8,0:0:0:0:
256,192,327303,1,0,0:0:0:0:
256,192,327508,1,8,0:0:0:0:
256,160,327714,1,4,0:0:0:0:
256,192,327919,1,0,0:0:0:0:
256,192,328022,1,0,0:0:0:0:
256,192,328125,1,8,0:0:0:0:
256,192,328330,1,0,0:0:0:0:
256,192,328536,1,0,0:0:0:0:
256,192,328638,1,8,0:0:0:0:
256,192,328741,1,0,0:0:0:0:
256,192,328844,1,0,0:0:0:0:
256,192,328947,1,8,0:0:0:0:
256,192,329152,1,0,0:0:0:0:
256,192,329358,1,8,0:0:0:0:
256,192,329563,1,0,0:0:0:0:
256,192,329666,1,0,0:0:0:0:
256,192,329769,1,8,0:0:0:0:
256,192,329974,1,0,0:0:0:0:
256,192,330180,1,8,0:0:0:0:
256,192,330282,1,0,0:0:0:0:
256,192,330385,1,8,0:0:0:0:
256,192,330488,1,8,0:0:0:0:
256,192,330591,1,0,0:0:0:0:
256,192,330796,1,8,0:0:0:0:
256,192,331001,1,0,0:0:0:0:
256,192,331207,1,8,0:0:0:0:
256,192,331310,1,0,0:0:0:0:
256,192,331412,1,8,0:0:0:0:
256,192,331618,1,0,0:0:0:0:
256,192,331823,1,8,0:0:0:0:
256,192,331926,1,8,0:0:0:0:
256,192,332029,1,0,0:0:0:0:
256,192,332132,1,0,0:0:0:0:
256,192,332234,1,8,0:0:0:0:
256,192,332440,1,0,0:0:0:0:
256,192,332645,12,0,333056,0:0:0:0:
256,192,333262,5,0,0:0:0:0:
256,192,333467,1,0,0:0:0:0:
256,192,333570,1,8,0:0:0:0:
256,192,333673,1,0,0:0:0:0:
256,192,333775,1,0,0:0:0:0:
256,192,333878,1,8,0:0:0:0:
256,192,334084,1,0,0:0:0:0:
256,160,334289,1,12,0:0:0:0:
256,192,334495,1,0,0:0:0:0:
256,192,334597,1,0,0:0:0:0:
256,192,334700,1,8,0:0:0:0:
256,192,334906,1,0,0:0:0:0:
256,192,335111,1,0,0:0:0:0:
256,192,335214,1,8,0:0:0:0:
256,192,335317,1,0,0:0:0:0:
256,192,335419,1,8,0:0:0:0:
256,192,335522,1,8,0:0:0:0:
256,192,335727,1,0,0:0:0:0:
256,192,335933,1,8,0:0:0:0:
256,192,336138,1,0,0:0:0:0:
256,224,336344,1,4,0:0:0:0:
256,192,336549,1,0,0:0:0:0:
224,160,336652,1,0,0:0:0:0:
256,192,336755,1,8,0:0:0:0:
256,192,336823,1,0,0:0:0:0:
256,192,336892,1,0,0:0:0:0:
256,192,336960,1,8,0:0:0:0:
256,192,337063,1,8,0:0:0:0:
256,192,337166,1,0,0:0:0:0:
256,192,337371,1,8,0:0:0:0:
256,192,337577,1,4,0:0:0:0:
256,192,337782,1,8,0:0:0:0:
256,192,337885,1,0,0:0:0:0:
256,192,337988,1,8,0:0:0:0:
256,192,338193,1,0,0:0:0:0:
256,192,338399,1,8,0:0:0:0:
256,192,338501,1,8,0:0:0:0:
256,192,338604,1,0,0:0:0:0:
256,192,338707,1,0,0:0:0:0:
256,192,338810,1,8,0:0:0:0:
256,192,339015,1,0,0:0:0:0:
256,192,339221,1,8,0:0:0:0:
256,192,339426,1,8,0:0:0:0:
256,192,339632,1,8,0:0:0:0:
256,192,339837,1,0,0:0:0:0:
256,192,340043,1,8,0:0:0:0:
259,199,340145,1,8,0:0:0:0:
256,192,340248,1,8,0:0:0:0:
256,192,340351,1,8,0:0:0:0:
256,192,340454,1,0,0:0:0:0:
224,192,340864,1,4,0:0:0:0:
256,192,341070,1,8,0:0:0:0:
256,192,341173,1,8,0:0:0:0:
256,192,341275,1,0,0:0:0:0:
256,192,341378,1,0,0:0:0:0:
256,192,341481,1,8,0:0:0:0:
256,192,341584,1,0,0:0:0:0:
224,192,341686,1,0,0:0:0:0:
256,192,341789,1,0,0:0:0:0:
256,192,341892,1,8,0:0:0:0:
256,192,341995,1,8,0:0:0:0:
256,192,342097,1,0,0:0:0:0:
256,192,342303,1,8,0:0:0:0:
224,192,342508,1,0,0:0:0:0:
256,192,342714,1,8,0:0:0:0:
256,192,342817,1,0,0:0:0:0:
256,192,342919,1,0,0:0:0:0:
256,192,343022,1,0,0:0:0:0:
256,192,343125,1,8,0:0:0:0:
256,192,343227,1,0,0:0:0:0:
224,192,343330,1,8,0:0:0:0:
256,192,343433,1,0,0:0:0:0:
256,192,343536,1,0,0:0:0:0:
256,192,343638,1,8,0:0:0:0:
256,192,343741,1,0,0:0:0:0:
256,192,343947,1,8,0:0:0:0:
224,192,344152,1,0,0:0:0:0:
256,192,344358,1,8,0:0:0:0:
256,192,344460,1,8,0:0:0:0:
256,192,344563,1,0,0:0:0:0:
256,192,344666,1,0,0:0:0:0:
256,192,344769,1,8,0:0:0:0:
256,192,344871,1,0,0:0:0:0:
224,192,344974,1,0,0:0:0:0:
256,192,345077,1,0,0:0:0:0:
256,192,345180,1,8,0:0:0:0:
256,192,345282,1,8,0:0:0:0:
256,192,345385,1,0,0:0:0:0:
256,192,345591,1,8,0:0:0:0:
224,192,345796,1,0,0:0:0:0:
256,192,346001,1,8,0:0:0:0:
256,192,346104,1,8,0:0:0:0:
256,192,346206,1,0,0:0:0:0:
256,192,346412,1,8,0:0:0:0:
256,192,346515,1,8,0:0:0:0:
224,192,346720,1,0,0:0:0:0:
224,192,346823,1,0,0:0:0:0:
224,192,346925,1,8,0:0:0:0:
256,160,347028,1,0,0:0:0:0:
256,192,347234,1,8,0:0:0:0:
224,192,347440,1,0,0:0:0:0:
256,192,347646,1,8,0:0:0:0:
256,192,347749,1,8,0:0:0:0:
256,192,347851,1,0,0:0:0:0:
256,192,347954,1,0,0:0:0:0:
256,192,348057,1,8,0:0:0:0:
256,192,348160,1,0,0:0:0:0:
224,192,348262,1,0,0:0:0:0:
256,192,348365,1,0,0:0:0:0:
256,192,348468,1,8,0:0:0:0:
256,192,348571,1,8,0:0:0:0:
256,192,348673,1,0,0:0:0:0:
256,192,348879,1,8,0:0:0:0:
224,192,349084,1,0,0:0:0:0:
256,192,349290,1,8,0:0:0:0:
256,192,349393,1,0,0:0:0:0:
256,192,349495,1,0,0:0:0:0:
256,192,349598,1,0,0:0:0:0:
256,192,349701,1,8,0:0:0:0:
256,192,349803,1,0,0:0:0:0:
224,192,349906,1,8,0:0:0:0:
256,192,350009,1,0,0:0:0:0:
256,192,350112,1,0,0:0:0:0:
256,192,350214,1,8,0:0:0:0:
256,192,350317,1,0,0:0:0:0:
256,192,350523,1,8,0:0:0:0:
224,192,350728,1,0,0:0:0:0:
256,192,350934,1,8,0:0:0:0:
256,192,351036,1,8,0:0:0:0:
256,192,351139,1,0,0:0:0:0:
256,192,351242,1,0,0:0:0:0:
256,192,351345,1,8,0:0:0:0:
256,192,351447,1,0,0:0:0:0:
224,192,351550,1,0,0:0:0:0:
256,192,351653,1,0,0:0:0:0:
256,192,351756,1,8,0:0:0:0:
256,192,351858,1,8,0:0:0:0:
256,192,351961,1,0,0:0:0:0:
256,192,352167,1,8,0:0:0:0:
224,192,352372,1,0,0:0:0:0:
256,192,352577,1,8,0:0:0:0:
256,192,352680,1,8,0:0:0:0:
256,192,352782,1,0,0:0:0:0:
256,192,352988,1,8,0:0:0:0:
256,192,353091,1,8,0:0:0:0:
224,192,353296,1,0,0:0:0:0:
224,192,353399,1,0,0:0:0:0:
224,192,353501,1,8,0:0:0:0:
256,160,353604,1,0,0:0:0:0:
256,192,353810,1,8,0:0:0:0:
224,192,354015,1,4,0:0:0:0:
256,192,354221,1,8,0:0:0:0:
256,192,354324,1,8,0:0:0:0:
256,192,354426,1,0,0:0:0:0:
256,192,354529,1,0,0:0:0:0:
256,192,354632,1,8,0:0:0:0:
256,192,354735,1,0,0:0:0:0:
224,192,354837,1,0,0:0:0:0:
256,192,354940,1,0,0:0:0:0:
256,192,355043,1,8,0:0:0:0:
256,192,355146,1,8,0:0:0:0:
256,192,355248,1,0,0:0:0:0:
256,192,355454,1,8,0:0:0:0:
224,192,355659,1,0,0:0:0:0:
256,192,355865,1,8,0:0:0:0:
256,192,355968,1,0,0:0:0:0:
256,192,356070,1,0,0:0:0:0:
256,192,356173,1,0,0:0:0:0:
256,192,356276,1,8,0:0:0:0:
256,192,356378,1,0,0:0:0:0:
224,192,356481,1,8,0:0:0:0:
256,192,356584,1,0,0:0:0:0:
256,192,356687,1,0,0:0:0:0:
256,192,356789,1,8,0:0:0:0:
256,192,356892,1,0,0:0:0:0:
256,192,357098,1,8,0:0:0:0:
224,192,357303,1,0,0:0:0:0:
256,192,357509,1,8,0:0:0:0:
256,192,357611,1,8,0:0:0:0:
256,192,357714,1,0,0:0:0:0:
256,192,357817,1,0,0:0:0:0:
256,192,357920,1,8,0:0:0:0:
256,192,358022,1,0,0:0:0:0:
224,192,358125,1,0,0:0:0:0:
256,192,358228,1,0,0:0:0:0:
256,192,358331,1,8,0:0:0:0:
256,192,358433,1,8,0:0:0:0:
256,192,358536,1,0,0:0:0:0:
256,192,358741,1,8,0:0:0:0:
224,192,358947,1,0,0:0:0:0:
256,192,359152,1,8,0:0:0:0:
256,192,359255,1,8,0:0:0:0:
256,192,359358,1,0,0:0:0:0:
256,192,359562,1,8,0:0:0:0:
256,192,359665,1,8,0:0:0:0:
224,192,359871,1,0,0:0:0:0:
224,192,359974,1,0,0:0:0:0:
224,192,360077,1,8,0:0:0:0:
256,160,360180,1,0,0:0:0:0:
256,192,360384,1,8,0:0:0:0:
224,192,360591,1,0,0:0:0:0:
256,192,360796,1,8,0:0:0:0:
256,192,360899,1,8,0:0:0:0:
256,192,361002,1,0,0:0:0:0:
256,192,361105,1,0,0:0:0:0:
256,192,361208,1,8,0:0:0:0:
256,192,361310,1,0,0:0:0:0:
224,192,361413,1,0,0:0:0:0:
256,192,361516,1,0,0:0:0:0:
256,192,361619,1,8,0:0:0:0:
256,192,361721,1,8,0:0:0:0:
256,192,361824,1,0,0:0:0:0:
256,192,362030,1,8,0:0:0:0:
224,192,362235,1,0,0:0:0:0:
256,192,362440,1,8,0:0:0:0:
256,192,362543,1,0,0:0:0:0:
256,192,362646,1,0,0:0:0:0:
256,192,362749,1,0,0:0:0:0:
256,192,362851,1,8,0:0:0:0:
256,192,362954,1,0,0:0:0:0:
224,192,363057,1,8,0:0:0:0:
256,192,363160,1,0,0:0:0:0:
256,192,363262,1,8,0:0:0:0:
256,192,363365,1,8,0:0:0:0:
256,192,363468,1,0,0:0:0:0:
256,192,363673,1,8,0:0:0:0:
224,192,363878,1,0,0:0:0:0:
256,192,364084,1,8,0:0:0:0:
256,192,364186,1,0,0:0:0:0:
256,192,364289,1,0,0:0:0:0:
256,192,364392,1,0,0:0:0:0:
256,192,364495,1,8,0:0:0:0:
256,192,364597,1,8,0:0:0:0:
224,192,364700,1,0,0:0:0:0:
256,192,364803,1,0,0:0:0:0:
256,192,364906,1,8,0:0:0:0:
256,192,365008,1,8,0:0:0:0:
256,192,365111,1,0,0:0:0:0:
256,192,365317,1,8,0:0:0:0:
224,192,365522,5,4,0:0:0:0:
224,160,365830,1,4,0:0:0:0:
224,160,366138,1,4,0:0:0:0:
224,160,366755,1,0,0:0:0:0:
224,160,366960,1,0,0:0:0:0:
224,160,367166,1,4,0:0:0:0:
256,192,367577,1,0,0:0:0:0:
224,160,367988,1,0,0:0:0:0:
224,160,368399,1,0,0:0:0:0:
224,160,368810,1,0,0:0:0:0:
224,160,369221,1,0,0:0:0:0:
224,160,369632,1,0,0:0:0:0:
224,160,370043,1,0,0:0:0:0:
224,160,370454,1,0,0:0:0:0:
224,160,370864,1,0,0:0:0:0:
224,160,371275,1,0,0:0:0:0:
224,160,371686,1,0,0:0:0:0:
224,160,372097,1,0,0:0:0:0:
224,160,372508,1,0,0:0:0:0:
224,160,372919,1,0,0:0:0:0:
224,160,373330,1,0,0:0:0:0:
224,160,373741,1,0,0:0:0:0:
224,160,374152,1,0,0:0:0:0:
224,160,374563,1,0,0:0:0:0:
224,160,374974,1,0,0:0:0:0:
224,160,375385,1,0,0:0:0:0:
224,160,375796,1,0,0:0:0:0:
224,160,376207,1,0,0:0:0:0:
224,160,376618,1,0,0:0:0:0:
224,160,377029,1,0,0:0:0:0:
224,160,377440,1,0,0:0:0:0:
224,160,377851,1,0,0:0:0:0:
224,160,378262,1,0,0:0:0:0:
224,160,378673,1,0,0:0:0:0:
224,160,379084,1,0,0:0:0:0:
224,160,379495,1,0,0:0:0:0:
224,160,379906,1,0,0:0:0:0:
