osu file format v14

[General]
AudioFilename: mix1.mp3
AudioLeadIn: 0
PreviewTime: -1
Countdown: 1
SampleSet: None
StackLeniency: 0.7
Mode: 0
LetterboxInBreaks: 1
WidescreenStoryboard: 1

[Editor]
DistanceSpacing: 1.2
BeatDivisor: 4
GridSize: 4
TimelineZoom: 1

[Metadata]
Title:Insane Techniques (Extended)
TitleUnicode:Insane Techniques (Extended)
Artist:kors k
ArtistUnicode:kors k
Creator:-N a n a k o-
Version:Other Stuff
Source:beatmania IIDX
Tags:let's do it now dj_orange bemani konami
BeatmapID:1422331
BeatmapSetID:672874

[Difficulty]
HPDrainRate:3
CircleSize:5
OverallDifficulty:9
ApproachRate:9
SliderMultiplier:2.6
SliderTickRate:1

[Events]
//Background and Video events
0,0,"1.jpg",0,0
//Break Periods
//Storyboard Layer 0 (Background)
//Storyboard Layer 1 (Fail)
//Storyboard Layer 2 (Pass)
//Storyboard Layer 3 (Foreground)
//Storyboard Sound Samples

[TimingPoints]
590.892489340385,410.958904109589,4,2,0,60,1,0
24426,-133.333333333333,4,2,0,60,0,0
26892,-100,4,2,0,60,0,0
54837,-50,4,2,0,60,0,0
59768,-100,4,2,0,60,0,0
71275,-980,4,2,0,60,0,0
72097,-100,4,2,0,60,0,0

[HitObjects]
256,192,590,12,0,24323,0:0:0:0:
156,328,24426,6,0,P|60:304|40:236,1,170.625006508827
48,192,24837,6,0,L|92:208,8,24.3750009298325
184,24,25556,5,0,0:0:0:0:
376,104,25864,5,0,0:0:0:0:
424,356,26892,5,0,0:0:0:0:
472,332,26995,1,0,0:0:0:0:
384,252,27097,2,0,L|380:172,1,65
320,56,27303,5,0,0:0:0:0:
288,88,27405,1,0,0:0:0:0:
180,32,27508,2,0,L|80:24,1,65
0,144,27714,5,0,0:0:0:0:
32,176,27816,1,0,0:0:0:0:
140,120,27919,2,0,L|240:112,1,65
328,252,28125,5,0,0:0:0:0:
296,284,28227,1,0,0:0:0:0:
188,228,28330,2,0,L|88:220,1,65
16,332,28536,5,0,0:0:0:0:
44,368,28638,1,0,0:0:0:0:
123,222,28741,2,0,L|104:308,1,65
4,140,28947,5,0,0:0:0:0:
32,176,29049,1,0,0:0:0:0:
111,30,29152,2,0,L|91:115,1,65
188,228,29358,1,0,0:0:0:0:
220,188,29460,1,0,0:0:0:0:
296,284,29563,2,0,L|376:296,1,65
456,228,29768,1,0,0:0:0:0:
476,276,29871,1,0,0:0:0:0:
472,324,29974,1,0,0:0:0:0:
448,368,30077,1,0,0:0:0:0:
312,376,30179,5,0,0:0:0:0:
280,352,30282,1,0,0:0:0:0:
120,380,30385,2,0,L|204:368,1,65
212,272,30590,5,0,0:0:0:0:
180,248,30693,1,0,0:0:0:0:
20,276,30796,2,0,L|104:264,1,65
288,148,31001,5,0,0:0:0:0:
256,124,31104,1,0,0:0:0:0:
96,152,31207,2,0,L|180:140,1,65
8,32,31412,5,0,0:0:0:0:
40,8,31515,1,0,0:0:0:0:
200,36,31618,2,0,L|116:24,1,65
0,172,31823,5,0,0:0:0:0:
32,204,31926,1,0,0:0:0:0:
220,168,32029,2,0,L|120:176,1,65
280,280,32234,1,0,0:0:0:0:
308,320,32337,1,0,0:0:0:0:
496,280,32440,2,0,L|416:288,1,65
360,192,32645,1,0,0:0:0:0:
360,144,32748,1,0,0:0:0:0:
376,96,32851,1,0,0:0:0:0:
408,56,32953,1,0,0:0:0:0:
456,36,33056,1,0,0:0:0:0:
432,76,33159,1,0,0:0:0:0:
384,88,33262,1,0,0:0:0:0:
336,80,33364,1,0,0:0:0:0:
236,8,33467,5,0,0:0:0:0:
200,36,33570,1,0,0:0:0:0:
224,148,33673,2,0,L|214:212,1,65
96,376,33878,5,0,0:0:0:0:
132,348,33981,1,0,0:0:0:0:
108,236,34084,2,0,L|117:171,1,65
4,28,34289,5,0,0:0:0:0:
32,76,34392,1,0,0:0:0:0:
200,36,34495,2,0,L|104:40,1,65
4,180,34700,5,0,0:0:0:0:
32,144,34803,1,0,0:0:0:0:
159,155,34905,2,0,L|267:143,1,65
456,52,35111,5,0,0:0:0:0:
428,92,35214,1,0,0:0:0:0:
320,68,35316,2,0,L|232:64,1,65
159,155,35522,5,0,0:0:0:0:
184,200,35625,1,0,0:0:0:0:
408,168,35727,2,0,L|324:180,1,65
272,308,35933,1,0,0:0:0:0:
232,348,36036,1,0,0:0:0:0:
180,364,36138,1,0,0:0:0:0:
124,364,36241,1,0,0:0:0:0:
72,344,36344,1,0,0:0:0:0:
44,292,36447,1,0,0:0:0:0:
32,236,36549,1,0,0:0:0:0:
48,180,36652,1,0,0:0:0:0:
180,44,36755,5,0,0:0:0:0:
168,84,36858,1,0,0:0:0:0:
4,48,36960,2,0,L|72:52,1,65
208,204,37165,5,0,0:0:0:0:
184,168,37268,1,0,0:0:0:0:
376,184,37371,2,0,L|292:180,1,65
44,296,37577,5,0,0:0:0:0:
28,328,37679,1,0,0:0:0:0:
156,368,37782,1,0,0:0:0:0:
172,336,37885,1,0,0:0:0:0:
312,304,37988,1,0,0:0:0:0:
296,344,38090,1,0,0:0:0:0:
440,320,38193,2,0,L|472:240,1,65
508,104,38399,5,0,0:0:0:0:
480,72,38501,1,0,0:0:0:0:
368,8,38604,2,0,P|332:0|288:16,1,65
112,136,38810,5,0,0:0:0:0:
140,168,38912,1,0,0:0:0:0:
252,232,39015,2,0,P|288:240|332:224,1,65
208,92,39221,5,0,0:0:0:0:
168,68,39323,1,0,0:0:0:0:
120,64,39426,1,0,0:0:0:0:
72,80,39529,1,0,0:0:0:0:
40,120,39631,1,0,0:0:0:0:
28,188,39734,1,0,0:0:0:0:
52,260,39837,1,0,0:0:0:0:
120,292,39940,1,0,0:0:0:0:
252,232,40042,6,0,L|340:228,1,65
384,100,40248,2,0,L|472:96,1,65
476,264,40453,5,0,0:0:0:0:
496,308,40556,1,0,0:0:0:0:
388,372,40659,2,0,L|264:356,1,65
172,308,40864,5,0,0:0:0:0:
192,256,40967,1,0,0:0:0:0:
0,248,41070,2,0,L|84:260,1,65
312,112,41275,5,0,0:0:0:0:
288,64,41378,1,0,0:0:0:0:
176,192,41481,6,0,L|200:292,1,65
332,336,41686,2,0,L|388:368,1,65
436,176,41892,2,0,L|504:148,1,65
432,16,42097,5,0,0:0:0:0:
384,0,42200,1,0,0:0:0:0:
216,32,42303,2,0,L|288:16,1,65
176,192,42508,5,0,0:0:0:0:
208,160,42611,1,0,0:0:0:0:
16,128,42714,2,0,L|112:148,1,65
20,276,42919,5,0,0:0:0:0:
8,312,43022,1,0,0:0:0:0:
136,376,43125,2,0,P|172:384|208:368,1,65
336,280,43330,6,0,L|352:208,1,65
510,87,43536,2,0,L|494:159,1,65
284,184,43741,5,0,0:0:0:0:
252,152,43844,1,0,0:0:0:0:
76,176,43947,2,0,L|164:160,1,65
156,0,44152,5,0,0:0:0:0:
192,24,44255,1,0,0:0:0:0:
140,164,44358,2,0,L|152:96,1,65
24,184,44563,5,0,0:0:0:0:
0,224,44666,1,0,0:0:0:0:
212,256,44768,6,0,L|128:240,1,65
376,92,44974,2,0,L|292:76,1,65
480,364,45179,2,0,L|396:348,1,65
228,376,45385,5,0,0:0:0:0:
244,340,45488,1,0,0:0:0:0:
244,300,45590,1,0,0:0:0:0:
212,256,45693,1,0,0:0:0:0:
144,220,45796,1,0,0:0:0:0:
72,256,45899,1,0,0:0:0:0:
60,336,46001,1,0,0:0:0:0:
128,384,46104,1,0,0:0:0:0:
208,344,46207,1,0,0:0:0:0:
212,256,46310,1,0,0:0:0:0:
144,160,46412,6,0,L|208:128,1,65
392,8,46618,2,0,L|328:40,1,65
336,204,46823,2,0,P|344:232|376:256,1,65
436,280,47029,5,0,0:0:0:0:
504,244,47131,1,0,0:0:0:0:
504,168,47234,6,0,P|496:140|464:116,1,65
8,216,47440,2,0,P|16:244|48:268,1,65
256,12,47645,2,0,L|256:96,1,65
256,156,47851,5,0,0:0:0:0:
200,208,47953,1,0,0:0:0:0:
124,200,48056,6,0,P|116:168|136:128,1,65
380,292,48262,2,0,P|388:324|368:364,1,65
20,300,48467,2,0,L|84:308,1,65
172,316,48673,5,0,0:0:0:0:
256,324,48775,1,0,0:0:0:0:
344,332,48878,6,0,L|428:340,1,65
504,72,49084,2,0,L|420:64,1,65
8,132,49289,2,0,L|92:140,1,65
496,264,49495,2,0,L|412:256,1,65
0,324,49700,2,0,L|84:332,1,65
136,256,49905,6,0,P|188:164|136:120,1,130
160,160,50214,2,0,P|224:196|300:148,1,130
288,160,50522,2,0,P|276:76|208:64,1,130
264,72,50830,2,0,P|340:68|392:16,1,130
356,40,51138,2,0,L|496:68,1,130
156,40,51447,2,0,L|16:68,1,130
436,356,51755,2,0,P|480:296|448:228,1,130
76,356,52063,2,0,P|32:296|64:228,1,130
124,208,52371,6,0,L|200:228,1,65
208,88,52577,2,0,L|236:160,1,65
356,44,52782,2,0,L|328:108,1,65
504,88,52988,2,0,L|436:100,1,65
320,116,53193,5,0,0:0:0:0:
280,140,53296,1,0,0:0:0:0:
232,152,53399,1,0,0:0:0:0:
180,144,53501,1,0,0:0:0:0:
144,104,53604,1,0,0:0:0:0:
144,52,53707,1,0,0:0:0:0:
176,16,53810,1,0,0:0:0:0:
224,28,53912,1,0,0:0:0:0:
232,80,54015,1,0,0:0:0:0:
208,128,54118,1,0,0:0:0:0:
160,156,54221,1,0,0:0:0:0:
112,160,54323,1,0,0:0:0:0:
56,152,54426,1,0,0:0:0:0:
12,184,54529,1,0,0:0:0:0:
4,240,54631,1,0,0:0:0:0:
24,288,54734,1,0,0:0:0:0:
68,312,54837,6,0,L|100:320,3,32.5
108,284,54940,2,0,L|140:292,3,32.5
148,252,55042,2,0,L|180:260,3,32.5
188,224,55145,2,0,L|220:232,3,32.5
228,196,55248,2,0,L|260:204,3,32.5
268,168,55351,2,0,L|300:176,3,32.5
308,136,55453,2,0,L|340:144,3,32.5
348,108,55556,2,0,L|380:116,3,32.5
360,60,55659,2,0,L|372:24,3,32.5
316,28,55762,2,0,L|312:-4,3,32.5
264,36,55864,2,0,L|240:8,3,32.5
232,72,55967,2,0,L|272:104,3,32.5
196,104,56070,2,0,L|200:136,3,32.5
144,112,56173,2,0,L|116:136,3,32.5
96,88,56275,2,0,L|64:80,3,32.5
64,40,56378,2,0,L|28:20,3,32.5
80,88,56481,6,0,L|116:100,3,32.5
56,132,56584,2,0,L|80:156,3,32.5
16,160,56686,2,0,L|8:196,3,32.5
64,152,56789,2,0,L|56:192,3,32.5
108,168,56892,2,0,L|72:192,3,32.5
144,208,56995,2,0,L|100:212,3,32.5
140,256,57097,2,0,L|108:240,3,32.5
104,288,57200,2,0,L|84:256,3,32.5
116,336,57303,2,0,L|72:336,3,32.5
148,368,57405,2,0,L|128:400,3,32.5
200,376,57508,2,0,L|224:404,3,32.5
248,352,57611,2,0,L|280:372,3,32.5
264,304,57714,2,0,L|304:304,3,32.5
244,252,57816,2,0,L|296:232,3,32.5
200,228,57919,2,0,L|216:188,3,32.5
152,236,58022,2,0,L|140:200,3,32.5
128,280,58125,6,0,L|84:268,33,32.5
472,344,59768,6,0,P|420:360|356:304,1,130
328,260,60077,1,0,0:0:0:0:
284,312,60179,2,0,L|136:340,1,130
8,260,60590,1,0,0:0:0:0:
80,244,60693,1,0,0:0:0:0:
152,228,60796,1,0,0:0:0:0:
224,212,60899,1,0,0:0:0:0:
296,196,61001,1,0,0:0:0:0:
8,260,61207,1,0,0:0:0:0:
8,260,61412,6,0,P|88:228|88:156,1,130
72,124,61721,1,0,0:0:0:0:
44,52,61823,2,0,L|232:84,1,130
368,104,62234,1,0,0:0:0:0:
442,128,62337,1,0,0:0:0:0:
442,206,62440,1,0,0:0:0:0:
368,230,62542,1,0,0:0:0:0:
322,167,62645,1,0,0:0:0:0:
322,167,63056,6,0,P|312:240|232:256,1,130
200,224,63364,1,0,0:0:0:0:
136,176,63467,2,0,P|64:176|44:256,1,130
152,364,63878,1,0,0:0:0:0:
200,300,63981,1,0,0:0:0:0:
200,224,64084,1,0,0:0:0:0:
164,156,64186,1,0,0:0:0:0:
96,116,64289,1,0,0:0:0:0:
152,364,64495,1,0,0:0:0:0:
152,364,64700,6,0,L|283:338,1,130
356,360,65008,1,0,0:0:0:0:
408,300,65111,2,0,P|424:228|352:172,1,130
356,360,65522,1,0,0:0:0:0:
408,300,65625,1,0,0:0:0:0:
422,224,65727,1,0,0:0:0:0:
387,153,65830,1,0,0:0:0:0:
324,106,65933,1,0,0:0:0:0:
324,106,66344,6,0,L|161:129,1,130
288,24,66652,1,0,0:0:0:0:
364,36,66755,2,0,L|527:59,1,130
270,353,67166,1,0,0:0:0:0:
198,325,67269,1,0,0:0:0:0:
151,263,67372,1,0,0:0:0:0:
148,185,67475,1,0,0:0:0:0:
196,124,67577,1,0,0:0:0:0:
270,353,67782,1,0,0:0:0:0:
270,353,67988,6,0,L|129:380,1,130
28,256,68296,1,0,0:0:0:0:
104,272,68399,2,0,L|245:299,1,130
28,256,68810,1,0,0:0:0:0:
16,179,68912,1,0,0:0:0:0:
41,105,69015,1,0,0:0:0:0:
107,63,69118,1,0,0:0:0:0:
184,53,69221,1,0,0:0:0:0:
184,53,69631,6,0,L|340:76,1,130
220,144,69940,1,0,0:0:0:0:
144,132,70042,2,0,L|-12:109,1,130
240,376,70453,1,0,0:0:0:0:
260,300,70555,1,0,0:0:0:0:
280,224,70658,1,0,0:0:0:0:
296,148,70761,1,0,0:0:0:0:
312,72,70864,6,0,L|328:8,1,65
199,116,71070,2,0,L|183:52,1,65
280,224,71275,2,0,L|288:184,1,39.7959183673469
280,224,72097,5,0,0:0:0:0:
276,248,72200,1,0,0:0:0:0:
300,124,72303,1,0,0:0:0:0:
304,100,72406,1,0,0:0:0:0:
216,184,72508,1,0,0:0:0:0:
188,188,72611,1,0,0:0:0:0:
376,168,72714,1,0,0:0:0:0:
404,164,72817,1,0,0:0:0:0:
