osu file format v14

[General]
AudioFilename: audio.mp3
AudioLeadIn: 0
PreviewTime: 189585
Countdown: 0
SampleSet: Normal
StackLeniency: 0.7
Mode: 1
LetterboxInBreaks: 0
WidescreenStoryboard: 1

[Editor]
Bookmarks: 368102,408263
DistanceSpacing: 0.1
BeatDivisor: 4
GridSize: 32
TimelineZoom: 2.4

[Metadata]
Title:Dot
TitleUnicode:Dot
Artist:kors k
ArtistUnicode:kors k
Creator:ayyEve
Version:PsycoTaiko
Source:
Tags:ultra psy-trance
BeatmapID:1414549
BeatmapSetID:668660

[Difficulty]
HPDrainRate:5
CircleSize:2
OverallDifficulty:5.5
ApproachRate:10
SliderMultiplier:1.3999999666214
SliderTickRate:1

[Events]
//Background and Video events
0,0,"maxresdefault.jpg",0,0
//Break Periods
2,109262,114309
2,115770,119355
//Storyboard Layer 0 (Background)
//Storyboard Layer 1 (Fail)
//Storyboard Layer 2 (Pass)
//Storyboard Layer 3 (Foreground)
//Storyboard Sound Samples

[TimingPoints]
1169,421.052631578947,4,1,0,60,1,0
1169,-100,4,1,0,60,0,0
1590,-102.040816326531,4,1,0,60,0,0
2011,-104.166666666667,4,1,0,60,0,0
2432,-106.382978723404,4,1,0,60,0,0
2853,-108.695652173913,4,1,0,60,0,0
3274,-111.111111111111,4,1,0,60,0,0
3695,-113.636363636364,4,1,0,60,0,0
4116,-116.279069767442,4,1,0,60,0,0
4537,-119.047619047619,4,1,0,60,0,0
4958,-121.951219512195,4,1,0,60,0,0
5379,-125,4,1,0,60,0,0
7905,-125,4,1,0,60,0,0
14642,420.536183634133,4,1,0,80,1,0
14642,-100,4,1,0,80,0,0
18006,-125,4,1,0,60,0,0
21370,-100,4,1,0,90,0,0
21791,-100,4,1,0,80,0,0
24734,-125,4,1,0,60,0,0
28099,-125,4,1,0,80,0,0
28309,-100,4,1,0,80,0,0
31463,-125,4,1,0,60,0,0
33986,-100,4,1,0,90,0,0
34827,-100,4,1,0,80,0,0
38192,-100,4,1,0,90,0,0
41556,-100,4,1,0,100,0,0
48284,-100,4,1,0,80,0,0
48960,-125,4,1,0,80,0,0
55013,-100,4,1,0,100,0,0
68365,-100,4,1,0,100,0,0
189585,-90.9090909090909,4,1,0,100,0,1
216499,-105.263157894737,4,1,0,100,0,0
218181,-105.263157894737,4,1,0,90,0,0
219863,-105.263157894737,4,1,0,80,0,0
221545,-105.263157894737,4,1,0,70,0,0
223227,-111.111111111111,4,1,0,60,0,0
226592,-117.647058823529,4,1,0,50,0,0
229115,-117.647058823529,4,1,0,80,0,0
229956,-125,4,1,0,70,0,0
233320,-117.647058823529,4,1,0,70,0,0
233636,-125,4,1,0,70,0,0
235002,-117.647058823529,4,1,0,70,0,0
235318,-125,4,1,0,70,0,0
236685,-117.647058823529,4,1,0,70,0,0
236895,-125,4,1,0,70,0,0
240049,-117.647058823529,4,1,0,70,0,0
240259,-125,4,1,0,70,0,0
241731,-117.647058823529,4,1,0,70,0,0
241941,-125,4,1,0,70,0,0
243413,-125,4,1,0,60,0,0
246777,-117.647058823529,4,1,0,60,0,0
248460,-111.111111111111,4,1,0,60,0,0
250142,-125,4,1,0,60,0,0
253506,-111.111111111111,4,1,0,60,0,0
255188,-117.647058823529,4,1,0,60,0,0
256870,-100,4,1,0,80,0,0
260235,-125,4,1,0,80,0,0
263599,-100,4,1,0,80,0,0
266963,-125,4,1,0,80,0,0
268645,-166.666666666667,4,1,0,50,0,0
269486,-166.666666666667,4,1,0,70,0,0
270327,-117.647058823529,4,1,0,80,0,0
277056,-111.111111111111,4,1,0,85,0,0
280420,-111.111111111111,4,1,0,90,0,0
283785,-111.111111111111,4,1,0,95,0,0
283995,-105.263157894737,4,1,0,95,0,0
290724,-100,4,1,0,100,0,0
296401,-111.111111111111,4,1,0,90,0,0
297242,-90.9090909090909,4,1,0,100,0,0
310699,-90.9090909090909,4,1,0,70,0,0
310909,-100,4,1,0,70,0,0
314063,-100,4,1,0,100,0,1
314274,-90.9090909090909,4,1,0,100,0,1
341188,-83.3333333333333,4,1,0,100,0,1
367892,-83.3333333333333,4,1,0,100,0,0
368102,-100,4,1,0,100,0,0

[Colours]
Combo1 : 213,240,15
Combo2 : 82,52,169
Combo3 : 157,64,108

[HitObjects]
256,192,1169,5,6,0:0:0:0:
256,192,1590,1,0,0:0:0:0:
256,192,2011,1,2,0:0:0:0:
256,192,2432,1,0,0:0:0:0:
256,192,2853,1,2,0:0:0:0:
256,192,3274,1,0,0:0:0:0:
256,192,3695,1,2,0:0:0:0:
256,192,4116,1,0,0:0:0:0:
256,192,4537,1,2,0:0:0:0:
256,192,4958,1,0,0:0:0:0:
256,192,5379,1,2,0:0:0:0:
256,192,5800,1,0,0:0:0:0:
256,192,6221,1,2,0:0:0:0:
256,192,6642,1,0,0:0:0:0:
256,192,7063,1,2,0:0:0:0:
256,192,7484,1,0,0:0:0:0:
256,192,7905,1,2,0:0:0:0:
256,192,8326,1,0,0:0:0:0:
256,192,8747,1,2,0:0:0:0:
256,192,9168,1,0,0:0:0:0:
256,192,9590,1,2,0:0:0:0:
256,192,10011,1,0,0:0:0:0:
256,192,10432,1,2,0:0:0:0:
256,192,10853,1,0,0:0:0:0:
256,192,11274,1,2,0:0:0:0:
256,192,11695,1,0,0:0:0:0:
256,192,12116,1,2,0:0:0:0:
256,192,12537,1,0,0:0:0:0:
256,192,12958,1,2,0:0:0:0:
256,192,13379,1,0,0:0:0:0:
256,192,13800,1,2,0:0:0:0:
256,192,14221,1,0,0:0:0:0:
256,192,14642,1,6,0:0:0:0:
256,192,15272,1,2,0:0:0:0:
256,192,15903,1,2,0:0:0:0:
256,192,16113,1,0,0:0:0:0:
256,192,16954,1,0,0:0:0:0:
256,192,17165,1,2,0:0:0:0:
256,192,17585,1,2,0:0:0:0:
256,192,17796,1,0,0:0:0:0:
256,192,18006,1,2,0:0:0:0:
256,192,18426,1,0,0:0:0:0:
256,192,18847,1,2,0:0:0:0:
256,192,19267,1,0,0:0:0:0:
256,192,19688,1,2,0:0:0:0:
256,192,20108,1,0,0:0:0:0:
256,192,20529,1,2,0:0:0:0:
256,192,20950,1,0,0:0:0:0:
256,192,21370,1,4,0:0:0:0:
256,192,21791,1,4,0:0:0:0:
256,192,22001,1,0,0:0:0:0:
256,192,22632,1,2,0:0:0:0:
256,192,22842,1,0,0:0:0:0:
256,192,23683,1,0,0:0:0:0:
256,192,23893,1,2,0:0:0:0:
256,192,24314,1,2,0:0:0:0:
256,192,24524,1,0,0:0:0:0:
256,192,24734,1,2,0:0:0:0:
256,192,25155,1,0,0:0:0:0:
256,192,25575,1,2,0:0:0:0:
256,192,25996,1,0,0:0:0:0:
256,192,26417,1,0,0:0:0:0:
256,192,26627,1,2,0:0:0:0:
256,192,26837,1,0,0:0:0:0:
256,192,27047,1,2,0:0:0:0:
256,192,27258,1,0,0:0:0:0:
256,192,27573,1,0,0:0:0:0:
256,192,27678,1,2,0:0:0:0:
256,192,27888,1,0,0:0:0:0:
256,192,27994,1,0,0:0:0:0:
256,192,28099,1,6,0:0:0:0:
256,192,28309,1,2,0:0:0:0:
256,192,28519,1,2,0:0:0:0:
256,192,28729,1,0,0:0:0:0:
256,192,29360,1,2,0:0:0:0:
256,192,29570,1,0,0:0:0:0:
256,192,30412,1,0,0:0:0:0:
256,192,30622,1,2,0:0:0:0:
256,192,31042,1,2,0:0:0:0:
256,192,31253,1,0,0:0:0:0:
256,192,31463,1,2,0:0:0:0:
256,192,31883,1,0,0:0:0:0:
256,192,32304,1,2,0:0:0:0:
256,192,32725,1,0,0:0:0:0:
256,192,33145,1,2,0:0:0:0:
256,192,33566,1,0,0:0:0:0:
256,192,33986,1,0,0:0:0:0:
256,192,34196,1,2,0:0:0:0:
256,192,34407,1,6,0:0:0:0:
256,192,34617,1,2,0:0:0:0:
256,192,34687,1,2,0:0:0:0:
256,192,34757,1,2,0:0:0:0:
256,192,34827,1,0,0:0:0:0:
256,192,35038,1,0,0:0:0:0:
256,192,35248,1,6,0:0:0:0:
256,192,35458,1,0,0:0:0:0:
256,192,36089,1,2,0:0:0:0:
256,192,36299,1,0,0:0:0:0:
256,192,37139,1,0,0:0:0:0:
256,192,37350,1,2,0:0:0:0:
256,192,37771,1,2,0:0:0:0:
256,192,37981,1,0,0:0:0:0:
256,192,38192,1,4,0:0:0:0:
256,192,38507,1,2,0:0:0:0:
256,192,38822,1,2,0:0:0:0:
256,192,39033,1,4,0:0:0:0:
256,192,39348,1,2,0:0:0:0:
256,192,39663,1,2,0:0:0:0:
256,192,39874,1,4,0:0:0:0:
256,192,40084,1,2,0:0:0:0:
256,192,40294,1,4,0:0:0:0:
256,192,40504,1,0,0:0:0:0:
256,192,40715,1,0,0:0:0:0:
256,192,40820,1,0,0:0:0:0:
256,192,40925,1,2,0:0:0:0:
256,192,41135,1,6,0:0:0:0:
256,192,41556,1,4,0:0:0:0:
256,192,41766,1,2,0:0:0:0:
256,192,41976,1,2,0:0:0:0:
256,192,42397,1,0,0:0:0:0:
256,192,42817,1,2,0:0:0:0:
256,192,43238,1,0,0:0:0:0:
256,192,43658,1,2,0:0:0:0:
256,192,44079,1,0,0:0:0:0:
256,192,44500,1,2,0:0:0:0:
256,192,44920,1,0,0:0:0:0:
256,192,45341,1,2,0:0:0:0:
256,192,45761,1,0,0:0:0:0:
256,192,46182,1,2,0:0:0:0:
256,192,46602,1,0,0:0:0:0:
256,192,46813,1,2,0:0:0:0:
256,192,47023,1,2,0:0:0:0:
256,192,47443,1,0,0:0:0:0:
256,192,47654,1,2,0:0:0:0:
256,192,47864,1,2,0:0:0:0:
256,192,48074,1,2,0:0:0:0:
256,192,48179,1,2,0:0:0:0:
256,192,48284,1,4,0:0:0:0:
256,192,48915,1,0,0:0:0:0:
256,192,49546,1,2,0:0:0:0:
256,192,49756,1,0,0:0:0:0:
256,192,50597,1,0,0:0:0:0:
256,192,50808,1,2,0:0:0:0:
256,192,51228,1,2,0:0:0:0:
256,192,51438,1,0,0:0:0:0:
256,192,51649,8,0,53541,0:0:0:0:
256,192,53751,5,2,0:0:0:0:
256,192,54067,1,0,0:0:0:0:
256,192,54277,1,2,0:0:0:0:
256,192,54487,1,0,0:0:0:0:
256,192,55013,1,4,0:0:0:0:
256,192,55328,1,0,0:0:0:0:
256,192,55434,1,0,0:0:0:0:
256,192,55644,1,2,0:0:0:0:
256,192,55854,1,0,0:0:0:0:
256,192,56275,1,0,0:0:0:0:
256,192,56485,1,0,0:0:0:0:
256,192,56590,1,0,0:0:0:0:
256,192,56695,1,0,0:0:0:0:
256,192,56905,1,2,0:0:0:0:
256,192,57011,1,2,0:0:0:0:
256,192,57116,1,0,0:0:0:0:
256,192,57326,1,2,0:0:0:0:
256,192,57431,1,0,0:0:0:0:
256,192,57536,1,0,0:0:0:0:
256,192,57852,1,0,0:0:0:0:
256,192,57957,1,2,0:0:0:0:
256,192,58272,1,2,0:0:0:0:
256,192,58377,1,0,0:0:0:0:
256,192,58588,1,2,0:0:0:0:
256,192,58693,1,0,0:0:0:0:
256,192,58798,1,0,0:0:0:0:
256,192,59008,1,0,0:0:0:0:
256,192,59218,1,0,0:0:0:0:
256,192,59429,1,2,0:0:0:0:
256,192,59639,1,2,0:0:0:0:
256,192,59744,1,0,0:0:0:0:
256,192,59849,1,2,0:0:0:0:
256,192,59919,1,2,0:0:0:0:
256,192,59989,1,2,0:0:0:0:
256,192,60059,1,0,0:0:0:0:
256,192,60270,1,2,0:0:0:0:
256,192,60480,1,0,0:0:0:0:
256,192,60585,1,0,0:0:0:0:
256,192,60690,1,0,0:0:0:0:
256,192,60795,1,0,0:0:0:0:
256,192,60900,1,2,0:0:0:0:
256,192,61216,1,0,0:0:0:0:
256,192,61321,1,2,0:0:0:0:
256,192,61531,1,2,0:0:0:0:
256,192,61636,1,0,0:0:0:0:
256,192,61742,1,0,0:0:0:0:
256,192,61952,1,2,0:0:0:0:
256,192,62057,1,0,0:0:0:0:
256,192,62162,1,2,0:0:0:0:
256,192,62372,1,2,0:0:0:0:
256,192,62477,1,0,0:0:0:0:
256,192,62583,1,0,0:0:0:0:
256,192,62793,1,0,0:0:0:0:
256,192,63003,1,0,0:0:0:0:
256,192,63319,1,0,0:0:0:0:
256,192,63424,1,2,0:0:0:0:
256,192,63739,1,2,0:0:0:0:
256,192,63844,1,0,0:0:0:0:
256,192,63949,1,2,0:0:0:0:
256,192,64055,1,2,0:0:0:0:
256,192,64160,1,0,0:0:0:0:
256,192,64265,1,0,0:0:0:0:
256,192,64370,1,0,0:0:0:0:
256,192,64580,1,2,0:0:0:0:
256,192,64685,1,2,0:0:0:0:
256,192,65001,1,2,0:0:0:0:
256,192,65106,1,0,0:0:0:0:
256,192,65316,1,2,0:0:0:0:
256,192,65421,1,0,0:0:0:0:
256,192,65632,1,0,0:0:0:0:
256,192,65737,1,2,0:0:0:0:
256,192,65842,1,2,0:0:0:0:
256,192,65947,1,0,0:0:0:0:
256,192,66052,1,0,0:0:0:0:
256,192,66157,1,2,0:0:0:0:
256,192,66367,1,0,0:0:0:0:
256,192,66473,1,2,0:0:0:0:
256,192,66578,1,2,0:0:0:0:
256,192,66683,1,0,0:0:0:0:
256,192,66998,1,4,0:0:0:0:
256,192,67209,1,6,0:0:0:0:
256,192,67419,1,2,0:0:0:0:
256,192,67524,1,2,0:0:0:0:
256,192,67629,1,0,0:0:0:0:
256,192,67839,1,0,0:0:0:0:
256,192,67909,1,0,0:0:0:0:
256,192,67980,1,0,0:0:0:0:
256,192,68050,1,2,0:0:0:0:
256,192,68365,1,2,0:0:0:0:
256,192,68470,1,0,0:0:0:0:
256,192,68680,1,2,0:0:0:0:
256,192,68786,1,0,0:0:0:0:
256,192,68891,1,2,0:0:0:0:
256,192,69101,1,2,0:0:0:0:
256,192,69206,1,0,0:0:0:0:
256,192,69311,1,0,0:0:0:0:
256,192,69521,1,2,0:0:0:0:
256,192,69732,1,2,0:0:0:0:
256,192,69942,1,0,0:0:0:0:
256,192,70047,1,0,0:0:0:0:
256,192,70152,1,0,0:0:0:0:
256,192,70363,1,2,0:0:0:0:
256,192,70573,1,0,0:0:0:0:
256,192,70783,1,2,0:0:0:0:
256,192,70888,1,0,0:0:0:0:
256,192,70993,1,0,0:0:0:0:
256,192,71098,1,2,0:0:0:0:
256,192,71309,1,0,0:0:0:0:
256,192,71414,1,0,0:0:0:0:
256,192,71519,1,2,0:0:0:0:
256,192,71729,1,2,0:0:0:0:
256,192,71834,1,0,0:0:0:0:
256,192,72045,1,2,0:0:0:0:
256,192,72255,1,0,0:0:0:0:
256,192,72465,1,0,0:0:0:0:
256,192,72570,1,0,0:0:0:0:
256,192,72675,1,2,0:0:0:0:
256,192,72886,1,2,0:0:0:0:
256,192,72991,1,2,0:0:0:0:
256,192,73096,1,0,0:0:0:0:
256,192,73166,1,2,0:0:0:0:
256,192,73236,1,2,0:0:0:0:
256,192,73306,1,0,0:0:0:0:
256,192,73411,1,2,0:0:0:0:
256,192,73517,1,0,0:0:0:0:
256,192,73622,1,0,0:0:0:0:
256,192,73727,1,2,0:0:0:0:
256,192,73937,1,2,0:0:0:0:
256,192,74042,1,2,0:0:0:0:
256,192,74147,1,0,0:0:0:0:
256,192,74253,1,2,0:0:0:0:
256,192,74358,1,0,0:0:0:0:
256,192,74568,1,2,0:0:0:0:
256,192,74778,1,2,0:0:0:0:
256,192,74988,1,2,0:0:0:0:
256,192,75199,1,4,0:0:0:0:
256,192,75409,1,2,0:0:0:0:
256,192,75514,1,0,0:0:0:0:
256,192,75619,1,0,0:0:0:0:
256,192,75830,1,0,0:0:0:0:
256,192,75935,1,2,0:0:0:0:
256,192,76040,1,0,0:0:0:0:
256,192,76250,1,2,0:0:0:0:
256,192,76460,1,0,0:0:0:0:
256,192,76565,1,2,0:0:0:0:
256,192,76881,1,0,0:0:0:0:
256,192,77091,1,0,0:0:0:0:
256,192,77196,1,0,0:0:0:0:
256,192,77301,1,2,0:0:0:0:
256,192,77407,1,0,0:0:0:0:
256,192,77512,1,2,0:0:0:0:
256,192,77617,1,2,0:0:0:0:
256,192,77722,1,0,0:0:0:0:
256,192,77827,1,0,0:0:0:0:
256,192,78037,1,0,0:0:0:0:
256,192,78142,1,0,0:0:0:0:
256,192,78248,1,2,0:0:0:0:
256,192,78458,1,2,0:0:0:0:
256,192,78563,1,0,0:0:0:0:
96,96,78773,2,0,L|288:96,1,174.999995827675
256,192,79509,1,2,0:0:0:0:
256,192,79719,1,2,0:0:0:0:
256,192,79930,1,2,0:0:0:0:
256,192,80035,1,2,0:0:0:0:
256,192,80140,1,2,0:0:0:0:
256,192,80245,1,4,0:0:0:0:
256,192,80455,1,4,0:0:0:0:
256,192,80666,1,2,0:0:0:0:
256,192,80876,1,2,0:0:0:0:
256,192,80981,1,0,0:0:0:0:
256,192,81086,1,0,0:0:0:0:
256,192,81296,1,2,0:0:0:0:
256,192,81507,1,6,0:0:0:0:
256,192,81927,1,2,0:0:0:0:
256,192,82032,1,0,0:0:0:0:
256,192,82138,1,2,0:0:0:0:
256,192,82243,1,0,0:0:0:0:
256,192,82348,1,2,0:0:0:0:
256,192,82453,1,2,0:0:0:0:
256,192,82558,1,0,0:0:0:0:
256,192,82663,1,0,0:0:0:0:
256,192,82768,1,2,0:0:0:0:
256,192,82873,1,0,0:0:0:0:
256,192,82979,1,2,0:0:0:0:
256,192,83084,1,0,0:0:0:0:
256,192,83189,1,2,0:0:0:0:
256,192,83504,1,0,0:0:0:0:
256,192,83609,1,2,0:0:0:0:
256,192,83715,1,0,0:0:0:0:
256,192,83820,1,0,0:0:0:0:
256,192,83925,1,0,0:0:0:0:
256,192,84030,1,2,0:0:0:0:
256,192,84135,1,2,0:0:0:0:
256,192,84240,1,2,0:0:0:0:
256,192,84345,1,0,0:0:0:0:
256,192,84451,1,2,0:0:0:0:
256,192,84556,1,0,0:0:0:0:
256,192,84661,1,2,0:0:0:0:
256,192,84766,1,0,0:0:0:0:
256,192,84871,1,0,0:0:0:0:
256,192,85081,1,0,0:0:0:0:
256,192,85292,1,2,0:0:0:0:
256,192,85397,1,0,0:0:0:0:
256,192,85502,1,2,0:0:0:0:
256,192,85607,1,0,0:0:0:0:
256,192,85712,1,0,0:0:0:0:
256,192,85817,1,2,0:0:0:0:
256,192,85922,1,0,0:0:0:0:
256,192,86028,1,0,0:0:0:0:
256,192,86133,1,2,0:0:0:0:
256,192,86238,1,0,0:0:0:0:
256,192,86343,1,2,0:0:0:0:
256,192,86448,1,2,0:0:0:0:
256,192,86553,1,2,0:0:0:0:
256,192,86658,1,0,0:0:0:0:
256,192,86763,1,0,0:0:0:0:
256,192,87184,1,2,0:0:0:0:
256,192,87394,1,2,0:0:0:0:
256,192,87605,1,2,0:0:0:0:
256,192,87710,1,0,0:0:0:0:
256,192,87815,1,2,0:0:0:0:
256,192,87920,1,2,0:0:0:0:
256,192,88025,1,0,0:0:0:0:
256,192,88095,1,0,0:0:0:0:
256,192,88165,1,0,0:0:0:0:
256,192,88235,1,2,0:0:0:0:
256,192,88656,1,2,0:0:0:0:
256,192,88761,1,0,0:0:0:0:
256,192,88866,1,2,0:0:0:0:
256,192,88971,1,2,0:0:0:0:
256,192,89076,1,2,0:0:0:0:
256,192,89182,1,0,0:0:0:0:
256,192,89287,1,2,0:0:0:0:
256,192,89392,1,0,0:0:0:0:
256,192,89497,1,0,0:0:0:0:
256,192,89602,1,2,0:0:0:0:
256,192,89707,1,0,0:0:0:0:
256,192,89812,1,0,0:0:0:0:
256,192,89917,1,2,0:0:0:0:
256,192,90338,1,2,0:0:0:0:
256,192,90443,1,0,0:0:0:0:
256,192,90548,1,2,0:0:0:0:
256,192,90653,1,2,0:0:0:0:
256,192,90759,1,0,0:0:0:0:
256,192,90864,1,2,0:0:0:0:
256,192,90969,1,2,0:0:0:0:
256,192,91074,1,0,0:0:0:0:
256,192,91179,1,2,0:0:0:0:
256,192,91284,1,2,0:0:0:0:
256,192,91389,1,0,0:0:0:0:
256,192,91494,1,2,0:0:0:0:
256,192,91600,1,0,0:0:0:0:
256,192,91810,1,0,0:0:0:0:
256,192,92020,1,0,0:0:0:0:
256,192,92125,1,2,0:0:0:0:
256,192,92230,1,0,0:0:0:0:
256,192,92336,1,2,0:0:0:0:
256,192,92441,1,2,0:0:0:0:
256,192,92546,1,2,0:0:0:0:
256,192,92651,1,2,0:0:0:0:
256,192,92756,1,0,0:0:0:0:
256,192,92861,1,2,0:0:0:0:
256,192,92966,1,0,0:0:0:0:
256,192,93071,1,0,0:0:0:0:
256,192,93177,1,0,0:0:0:0:
256,192,93282,1,2,0:0:0:0:
256,192,93492,1,2,0:0:0:0:
256,192,93597,1,2,0:0:0:0:
256,192,93702,1,0,0:0:0:0:
32,32,93913,2,0,L|320:32,1,280
256,192,94964,1,2,0:0:0:0:
256,192,95069,1,2,0:0:0:0:
256,192,95174,1,0,0:0:0:0:
256,192,95244,1,0,0:0:0:0:
256,192,95314,1,0,0:0:0:0:
256,192,95384,1,2,0:0:0:0:
256,192,95490,1,0,0:0:0:0:
256,192,95595,1,0,0:0:0:0:
256,192,95700,1,0,0:0:0:0:
256,192,95805,1,2,0:0:0:0:
256,192,95910,1,2,0:0:0:0:
256,192,96015,1,2,0:0:0:0:
256,192,96120,1,0,0:0:0:0:
256,192,96226,1,2,0:0:0:0:
256,192,96331,1,0,0:0:0:0:
256,192,96436,1,0,0:0:0:0:
256,192,96541,1,2,0:0:0:0:
256,192,96646,1,2,0:0:0:0:
256,192,96961,1,0,0:0:0:0:
256,192,97067,1,2,0:0:0:0:
256,192,97172,1,2,0:0:0:0:
256,192,97277,1,2,0:0:0:0:
256,192,97382,1,2,0:0:0:0:
256,192,97487,1,0,0:0:0:0:
256,192,97592,1,0,0:0:0:0:
256,192,97697,1,0,0:0:0:0:
256,192,97803,1,0,0:0:0:0:
256,192,97908,1,2,0:0:0:0:
256,192,98013,1,2,0:0:0:0:
256,192,98118,1,0,0:0:0:0:
256,192,98223,1,0,0:0:0:0:
256,192,98328,1,2,0:0:0:0:
256,192,98538,1,0,0:0:0:0:
256,192,98749,1,0,0:0:0:0:
256,192,98854,1,0,0:0:0:0:
256,192,98959,1,2,0:0:0:0:
256,192,99064,1,2,0:0:0:0:
256,192,99169,1,2,0:0:0:0:
256,192,99274,1,0,0:0:0:0:
256,192,99380,1,2,0:0:0:0:
256,192,99485,1,0,0:0:0:0:
256,192,99590,1,0,0:0:0:0:
256,192,99695,1,2,0:0:0:0:
256,192,99800,1,0,0:0:0:0:
256,192,99905,1,0,0:0:0:0:
256,192,100010,1,0,0:0:0:0:
256,192,100115,1,0,0:0:0:0:
256,192,100431,1,2,0:0:0:0:
256,192,100536,1,2,0:0:0:0:
256,192,100641,1,2,0:0:0:0:
256,192,100746,1,0,0:0:0:0:
256,192,100851,1,2,0:0:0:0:
256,192,100957,1,2,0:0:0:0:
256,192,101062,1,2,0:0:0:0:
256,192,101167,1,0,0:0:0:0:
256,192,101272,1,0,0:0:0:0:
256,192,101377,1,2,0:0:0:0:
256,192,101482,1,0,0:0:0:0:
256,192,101552,1,2,0:0:0:0:
256,192,101622,1,2,0:0:0:0:
256,192,102113,1,0,0:0:0:0:
256,192,102218,1,2,0:0:0:0:
256,192,102323,1,0,0:0:0:0:
256,192,102428,1,2,0:0:0:0:
256,192,102534,1,2,0:0:0:0:
256,192,102639,1,2,0:0:0:0:
256,192,102744,1,0,0:0:0:0:
256,192,102849,1,2,0:0:0:0:
256,192,102954,1,0,0:0:0:0:
256,192,103059,1,0,0:0:0:0:
256,192,103164,1,0,0:0:0:0:
256,192,103270,1,2,0:0:0:0:
256,192,103375,1,2,0:0:0:0:
256,192,103480,1,0,0:0:0:0:
256,192,103585,1,0,0:0:0:0:
256,192,103690,1,0,0:0:0:0:
256,192,103795,1,2,0:0:0:0:
256,192,103900,1,0,0:0:0:0:
256,192,104005,1,2,0:0:0:0:
256,192,104111,1,2,0:0:0:0:
256,192,104216,1,2,0:0:0:0:
256,192,104321,1,0,0:0:0:0:
256,192,104426,1,2,0:0:0:0:
256,192,104531,1,0,0:0:0:0:
256,192,104636,1,2,0:0:0:0:
256,192,104741,1,2,0:0:0:0:
256,192,104847,1,0,0:0:0:0:
256,192,104952,1,2,0:0:0:0:
256,192,105057,1,2,0:0:0:0:
256,192,105162,1,2,0:0:0:0:
256,192,105267,1,0,0:0:0:0:
256,192,105372,1,2,0:0:0:0:
256,192,105477,1,0,0:0:0:0:
256,192,105582,1,2,0:0:0:0:
256,192,105688,1,2,0:0:0:0:
256,192,105793,1,2,0:0:0:0:
256,192,105898,1,0,0:0:0:0:
256,192,106003,1,2,0:0:0:0:
256,192,106108,1,0,0:0:0:0:
256,192,106213,1,0,0:0:0:0:
256,192,106318,1,2,0:0:0:0:
256,192,106424,1,2,0:0:0:0:
256,192,106529,1,0,0:0:0:0:
256,192,106634,1,0,0:0:0:0:
256,192,106739,1,0,0:0:0:0:
256,192,106809,1,0,0:0:0:0:
256,192,106879,1,0,0:0:0:0:
256,192,106949,1,0,0:0:0:0:
256,192,107019,1,0,0:0:0:0:
256,192,107089,1,0,0:0:0:0:
256,192,107159,1,0,0:0:0:0:
256,192,108001,1,6,0:0:0:0:
256,192,108842,1,4,0:0:0:0:
256,192,115570,5,6,0:0:0:0:
256,192,120617,5,6,0:0:0:0:
256,192,120932,1,6,0:0:0:0:
256,192,121247,1,6,0:0:0:0:
256,192,121668,1,6,0:0:0:0:
256,192,121983,1,0,0:0:0:0:
256,192,122088,1,0,0:0:0:0:
256,192,122194,1,0,0:0:0:0:
256,192,122299,1,6,0:0:0:0:
32,32,122719,2,6,L|480:32,1,420
256,192,125348,1,0,0:0:0:0:
256,192,125453,1,0,0:0:0:0:
256,192,125558,1,0,0:0:0:0:
256,192,125663,1,6,0:0:0:0:
32,32,126084,2,4,L|480:32,1,420
256,192,128712,1,0,0:0:0:0:
256,192,128817,1,0,0:0:0:0:
256,192,128922,1,0,0:0:0:0:
256,192,129027,1,0,0:0:0:0:
256,192,129448,1,6,0:0:0:0:
32,32,129658,2,4,L|384:32,1,350
256,192,132076,1,0,0:0:0:0:
256,192,132181,1,0,0:0:0:0:
256,192,132286,1,0,0:0:0:0:
256,192,132392,1,0,0:0:0:0:
32,32,132812,2,0,L|480:32,1,420
256,192,135756,1,4,0:0:0:0:
256,192,136176,1,2,0:0:0:0:
256,192,136597,1,2,0:0:0:0:
256,192,137018,1,2,0:0:0:0:
256,192,137438,1,2,0:0:0:0:
256,192,137859,1,2,0:0:0:0:
256,192,138279,1,2,0:0:0:0:
256,192,138700,1,2,0:0:0:0:
256,192,138910,1,0,0:0:0:0:
256,192,139120,1,2,0:0:0:0:
256,192,139541,1,2,0:0:0:0:
256,192,139961,1,2,0:0:0:0:
256,192,140382,1,2,0:0:0:0:
256,192,140802,1,2,0:0:0:0:
256,192,141223,1,2,0:0:0:0:
256,192,141643,1,2,0:0:0:0:
256,192,142064,1,2,0:0:0:0:
256,192,142274,1,0,0:0:0:0:
256,192,142484,1,2,0:0:0:0:
256,192,142905,1,2,0:0:0:0:
256,192,143326,1,2,0:0:0:0:
256,192,143746,1,2,0:0:0:0:
256,192,143956,1,0,0:0:0:0:
256,192,144167,1,2,0:0:0:0:
256,192,144587,1,2,0:0:0:0:
256,192,145008,1,2,0:0:0:0:
256,192,145428,1,2,0:0:0:0:
256,192,145639,1,0,0:0:0:0:
256,192,145849,1,2,0:0:0:0:
256,192,146269,1,2,0:0:0:0:
256,192,146690,1,2,0:0:0:0:
256,192,146900,1,0,0:0:0:0:
256,192,147110,1,2,0:0:0:0:
256,192,147531,1,2,0:0:0:0:
256,192,147741,1,0,0:0:0:0:
256,192,147951,1,2,0:0:0:0:
256,192,148372,1,2,0:0:0:0:
256,192,148582,1,0,0:0:0:0:
256,192,148793,1,2,0:0:0:0:
256,192,149003,1,0,0:0:0:0:
256,192,149213,1,4,0:0:0:0:
256,192,149423,1,0,0:0:0:0:
256,192,149634,1,2,0:0:0:0:
256,192,149844,1,0,0:0:0:0:
256,192,150054,1,0,0:0:0:0:
256,192,150265,1,0,0:0:0:0:
256,192,150475,1,2,0:0:0:0:
256,192,150685,1,0,0:0:0:0:
256,192,150895,1,0,0:0:0:0:
256,192,151105,1,0,0:0:0:0:
256,192,151316,1,2,0:0:0:0:
256,192,151526,1,0,0:0:0:0:
256,192,151736,1,0,0:0:0:0:
256,192,151947,1,2,0:0:0:0:
256,192,152157,1,2,0:0:0:0:
256,192,152367,1,0,0:0:0:0:
256,192,152577,1,0,0:0:0:0:
256,192,152788,1,0,0:0:0:0:
256,192,152998,1,2,0:0:0:0:
256,192,153208,1,0,0:0:0:0:
256,192,153418,1,0,0:0:0:0:
256,192,153629,1,0,0:0:0:0:
256,192,153839,1,2,0:0:0:0:
256,192,154049,1,0,0:0:0:0:
256,192,154260,1,0,0:0:0:0:
256,192,154470,1,0,0:0:0:0:
256,192,154680,1,2,0:0:0:0:
256,192,154890,1,0,0:0:0:0:
256,192,155101,1,0,0:0:0:0:
256,192,155311,1,2,0:0:0:0:
256,192,155521,1,2,0:0:0:0:
256,192,155731,1,0,0:0:0:0:
256,192,155942,1,2,0:0:0:0:
256,192,156047,1,0,0:0:0:0:
256,192,156152,1,0,0:0:0:0:
256,192,156257,1,0,0:0:0:0:
256,192,156362,1,2,0:0:0:0:
256,192,156467,1,0,0:0:0:0:
256,192,156572,1,0,0:0:0:0:
256,192,156678,1,0,0:0:0:0:
256,192,156783,1,2,0:0:0:0:
256,192,156888,1,0,0:0:0:0:
256,192,156993,1,0,0:0:0:0:
256,192,157098,1,2,0:0:0:0:
256,192,157203,1,2,0:0:0:0:
256,192,157308,1,0,0:0:0:0:
256,192,157414,1,0,0:0:0:0:
256,192,157519,1,0,0:0:0:0:
256,192,157624,1,2,0:0:0:0:
256,192,157729,1,0,0:0:0:0:
256,192,157834,1,0,0:0:0:0:
256,192,157939,1,0,0:0:0:0:
256,192,158044,1,2,0:0:0:0:
256,192,158149,1,0,0:0:0:0:
256,192,158255,1,0,0:0:0:0:
256,192,158360,1,0,0:0:0:0:
256,192,158465,1,2,0:0:0:0:
256,192,158570,1,0,0:0:0:0:
256,192,158675,1,0,0:0:0:0:
256,192,158780,1,2,0:0:0:0:
256,192,158885,1,2,0:0:0:0:
256,192,158991,1,0,0:0:0:0:
256,192,159096,1,0,0:0:0:0:
256,192,159201,1,0,0:0:0:0:
256,192,159306,1,2,0:0:0:0:
256,192,159376,1,0,0:0:0:0:
256,192,159446,1,0,0:0:0:0:
256,192,159516,1,0,0:0:0:0:
256,192,159621,1,0,0:0:0:0:
256,192,159726,1,2,0:0:0:0:
256,192,159797,1,0,0:0:0:0:
256,192,159867,1,0,0:0:0:0:
256,192,159937,1,0,0:0:0:0:
256,192,160042,1,0,0:0:0:0:
256,192,160147,1,2,0:0:0:0:
256,192,160217,1,0,0:0:0:0:
256,192,160287,1,0,0:0:0:0:
256,192,160357,1,0,0:0:0:0:
256,192,160462,1,0,0:0:0:0:
256,192,160568,1,2,0:0:0:0:
256,192,160638,1,0,0:0:0:0:
256,192,160708,1,0,0:0:0:0:
256,192,160778,1,0,0:0:0:0:
256,192,160848,1,0,0:0:0:0:
256,192,160918,1,0,0:0:0:0:
256,192,160988,1,2,0:0:0:0:
256,192,161830,1,0,0:0:0:0:
256,192,161935,1,0,0:0:0:0:
256,192,162040,1,0,0:0:0:0:
256,192,162145,1,0,0:0:0:0:
256,192,162250,1,0,0:0:0:0:
256,192,162460,1,0,0:0:0:0:
256,192,162565,1,0,0:0:0:0:
256,192,162670,1,6,0:0:0:0:
256,192,162881,1,0,0:0:0:0:
256,192,163091,1,2,0:0:0:0:
256,192,163301,1,2,0:0:0:0:
256,192,163722,1,0,0:0:0:0:
256,192,163827,1,0,0:0:0:0:
256,192,163932,1,2,0:0:0:0:
256,192,164246,1,2,0:0:0:0:
256,192,164352,1,0,0:0:0:0:
256,192,164563,1,2,0:0:0:0:
256,192,164773,1,2,0:0:0:0:
256,192,164983,1,0,0:0:0:0:
256,192,165404,1,0,0:0:0:0:
256,192,165614,1,2,0:0:0:0:
256,192,165929,1,2,0:0:0:0:
256,192,166035,1,0,0:0:0:0:
256,192,166245,1,2,0:0:0:0:
256,192,166455,1,2,0:0:0:0:
256,192,166665,1,0,0:0:0:0:
256,192,167086,1,0,0:0:0:0:
256,192,167191,1,0,0:0:0:0:
256,192,167296,1,2,0:0:0:0:
256,192,167612,1,2,0:0:0:0:
256,192,167717,1,0,0:0:0:0:
256,192,167927,1,0,0:0:0:0:
256,192,168137,1,2,0:0:0:0:
256,192,168347,1,0,0:0:0:0:
256,192,168768,1,0,0:0:0:0:
256,192,168873,1,2,0:0:0:0:
256,192,168978,1,0,0:0:0:0:
256,192,169083,1,0,0:0:0:0:
256,192,169189,1,2,0:0:0:0:
256,192,169294,1,2,0:0:0:0:
256,192,169399,1,0,0:0:0:0:
256,192,169609,1,2,0:0:0:0:
256,192,169714,1,0,0:0:0:0:
256,192,169819,1,2,0:0:0:0:
256,192,170030,1,0,0:0:0:0:
256,192,170135,1,0,0:0:0:0:
256,192,170240,1,0,0:0:0:0:
256,192,170450,1,0,0:0:0:0:
256,192,170660,1,2,0:0:0:0:
256,192,170976,1,2,0:0:0:0:
256,192,171081,1,0,0:0:0:0:
256,192,171291,1,0,0:0:0:0:
256,192,171501,1,2,0:0:0:0:
256,192,171712,1,0,0:0:0:0:
256,192,171817,1,0,0:0:0:0:
256,192,171922,1,0,0:0:0:0:
256,192,172132,1,0,0:0:0:0:
256,192,172343,1,2,0:0:0:0:
256,192,172658,1,2,0:0:0:0:
256,192,172763,1,0,0:0:0:0:
256,192,172973,1,2,0:0:0:0:
256,192,173184,1,2,0:0:0:0:
256,192,173394,1,0,0:0:0:0:
256,192,173499,1,2,0:0:0:0:
256,192,173604,1,0,0:0:0:0:
256,192,173814,1,0,0:0:0:0:
256,192,173920,1,0,0:0:0:0:
256,192,174025,1,2,0:0:0:0:
256,192,174340,1,2,0:0:0:0:
256,192,174445,1,0,0:0:0:0:
256,192,174656,1,0,0:0:0:0:
256,192,174866,1,2,0:0:0:0:
256,192,175076,1,0,0:0:0:0:
256,192,175181,1,2,0:0:0:0:
256,192,175286,1,0,0:0:0:0:
256,192,175497,1,0,0:0:0:0:
256,192,175707,1,2,0:0:0:0:
256,192,176022,1,0,0:0:0:0:
256,192,176127,1,6,0:0:0:0:
256,192,176443,1,0,0:0:0:0:
256,192,176548,1,2,0:0:0:0:
256,192,176758,1,2,0:0:0:0:
256,192,176968,1,0,0:0:0:0:
256,192,177179,1,0,0:0:0:0:
256,192,177284,1,0,0:0:0:0:
256,192,177389,1,2,0:0:0:0:
256,192,177704,1,2,0:0:0:0:
256,192,177810,1,0,0:0:0:0:
256,192,178020,1,2,0:0:0:0:
256,192,178125,1,0,0:0:0:0:
256,192,178230,1,0,0:0:0:0:
256,192,178440,1,2,0:0:0:0:
256,192,178651,1,0,0:0:0:0:
256,192,178861,1,0,0:0:0:0:
256,192,178966,1,0,0:0:0:0:
256,192,179071,1,2,0:0:0:0:
256,192,179387,1,2,0:0:0:0:
256,192,179492,1,0,0:0:0:0:
256,192,179702,1,2,0:0:0:0:
256,192,179912,1,0,0:0:0:0:
256,192,180017,1,2,0:0:0:0:
256,192,180122,1,2,0:0:0:0:
256,192,180228,1,0,0:0:0:0:
256,192,180333,1,0,0:0:0:0:
256,192,180543,1,2,0:0:0:0:
256,192,180753,1,2,0:0:0:0:
256,192,181069,1,2,0:0:0:0:
256,192,181174,1,0,0:0:0:0:
256,192,181384,1,0,0:0:0:0:
256,192,181489,1,2,0:0:0:0:
256,192,181594,1,0,0:0:0:0:
256,192,181699,1,0,0:0:0:0:
256,192,181805,1,2,0:0:0:0:
256,192,181910,1,0,0:0:0:0:
256,192,182015,1,0,0:0:0:0:
256,192,182225,1,0,0:0:0:0:
256,192,182330,1,0,0:0:0:0:
256,192,182435,1,2,0:0:0:0:
256,192,182751,1,0,0:0:0:0:
256,192,182856,1,6,0:0:0:0:
256,192,183277,1,2,0:0:0:0:
256,192,183487,1,0,0:0:0:0:
256,192,183592,1,2,0:0:0:0:
256,192,183697,1,2,0:0:0:0:
256,192,183802,1,0,0:0:0:0:
256,192,183907,1,0,0:0:0:0:
256,192,184012,1,0,0:0:0:0:
256,192,184118,1,2,0:0:0:0:
256,192,184433,1,2,0:0:0:0:
256,192,184538,1,0,0:0:0:0:
256,192,184748,1,2,0:0:0:0:
256,192,184854,1,0,0:0:0:0:
256,192,184959,1,0,0:0:0:0:
256,192,185169,1,0,0:0:0:0:
256,192,185274,1,0,0:0:0:0:
256,192,185379,1,0,0:0:0:0:
256,192,185589,1,0,0:0:0:0:
256,192,185695,1,2,0:0:0:0:
256,192,185800,1,2,0:0:0:0:
256,192,185905,1,2,0:0:0:0:
256,192,186010,1,2,0:0:0:0:
256,192,186115,1,2,0:0:0:0:
256,192,186220,1,4,0:0:0:0:
256,192,187061,1,2,0:0:0:0:
256,192,187482,1,2,0:0:0:0:
256,192,187797,1,2,0:0:0:0:
256,192,187902,1,4,0:0:0:0:
256,192,188218,1,4,0:0:0:0:
256,192,188533,1,4,0:0:0:0:
256,192,188743,1,2,0:0:0:0:
256,192,188954,1,0,0:0:0:0:
256,192,189024,1,0,0:0:0:0:
256,192,189094,1,0,0:0:0:0:
256,192,189585,1,4,0:0:0:0:
256,192,189795,1,0,0:0:0:0:
256,192,189900,1,2,0:0:0:0:
256,192,190215,1,0,0:0:0:0:
256,192,190426,1,2,0:0:0:0:
256,192,190531,1,2,0:0:0:0:
256,192,190741,1,0,0:0:0:0:
256,192,190846,1,2,0:0:0:0:
256,192,191056,1,0,0:0:0:0:
256,192,191267,1,2,0:0:0:0:
256,192,191477,1,2,0:0:0:0:
256,192,191582,1,2,0:0:0:0:
256,192,191792,1,2,0:0:0:0:
256,192,191898,1,0,0:0:0:0:
256,192,192108,1,0,0:0:0:0:
256,192,192213,1,2,0:0:0:0:
256,192,192423,1,2,0:0:0:0:
256,192,192528,1,2,0:0:0:0:
256,192,192739,1,0,0:0:0:0:
256,192,192949,1,2,0:0:0:0:
256,192,193159,1,0,0:0:0:0:
256,192,193264,1,2,0:0:0:0:
256,192,193475,1,0,0:0:0:0:
256,192,193580,1,2,0:0:0:0:
256,192,193790,1,0,0:0:0:0:
256,192,193895,1,2,0:0:0:0:
256,192,194105,1,0,0:0:0:0:
256,192,194210,1,2,0:0:0:0:
256,192,194421,1,0,0:0:0:0:
256,192,194631,1,2,0:0:0:0:
256,192,194841,1,2,0:0:0:0:
256,192,194946,1,0,0:0:0:0:
256,192,195157,1,2,0:0:0:0:
256,192,195262,1,0,0:0:0:0:
256,192,195472,1,2,0:0:0:0:
256,192,195577,1,0,0:0:0:0:
256,192,195787,1,0,0:0:0:0:
256,192,195893,1,2,0:0:0:0:
256,192,196103,1,2,0:0:0:0:
256,192,196313,1,0,0:0:0:0:
256,192,196523,1,0,0:0:0:0:
256,192,196734,1,6,0:0:0:0:
256,192,196944,1,0,0:0:0:0:
256,192,197014,1,0,0:0:0:0:
256,192,197084,1,0,0:0:0:0:
256,192,197154,1,0,0:0:0:0:
256,192,197259,1,2,0:0:0:0:
256,192,197470,1,0,0:0:0:0:
256,192,197576,1,2,0:0:0:0:
256,192,197785,1,0,0:0:0:0:
256,192,197855,1,0,0:0:0:0:
256,192,197925,1,0,0:0:0:0:
256,192,197995,1,2,0:0:0:0:
256,192,198206,1,0,0:0:0:0:
256,192,198311,1,2,0:0:0:0:
256,192,198416,1,0,0:0:0:0:
256,192,198521,1,0,0:0:0:0:
256,192,198626,1,0,0:0:0:0:
256,192,198836,1,2,0:0:0:0:
256,192,198941,1,0,0:0:0:0:
256,192,199012,1,0,0:0:0:0:
256,192,199082,1,2,0:0:0:0:
256,192,199152,1,2,0:0:0:0:
256,192,199257,1,2,0:0:0:0:
256,192,199467,1,0,0:0:0:0:
256,192,199677,1,2,0:0:0:0:
256,192,199888,1,2,0:0:0:0:
256,192,199993,1,2,0:0:0:0:
256,192,200203,1,2,0:0:0:0:
256,192,200308,1,0,0:0:0:0:
256,192,200378,1,0,0:0:0:0:
256,192,200448,1,0,0:0:0:0:
256,192,200518,1,2,0:0:0:0:
256,192,200729,1,0,0:0:0:0:
256,192,200834,1,2,0:0:0:0:
256,192,200939,1,0,0:0:0:0:
256,192,201149,1,0,0:0:0:0:
256,192,201360,1,2,0:0:0:0:
256,192,201570,1,2,0:0:0:0:
256,192,201640,1,2,0:0:0:0:
256,192,201710,1,0,0:0:0:0:
256,192,201780,1,0,0:0:0:0:
256,192,201885,1,2,0:0:0:0:
256,192,202096,1,0,0:0:0:0:
256,192,202201,1,2,0:0:0:0:
256,192,202306,1,2,0:0:0:0:
256,192,202411,1,0,0:0:0:0:
256,192,202481,1,2,0:0:0:0:
256,192,202551,1,2,0:0:0:0:
256,192,202621,1,0,0:0:0:0:
256,192,202831,1,2,0:0:0:0:
256,192,203042,1,6,0:0:0:0:
256,192,203252,1,0,0:0:0:0:
256,192,203357,1,2,0:0:0:0:
256,192,203673,1,0,0:0:0:0:
256,192,203883,1,2,0:0:0:0:
256,192,203988,1,2,0:0:0:0:
256,192,204198,1,0,0:0:0:0:
256,192,204303,1,2,0:0:0:0:
256,192,204514,1,0,0:0:0:0:
256,192,204724,1,2,0:0:0:0:
256,192,204934,1,2,0:0:0:0:
256,192,205039,1,0,0:0:0:0:
256,192,205144,1,2,0:0:0:0:
256,192,205250,1,2,0:0:0:0:
256,192,205355,1,0,0:0:0:0:
256,192,205565,1,2,0:0:0:0:
256,192,205670,1,2,0:0:0:0:
256,192,205880,1,2,0:0:0:0:
256,192,205985,1,2,0:0:0:0:
256,192,206196,1,0,0:0:0:0:
256,192,206406,1,2,0:0:0:0:
256,192,206616,1,2,0:0:0:0:
256,192,206721,1,0,0:0:0:0:
256,192,206932,1,2,0:0:0:0:
256,192,207037,1,0,0:0:0:0:
256,192,207247,1,2,0:0:0:0:
256,192,207352,1,0,0:0:0:0:
256,192,207562,1,2,0:0:0:0:
256,192,207668,1,0,0:0:0:0:
256,192,207878,1,0,0:0:0:0:
256,192,208088,1,2,0:0:0:0:
256,192,208298,1,0,0:0:0:0:
256,192,208404,1,2,0:0:0:0:
256,192,208614,1,0,0:0:0:0:
256,192,208719,1,2,0:0:0:0:
256,192,208929,1,0,0:0:0:0:
256,192,209034,1,2,0:0:0:0:
256,192,209245,1,2,0:0:0:0:
256,192,209350,1,2,0:0:0:0:
256,192,209560,1,2,0:0:0:0:
256,192,209770,1,0,0:0:0:0:
256,192,209981,1,0,0:0:0:0:
256,192,210086,1,0,0:0:0:0:
256,192,210191,1,6,0:0:0:0:
256,192,210401,1,0,0:0:0:0:
256,192,210611,1,2,0:0:0:0:
256,192,210716,1,2,0:0:0:0:
256,192,210927,1,0,0:0:0:0:
256,192,211032,1,2,0:0:0:0:
256,192,211242,1,0,0:0:0:0:
256,192,211452,1,2,0:0:0:0:
256,192,211663,1,2,0:0:0:0:
256,192,211768,1,2,0:0:0:0:
256,192,211873,1,0,0:0:0:0:
256,192,211978,1,2,0:0:0:0:
256,192,212083,1,0,0:0:0:0:
256,192,212294,1,0,0:0:0:0:
256,192,212364,1,0,0:0:0:0:
256,192,212434,1,0,0:0:0:0:
256,192,212504,1,0,0:0:0:0:
256,192,212609,1,2,0:0:0:0:
256,192,212714,1,2,0:0:0:0:
256,192,212924,1,0,0:0:0:0:
256,192,213135,1,4,0:0:0:0:
256,192,213345,1,2,0:0:0:0:
256,192,213450,1,2,0:0:0:0:
256,192,213765,1,2,0:0:0:0:
256,192,213871,1,2,0:0:0:0:
256,192,213976,1,0,0:0:0:0:
256,192,214081,1,2,0:0:0:0:
256,192,214186,1,2,0:0:0:0:
256,192,214291,1,2,0:0:0:0:
256,192,214396,1,2,0:0:0:0:
256,192,214606,1,0,0:0:0:0:
256,192,214817,1,6,0:0:0:0:
256,192,215027,1,0,0:0:0:0:
256,192,215097,1,2,0:0:0:0:
256,192,215167,1,2,0:0:0:0:
256,192,215237,1,2,0:0:0:0:
256,192,215342,1,2,0:0:0:0:
256,192,215553,1,2,0:0:0:0:
256,192,215658,1,2,0:0:0:0:
256,192,215763,1,0,0:0:0:0:
256,192,215868,1,2,0:0:0:0:
256,192,215937,1,0,0:0:0:0:
256,192,216007,1,0,0:0:0:0:
256,192,216078,1,0,0:0:0:0:
256,192,216289,1,2,0:0:0:0:
256,192,216499,1,4,0:0:0:0:
256,192,216814,1,2,0:0:0:0:
256,192,217130,1,0,0:0:0:0:
256,192,217340,1,2,0:0:0:0:
256,192,217760,1,2,0:0:0:0:
256,192,218181,1,0,0:0:0:0:
256,192,218496,1,2,0:0:0:0:
256,192,218812,1,0,0:0:0:0:
256,192,219022,1,2,0:0:0:0:
256,192,219443,1,2,0:0:0:0:
256,192,219863,1,0,0:0:0:0:
256,192,220179,1,2,0:0:0:0:
256,192,220494,1,2,0:0:0:0:
256,192,220809,1,2,0:0:0:0:
256,192,221125,1,2,0:0:0:0:
256,192,221335,1,0,0:0:0:0:
256,192,221545,1,2,0:0:0:0:
256,192,221861,1,2,0:0:0:0:
256,192,222176,1,2,0:0:0:0:
256,192,222492,1,2,0:0:0:0:
256,192,222807,1,2,0:0:0:0:
256,192,223017,1,0,0:0:0:0:
256,192,223227,1,2,0:0:0:0:
256,192,223543,1,2,0:0:0:0:
256,192,224069,1,2,0:0:0:0:
256,192,224489,1,2,0:0:0:0:
256,192,224910,1,0,0:0:0:0:
256,192,225225,1,2,0:0:0:0:
256,192,225751,1,2,0:0:0:0:
256,192,226171,1,2,0:0:0:0:
256,192,226592,1,0,0:0:0:0:
256,192,226907,1,0,0:0:0:0:
256,192,227223,1,0,0:0:0:0:
256,192,227538,1,0,0:0:0:0:
256,192,227853,1,0,0:0:0:0:
256,192,228274,1,0,0:0:0:0:
256,192,228589,1,0,0:0:0:0:
256,192,228905,1,0,0:0:0:0:
256,192,229115,1,2,0:0:0:0:
256,192,229220,1,0,0:0:0:0:
256,192,229325,1,2,0:0:0:0:
256,192,229430,1,0,0:0:0:0:
256,192,229535,1,2,0:0:0:0:
256,192,229641,1,2,0:0:0:0:
256,192,229746,1,0,0:0:0:0:
256,192,229956,1,4,0:0:0:0:
256,192,230377,1,0,0:0:0:0:
256,192,230797,1,2,0:0:0:0:
256,192,231218,1,0,0:0:0:0:
256,192,231638,1,2,0:0:0:0:
256,192,232059,1,0,0:0:0:0:
256,192,232479,1,2,0:0:0:0:
256,192,232900,1,0,0:0:0:0:
256,192,233320,1,0,0:0:0:0:
256,192,233741,1,0,0:0:0:0:
256,192,234161,1,2,0:0:0:0:
256,192,234582,1,0,0:0:0:0:
256,192,235002,1,2,0:0:0:0:
256,192,235423,1,0,0:0:0:0:
256,192,235844,1,2,0:0:0:0:
256,192,236264,1,0,0:0:0:0:
256,192,236685,1,0,0:0:0:0:
256,192,237105,1,0,0:0:0:0:
256,192,237526,1,2,0:0:0:0:
256,192,237946,1,0,0:0:0:0:
256,192,238367,1,2,0:0:0:0:
256,192,238787,1,0,0:0:0:0:
256,192,239208,1,2,0:0:0:0:
256,192,239628,1,0,0:0:0:0:
256,192,240049,1,0,0:0:0:0:
256,192,240469,1,0,0:0:0:0:
256,192,240890,1,2,0:0:0:0:
256,192,241311,1,0,0:0:0:0:
256,192,241731,1,2,0:0:0:0:
256,192,242152,1,0,0:0:0:0:
256,192,242572,1,2,0:0:0:0:
256,192,242993,1,0,0:0:0:0:
256,192,243413,1,4,0:0:0:0:
256,192,243834,1,2,0:0:0:0:
256,192,244254,1,2,0:0:0:0:
256,192,244675,1,2,0:0:0:0:
256,192,244885,1,0,0:0:0:0:
256,192,245095,1,2,0:0:0:0:
256,192,245516,1,2,0:0:0:0:
256,192,245726,1,0,0:0:0:0:
256,192,245936,1,2,0:0:0:0:
256,192,246357,1,2,0:0:0:0:
256,192,246567,1,0,0:0:0:0:
256,192,246777,1,0,0:0:0:0:
256,192,247198,1,2,0:0:0:0:
256,192,247408,1,0,0:0:0:0:
256,192,247619,1,2,0:0:0:0:
256,192,248039,1,2,0:0:0:0:
256,192,248249,1,0,0:0:0:0:
256,192,248460,1,0,0:0:0:0:
256,192,248880,1,2,0:0:0:0:
256,192,249090,1,0,0:0:0:0:
256,192,249301,1,2,0:0:0:0:
256,192,249721,1,2,0:0:0:0:
256,192,250142,1,0,0:0:0:0:
256,192,250562,1,2,0:0:0:0:
256,192,250983,1,2,0:0:0:0:
256,192,251403,1,2,0:0:0:0:
256,192,251614,1,0,0:0:0:0:
256,192,251824,1,2,0:0:0:0:
256,192,252244,1,2,0:0:0:0:
256,192,252455,1,0,0:0:0:0:
256,192,252665,1,2,0:0:0:0:
256,192,253086,1,2,0:0:0:0:
256,192,253296,1,0,0:0:0:0:
256,192,253506,1,0,0:0:0:0:
256,192,253927,1,2,0:0:0:0:
256,192,254137,1,0,0:0:0:0:
256,192,254347,1,2,0:0:0:0:
256,192,254768,1,2,0:0:0:0:
256,192,254978,1,0,0:0:0:0:
256,192,255188,1,0,0:0:0:0:
256,192,255609,1,2,0:0:0:0:
256,192,255819,1,0,0:0:0:0:
256,192,256029,1,2,0:0:0:0:
256,192,256450,1,2,0:0:0:0:
256,192,256870,1,4,0:0:0:0:
256,192,257501,1,0,0:0:0:0:
256,192,258132,1,2,0:0:0:0:
256,192,258342,1,0,0:0:0:0:
256,192,259183,1,0,0:0:0:0:
256,192,259394,1,2,0:0:0:0:
256,192,259814,1,2,0:0:0:0:
256,192,260024,1,0,0:0:0:0:
256,192,260235,1,0,0:0:0:0:
256,192,260655,1,0,0:0:0:0:
256,192,261076,1,0,0:0:0:0:
256,192,261496,1,0,0:0:0:0:
256,192,261917,1,0,0:0:0:0:
256,192,262337,1,0,0:0:0:0:
256,192,262758,1,0,0:0:0:0:
256,192,263178,1,0,0:0:0:0:
256,192,263599,1,6,0:0:0:0:
256,192,264230,1,0,0:0:0:0:
256,192,264861,1,2,0:0:0:0:
256,192,265071,1,0,0:0:0:0:
256,192,265912,1,0,0:0:0:0:
256,192,266122,1,2,0:0:0:0:
256,192,266543,1,2,0:0:0:0:
256,192,266753,1,0,0:0:0:0:
256,192,266963,1,0,0:0:0:0:
256,192,267384,1,0,0:0:0:0:
256,192,267804,1,0,0:0:0:0:
256,192,268225,1,0,0:0:0:0:
32,32,268645,2,0,L|160:32,1,125.999996154785
256,192,269486,1,2,0:0:0:0:
256,192,269697,1,0,0:0:0:0:
256,192,270327,1,4,0:0:0:0:
256,192,270748,1,0,0:0:0:0:
256,192,271169,1,0,0:0:0:0:
256,192,271589,1,0,0:0:0:0:
256,192,272010,1,0,0:0:0:0:
256,192,272430,1,0,0:0:0:0:
256,192,272851,1,0,0:0:0:0:
256,192,273271,1,0,0:0:0:0:
256,192,273692,1,0,0:0:0:0:
256,192,274112,1,0,0:0:0:0:
256,192,274533,1,0,0:0:0:0:
256,192,274953,1,0,0:0:0:0:
256,192,275374,1,2,0:0:0:0:
256,192,275794,1,0,0:0:0:0:
256,192,276215,1,0,0:0:0:0:
256,192,276636,1,0,0:0:0:0:
256,192,277056,1,0,0:0:0:0:
256,192,277266,1,0,0:0:0:0:
256,192,277371,1,0,0:0:0:0:
256,192,277582,1,2,0:0:0:0:
256,192,277897,1,0,0:0:0:0:
256,192,278107,1,0,0:0:0:0:
256,192,278213,1,0,0:0:0:0:
256,192,278423,1,0,0:0:0:0:
256,192,278528,1,2,0:0:0:0:
256,192,278633,1,2,0:0:0:0:
256,192,278738,1,0,0:0:0:0:
256,192,278948,1,0,0:0:0:0:
256,192,279054,1,0,0:0:0:0:
256,192,279264,1,2,0:0:0:0:
256,192,279579,1,0,0:0:0:0:
256,192,279684,1,0,0:0:0:0:
256,192,279790,1,2,0:0:0:0:
256,192,279895,1,0,0:0:0:0:
256,192,280105,1,0,0:0:0:0:
256,192,280210,1,2,0:0:0:0:
256,192,280315,1,2,0:0:0:0:
256,192,280420,1,0,0:0:0:0:
256,192,280631,1,0,0:0:0:0:
256,192,280736,1,0,0:0:0:0:
256,192,280946,1,2,0:0:0:0:
256,192,281261,1,0,0:0:0:0:
256,192,281472,1,0,0:0:0:0:
256,192,281577,1,2,0:0:0:0:
256,192,281787,1,0,0:0:0:0:
256,192,281892,1,2,0:0:0:0:
256,192,281997,1,0,0:0:0:0:
256,192,282103,1,0,0:0:0:0:
256,192,282313,1,0,0:0:0:0:
256,192,282418,1,0,0:0:0:0:
256,192,282628,1,2,0:0:0:0:
256,192,282944,1,0,0:0:0:0:
256,192,283049,1,0,0:0:0:0:
256,192,283154,1,2,0:0:0:0:
256,192,283259,1,0,0:0:0:0:
256,192,283364,1,0,0:0:0:0:
256,192,283469,1,2,0:0:0:0:
256,192,283574,1,2,0:0:0:0:
256,192,283680,1,0,0:0:0:0:
256,192,283785,1,6,0:0:0:0:
256,192,283995,1,0,0:0:0:0:
256,192,284100,1,0,0:0:0:0:
256,192,284310,1,2,0:0:0:0:
256,192,284626,1,0,0:0:0:0:
256,192,284836,1,0,0:0:0:0:
256,192,284941,1,0,0:0:0:0:
256,192,285151,1,0,0:0:0:0:
256,192,285257,1,2,0:0:0:0:
256,192,285362,1,0,0:0:0:0:
256,192,285467,1,0,0:0:0:0:
256,192,285677,1,0,0:0:0:0:
256,192,285782,1,0,0:0:0:0:
256,192,285992,1,2,0:0:0:0:
256,192,286308,1,0,0:0:0:0:
256,192,286413,1,0,0:0:0:0:
256,192,286518,1,2,0:0:0:0:
256,192,286623,1,2,0:0:0:0:
256,192,286728,1,0,0:0:0:0:
256,192,286834,1,2,0:0:0:0:
256,192,287044,1,2,0:0:0:0:
256,192,287149,1,0,0:0:0:0:
256,192,287359,1,0,0:0:0:0:
256,192,287464,1,0,0:0:0:0:
256,192,287675,1,2,0:0:0:0:
256,192,287990,1,0,0:0:0:0:
256,192,288200,1,0,0:0:0:0:
256,192,288305,1,0,0:0:0:0:
256,192,288516,1,2,0:0:0:0:
256,192,288621,1,0,0:0:0:0:
256,192,288726,1,0,0:0:0:0:
256,192,288831,1,0,0:0:0:0:
256,192,289041,1,0,0:0:0:0:
256,192,289146,1,0,0:0:0:0:
256,192,289357,1,2,0:0:0:0:
256,192,289672,1,2,0:0:0:0:
256,192,289777,1,2,0:0:0:0:
256,192,289882,1,2,0:0:0:0:
256,192,289988,1,0,0:0:0:0:
256,192,290093,1,2,0:0:0:0:
256,192,290198,1,2,0:0:0:0:
256,192,290303,1,2,0:0:0:0:
256,192,290408,1,0,0:0:0:0:
256,192,290513,1,6,0:0:0:0:
256,192,290724,1,2,0:0:0:0:
256,192,290829,1,2,0:0:0:0:
256,192,291039,1,2,0:0:0:0:
256,192,291144,1,0,0:0:0:0:
256,192,291354,1,2,0:0:0:0:
256,192,291565,1,2,0:0:0:0:
256,192,291670,1,2,0:0:0:0:
256,192,291880,1,0,0:0:0:0:
256,192,291985,1,2,0:0:0:0:
256,192,292090,1,2,0:0:0:0:
256,192,292195,1,2,0:0:0:0:
256,192,292406,1,2,0:0:0:0:
256,192,292511,1,0,0:0:0:0:
256,192,292721,1,2,0:0:0:0:
256,192,293036,1,0,0:0:0:0:
256,192,293141,1,0,0:0:0:0:
256,192,293247,1,2,0:0:0:0:
256,192,293352,1,0,0:0:0:0:
256,192,293562,1,0,0:0:0:0:
256,192,293667,1,2,0:0:0:0:
256,192,293772,1,2,0:0:0:0:
256,192,293878,1,4,0:0:0:0:
256,192,294088,1,2,0:0:0:0:
256,192,294193,1,0,0:0:0:0:
256,192,294403,1,2,0:0:0:0:
256,192,294719,1,0,0:0:0:0:
256,192,294824,1,0,0:0:0:0:
256,192,294929,1,2,0:0:0:0:
256,192,295034,1,0,0:0:0:0:
256,192,295244,1,0,0:0:0:0:
256,192,295349,1,2,0:0:0:0:
256,192,295455,1,2,0:0:0:0:
256,192,295560,1,4,0:0:0:0:
256,192,295770,1,2,0:0:0:0:
256,192,295875,1,0,0:0:0:0:
256,192,296085,1,2,0:0:0:0:
256,192,296401,1,0,0:0:0:0:
256,192,296506,1,0,0:0:0:0:
256,192,296611,1,2,0:0:0:0:
256,192,296716,1,0,0:0:0:0:
256,192,296821,1,0,0:0:0:0:
256,192,296926,1,2,0:0:0:0:
256,192,297242,1,0,0:0:0:0:
256,192,297312,1,0,0:0:0:0:
256,192,297382,1,0,0:0:0:0:
256,192,297452,1,0,0:0:0:0:
256,192,297662,1,2,0:0:0:0:
256,192,297732,1,2,0:0:0:0:
256,192,297803,1,2,0:0:0:0:
256,192,297873,1,2,0:0:0:0:
256,192,298083,1,0,0:0:0:0:
256,192,298153,1,0,0:0:0:0:
256,192,298223,1,0,0:0:0:0:
256,192,298293,1,0,0:0:0:0:
256,192,298503,1,2,0:0:0:0:
256,192,298574,1,2,0:0:0:0:
256,192,298644,1,2,0:0:0:0:
256,192,298714,1,2,0:0:0:0:
256,192,298924,1,0,0:0:0:0:
256,192,298994,1,0,0:0:0:0:
256,192,299064,1,0,0:0:0:0:
256,192,299134,1,0,0:0:0:0:
256,192,299344,1,2,0:0:0:0:
256,192,299415,1,2,0:0:0:0:
256,192,299485,1,2,0:0:0:0:
256,192,299555,1,2,0:0:0:0:
256,192,299765,1,0,0:0:0:0:
256,192,299835,1,0,0:0:0:0:
256,192,299905,1,0,0:0:0:0:
256,192,299975,1,0,0:0:0:0:
256,192,300186,1,2,0:0:0:0:
256,192,300606,1,0,0:0:0:0:
256,192,300676,1,0,0:0:0:0:
256,192,300746,1,0,0:0:0:0:
256,192,300816,1,0,0:0:0:0:
256,192,301027,1,2,0:0:0:0:
256,192,301097,1,2,0:0:0:0:
256,192,301167,1,2,0:0:0:0:
256,192,301237,1,2,0:0:0:0:
256,192,301447,1,0,0:0:0:0:
256,192,301517,1,0,0:0:0:0:
256,192,301587,1,0,0:0:0:0:
256,192,301657,1,0,0:0:0:0:
256,192,301868,1,2,0:0:0:0:
256,192,301938,1,2,0:0:0:0:
256,192,302008,1,2,0:0:0:0:
256,192,302078,1,2,0:0:0:0:
256,192,302288,1,0,0:0:0:0:
256,192,302499,1,0,0:0:0:0:
256,192,302709,1,6,0:0:0:0:
256,192,303129,1,0,0:0:0:0:
256,192,303340,1,0,0:0:0:0:
256,192,303550,1,6,0:0:0:0:
256,192,303970,1,4,0:0:0:0:
256,192,304181,1,4,0:0:0:0:
256,192,304391,1,6,0:0:0:0:
256,192,304601,1,4,0:0:0:0:
256,192,304811,1,4,0:0:0:0:
256,192,305022,1,4,0:0:0:0:
256,192,305232,1,6,0:0:0:0:
256,192,305653,1,4,0:0:0:0:
256,192,305863,1,4,0:0:0:0:
256,192,306073,1,6,0:0:0:0:
256,192,306283,1,4,0:0:0:0:
256,192,306494,1,4,0:0:0:0:
256,192,306704,1,4,0:0:0:0:
256,192,306914,1,6,0:0:0:0:
256,192,307335,1,2,0:0:0:0:
256,192,307440,1,0,0:0:0:0:
256,192,307545,1,2,0:0:0:0:
256,192,307650,1,0,0:0:0:0:
256,192,307755,1,0,0:0:0:0:
256,192,307825,1,0,0:0:0:0:
256,192,307895,1,0,0:0:0:0:
256,192,307965,1,0,0:0:0:0:
256,192,308036,1,0,0:0:0:0:
256,192,308106,1,0,0:0:0:0:
256,192,308176,1,2,0:0:0:0:
256,192,308281,1,0,0:0:0:0:
256,192,308386,1,2,0:0:0:0:
256,192,308491,1,0,0:0:0:0:
256,192,308596,1,2,0:0:0:0:
256,192,308666,1,2,0:0:0:0:
256,192,308736,1,2,0:0:0:0:
256,192,308807,1,2,0:0:0:0:
256,192,308877,1,2,0:0:0:0:
32,28,309017,2,0,L|52:28,32,19.2500005874634
256,192,310909,1,0,0:0:0:0:
256,192,311014,1,2,0:0:0:0:
256,192,311225,1,2,0:0:0:0:
256,192,311330,1,2,0:0:0:0:
256,192,311540,1,0,0:0:0:0:
256,192,311750,1,0,0:0:0:0:
256,192,311855,1,0,0:0:0:0:
256,192,312066,1,2,0:0:0:0:
256,192,312381,1,0,0:0:0:0:
256,192,312591,1,0,0:0:0:0:
256,192,312697,1,0,0:0:0:0:
256,192,312907,1,2,0:0:0:0:
256,192,313012,1,0,0:0:0:0:
256,192,313117,1,0,0:0:0:0:
256,192,313222,1,0,0:0:0:0:
256,192,313327,1,2,0:0:0:0:
256,192,313432,1,0,0:0:0:0:
256,192,313643,1,0,0:0:0:0:
256,192,313748,1,2,0:0:0:0:
256,192,313958,1,2,0:0:0:0:
256,192,314063,1,4,0:0:0:0:
256,192,314274,1,2,0:0:0:0:
256,192,314379,1,0,0:0:0:0:
256,192,314589,1,2,0:0:0:0:
256,192,314904,1,0,0:0:0:0:
256,192,315115,1,2,0:0:0:0:
256,192,315220,1,0,0:0:0:0:
256,192,315430,1,0,0:0:0:0:
256,192,315535,1,2,0:0:0:0:
256,192,315640,1,0,0:0:0:0:
256,192,315745,1,0,0:0:0:0:
256,192,315956,1,2,0:0:0:0:
256,192,316061,1,0,0:0:0:0:
256,192,316271,1,2,0:0:0:0:
256,192,316586,1,0,0:0:0:0:
256,192,316692,1,0,0:0:0:0:
256,192,316797,1,2,0:0:0:0:
256,192,316902,1,0,0:0:0:0:
256,192,317007,1,0,0:0:0:0:
256,192,317112,1,2,0:0:0:0:
256,192,317322,1,2,0:0:0:0:
256,192,317428,1,0,0:0:0:0:
256,192,317638,1,2,0:0:0:0:
256,192,317743,1,0,0:0:0:0:
256,192,317953,1,2,0:0:0:0:
256,192,318269,1,0,0:0:0:0:
256,192,318374,1,0,0:0:0:0:
256,192,318479,1,2,0:0:0:0:
256,192,318584,1,0,0:0:0:0:
256,192,318794,1,2,0:0:0:0:
256,192,319005,1,2,0:0:0:0:
256,192,319110,1,0,0:0:0:0:
256,192,319320,1,2,0:0:0:0:
256,192,319425,1,0,0:0:0:0:
256,192,319635,1,2,0:0:0:0:
256,192,319951,1,0,0:0:0:0:
256,192,320056,1,2,0:0:0:0:
256,192,320161,1,2,0:0:0:0:
256,192,320266,1,0,0:0:0:0:
256,192,320476,1,2,0:0:0:0:
256,192,320582,1,2,0:0:0:0:
256,192,320687,1,2,0:0:0:0:
256,192,320792,1,0,0:0:0:0:
256,192,321002,1,2,0:0:0:0:
256,192,321107,1,0,0:0:0:0:
256,192,321318,1,2,0:0:0:0:
256,192,321633,1,0,0:0:0:0:
256,192,321843,1,2,0:0:0:0:
256,192,321948,1,0,0:0:0:0:
256,192,322159,1,0,0:0:0:0:
256,192,322264,1,2,0:0:0:0:
256,192,322369,1,2,0:0:0:0:
256,192,322474,1,0,0:0:0:0:
256,192,322684,1,0,0:0:0:0:
256,192,322789,1,2,0:0:0:0:
256,192,323000,1,2,0:0:0:0:
256,192,323315,1,2,0:0:0:0:
256,192,323420,1,2,0:0:0:0:
256,192,323525,1,2,0:0:0:0:
256,192,323630,1,0,0:0:0:0:
256,192,323841,1,2,0:0:0:0:
256,192,323946,1,2,0:0:0:0:
256,192,324051,1,0,0:0:0:0:
256,192,324156,1,0,0:0:0:0:
256,192,324366,1,0,0:0:0:0:
256,192,324472,1,0,0:0:0:0:
256,192,324577,1,2,0:0:0:0:
256,192,324787,1,2,0:0:0:0:
256,192,324892,1,2,0:0:0:0:
256,192,324997,1,0,0:0:0:0:
256,192,325102,1,0,0:0:0:0:
256,192,325207,1,0,0:0:0:0:
256,192,325313,1,0,0:0:0:0:
256,192,325418,1,2,0:0:0:0:
256,192,325628,1,2,0:0:0:0:
256,192,325733,1,0,0:0:0:0:
256,192,325838,1,2,0:0:0:0:
256,192,326049,1,0,0:0:0:0:
256,192,326154,1,2,0:0:0:0:
256,192,326364,1,2,0:0:0:0:
256,192,326574,1,2,0:0:0:0:
256,192,326679,1,0,0:0:0:0:
256,192,326784,1,2,0:0:0:0:
256,192,326890,1,0,0:0:0:0:
256,192,326995,1,0,0:0:0:0:
256,192,327205,1,0,0:0:0:0:
256,192,327310,1,2,0:0:0:0:
256,192,327415,1,2,0:0:0:0:
256,192,327520,1,4,0:0:0:0:
256,192,327731,1,2,0:0:0:0:
256,192,327836,1,0,0:0:0:0:
256,192,328046,1,2,0:0:0:0:
256,192,328361,1,0,0:0:0:0:
256,192,328572,1,2,0:0:0:0:
256,192,328677,1,0,0:0:0:0:
256,192,328887,1,0,0:0:0:0:
256,192,328992,1,0,0:0:0:0:
256,192,329097,1,2,0:0:0:0:
256,192,329203,1,0,0:0:0:0:
256,192,329413,1,2,0:0:0:0:
256,192,329518,1,0,0:0:0:0:
256,192,329728,1,2,0:0:0:0:
256,192,330044,1,0,0:0:0:0:
256,192,330149,1,0,0:0:0:0:
256,192,330254,1,2,0:0:0:0:
256,192,330359,1,0,0:0:0:0:
256,192,330569,1,2,0:0:0:0:
256,192,330780,1,2,0:0:0:0:
256,192,330885,1,0,0:0:0:0:
256,192,331095,1,2,0:0:0:0:
256,192,331200,1,0,0:0:0:0:
256,192,331410,1,2,0:0:0:0:
256,192,331726,1,0,0:0:0:0:
256,192,331936,1,2,0:0:0:0:
256,192,332041,1,0,0:0:0:0:
256,192,332251,1,2,0:0:0:0:
256,192,332567,1,0,0:0:0:0:
256,192,332777,1,2,0:0:0:0:
256,192,332882,1,0,0:0:0:0:
256,192,333093,1,2,0:0:0:0:
256,192,333408,1,2,0:0:0:0:
256,192,333513,1,2,0:0:0:0:
256,192,333618,1,2,0:0:0:0:
256,192,333723,1,0,0:0:0:0:
256,192,333934,1,0,0:0:0:0:
256,192,334144,1,2,0:0:0:0:
256,192,334249,1,0,0:0:0:0:
256,192,334459,1,2,0:0:0:0:
256,192,334564,1,0,0:0:0:0:
256,192,334775,1,2,0:0:0:0:
256,192,335090,1,0,0:0:0:0:
256,192,335300,1,2,0:0:0:0:
256,192,335405,1,0,0:0:0:0:
256,192,335616,1,0,0:0:0:0:
256,192,335721,1,2,0:0:0:0:
256,192,335826,1,2,0:0:0:0:
256,192,335931,1,0,0:0:0:0:
256,192,336141,1,2,0:0:0:0:
256,192,336247,1,0,0:0:0:0:
256,192,336457,1,2,0:0:0:0:
256,192,336772,1,0,0:0:0:0:
256,192,336877,1,0,0:0:0:0:
256,192,336982,1,2,0:0:0:0:
256,192,337088,1,0,0:0:0:0:
256,192,337298,1,2,0:0:0:0:
256,192,337508,1,0,0:0:0:0:
256,192,337613,1,2,0:0:0:0:
256,192,337718,1,2,0:0:0:0:
256,192,337824,1,0,0:0:0:0:
256,192,337929,1,0,0:0:0:0:
256,192,338034,1,2,0:0:0:0:
256,192,338244,1,2,0:0:0:0:
256,192,338349,1,0,0:0:0:0:
256,192,338454,1,2,0:0:0:0:
256,192,338559,1,0,0:0:0:0:
256,192,338770,1,2,0:0:0:0:
256,192,338875,1,2,0:0:0:0:
256,192,339085,1,2,0:0:0:0:
256,192,339190,1,0,0:0:0:0:
256,192,339295,1,6,0:0:0:0:
256,192,339611,1,6,0:0:0:0:
256,192,339821,1,6,0:0:0:0:
256,192,340137,1,0,0:0:0:0:
256,192,340242,1,0,0:0:0:0:
256,192,340347,1,2,0:0:0:0:
256,192,340452,1,0,0:0:0:0:
256,192,340557,1,0,0:0:0:0:
256,192,340662,1,0,0:0:0:0:
256,192,340767,1,2,0:0:0:0:
256,192,340872,1,2,0:0:0:0:
256,192,340978,1,4,0:0:0:0:
256,192,341188,1,2,0:0:0:0:
256,192,341293,1,0,0:0:0:0:
256,192,341503,1,2,0:0:0:0:
256,192,341608,1,2,0:0:0:0:
256,192,341819,1,0,0:0:0:0:
256,192,341924,1,0,0:0:0:0:
256,192,342029,1,2,0:0:0:0:
256,192,342134,1,0,0:0:0:0:
256,192,342239,1,0,0:0:0:0:
256,192,342344,1,2,0:0:0:0:
256,192,342449,1,2,0:0:0:0:
256,192,342555,1,0,0:0:0:0:
256,192,342660,1,0,0:0:0:0:
256,192,342870,1,2,0:0:0:0:
256,192,342975,1,0,0:0:0:0:
256,192,343185,1,2,0:0:0:0:
256,192,343291,1,0,0:0:0:0:
256,192,343501,1,2,0:0:0:0:
256,192,343606,1,2,0:0:0:0:
256,192,343711,1,2,0:0:0:0:
256,192,343816,1,0,0:0:0:0:
256,192,343921,1,0,0:0:0:0:
256,192,344026,1,2,0:0:0:0:
256,192,344132,1,2,0:0:0:0:
256,192,344237,1,0,0:0:0:0:
256,192,344342,1,0,0:0:0:0:
256,192,344552,1,0,0:0:0:0:
256,192,344657,1,2,0:0:0:0:
256,192,344762,1,2,0:0:0:0:
256,192,344973,1,2,0:0:0:0:
256,192,345183,1,0,0:0:0:0:
256,192,345288,1,2,0:0:0:0:
256,192,345498,1,0,0:0:0:0:
256,192,345603,1,2,0:0:0:0:
256,192,345814,1,2,0:0:0:0:
256,192,345919,1,0,0:0:0:0:
256,192,346024,1,0,0:0:0:0:
256,192,346234,1,2,0:0:0:0:
256,192,346339,1,0,0:0:0:0:
256,192,346550,1,2,0:0:0:0:
256,192,346760,1,0,0:0:0:0:
256,192,346865,1,0,0:0:0:0:
256,192,346970,1,2,0:0:0:0:
256,192,347075,1,0,0:0:0:0:
256,192,347180,1,0,0:0:0:0:
256,192,347286,1,2,0:0:0:0:
256,192,347391,1,2,0:0:0:0:
256,192,347496,1,0,0:0:0:0:
256,192,347601,1,2,0:0:0:0:
256,192,347706,1,0,0:0:0:0:
256,192,347916,1,0,0:0:0:0:
256,192,348022,1,0,0:0:0:0:
256,192,348232,1,2,0:0:0:0:
256,192,348337,1,2,0:0:0:0:
256,192,348547,1,0,0:0:0:0:
256,192,348757,1,2,0:0:0:0:
256,192,348863,1,0,0:0:0:0:
256,192,348968,1,0,0:0:0:0:
256,192,349073,1,0,0:0:0:0:
256,192,349178,1,2,0:0:0:0:
256,192,349283,1,2,0:0:0:0:
256,192,349388,1,0,0:0:0:0:
256,192,349599,1,2,0:0:0:0:
256,192,349704,1,0,0:0:0:0:
256,192,349914,1,2,0:0:0:0:
256,192,350019,1,0,0:0:0:0:
256,192,350229,1,2,0:0:0:0:
256,192,350335,1,2,0:0:0:0:
256,192,350440,1,2,0:0:0:0:
256,192,350545,1,0,0:0:0:0:
256,192,350650,1,2,0:0:0:0:
256,192,350755,1,2,0:0:0:0:
256,192,350860,1,0,0:0:0:0:
256,192,350965,1,0,0:0:0:0:
256,192,351070,1,2,0:0:0:0:
256,192,351281,1,0,0:0:0:0:
256,192,351386,1,2,0:0:0:0:
256,192,351596,1,0,0:0:0:0:
256,192,351701,1,2,0:0:0:0:
256,192,351912,1,0,0:0:0:0:
256,192,352122,1,0,0:0:0:0:
256,192,352227,1,2,0:0:0:0:
256,192,352437,1,2,0:0:0:0:
256,192,352542,1,0,0:0:0:0:
256,192,352753,1,0,0:0:0:0:
256,192,352963,1,0,0:0:0:0:
256,192,353068,1,2,0:0:0:0:
256,192,353383,1,2,0:0:0:0:
256,192,353594,1,0,0:0:0:0:
256,192,353699,1,0,0:0:0:0:
256,192,353804,1,2,0:0:0:0:
256,192,353909,1,0,0:0:0:0:
256,192,354014,1,2,0:0:0:0:
256,192,354119,1,2,0:0:0:0:
256,192,354330,1,0,0:0:0:0:
256,192,354435,1,6,0:0:0:0:
256,192,354645,1,2,0:0:0:0:
256,192,354750,1,0,0:0:0:0:
256,192,354960,1,2,0:0:0:0:
256,192,355066,1,2,0:0:0:0:
256,192,355276,1,0,0:0:0:0:
256,192,355381,1,0,0:0:0:0:
256,192,355486,1,2,0:0:0:0:
256,192,355591,1,0,0:0:0:0:
256,192,355801,1,0,0:0:0:0:
256,192,355907,1,2,0:0:0:0:
256,192,356012,1,2,0:0:0:0:
256,192,356117,1,0,0:0:0:0:
256,192,356327,1,2,0:0:0:0:
256,192,356432,1,0,0:0:0:0:
256,192,356643,1,2,0:0:0:0:
256,192,356748,1,0,0:0:0:0:
256,192,356958,1,0,0:0:0:0:
256,192,357063,1,0,0:0:0:0:
256,192,357168,1,2,0:0:0:0:
256,192,357273,1,0,0:0:0:0:
256,192,357378,1,2,0:0:0:0:
256,192,357589,1,2,0:0:0:0:
256,192,357694,1,0,0:0:0:0:
256,192,357799,1,0,0:0:0:0:
256,192,358009,1,2,0:0:0:0:
256,192,358220,1,0,0:0:0:0:
256,192,358430,1,2,0:0:0:0:
256,192,358640,1,0,0:0:0:0:
256,192,358745,1,2,0:0:0:0:
256,192,358956,1,0,0:0:0:0:
256,192,359061,1,2,0:0:0:0:
256,192,359271,1,2,0:0:0:0:
256,192,359481,1,0,0:0:0:0:
256,192,359691,1,2,0:0:0:0:
256,192,359797,1,0,0:0:0:0:
256,192,360007,1,2,0:0:0:0:
256,192,360217,1,2,0:0:0:0:
256,192,360322,1,0,0:0:0:0:
256,192,360427,1,2,0:0:0:0:
256,192,360533,1,2,0:0:0:0:
256,192,360638,1,0,0:0:0:0:
256,192,360743,1,2,0:0:0:0:
256,192,360848,1,2,0:0:0:0:
256,192,361058,1,2,0:0:0:0:
256,192,361163,1,4,0:0:0:0:
256,192,361374,1,2,0:0:0:0:
256,192,361479,1,0,0:0:0:0:
256,192,361689,1,2,0:0:0:0:
256,192,361794,1,2,0:0:0:0:
256,192,362004,1,0,0:0:0:0:
256,192,362215,1,2,0:0:0:0:
256,192,362320,1,0,0:0:0:0:
256,192,362530,1,0,0:0:0:0:
256,192,362635,1,2,0:0:0:0:
256,192,362740,1,0,0:0:0:0:
256,192,362845,1,0,0:0:0:0:
256,192,363056,1,2,0:0:0:0:
256,192,363161,1,0,0:0:0:0:
256,192,363371,1,2,0:0:0:0:
256,192,363476,1,2,0:0:0:0:
256,192,363687,1,0,0:0:0:0:
256,192,363792,1,0,0:0:0:0:
256,192,363897,1,2,0:0:0:0:
256,192,364002,1,0,0:0:0:0:
256,192,364212,1,0,0:0:0:0:
256,192,364317,1,2,0:0:0:0:
256,192,364422,1,0,0:0:0:0:
256,192,364528,1,6,0:0:0:0:
256,192,364738,1,2,0:0:0:0:
256,192,364843,1,0,0:0:0:0:
256,192,365053,1,2,0:0:0:0:
256,192,365158,1,0,0:0:0:0:
256,192,365369,1,0,0:0:0:0:
256,192,365579,1,2,0:0:0:0:
256,192,365684,1,0,0:0:0:0:
256,192,365894,1,2,0:0:0:0:
256,192,365999,1,2,0:0:0:0:
256,192,366105,1,2,0:0:0:0:
256,192,366210,1,4,0:0:0:0:
256,192,366420,1,0,0:0:0:0:
256,192,366525,1,2,0:0:0:0:
256,192,366630,1,0,0:0:0:0:
256,192,366841,1,0,0:0:0:0:
256,192,366946,1,2,0:0:0:0:
256,192,367051,1,2,0:0:0:0:
256,192,367156,1,0,0:0:0:0:
256,192,367261,1,2,0:0:0:0:
256,192,367366,1,2,0:0:0:0:
256,192,367471,1,0,0:0:0:0:
256,192,367577,1,2,0:0:0:0:
256,192,367787,1,2,0:0:0:0:
256,192,367892,1,4,0:0:0:0:
