osu file format v14

[General]
AudioFilename: audio.mp3
AudioLeadIn: 0
PreviewTime: 92494
Countdown: 0
SampleSet: Normal
StackLeniency: 0.7
Mode: 0
LetterboxInBreaks: 0
WidescreenStoryboard: 1

[Editor]
Bookmarks: 8170,14656,15265,16075,16177,16278,17697,17900,18711,19319,19927,20535,20940,21143,22765,23575,24386,27629,40602,53575,66548,79521,85197,92494,102427,105467,118440
DistanceSpacing: 1
BeatDivisor: 4
GridSize: 16
TimelineZoom: 3.699999

[Metadata]
Title:Clione
TitleUnicode:Clione
Artist:kors k
ArtistUnicode:kors k
Creator:THORWAVE
Version:Normal
Source:beatmania IIDX 4th style
Tags:bemani electronic dutch trance kosuke saito finger control video game instrumental
BeatmapID:3094032
BeatmapSetID:1410322

[Difficulty]
HPDrainRate:3
CircleSize:3
OverallDifficulty:4
ApproachRate:5
SliderMultiplier:1
SliderTickRate:1

[Events]
//Background and Video events
0,0,"1009328 is the best map in osu.png",0,0
Video,-512,"Clione.mp4"
//Break Periods
2,14856,26429
2,66748,77308
//Storyboard Layer 0 (Background)
//Storyboard Layer 1 (Fail)
//Storyboard Layer 2 (Pass)
//Storyboard Layer 3 (Foreground)
//Storyboard Layer 4 (Overlay)
//Storyboard Sound Samples

[TimingPoints]
1684,405.405405405405,4,1,0,50,1,0
92494,-133.333333333333,4,1,0,50,0,0
94116,-133.333333333333,4,1,0,26,0,0
94724,-100,4,1,0,50,0,0
98981,-100,4,1,0,50,0,0
104656,-100,4,1,0,5,0,0
105467,-100,4,1,0,50,0,0
105873,-100,4,1,0,75,0,1
118440,-100,4,1,0,50,0,0

[Colours]
Combo1 : 147,209,255
Combo2 : 149,255,202
Combo3 : 193,164,255
Combo4 : 255,164,72
Combo5 : 211,211,211
SliderBorder : 181,225,255
SliderTrackOverride : 0,48,84

[HitObjects]
54,88,1684,6,0,P|92:48|141:29,1,100,4|8,1:0|3:0,0:0:0:0:
232,28,2494,2,0,P|270:68|319:87,1,100,8|8,3:0|3:0,0:0:0:0:
410,88,3305,1,8,3:0:0:0:
501,266,4116,5,8,3:0:0:0:
440,345,4521,2,0,L|383:336,1,50,8|8,3:0|3:0,0:0:0:0:
341,327,4927,1,8,3:0:0:0:
244,352,5332,6,0,P|226:299|190:261,1,100,8|8,3:0|3:0,0:0:0:0:
132,342,6143,1,8,3:0:0:0:
132,342,6346,2,0,L|63:346,1,50,4|8,2:0|3:0,0:0:0:0:
28,261,6954,6,0,B|40:208|40:208|105:190,1,100,8|8,3:0|3:0,0:0:0:0:
186,184,7765,1,8,3:0:0:0:
186,184,7967,1,8,3:0:0:0:
186,184,8170,6,0,L|205:294,1,100,8|8,3:0|3:0,0:0:0:0:
294,322,8981,2,0,L|275:212,1,100,8|8,3:0|3:0,0:0:0:0:
259,124,9792,1,8,3:0:0:0:
447,189,10602,5,8,3:0:0:0:
372,255,11008,2,0,L|361:199,1,50,8|8,3:0|3:0,0:0:0:0:
352,156,11413,6,0,B|343:105|343:105|289:89,1,100,8|8,3:0|3:0,0:0:0:0:
201,60,12224,2,0,B|150:45|150:45|112:93,2,100,8|8|4,3:0|3:0|1:0,0:0:0:0:
256,192,13136,12,4,14656,1:0:0:0:
432,16,27629,5,4,1:0:0:0:
488,98,28035,2,0,L|479:207,1,100,8|8,3:0|3:0,0:0:0:0:
472,297,28846,1,8,3:0:0:0:
391,238,29251,2,0,B|370:287|370:287|311:319,2,100,8|8|8,3:0|3:0|3:0,0:0:0:0:
315,191,30467,1,8,3:0:0:0:
315,191,30670,1,8,3:0:0:0:
315,191,30873,6,0,L|222:241,1,100,8|8,3:0|3:0,0:0:0:0:
140,288,31683,1,8,3:0:0:0:
53,338,32089,1,8,3:0:0:0:
15,245,32494,2,0,P|54:204|65:164,1,100,8|0,3:0|0:0,0:0:0:0:
52,63,33305,1,8,3:0:0:0:
153,108,33711,1,8,3:0:0:0:
153,108,33913,1,8,3:0:0:0:
153,108,34116,6,0,P|209:106|245:86,1,100,8|8,3:0|3:0,0:0:0:0:
338,45,34927,2,0,P|394:46|430:66,1,100,8|8,3:0|3:0,0:0:0:0:
454,164,35738,6,0,B|420:181|420:181|397:177|397:177|361:192,1,100,8|8,3:0|3:0,0:0:0:0:
269,230,36548,2,0,B|236:243|236:243|210:317,1,100,8|8,3:0|3:0,0:0:0:0:
196,350,37156,2,0,L|142:370,1,50,8|8,3:0|3:0,0:0:0:0:
256,192,37461,12,8,39792,3:0:0:0:
272,288,40602,5,4,1:0:0:0:
345,219,41008,1,8,3:0:0:0:
438,257,41413,2,0,L|485:211,1,50,8|4,3:0|2:0,0:0:0:0:
509,185,41819,2,0,L|462:139,1,50,8|4,3:0|2:0,0:0:0:0:
436,116,42224,5,8,3:0:0:0:
367,44,42629,1,8,3:0:0:0:
282,96,43035,1,8,3:0:0:0:
197,148,43440,2,0,L|157:105,1,50,8|8,3:0|3:0,0:0:0:0:
128,76,43846,6,0,B|83:104|83:104|67:151,1,100,8|8,3:0|3:0,0:0:0:0:
14,232,44656,2,0,P|66:249|119:230,1,100,8|8,3:0|3:0,0:0:0:0:
180,167,45467,6,0,P|227:155|274:172,1,100,8|8,3:0|3:0,0:0:0:0:
221,256,46278,1,8,3:0:0:0:
166,340,46683,2,0,L|230:361,1,50,8|4,3:0|2:0,0:0:0:0:
261,371,47089,5,8,3:0:0:0:
359,352,47494,1,8,3:0:0:0:
457,333,47900,2,0,P|470:308|472:274,1,50,8|4,3:0|2:0,0:0:0:0:
464,237,48305,2,0,P|455:210|432:184,1,50,8|4,3:0|2:0,0:0:0:0:
401,163,48711,5,8,3:0:0:0:
361,250,49116,1,8,3:0:0:0:
267,272,49521,1,8,3:0:0:0:
192,211,49927,2,0,L|195:150,1,50,8|8,3:0|3:0,0:0:0:0:
196,111,50332,6,0,B|149:90|149:90|81:96,1,100,8|8,3:0|3:0,0:0:0:0:
28,163,51143,2,0,B|75:184|75:184|123:179,1,100,8|8,3:0|3:0,0:0:0:0:
184,261,51954,6,0,L|85:271,1,100,4|8,1:0|3:0,0:0:0:0:
130,360,52765,1,8,3:0:0:0:
229,351,53170,2,0,L|294:369,1,50,8|4,3:0|2:0,0:0:0:0:
325,375,53575,6,0,B|425:367|425:367|486:289|486:289|472:182,1,300,4|2,1:0|2:0,0:0:0:0:
448,92,55197,2,2,B|348:85|348:85|261:132|261:132|152:124,1,300,2|2,2:0|2:0,2:0:0:0:
60,117,56819,5,2,2:0:0:0:
243,38,57629,1,2,2:0:0:0:
219,235,58440,6,0,L|206:338,1,100,8|0,3:0|0:0,0:0:0:0:
126,274,59251,2,0,L|43:211,1,100,0|0,0:0|0:0,0:0:0:0:
138,175,60062,5,2,2:0:0:0:
256,112,61683,5,2,2:0:0:0:
374,175,63102,5,2,2:0:0:0:
374,175,63305,1,2,2:0:0:0:
256,272,64927,5,8,2:0:0:0:
256,192,65028,12,2,66548,2:0:0:0:
15,369,78508,6,2,P|26:343|45:320,1,50,2|2,2:0|2:0,2:0:0:0:
77,293,78913,2,2,P|103:282|132:279,1,50,2|2,2:0|2:0,2:0:0:0:
178,286,79319,1,2,2:0:0:0:
178,286,79521,1,4,1:0:0:0:
496,32,81143,6,0,B|494:83|441:110|441:110|376:101|336:136,1,200,4|8,1:0|3:0,0:0:0:0:
308,224,82359,1,8,3:0:0:0:
209,243,82765,6,0,B|134:257|134:257|157:167,1,150,4|8,1:0|3:0,0:0:0:0:
202,49,83981,1,8,3:0:0:0:
202,49,84183,1,8,3:0:0:0:
202,49,84386,1,4,1:0:0:0:
295,84,84792,2,0,L|270:192,1,100,8|8,3:0|3:0,0:0:0:0:
252,285,85602,5,8,3:0:0:0:
252,285,85805,1,4,2:0:0:0:
252,285,86007,1,4,1:0:0:0:
166,336,86413,2,0,P|125:341|66:364,2,100,8|8|8,3:0|3:0|3:0,0:0:0:0:
127,243,87629,6,0,B|105:224|118:161|148:184|166:127|132:109,2,150,8|8|8,3:0|3:0|3:0,0:0:0:0:
155,285,89048,1,8,3:0:0:0:
155,285,89251,1,8,3:0:0:0:
256,192,89352,12,8,91683,3:0:0:0:
116,90,92494,6,2,B|144:105|207:28|150:-5|57:-15|6:99|40:179,1,300.000011444092,2|2,2:0|2:0,2:0:0:0:
63,313,94724,2,2,B|110:286|148:317|148:317|191:355|248:319|248:319|340:369|436:335|528:267|501:75|354:53|354:53|386:147|293:223|211:177,1,950,2|2,2:0|2:0,2:0:0:0:
138,125,98981,5,0,2:2:0:0:
227,81,99386,1,0,1:0:0:0:
220,180,99792,1,0,3:0:0:0:
213,279,100197,1,0,1:0:0:0:
302,235,100602,6,0,B|339:217|339:217|345:142,1,100,0|0,3:0|1:0,0:0:0:0:
349,58,101413,2,0,P|416:85|436:115,1,100,0|0,3:0|0:0,0:0:0:0:
256,192,102224,12,0,104656,3:0:0:0:
160,256,105467,5,0,0:0:0:0:
244,202,105873,1,4,1:0:0:0:
160,169,106278,1,8,3:0:0:0:
160,169,106481,1,4,2:0:0:0:
160,169,106683,1,8,3:0:0:0:
240,103,107089,6,0,L|336:152,1,100,8|8,3:0|3:0,0:0:0:0:
425,200,107900,1,8,3:0:0:0:
425,200,108102,1,4,2:0:0:0:
425,200,108305,1,8,3:0:0:0:
430,299,108711,6,0,B|378:372|291:347|291:347|203:320|144:389,1,300,8|8,3:0|3:0,0:0:0:0:
116,283,110332,2,0,B|99:285|99:285|21:295|8:182|86:173|86:173|285:154,1,400,8|8,3:0|3:0,0:0:0:0:
245,64,112359,5,8,3:0:0:0:
155,18,112765,2,0,L|106:31,1,50,8|4,3:0|2:0,0:0:0:0:
59,46,113170,1,8,3:0:0:0:
11,134,113575,6,0,B|79:153|79:153|98:194,1,100,8|8,3:0|3:0,0:0:0:0:
177,231,114386,2,0,L|226:244,1,50,8|4,3:0|2:0,0:0:0:0:
248,288,114792,2,0,L|297:301,1,50,8|8,3:0|3:0,0:0:0:0:
319,345,115197,6,0,B|368:358|368:358|411:324,1,100,8|8,3:0|3:0,0:0:0:0:
483,263,116008,2,0,L|489:213,1,50,8|4,3:0|2:0,0:0:0:0:
495,163,116413,1,8,3:0:0:0:
256,192,116819,12,4,118440,1:0:0:0:
