osu file format v14

[General]
AudioFilename: audio.mp3
AudioLeadIn: 0
PreviewTime: 92494
Countdown: 0
SampleSet: Normal
StackLeniency: 0.7
Mode: 0
LetterboxInBreaks: 0
WidescreenStoryboard: 1

[Editor]
Bookmarks: 8170,14656,15265,16075,16177,16278,17697,17900,18711,19319,19927,20535,20940,21143,22663,23575,24386,27629,37359,40602,53575,66548,68170,68778,69386,69792,70400,72021,72427,72832,73035,74251,74454,74656,75265,76075,76278,76886,79521,85197,92494,102427,105467,118440
DistanceSpacing: 0.7
BeatDivisor: 4
GridSize: 8
TimelineZoom: 3.699999

[Metadata]
Title:Clione
TitleUnicode:Clione
Artist:kors k
ArtistUnicode:kors k
Creator:THORWAVE
Version:Insane
Source:beatmania IIDX 4th style
Tags:bemani electronic dutch trance kosuke saito finger control video game instrumental
BeatmapID:2907680
BeatmapSetID:1410322

[Difficulty]
HPDrainRate:6
CircleSize:5.5
OverallDifficulty:8
ApproachRate:8.5
SliderMultiplier:1.9
SliderTickRate:1

[Events]
//Background and Video events
Video,-512,"Clione.mp4"
0,0,"1009328 is the best map in osu.png",0,0
//Break Periods
//Storyboard Layer 0 (Background)
//Storyboard Layer 1 (Fail)
//Storyboard Layer 2 (Pass)
//Storyboard Layer 3 (Foreground)
//Storyboard Layer 4 (Overlay)
//Storyboard Sound Samples

[TimingPoints]
1684,405.405405405405,4,1,0,5,1,0
1684,-100,4,1,0,50,0,0
2494,-133.333333333333,4,1,0,30,0,0
2900,-200,4,1,0,15,0,0
3305,-100,4,1,0,30,0,0
5129,-100,4,1,0,50,0,0
8575,-100,4,1,0,30,0,0
13035,-100,4,1,0,40,0,0
13846,-100,4,1,0,50,0,0
14251,-100,4,1,0,60,0,0
14656,-166.666666666667,4,1,0,30,0,0
15163,-166.666666666667,4,1,0,5,0,0
15265,-166.666666666667,4,1,0,30,0,0
18609,-166.666666666667,4,1,0,5,0,0
18711,-166.666666666667,4,1,0,30,0,0
22663,-166.666666666667,4,1,0,5,0,0
22765,-166.666666666667,4,1,0,30,0,0
27629,-100,4,1,0,50,0,0
40602,-100,4,1,0,60,0,0
55298,-100,4,1,0,45,0,0
56819,-100,4,1,0,40,0,0
58440,-100,4,1,0,35,0,0
60062,-1000,4,1,0,35,0,0
61582,-1000,4,1,0,5,0,0
61683,-666.666666666667,4,1,0,35,0,0
64825,-666.666666666667,4,1,0,5,0,0
64927,-200,4,1,0,80,0,0
65028,-200,4,1,0,73,0,0
65129,-200,4,1,0,66,0,0
65231,-200,4,1,0,59,0,0
65332,-200,4,1,0,52,0,0
65433,-200,4,1,0,45,0,0
65535,-200,4,1,0,38,0,0
65636,-200,4,1,0,31,0,0
65738,-200,4,1,0,24,0,0
65839,-200,4,1,0,17,0,0
65940,-200,4,1,0,34,0,0
66042,-200,4,1,0,43,0,0
66143,-100,4,1,0,43,0,0
66244,-100,4,1,0,50,0,0
66346,-100,4,1,0,55,0,0
66447,-100,4,1,0,60,0,0
66548,-100,4,1,0,65,0,0
78508,-100,4,1,0,40,0,0
79319,-200,4,1,0,50,0,0
80332,-100,4,1,0,50,0,0
81143,-200,4,1,0,50,0,0
81751,-100,4,1,0,50,0,0
83069,-200,4,1,0,5,0,0
83170,-100,4,1,0,50,0,0
90873,-100,4,1,0,80,0,0
90974,-100,4,1,0,73,0,0
91075,-100,4,1,0,66,0,0
91177,-100,4,1,0,59,0,0
91278,-100,4,1,0,52,0,0
91379,-100,4,1,0,45,0,0
91481,-100,4,1,0,38,0,0
91582,-100,4,1,0,31,0,0
91683,-100,4,1,0,24,0,0
91785,-100,4,1,0,17,0,0
91886,-100,4,1,0,34,0,0
91988,-100,4,1,0,43,0,0
92089,-100,4,1,0,50,0,0
92190,-100,4,1,0,55,0,0
92292,-100,4,1,0,60,0,0
92494,-100,4,1,0,50,0,0
105873,-100,4,1,0,75,0,1
111042,-100,4,1,0,5,0,1
111143,-100,4,1,0,75,0,1
111852,-100,4,1,0,5,0,1
111954,-100,4,1,0,75,0,1
116819,-100,4,1,0,80,0,1
116920,-100,4,1,0,77,0,1
117021,-100,4,1,0,74,0,1
117123,-100,4,1,0,70,0,1
117224,-100,4,1,0,67,0,1
117325,-100,4,1,0,64,0,1
117427,-100,4,1,0,60,0,1
117528,-100,4,1,0,57,0,1
117629,-100,4,1,0,54,0,1
117731,-100,4,1,0,50,0,1
117832,-100,4,1,0,45,0,1
117933,-100,4,1,0,40,0,1
118035,-100,4,1,0,50,0,1
118136,-100,4,1,0,55,0,1
118238,-100,4,1,0,60,0,1
118339,-100,4,1,0,65,0,1
118440,-100,4,1,0,70,0,0

[Colours]
Combo1 : 147,209,255
Combo2 : 149,255,202
Combo3 : 193,164,255
Combo4 : 255,164,72
Combo5 : 211,211,211
SliderBorder : 181,225,255
SliderTrackOverride : 0,48,84

[HitObjects]
256,192,265,12,0,1481,0:0:0:0:
332,35,1684,5,4,1:0:0:0:
354,41,1785,1,0,0:0:0:0:
377,43,1886,1,4,2:0:0:0:
400,40,1988,1,0,0:0:0:0:
422,32,2089,2,0,P|443:21|465:-1,3,47.5,8|0|4|0,3:0|0:0|2:0|0:0,0:0:0:0:
419,101,2494,2,0,P|441:108|468:108,3,35.625001358986,8|0|4|0,3:0|0:0|2:0|0:0,0:0:0:0:
356,135,2900,2,0,P|367:155|379:169,3,23.75,8|0|4|0,3:0|0:0|2:0|0:0,0:0:0:0:
288,121,3305,6,0,P|269:117|251:111,4,38,8|0|0|0|0,3:0|0:0|0:0|0:0|0:0,0:0:0:0:
241,203,3812,2,0,P|217:204|189:208,1,47.5,0|4,0:0|2:0,0:0:0:0:
115,155,4116,1,8,3:0:0:0:
36,206,4319,1,4,2:0:0:0:
58,213,4420,1,0,0:0:0:0:
78,224,4521,2,0,P|100:243|118:270,1,47.5,8|0,3:0|0:0,0:0:0:0:
123,279,4724,1,8,3:0:0:0:
205,330,4927,1,8,3:0:0:0:
285,379,5129,6,0,L|294:327,1,47.5,4|0,2:0|0:0,0:0:0:0:
298,308,5332,1,8,3:0:0:0:
374,250,5535,2,0,L|383:302,1,47.5,4|0,2:0|0:0,0:0:0:0:
387,321,5738,1,8,3:0:0:0:
462,377,5940,5,4,2:0:0:0:
466,353,6042,1,0,0:0:0:0:
480,192,6244,1,0,0:0:0:0:
484,216,6346,1,4,2:0:0:0:
488,240,6447,1,0,0:0:0:0:
492,264,6548,1,8,3:0:0:0:
401,153,6751,6,0,L|410:101,1,47.5,4|0,2:0|0:0,0:0:0:0:
414,82,6954,1,8,3:0:0:0:
306,23,7156,2,0,L|315:70,1,47.5,4|0,2:0|0:0,0:0:0:0:
319,94,7359,1,8,3:0:0:0:
243,150,7562,1,4,2:0:0:0:
247,126,7663,5,8,3:0:0:0:
251,102,7764,1,8,3:0:0:0:
193,26,7967,1,8,3:0:0:0:
160,117,8170,5,8,3:0:0:0:
131,100,8271,1,0,2:2:0:0:
102,82,8373,1,4,2:0:0:0:
73,65,8474,1,0,0:0:0:0:
44,48,8575,5,8,3:0:0:0:
40,71,8676,1,0,2:2:0:0:
36,95,8778,1,4,2:0:0:0:
32,119,8880,1,0,0:0:0:0:
28,142,8981,6,0,L|86:177,3,47.5,8|0|4|0,3:0|2:2|2:0|0:0,0:0:0:0:
88,179,9386,1,8,3:0:0:0:
108,191,9488,1,0,2:2:0:0:
128,202,9589,2,0,L|186:167,1,47.5,4|0,2:0|3:0,0:0:0:0:
188,165,9792,6,0,P|207:169|225:174,4,38,8|0|0|0|0,3:0|0:0|0:0|0:0|0:0,0:0:0:0:
198,258,10298,2,0,P|222:264|243:274,1,47.5,0|4,1:2|1:0,1:0:0:0:
262,289,10501,1,0,3:0:0:0:
279,305,10602,2,0,P|302:299|323:289,2,47.5,8|0|4,3:0|3:0|2:0,0:0:0:0:
126,316,11008,1,8,3:0:0:0:
36,358,11211,2,0,L|51:313,1,47.5,8|0,3:0|3:0,0:0:0:0:
59,288,11413,1,8,3:0:0:0:
144,243,11616,5,4,2:0:0:0:
126,222,11717,1,0,0:0:0:0:
46,150,11920,1,0,2:2:0:0:
69,147,12021,1,4,2:0:0:0:
172,110,12224,5,8,3:0:0:0:
164,134,12325,1,0,1:2:0:0:
147,117,12427,1,4,2:0:0:0:
129,96,12528,2,0,B|120:86|120:86|137:33,1,47.5,0|8,0:0|3:0,0:0:0:0:
140,34,12731,1,0,1:2:0:0:
163,28,12832,1,4,2:0:0:0:
185,23,12933,1,0,3:0:0:0:
216,35,13035,5,4,1:0:0:0:
224,39,13136,1,8,2:0:0:0:
232,43,13238,1,8,2:0:0:0:
240,47,13339,1,8,2:0:0:0:
248,51,13440,1,8,2:0:0:0:
256,56,13542,1,8,2:0:0:0:
276,67,13643,5,0,3:0:0:0:
296,78,13744,1,0,3:0:0:0:
301,101,13846,5,8,3:0:0:0:
292,122,13947,1,8,3:0:0:0:
288,145,14048,1,8,3:0:0:0:
293,168,14150,1,8,3:0:0:0:
307,187,14251,5,8,3:0:0:0:
316,218,14352,1,8,3:0:0:0:
319,250,14454,1,8,3:0:0:0:
305,280,14555,1,8,3:0:0:0:
278,301,14656,6,0,B|250:304|239:315|239:315|282:351|344:340,1,142.499995651245,4|0,0:0|0:0,2:0:0:0:
350,340,15265,2,2,B|406:322|462:342|462:342|460:281|499:222,1,227.999993041992,2|2,2:0|2:0,2:0:0:0:
501,220,16177,1,2,2:0:0:0:
501,220,16278,2,2,B|524:141|427:93|372:121|372:121|378:217|271:238|231:186,1,398.999987823487,2|2,2:0|2:0,2:0:0:0:
162,153,17900,6,2,B|159:106|206:70|206:70|270:81|290:122,1,199.499993911743,2|2,2:0|2:0,2:0:0:0:
293,137,18711,2,2,P|276:216|184:250,3,170.999994781494,2|2|2|2,2:0|2:0|2:0|2:0,2:0:0:0:
174,138,20940,5,2,2:0:0:0:
107,120,21143,2,2,B|16:184|147:239|35:358|35:358|115:309|173:383|212:331,1,427.499986953736,2|2,2:0|2:0,2:0:0:0:
211,339,22765,2,2,B|254:320|298:335|298:335|304:284|370:248|419:276,2,227.999993041992,2|2|2,2:0|2:0|2:0,2:0:0:0:
256,192,24488,12,8,27427,2:0:0:0:
40,88,27629,5,4,1:0:0:0:
13,180,27832,1,0,0:0:0:0:
106,158,28035,1,8,3:0:0:0:
119,154,28136,1,0,0:0:0:0:
146,62,28339,1,0,0:0:0:0:
159,58,28440,1,8,3:0:0:0:
225,128,28643,1,0,0:0:0:0:
238,124,28744,1,0,0:0:0:0:
265,32,28947,1,0,0:0:0:0:
278,28,29048,1,0,0:0:0:0:
371,7,29251,5,8,3:0:0:0:
459,40,29454,1,0,0:0:0:0:
453,134,29656,1,8,3:0:0:0:
452,148,29758,1,0,0:0:0:0:
363,111,29961,1,0,0:0:0:0:
362,125,30063,1,8,3:0:0:0:
356,219,30265,5,0,0:0:0:0:
355,233,30367,1,0,0:0:0:0:
354,247,30467,1,8,3:0:0:0:
344,379,30670,1,8,3:0:0:0:
464,322,30873,5,8,3:0:0:0:
350,312,31075,1,0,0:0:0:0:
236,302,31278,1,8,3:0:0:0:
232,288,31379,1,0,0:0:0:0:
137,292,31583,1,0,0:0:0:0:
133,278,31683,1,8,3:0:0:0:
204,211,31886,1,0,0:0:0:0:
200,197,31988,1,0,0:0:0:0:
174,105,32190,1,0,0:0:0:0:
170,91,32292,1,0,0:0:0:0:
110,151,32494,5,8,3:0:0:0:
263,104,32697,1,0,0:0:0:0:
200,197,32900,1,0,0:0:0:0:
204,211,33002,1,0,0:0:0:0:
143,281,33205,1,0,0:0:0:0:
147,295,33306,1,8,3:0:0:0:
86,367,33508,5,0,0:0:0:0:
71,367,33610,1,8,3:0:0:0:
56,368,33711,1,8,3:0:0:0:
151,309,33914,1,8,3:0:0:0:
201,368,34116,6,0,L|268:357,1,47.5,8|8,3:0|2:0,0:0:0:0:
259,323,34319,2,0,L|326:334,1,47.5,8|8,2:0|2:0,0:0:0:0:
324,363,34521,1,8,3:0:0:0:
347,360,34623,2,0,L|414:349,1,47.5,8|8,2:0|2:0,0:0:0:0:
424,364,34825,1,8,2:0:0:0:
438,346,34927,2,0,L|477:290,1,47.5,8|8,3:0|2:0,0:0:0:0:
497,301,35129,1,8,2:0:0:0:
494,278,35231,2,0,L|483:210,1,47.5,8|8,2:0|3:0,0:0:0:0:
498,201,35433,1,8,2:0:0:0:
480,187,35535,2,0,L|424:148,1,47.5,8|8,2:0|2:0,0:0:0:0:
418,185,35738,6,0,L|350:197,1,47.5,8|8,3:0|2:0,0:0:0:0:
338,227,35940,2,0,L|270:214,1,47.5,8|8,2:0|2:0,0:0:0:0:
263,179,36143,1,8,3:0:0:0:
243,167,36244,2,0,L|184:132,1,47.5,8|8,2:0|2:0,0:0:0:0:
188,113,36447,1,8,2:0:0:0:
166,118,36548,2,0,L|100:135,1,47.5,8|8,3:0|2:0,0:0:0:0:
89,116,36751,5,8,2:0:0:0:
82,138,36853,1,8,2:0:0:0:
75,160,36954,2,0,L|59:213,1,47.5,8|8,3:0|2:0,0:0:0:0:
29,216,37157,2,0,L|13:269,1,47.5,8|8,3:0|2:0,0:0:0:0:
38,286,37359,5,8,3:0:0:0:
31,318,37461,1,8,2:0:0:0:
24,350,37562,5,8,2:0:0:0:
55,359,37663,1,8,2:0:0:0:
86,368,37765,1,8,3:0:0:0:
117,377,37866,5,8,2:0:0:0:
149,370,37967,1,8,2:0:0:0:
180,361,38069,1,8,2:0:0:0:
211,352,38170,5,8,3:0:0:0:
243,359,38271,1,8,2:0:0:0:
274,368,38373,1,8,2:0:0:0:
306,375,38474,5,8,2:0:0:0:
338,368,38575,1,8,3:0:0:0:
369,359,38677,1,8,2:0:0:0:
400,350,38778,5,8,2:0:0:0:
432,357,38879,1,8,2:0:0:0:
463,366,38981,5,8,3:0:0:0:
488,344,39082,1,8,2:0:0:0:
503,314,39183,5,8,2:0:0:0:
504,280,39285,1,8,2:0:0:0:
495,249,39386,1,8,3:0:0:0:
476,222,39488,5,8,2:0:0:0:
449,202,39589,1,8,2:0:0:0:
418,191,39690,1,8,2:0:0:0:
384,190,39792,6,0,P|363:196|342:207,4,23.75,8|8|8|8|8,3:0|2:0|2:0|2:0|2:0,0:0:0:0:
368,221,40096,1,8,3:0:0:0:
368,221,40197,1,8,3:0:0:0:
273,226,40400,1,8,3:0:0:0:
178,231,40602,5,4,1:0:0:0:
161,221,40703,1,0,2:2:0:0:
144,211,40804,1,4,2:0:0:0:
127,201,40906,1,0,0:0:0:0:
111,192,41007,1,8,3:0:0:0:
100,208,41109,1,0,2:2:0:0:
89,224,41210,1,4,2:0:0:0:
78,240,41311,5,0,0:0:0:0:
64,259,41413,2,0,B|83:273|83:273|88:305,1,47.5,8|0,3:0|2:2,0:0:0:0:
92,319,41615,1,4,2:0:0:0:
96,342,41717,1,0,0:0:0:0:
190,333,41920,1,0,2:2:0:0:
200,312,42021,2,0,L|256:326,1,47.5,4|0,2:0|3:0,0:0:0:0:
268,330,42224,5,8,3:0:0:0:
291,335,42325,1,0,2:2:0:0:
301,314,42427,1,4,2:0:0:0:
312,220,42629,1,8,3:0:0:0:
322,199,42731,1,0,2:2:0:0:
332,178,42832,1,4,2:0:0:0:
355,172,42933,1,0,3:0:0:0:
378,167,43035,2,0,B|404:161|404:161|419:132,1,47.5,8|0,3:0|2:2,0:0:0:0:
425,121,43238,1,4,2:0:0:0:
435,100,43339,1,0,0:0:0:0:
445,79,43440,5,8,3:0:0:0:
473,169,43643,1,8,3:0:0:0:
499,260,43846,5,8,3:0:0:0:
478,251,43947,1,0,2:2:0:0:
454,252,44048,1,4,2:0:0:0:
372,290,44251,1,8,3:0:0:0:
362,268,44352,2,0,P|335:242|307:225,1,47.5,0|4,2:2|2:0,0:0:0:0:
305,226,44554,1,0,0:0:0:0:
281,224,44656,2,0,P|245:232|216:247,1,47.5,8|0,3:0|2:2,0:0:0:0:
216,251,44858,1,4,2:0:0:0:
197,265,44961,2,0,P|161:273|128:274,1,47.5,0|8,0:0|3:0,0:0:0:0:
126,270,45163,1,0,2:2:0:0:
104,260,45264,1,4,2:0:0:0:
84,245,45365,1,8,3:0:0:0:
73,224,45466,5,8,3:0:0:0:
78,200,45568,2,0,L|90:150,1,47.5,0|4,2:2|2:0,0:0:0:0:
113,62,45873,1,8,3:0:0:0:
121,39,45974,1,0,2:2:0:0:
142,48,46075,1,4,2:0:0:0:
163,57,46177,1,0,3:0:0:0:
155,80,46278,5,8,3:0:0:0:
181,171,46481,2,0,L|244:161,1,47.5,4|8,2:0|3:0,0:0:0:0:
251,160,46683,1,8,3:0:0:0:
345,145,46886,1,4,2:0:0:0:
397,225,47089,5,8,3:0:0:0:
405,241,47190,1,0,2:2:0:0:
414,257,47292,1,4,2:0:0:0:
422,273,47393,1,0,0:0:0:0:
430,289,47494,1,8,3:0:0:0:
447,295,47596,1,0,2:2:0:0:
465,300,47697,1,4,2:0:0:0:
481,306,47798,5,0,0:0:0:0:
472,328,47900,1,8,3:0:0:0:
388,371,48102,1,4,2:0:0:0:
365,369,48204,1,0,0:0:0:0:
341,367,48305,1,8,3:0:0:0:
325,349,48406,1,0,2:2:0:0:
309,331,48508,2,0,B|289:310|289:310|216:343,1,95,4|8,2:0|3:0,0:0:0:0:
207,347,48812,5,0,2:2:0:0:
185,357,48913,1,4,2:0:0:0:
126,281,49116,1,8,3:0:0:0:
104,291,49218,1,0,2:2:0:0:
82,302,49319,1,4,2:0:0:0:
60,313,49420,1,0,3:0:0:0:
45,295,49521,2,0,B|29:273|29:273|27:239,1,47.5,8|8,3:0|3:0,0:0:0:0:
26,228,49724,5,4,2:0:0:0:
25,203,49825,1,0,2:2:0:0:
24,178,49927,1,8,3:0:0:0:
19,81,50129,1,8,3:0:0:0:
99,30,50332,5,8,3:0:0:0:
123,36,50433,1,0,2:2:0:0:
147,42,50534,2,0,B|173:53|173:53|175:87,1,47.5,4|0,2:0|0:0,0:0:0:0:
176,96,50737,1,8,3:0:0:0:
178,119,50839,1,0,2:2:0:0:
154,113,50940,1,4,2:0:0:0:
130,107,51042,1,0,0:0:0:0:
106,101,51143,1,8,3:0:0:0:
109,195,51346,1,4,2:0:0:0:
119,216,51448,2,0,B|130:242|130:242|162:251,1,47.5,0|0,0:0|0:0,0:0:0:0:
171,254,51650,1,0,2:2:0:0:
193,261,51752,1,4,2:0:0:0:
296,278,51954,5,4,1:0:0:0:
289,255,52055,1,0,0:0:0:0:
283,232,52156,1,4,2:0:0:0:
261,139,52359,1,8,3:0:0:0:
277,123,52461,1,0,0:0:0:0:
344,55,52663,1,0,3:0:0:0:
321,49,52765,1,8,3:0:0:0:
229,24,52967,1,4,2:0:0:0:
236,46,53069,1,8,3:0:0:0:
356,138,53271,1,0,2:2:0:0:
363,160,53373,1,4,2:0:0:0:
441,107,53575,5,4,1:0:0:0:
455,95,53677,1,0,2:2:0:0:
468,83,53778,1,4,2:0:0:0:
484,69,53879,1,0,0:0:0:0:
497,55,53981,1,8,3:0:0:0:
478,50,54082,1,0,2:2:0:0:
459,45,54183,6,0,L|404:34,1,47.5,4|0,2:0|0:0,0:0:0:0:
396,17,54386,2,0,B|350:7|350:7|289:21,1,95,8|4,3:0|2:0,0:0:0:0:
280,25,54690,2,0,B|234:35|234:35|173:21,1,95,0|0,0:0|2:2,0:0:0:0:
164,17,54994,2,0,L|153:65,2,47.5,4|0|8,2:0|0:0|3:0,0:0:0:0:
140,11,55298,5,0,2:2:0:0:
118,21,55400,2,0,B|68:42,1,47.5,4|0,2:0|0:0,0:0:0:0:
52,50,55603,1,8,3:0:0:0:
45,72,55704,1,0,2:2:0:0:
39,96,55805,2,0,B|32:128|32:128|59:152|59:152|51:191,1,95,4|8,2:0|3:0,0:0:0:0:
90,263,56210,1,4,2:0:0:0:
108,267,56312,1,0,0:0:0:0:
192,231,56515,1,0,2:2:0:0:
210,235,56616,1,8,3:0:0:0:
294,199,56819,5,8,3:0:0:0:
311,192,56920,1,0,1:2:0:0:
329,186,57021,1,4,2:0:0:0:
412,231,57224,1,8,3:0:0:0:
428,240,57325,2,0,B|463:262|463:262|437:320|437:320|483:347,3,142.5,0|8|0|4,0:0|3:0|0:0|2:0,0:0:0:0:
347,360,58440,6,0,L|289:392,2,47.5,8|0|0,3:0|0:0|0:0,0:0:0:0:
265,309,58846,1,0,0:0:0:0:
248,299,58947,2,0,B|206:276|206:276|111:328,1,142.5,0|0,0:0|0:0,0:0:0:0:
118,226,59453,1,0,0:0:0:0:
101,234,59555,2,0,B|70:249|70:249|-5:204,1,95,0|0,0:0|0:0,0:0:0:0:
5,207,59859,1,0,0:0:0:0:
82,156,60062,6,2,L|101:86,1,71.25,2|2,2:0|2:0,2:0:0:0:
110,60,61684,2,2,B|144:-2|193:38|193:38,1,99.7499969558717,2|2,2:0|2:0,2:0:0:0:
219,56,63204,1,2,2:0:0:0:
219,56,63305,2,2,B|242:99|319:62|316:54|316:54,1,106.874996738434,2|2,2:0|2:0,2:0:0:0:
332,39,64927,6,0,P|352:25|368:19,11,23.75,8|8|8|8|8|8|8|8|8|8|8|8,2:0|2:0|2:0|2:0|2:0|2:0|2:0|2:0|2:0|2:0|2:0|2:0,0:0:0:0:
373,17,66143,5,2,2:0:0:0:
401,13,66244,1,8,2:0:0:0:
433,21,66346,1,2,2:0:0:0:
459,47,66447,1,2,2:0:0:0:
469,93,66548,1,2,2:0:0:0:
192,240,68170,5,2,2:0:0:0:
251,110,68778,1,2,2:0:0:0:
334,226,69386,1,2,2:0:0:0:
268,294,69792,5,2,2:0:0:0:
255,152,70400,1,2,2:0:0:0:
151,51,72021,5,2,2:0:0:0:
59,77,72427,1,2,2:0:0:0:
24,167,72832,1,2,2:0:0:0:
24,167,73035,1,2,2:0:0:0:
282,360,74251,5,2,2:0:0:0:
282,360,74454,1,2,2:0:0:0:
282,360,74656,1,2,2:0:0:0:
421,328,75265,1,2,2:0:0:0:
474,143,76075,5,2,2:0:0:0:
474,143,76278,1,2,2:0:0:0:
335,175,76886,1,2,2:0:0:0:
238,284,78508,5,2,2:0:0:0:
328,301,78711,1,2,2:0:0:0:
291,247,78913,1,2,2:0:0:0:
272,338,79116,1,2,2:0:0:0:
356,243,79319,1,2,2:0:0:0:
207,342,79521,2,0,P|144:266|143:216,1,142.5,4|8,1:0|3:0,0:0:0:0:
150,121,80332,5,8,3:0:0:0:
235,162,80535,2,0,L|261:173,4,23.75,8|8|8|8|8,3:0|3:0|3:0|3:0|3:0,0:0:0:0:
353,102,80940,1,8,3:0:0:0:
374,113,81042,1,8,3:0:0:0:
396,124,81143,6,0,B|422:137|422:137|402:216,1,95,4|8,1:0|3:0,0:0:0:0:
379,292,81751,1,4,2:0:0:0:
357,302,81852,1,0,3:0:0:0:
333,306,81954,2,0,P|306:307|285:300,1,47.5,8|0,3:0|3:0,0:0:0:0:
265,289,82157,1,4,2:0:0:0:
192,228,82359,1,8,3:0:0:0:
97,236,82562,1,8,3:0:0:0:
35,308,82765,6,0,B|15:358|15:358|74:335|106:348,1,142.5,4|0,1:0|0:0,0:0:0:0:
124,353,83170,1,8,3:0:0:0:
147,356,83271,1,8,3:0:0:0:
170,353,83372,1,8,3:0:0:0:
192,343,83474,1,8,3:0:0:0:
210,328,83575,1,8,3:0:0:0:
224,309,83676,1,8,3:0:0:0:
231,286,83778,1,8,3:0:0:0:
232,263,83879,1,8,3:0:0:0:
226,240,83981,5,8,3:0:0:0:
161,170,84184,1,8,3:0:0:0:
237,113,84386,2,0,B|258:104|273:85|273:85|236:34|130:59,1,190,4|8,1:0|3:0,0:0:0:0:
116,58,84893,1,0,0:0:0:0:
92,58,84994,1,4,2:0:0:0:
68,51,85096,2,0,P|54:43|44:35,2,23.75,0|0|8,3:0|3:0|3:0,0:0:0:0:
23,134,85400,1,4,2:0:0:0:
26,157,85501,1,0,3:0:0:0:
29,180,85602,5,8,3:0:0:0:
44,273,85805,1,4,2:0:0:0:
132,306,86008,2,0,P|209:303|269:336,1,142.5,4|0,1:0|0:0,0:0:0:0:
280,351,86413,1,8,3:0:0:0:
309,260,86616,2,0,L|323:212,1,47.5,4|0,2:0|0:0,0:0:0:0:
329,191,86819,1,8,3:0:0:0:
352,181,86920,1,0,2:2:0:0:
375,186,87022,1,4,2:0:0:0:
461,224,87224,1,8,3:0:0:0:
485,132,87427,5,4,2:0:0:0:
479,110,87528,2,0,B|472:85|472:85|438:61,1,47.5,0|8,3:0|3:0,0:0:0:0:
431,63,87731,1,0,2:2:0:0:
408,68,87832,2,0,L|333:83,1,47.5,4|0,2:0|0:0,0:0:0:0:
337,83,88035,1,8,3:0:0:0:
255,34,88238,1,4,2:0:0:0:
232,26,88339,1,0,3:0:0:0:
211,37,88440,1,8,3:0:0:0:
190,48,88542,1,0,3:0:0:0:
169,59,88643,1,4,2:0:0:0:
86,105,88846,1,8,3:0:0:0:
168,154,89048,5,8,3:0:0:0:
250,107,89251,2,0,B|332:58|332:58|365:152,1,190,8|8,3:0|3:0,0:0:0:0:
284,200,89859,1,4,2:0:0:0:
282,223,89961,1,0,0:0:0:0:
357,280,90163,1,0,2:2:0:0:
355,303,90265,2,0,B|351:327|351:327|285:300,1,95,4|8,2:0|3:0,0:0:0:0:
426,215,90670,2,0,L|474:234,1,47.5,4|0,2:0|3:0,0:0:0:0:
492,224,90873,6,0,P|504:195|521:170,1,47.5,8|8,3:0|2:0,0:0:0:0:
256,192,91075,12,4,92292,2:0:0:0:
409,336,92494,5,0,0:0:0:0:
416,319,92595,1,0,0:0:0:0:
425,304,92697,1,4,2:0:0:0:
433,288,92798,1,0,0:0:0:0:
440,271,92899,1,0,3:0:0:0:
457,265,93001,1,0,3:0:0:0:
476,260,93102,1,4,2:0:0:0:
492,255,93203,5,0,0:0:0:0:
482,234,93305,2,0,L|448:179,1,47.5,0|0,2:2|2:2,0:0:0:0:
445,172,93508,1,4,2:0:0:0:
433,152,93609,2,0,B|416:127|416:127|339:162,1,95,0|0,0:0|2:2,0:0:0:0:
336,166,93913,2,0,B|319:191|319:191|242:156,1,95,4|0,2:0|3:0,0:0:0:0:
238,153,94217,5,0,2:2:0:0:
216,142,94319,1,4,2:0:0:0:
130,100,94521,1,0,3:0:0:0:
119,122,94623,1,0,2:2:0:0:
108,144,94724,1,4,2:0:0:0:
117,165,94825,1,0,0:0:0:0:
128,187,94926,1,0,3:0:0:0:
43,231,95129,1,4,2:0:0:0:
54,209,95231,2,0,B|63:191|63:191|29:114,1,95,0|0,0:0|2:2,0:0:0:0:
23,100,95535,1,4,2:0:0:0:
10,322,95738,5,0,3:0:0:0:
31,330,95839,1,0,2:2:0:0:
54,338,95940,1,4,2:0:0:0:
147,356,96143,1,0,3:0:0:0:
161,337,96244,2,0,P|189:314|219:300,1,47.5,0|4,2:2|2:0,0:0:0:0:
221,297,96447,1,0,0:0:0:0:
242,291,96548,2,0,P|277:285|310:287,1,47.5,0|0,3:0|2:2,0:0:0:0:
313,286,96751,1,4,2:0:0:0:
338,288,96852,2,0,B|375:300|399:326|399:326|424:299|473:289,1,142.5,0|4,0:0|2:0,0:0:0:0:
403,218,97359,5,0,3:0:0:0:
401,194,97461,1,0,2:2:0:0:
400,170,97562,2,0,L|397:107,1,47.5,4|0,2:0|0:0,0:0:0:0:
397,98,97765,1,0,3:0:0:0:
396,74,97866,1,0,2:2:0:0:
372,78,97967,1,4,2:0:0:0:
348,82,98069,1,0,3:0:0:0:
324,87,98170,1,0,3:0:0:0:
248,29,98373,1,4,2:0:0:0:
224,34,98474,2,0,B|196:42|196:42|231:82|231:82|206:156,1,142.5,0|4,0:0|2:0,0:0:0:0:
254,222,98981,5,0,2:2:0:0:
234,218,99082,1,0,2:2:0:0:
215,217,99184,1,4,2:0:0:0:
196,216,99285,1,0,0:0:0:0:
176,214,99387,1,0,3:0:0:0:
163,232,99488,1,0,2:2:0:0:
155,248,99589,1,4,2:0:0:0:
146,265,99691,5,0,0:0:0:0:
134,285,99792,2,0,B|133:308|133:308|58:268,1,95,0|4,3:0|2:0,0:0:0:0:
48,262,100096,2,0,B|27:213|27:213|48:170,1,95,0|0,0:0|2:2,0:0:0:0:
56,154,100400,2,0,B|57:131|57:131|132:171,1,95,4|0,2:0|3:0,0:0:0:0:
141,175,100704,5,0,2:2:0:0:
162,185,100805,2,0,P|216:192|261:180,1,95,4|0,2:0|3:0,0:0:0:0:
276,171,101109,1,0,2:2:0:0:
327,250,101312,1,0,3:0:0:0:
305,257,101413,2,0,P|261:290|238:330,1,95,0|4,3:0|2:0,0:0:0:0:
233,346,101717,2,0,P|192:357|167:354,1,47.5,0|0,0:0|3:0,0:0:0:0:
163,354,101920,1,0,2:2:0:0:
141,344,102021,1,4,2:0:0:0:
327,355,102224,5,0,2:2:0:0:
350,351,102325,1,0,2:2:0:0:
373,351,102427,1,4,2:0:0:0:
475,299,102629,1,0,3:0:0:0:
452,295,102731,1,0,2:2:0:0:
452,199,102934,1,0,0:0:0:0:
433,212,103035,1,0,3:0:0:0:
361,149,103238,1,4,2:0:0:0:
357,172,103339,1,0,0:0:0:0:
261,172,103542,1,0,2:2:0:0:
274,191,103643,1,4,2:0:0:0:
171,241,103846,5,0,3:0:0:0:
173,218,103947,1,0,2:2:0:0:
175,195,104048,1,4,2:0:0:0:
87,159,104251,1,0,3:0:0:0:
104,144,104352,1,0,2:2:0:0:
62,58,104555,1,0,3:0:0:0:
85,60,104656,1,0,3:0:0:0:
174,22,104859,5,4,2:0:0:0:
174,22,104960,1,0,0:0:0:0:
251,84,105163,1,0,2:2:0:0:
251,84,105264,1,4,2:0:0:0:
340,46,105467,5,0,0:0:0:0:
344,47,105569,1,0,0:0:0:0:
348,48,105670,1,0,0:0:0:0:
352,49,105771,1,0,0:0:0:0:
369,65,105873,5,4,1:0:0:0:
345,88,105974,1,0,2:2:0:0:
322,112,106075,1,4,2:0:0:0:
299,136,106177,1,0,0:0:0:0:
276,160,106278,5,8,3:0:0:0:
298,168,106379,1,0,2:2:0:0:
320,177,106481,1,4,2:0:0:0:
342,185,106582,1,0,0:0:0:0:
365,194,106683,5,8,3:0:0:0:
341,218,106785,1,0,2:2:0:0:
317,242,106886,5,4,2:0:0:0:
272,225,106988,1,0,3:0:0:0:
227,208,107089,1,8,3:0:0:0:
181,291,107292,5,4,2:0:0:0:
159,283,107393,1,0,0:0:0:0:
138,274,107494,1,8,3:0:0:0:
156,258,107596,1,0,2:2:0:0:
175,244,107697,2,0,L|237:267,1,47.5,4|0,2:0|3:0,0:0:0:0:
253,275,107900,5,8,3:0:0:0:
244,302,108001,1,0,3:0:0:0:
228,326,108102,1,4,2:0:0:0:
206,344,108204,1,0,0:0:0:0:
181,357,108305,1,8,3:0:0:0:
153,363,108406,1,0,2:2:0:0:
125,363,108508,1,8,3:0:0:0:
98,355,108609,1,0,3:0:0:0:
73,340,108711,5,8,3:0:0:0:
71,320,108812,1,0,2:2:0:0:
69,301,108913,1,4,2:0:0:0:
67,282,109015,1,0,0:0:0:0:
48,238,109116,5,8,3:0:0:0:
52,220,109217,1,0,2:2:0:0:
57,201,109319,1,4,2:0:0:0:
61,183,109421,1,0,0:0:0:0:
69,151,109521,5,8,3:0:0:0:
112,131,109623,1,0,2:2:0:0:
158,142,109724,1,4,2:0:0:0:
183,182,109825,5,0,0:0:0:0:
228,192,109926,1,8,3:0:0:0:
272,174,110028,1,0,2:2:0:0:
283,128,110129,5,4,2:0:0:0:
272,82,110231,1,0,3:0:0:0:
228,64,110332,6,2,B|159:125|177:193|177:193|204:180|228:190|228:190|271:253|238:317,1,332.5,2|2,2:0|2:0,2:0:0:0:
233,333,111143,2,2,B|223:354|220:378|220:378|165:326|144:293|144:293|254:223|319:290,1,332.5,2|2,2:0|2:0,2:0:0:0:
318,289,111954,5,8,3:0:0:0:
334,298,112055,1,0,2:2:0:0:
352,304,112156,1,4,2:0:0:0:
370,308,112258,1,0,0:0:0:0:
389,309,112359,1,8,3:0:0:0:
408,308,112460,1,0,2:2:0:0:
427,304,112562,1,4,2:0:0:0:
445,297,112663,5,0,0:0:0:0:
430,278,112764,1,8,3:0:0:0:
390,191,112967,1,4,2:0:0:0:
384,168,113068,1,0,0:0:0:0:
384,71,113271,1,0,2:2:0:0:
388,48,113372,1,4,2:0:0:0:
504,92,113575,5,8,3:0:0:0:
488,109,113677,1,0,2:2:0:0:
472,126,113778,1,4,2:0:0:0:
383,166,113981,2,0,P|360:171|337:171,1,47.5,8|0,3:0|2:2,0:0:0:0:
313,164,114184,1,4,2:0:0:0:
291,155,114285,1,0,3:0:0:0:
273,139,114386,1,8,3:0:0:0:
211,69,114589,1,4,2:0:0:0:
198,49,114690,2,0,B|181:19|181:19|118:80,1,95,0|0,0:0|2:2,0:0:0:0:
120,79,114994,1,8,3:0:0:0:
90,169,115197,5,8,3:0:0:0:
109,181,115298,1,0,2:2:0:0:
121,201,115400,2,0,P|129:229|125:270,1,47.5,4|0,2:0|0:0,0:0:0:0:
130,270,115602,1,8,3:0:0:0:
133,292,115703,1,0,2:2:0:0:
146,310,115805,2,0,P|164:326|186:336,2,47.5,4|0|8,2:0|0:0|3:0,0:0:0:0:
262,279,116211,1,4,2:0:0:0:
286,275,116312,2,0,P|321:277|353:287,1,47.5,0|8,0:0|3:0,0:0:0:0:
356,286,116515,1,0,2:2:0:0:
380,294,116616,2,0,P|409:313|432:338,1,47.5,4|0,2:0|3:0,0:0:0:0:
442,344,116819,5,8,3:0:0:0:
452,370,116920,1,0,2:2:0:0:
475,378,117021,1,4,2:0:0:0:
492,368,117123,1,0,0:0:0:0:
500,356,117224,1,8,3:0:0:0:
503,346,117325,1,0,2:2:0:0:
501,336,117427,1,4,2:0:0:0:
499,325,117528,1,0,3:0:0:0:
494,316,117629,1,8,3:0:0:0:
488,308,117731,1,0,2:2:0:0:
480,302,117832,1,4,2:0:0:0:
471,298,117933,5,8,3:0:0:0:
459,291,118035,1,8,3:0:0:0:
443,279,118136,1,0,2:2:0:0:
430,259,118238,1,8,3:0:0:0:
428,230,118339,1,0,3:0:0:0:
445,200,118440,1,4,1:0:0:0:
