osu file format v14

[General]
AudioFilename: audio.mp3
AudioLeadIn: 0
PreviewTime: 92494
Countdown: 0
SampleSet: Normal
StackLeniency: 0.7
Mode: 0
LetterboxInBreaks: 0
WidescreenStoryboard: 1

[Editor]
Bookmarks: 8170,14656,15265,16075,16177,16278,17697,17900,18711,19319,19927,20535,20940,21143,22765,23575,24386,27629,40602,53575,66548,79521,85197,92494,102427,105467,118440
DistanceSpacing: 1.2
BeatDivisor: 4
GridSize: 16
TimelineZoom: 2.6

[Metadata]
Title:Clione
TitleUnicode:Clione
Artist:kors k
ArtistUnicode:kors k
Creator:THORWAVE
Version:Hard
Source:beatmania IIDX 4th style
Tags:bemani electronic dutch trance kosuke saito finger control video game instrumental
BeatmapID:2912641
BeatmapSetID:1410322

[Difficulty]
HPDrainRate:5
CircleSize:4
OverallDifficulty:6
ApproachRate:7
SliderMultiplier:1.4
SliderTickRate:1

[Events]
//Background and Video events
0,0,"1009328 is the best map in osu.png",0,0
Video,-512,"Clione.mp4"
//Break Periods
2,14856,25108
2,66748,75378
//Storyboard Layer 0 (Background)
//Storyboard Layer 1 (Fail)
//Storyboard Layer 2 (Pass)
//Storyboard Layer 3 (Foreground)
//Storyboard Layer 4 (Overlay)
//Storyboard Sound Samples

[TimingPoints]
1684,405.405405405405,4,1,0,50,1,0
53575,-142.857142857143,4,1,0,50,0,0
77900,-142.857142857143,4,1,0,5,0,0
78508,-100,4,1,0,50,0,0
92494,-133.333333333333,4,1,0,50,0,0
94521,-133.333333333333,4,1,0,5,0,0
94724,-100,4,1,0,50,0,0
98575,-100,4,1,0,5,0,0
98981,-100,4,1,0,50,0,0
105873,-100,4,1,0,75,0,1
118440,-100,4,1,0,50,0,0

[Colours]
Combo1 : 147,209,255
Combo2 : 149,255,202
Combo3 : 193,164,255
Combo4 : 255,164,72
Combo5 : 211,211,211
SliderBorder : 181,225,255
SliderTrackOverride : 0,48,84

[HitObjects]
48,56,1684,6,0,L|34:8,2,35,4|0|4,1:0|0:0|2:0,0:0:0:0:
110,111,2089,2,0,L|158:122,2,35,8|0|4,3:0|0:0|2:0,0:0:0:0:
31,137,2494,2,0,L|-3:173,2,35,8|0|4,3:0|0:0|2:0,0:0:0:0:
48,56,2900,2,0,L|34:8,2,35,8|0|4,3:0|0:0|2:0,0:0:0:0:
110,111,3305,6,0,P|174:113|223:56,1,140,8|8,3:0|3:0,0:0:0:0:
386,24,4116,1,8,3:0:0:0:
496,149,4521,1,8,3:0:0:0:
413,123,4724,1,8,3:0:0:0:
330,98,4927,1,8,3:0:0:0:
250,72,5129,6,0,L|243:157,1,70,4|8,2:0|3:0,0:0:0:0:
236,225,5535,1,4,2:0:0:0:
319,200,5738,1,8,3:0:0:0:
333,74,6042,1,0,0:0:0:0:
416,99,6244,2,0,L|449:109,3,35,0|4|0|8,0:0|2:0|0:0|3:0,0:0:0:0:
376,173,6751,6,0,L|447:194,1,70,4|8,2:0|3:0,0:0:0:0:
505,249,7156,1,4,2:0:0:0:
426,274,7359,1,8,3:0:0:0:
304,269,7663,1,8,3:0:0:0:
304,269,7765,2,0,P|280:293|263:328,1,70,8|8,3:0|3:0,0:0:0:0:
180,325,8170,6,0,L|196:355,2,35,8|0|4,3:0|2:2|2:0,0:0:0:0:
107,284,8575,2,0,L|72:282,2,35,8|0|4,3:0|2:2|2:0,0:0:0:0:
179,242,8980,2,0,L|197:212,2,35,8|0|4,3:0|2:2|2:0,0:0:0:0:
180,325,9386,2,0,L|196:355,2,35,8|0|4,3:0|2:2|2:0,0:0:0:0:
107,284,9792,6,0,P|56:258|17:183,1,140,8|8,3:0|3:0,0:0:0:0:
140,160,10501,2,0,L|173:192,2,35,0|8|0,3:0|3:0|3:0,0:0:0:0:
179,40,11008,1,8,3:0:0:0:
247,85,11210,1,8,3:0:0:0:
269,164,11413,5,8,3:0:0:0:
337,209,11616,1,4,2:0:0:0:
337,209,11717,2,0,B|363:228|363:228|384:313,1,105,0|4,0:0|2:0,0:0:0:0:
422,371,12224,2,0,P|464:363|489:301,1,105,8|0,3:0|0:0,0:0:0:0:
454,236,12731,2,0,L|478:180,3,35,0|4|0|4,2:2|2:0|3:0|1:0,0:0:0:0:
256,192,13136,12,4,14656,1:0:0:0:
256,192,26008,12,8,27224,2:0:0:0:
426,25,27629,5,4,1:0:0:0:
495,72,27832,1,0,0:0:0:0:
423,114,28035,1,8,3:0:0:0:
423,114,28136,2,0,P|375:108|314:144,1,105,0|8,0:0|3:0,0:0:0:0:
238,222,28744,2,0,P|289:227|335:204,1,105,0|0,0:0|0:0,0:0:0:0:
347,287,29251,6,0,L|352:321,2,35,8|0|0,3:0|0:0|0:0,0:0:0:0:
281,364,29656,1,8,3:0:0:0:
281,364,29758,2,0,L|156:364,1,105,0|8,0:0|3:0,0:0:0:0:
53,364,30366,1,0,0:0:0:0:
53,364,30467,1,8,3:0:0:0:
116,308,30670,1,8,3:0:0:0:
39,272,30873,6,0,L|34:237,2,35,8|0|0,3:0|0:0|0:0,0:0:0:0:
29,157,31278,1,8,3:0:0:0:
29,157,31379,2,0,P|78:161|113:213,1,105,0|8,0:0|3:0,0:0:0:0:
224,147,31988,2,0,P|174:142|142:102,1,105,0|0,0:0|0:0,0:0:0:0:
68,63,32494,6,0,P|39:67|22:91,2,35,8|0|0,3:0|0:0|0:0,0:0:0:0:
142,22,32900,1,0,0:0:0:0:
142,22,33001,2,0,B|195:16|195:16|249:30,1,105,0|8,0:0|3:0,0:0:0:0:
370,66,33609,1,8,3:0:0:0:
370,66,33710,1,8,3:0:0:0:
291,95,33913,1,8,3:0:0:0:
339,163,34116,5,8,3:0:0:0:
387,231,34319,2,0,B|422:217|422:217|441:141,4,105,8|8|8|8|8,2:0|2:0|3:0|2:0|2:0,0:0:0:0:
309,262,35738,5,8,3:0:0:0:
230,291,35940,2,0,B|195:305|195:305|176:381,4,105,8|8|8|8|8,2:0|2:0|3:0|2:0|3:0,0:0:0:0:
256,192,37258,12,8,40197,3:0:0:0:
353,61,40602,6,0,L|365:93,3,35,4|0|4|0,1:0|2:2|2:0|0:0,0:0:0:0:
315,41,41008,2,0,L|327:73,3,35,8|0|4|0,3:0|2:2|2:0|0:0,0:0:0:0:
276,20,41413,5,8,3:0:0:0:
258,144,41717,2,0,P|201:148|151:103,1,105,0|4,0:0|2:0,0:0:0:0:
80,107,42224,6,0,L|65:72,2,35,8|0|4,3:0|2:2|2:0,0:0:0:0:
114,188,42629,1,8,3:0:0:0:
114,188,42731,2,0,B|131:234|131:234|108:285,1,105,0|8,2:2|3:0,0:0:0:0:
27,381,43339,2,0,B|9:334|9:334|32:283,1,105,0|8,0:0|3:0,0:0:0:0:
109,363,43846,6,0,L|143:368,2,35,8|0|4,3:0|2:2|2:0,0:0:0:0:
230,383,44251,1,8,3:0:0:0:
230,383,44352,2,0,L|333:327,1,105,0|8,2:2|3:0,0:0:0:0:
366,212,44961,2,0,L|274:263,1,105,0|4,0:0|2:0,0:0:0:0:
228,192,45467,6,0,L|205:154,2,35,8|0|4,3:0|2:2|2:0,0:0:0:0:
288,133,45873,1,8,3:0:0:0:
288,133,45974,2,0,P|319:107|398:108,1,105,0|8,2:2|3:0,0:0:0:0:
375,230,46582,1,8,3:0:0:0:
375,230,46683,1,8,3:0:0:0:
456,208,46886,1,4,2:0:0:0:
479,288,47089,6,0,L|511:276,3,35,8|0|4|0,3:0|2:2|2:0|0:0,0:0:0:0:
459,326,47495,2,0,L|491:314,3,35,8|0|4|0,3:0|2:2|2:0|0:0,0:0:0:0:
438,365,47900,5,8,3:0:0:0:
328,302,48204,2,0,P|297:328|218:327,1,105,0|4,0:0|2:0,0:0:0:0:
152,353,48711,6,0,P|139:374|141:408,2,35,8|0|4,3:0|2:2|2:0,0:0:0:0:
176,275,49116,1,8,3:0:0:0:
176,275,49217,2,0,P|149:230|101:209,1,105,0|8,2:2|3:0,0:0:0:0:
10,123,49825,2,0,L|23:6,1,105,0|8,0:0|3:0,0:0:0:0:
105,26,50332,6,0,L|169:32,2,35,8|0|4,3:0|2:2|2:0,0:0:0:0:
135,109,50738,1,8,3:0:0:0:
135,109,50839,2,0,L|246:119,1,105,0|8,2:2|3:0,0:0:0:0:
184,232,51447,2,0,L|295:242,1,105,0|4,0:0|2:0,0:0:0:0:
315,162,51954,6,0,L|345:144,2,35,4|0|4,1:0|0:0|2:0,0:0:0:0:
429,171,52359,1,8,3:0:0:0:
429,171,52461,2,0,P|473:197|500:241,1,105,0|8,0:0|3:0,0:0:0:0:
388,293,53069,1,8,3:0:0:0:
388,293,53170,1,8,3:0:0:0:
365,374,53373,1,4,2:0:0:0:
304,317,53575,6,0,P|257:286|241:235,1,97.9999970092774,4|2,1:0|2:0,0:0:0:0:
190,190,54183,2,2,P|142:187|40:290,1,195.999994018555,2|2,2:0|2:0,2:0:0:0:
106,326,55197,2,2,B|122:340|127:358|127:358|168:338|217:352|233:382,2,146.999995513916,2|2|2,2:0|2:0|2:0,2:0:0:0:
254,274,56819,6,2,P|303:323|389:322,1,146.999995513916,2|2,2:0|2:0,2:0:0:0:
286,110,58035,1,2,2:0:0:0:
399,77,58440,5,2,2:0:0:0:
478,85,58643,2,0,P|476:49|454:21,4,73.4999977569581,0|0|0|0|0,0:0|0:0|0:0|0:0|0:0,0:0:0:0:
504,159,60062,5,2,2:0:0:0:
430,250,61683,5,2,2:0:0:0:
356,341,63102,5,2,2:0:0:0:
343,336,63204,1,2,2:0:0:0:
330,332,63305,2,2,B|362:278|328:213|254:204|222:239|222:239|242:277|242:277|212:311|143:278|91:383|169:361|149:335,1,391.99998803711,2|8,2:0|2:0,2:0:0:0:
256,192,65028,12,2,66548,2:0:0:0:
256,192,76278,12,0,77900,0:0:0:0:
147,55,78508,6,2,L|119:132,1,70,2|2,2:0|2:0,2:0:0:0:
191,170,78913,2,2,L|214:104,1,70,2|2,2:0|2:0,2:0:0:0:
242,24,79319,1,2,2:0:0:0:
309,73,79521,1,4,1:0:0:0:
473,205,80332,5,8,3:0:0:0:
418,269,80535,2,0,L|432:301,2,35,8|8|8,3:0|3:0|3:0,0:0:0:0:
332,266,80940,2,0,L|320:299,2,35,8|8|4,3:0|3:0|1:0,0:0:0:0:
164,359,81548,5,8,3:0:0:0:
96,309,81751,1,4,2:0:0:0:
28,259,81954,2,0,L|97:214,1,70,8|4,3:0|2:0,0:0:0:0:
158,176,82359,1,8,3:0:0:0:
90,126,82562,1,8,3:0:0:0:
22,76,82765,1,4,1:0:0:0:
176,9,83170,6,0,L|230:2,1,35,8|8,3:0|3:0,0:0:0:0:
201,46,83373,2,0,L|255:39,1,35,8|8,3:0|3:0,0:0:0:0:
226,83,83575,2,0,L|280:76,3,35,8|8|8|8,3:0|3:0|3:0|3:0,0:0:0:0:
251,120,83981,5,8,3:0:0:0:
332,101,84183,1,8,3:0:0:0:
345,18,84386,2,0,P|400:25|468:94,1,140,4|8,1:0|3:0,0:0:0:0:
478,161,84994,1,4,2:0:0:0:
421,223,85197,2,0,P|418:256|438:308,1,70,8|4,3:0|2:0,0:0:0:0:
487,350,85602,5,8,3:0:0:0:
403,363,85805,1,4,2:0:0:0:
319,376,86008,1,4,1:0:0:0:
151,367,86413,6,0,L|113:294,1,70,8|4,3:0|2:0,0:0:0:0:
169,236,86819,2,0,L|131:163,2,70,8|4|8,3:0|2:0|3:0,0:0:0:0:
250,73,87629,5,8,3:0:0:0:
500,102,88238,1,4,2:0:0:0:
189,131,89048,5,8,3:0:0:0:
189,131,89251,5,8,3:0:0:0:
256,192,89352,12,8,92089,3:0:0:0:
117,121,92494,6,2,B|-10:132|-73:-9|25:-36|171:-16|200:180|116:287,1,525.000020027161,2|2,2:0|2:0,2:0:0:0:
39,338,94724,5,2,2:0:0:0:
39,338,94825,1,2,2:0:0:0:
39,338,94927,2,2,B|106:307|106:307|170:335|170:335|236:307|236:307|298:333|298:333|286:212|312:68|406:-7|508:-7|551:112|479:198|393:177|393:177|401:194|401:194|356:227|342:376|487:399|564:353|517:238|407:247,1,1260,2|2,2:0|2:0,2:0:0:0:
259,168,98981,6,0,B|219:159|219:159|196:120,1,70,0|4,2:2|2:0,0:0:0:0:
169,62,99386,1,0,3:0:0:0:
169,62,99488,2,0,L|57:86,1,105,0|0,2:2|3:0,0:0:0:0:
124,150,99994,1,4,2:0:0:0:
124,150,100096,2,0,L|21:172,1,105,0|4,0:0|2:0,0:0:0:0:
178,213,100602,6,0,L|221:261,2,35,0|0|4,3:0|2:2|2:0,0:0:0:0:
99,238,101008,1,0,3:0:0:0:
99,238,101109,2,0,P|85:289|114:335,1,105,0|0,2:2|3:0,0:0:0:0:
194,360,101616,1,4,2:0:0:0:
194,360,101717,2,0,B|249:363|249:363|259:376|259:376|300:379,1,105,0|4,0:0|2:0,0:0:0:0:
362,332,102224,5,0,2:2:0:0:
382,334,102325,1,0,2:2:0:0:
403,336,102427,2,2,B|434:337|434:337|398:304|393:256,1,105,2|2,2:0|2:2,2:0:0:0:
493,194,103035,2,2,B|462:193|462:193|498:226|503:274,1,105,2|2,2:0|2:0,2:0:0:0:
378,140,103643,2,2,P|337:105|315:50,1,105,2|2,2:0|2:2,2:0:0:0:
205,0,104251,2,2,B|164:17|174:52|129:70,1,105,2|2,2:0|2:0,2:0:0:0:
184,183,104859,2,0,P|227:172|192:147,1,105,4|0,2:0|2:2,0:0:0:0:
240,263,105467,6,0,L|274:269,2,35,0|0|0,0:0|0:0|0:0,0:0:0:0:
357,287,105873,5,4,1:0:0:0:
337,368,106075,1,4,2:0:0:0:
357,364,106177,1,0,0:0:0:0:
377,360,106278,2,0,L|448:347,1,70,8|4,3:0|2:0,0:0:0:0:
495,279,106683,1,8,3:0:0:0:
507,195,106886,2,0,L|511:161,2,35,4|0|8,2:0|3:0|3:0,0:0:0:0:
424,211,107292,5,4,2:0:0:0:
407,198,107394,1,0,0:0:0:0:
391,186,107494,2,0,L|333:144,1,70,8|4,3:0|2:0,0:0:0:0:
320,137,107798,1,0,3:0:0:0:
320,137,107900,2,0,L|321:49,1,70,8|4,3:0|2:0,0:0:0:0:
238,54,108305,2,0,L|208:33,2,35,8|0|8,3:0|2:2|3:0,0:0:0:0:
133,71,108711,5,8,3:0:0:0:
115,80,108812,1,0,2:2:0:0:
97,89,108913,1,4,2:0:0:0:
109,172,109116,2,0,L|65:195,2,35,8|0|4,3:0|2:2|2:0,0:0:0:0:
120,255,109521,1,8,3:0:0:0:
199,228,109724,1,4,2:0:0:0:
264,280,109927,5,8,3:0:0:0:
267,300,110028,1,0,2:2:0:0:
270,320,110129,1,4,2:0:0:0:
274,341,110231,1,0,3:0:0:0:
278,362,110332,2,2,B|102:315|160:412|5:381|5:381|11:266|11:266|27:247|27:247|33:162,1,490,2|2,2:0|2:0,2:0:0:0:
37,94,111954,5,8,3:0:0:0:
43,10,112156,1,4,2:0:0:0:
129,29,112359,1,8,3:0:0:0:
129,29,112461,2,0,B|130:52|130:52|213:40,1,105,0|8,2:2|3:0,0:0:0:0:
297,34,112967,1,4,2:0:0:0:
297,34,113069,2,0,B|299:56|299:56|362:72|362:72|365:94,1,105,0|4,0:0|2:0,0:0:0:0:
433,42,113575,6,0,L|428:2,2,35,8|0|4,3:0|2:2|2:0,0:0:0:0:
512,77,113981,1,8,3:0:0:0:
512,77,114082,2,0,B|510:113|510:113|514:122|514:122|510:191,1,105,0|8,2:2|3:0,0:0:0:0:
437,284,114690,1,0,0:0:0:0:
437,284,114792,1,8,3:0:0:0:
358,250,114994,1,8,3:0:0:0:
380,169,115197,6,0,L|416:152,2,35,8|0|4,3:0|2:2|2:0,0:0:0:0:
306,138,115602,1,8,3:0:0:0:
306,138,115704,2,0,B|278:126|278:126|211:170,1,105,0|8,2:2|3:0,0:0:0:0:
188,248,116211,1,4,2:0:0:0:
188,248,116312,2,0,B|216:260|216:260|278:219,1,105,0|4,0:0|2:0,0:0:0:0:
256,192,116819,12,4,118440,1:0:0:0:
