osu file format v14

[General]
AudioFilename: audio.mp3
AudioLeadIn: 0
PreviewTime: 4395
Countdown: 0
SampleSet: Soft
StackLeniency: 0.7
Mode: 0
LetterboxInBreaks: 0
WidescreenStoryboard: 1

[Editor]
DistanceSpacing: 1
BeatDivisor: 4
GridSize: 32
TimelineZoom: 2.2

[Metadata]
Title:S2TBTANO*C Anthem feat. Yukacco
TitleUnicode:S2TBTANO*C Anthem feat. Yukacco
Artist:kors k & REDALiCE
ArtistUnicode:kors k & REDALiCE
Creator:MrSergio
Version:Easy
Source:
Tags:J-Core short
BeatmapID:1350944
BeatmapSetID:605748

[Difficulty]
HPDrainRate:2
CircleSize:3.5
OverallDifficulty:2
ApproachRate:3
SliderMultiplier:0.8
SliderTickRate:1

[Events]
//Background and Video events
0,0,"S2TB BG.jpg",0,0
//Break Periods
2,48788,52898
//Storyboard Layer 0 (Background)
//Storyboard Layer 1 (Fail)
//Storyboard Layer 2 (Pass)
//Storyboard Layer 3 (Foreground)
//Storyboard Sound Samples

[TimingPoints]
234,346.820809248555,4,2,1,60,1,0
4395,-125,4,2,1,60,0,0
16447,-100,4,2,1,5,0,0
16534,-100,4,2,1,60,0,0
16707,-100,4,2,1,5,0,0
16881,-125,4,2,1,60,0,0
17141,-100,4,2,1,5,0,0
17228,-100,4,2,1,60,0,0
17401,-100,4,2,1,5,0,0
17575,-125,4,2,1,60,0,0
17835,-100,4,2,1,5,0,0
17921,-100,4,2,1,60,0,0
18095,-100,4,2,1,5,0,0
18268,-125,4,2,1,60,0,0
18525,-100,4,2,1,5,0,0
18615,-100,4,2,1,60,0,0
18788,-100,4,2,1,5,0,0
18962,-125,4,2,1,60,0,0
19222,-100,4,2,1,5,0,0
19309,-125,4,2,1,60,0,0
21997,-100,4,2,1,5,0,0
22083,-100,4,2,1,60,0,0
22257,-100,4,2,1,5,0,0
22430,-125,4,2,1,60,0,0
22690,-100,4,2,1,5,0,0
22777,-100,4,2,1,60,0,0
22950,-100,4,2,1,5,0,0
23124,-125,4,2,1,60,0,0
23384,-100,4,2,1,5,0,0
23470,-100,4,2,1,60,0,0
23644,-100,4,2,1,5,0,0
23817,-125,4,2,1,60,0,0
24077,-100,4,2,1,5,0,0
24164,-100,4,2,1,60,0,0
24338,-100,4,2,1,5,0,0
24511,-142.857142857143,4,2,1,60,0,0
24771,-100,4,2,1,5,0,0
24858,-142.857142857143,4,2,1,60,0,0
25118,-100,4,2,1,5,0,0
25205,-142.857142857143,4,2,1,60,0,0
25465,-100,4,2,1,5,0,0
25551,-142.857142857143,4,2,1,60,0,0
26505,-100,4,2,1,5,0,0
26592,-100,4,2,1,60,0,0
29020,-100,4,2,1,60,0,0
29280,-100,4,2,1,5,0,0
29366,-100,4,2,1,60,0,0
31794,-100,4,2,1,60,0,0
32054,-100,4,2,1,5,0,0
32141,-100,4,2,1,60,0,0
34569,-142.857142857143,4,2,1,60,0,0
34829,-100,4,2,1,5,0,0
34916,-100,4,2,1,60,0,0
37603,-100,4,2,1,5,0,0
37690,-100,4,2,1,60,0,0
40378,-100,4,2,1,5,0,0
40465,-100,4,2,1,60,0,0
43153,-100,4,2,1,5,0,0
43239,-100,4,2,1,60,0,0
44540,-100,4,2,1,5,0,0
44627,-100,4,2,1,60,0,0
48442,-100,4,2,1,60,0,0
48702,-100,4,2,1,5,0,0
48788,-125,4,2,1,60,0,0
54338,-111.111111111111,4,2,1,60,0,0
58499,-100,4,2,1,60,0,0
59020,-100,4,2,1,60,0,0
59540,-100,4,2,1,60,0,0
59800,-100,4,2,1,5,0,0
59887,-95.2380952380952,4,2,1,75,0,1
79309,-100,4,2,1,75,0,1
79655,-100,4,2,1,75,0,1
80002,-100,4,2,1,75,0,1
80696,-100,4,2,1,60,0,0
81910,-100,4,2,1,60,0,0
82083,-95.2380952380952,4,2,1,75,0,1
98731,-95.2380952380952,4,2,1,75,0,1
100118,-95.2380952380952,4,2,1,75,0,1
101505,-95.2380952380952,4,2,1,75,0,1
103933,-111.111111111111,4,2,1,75,0,1
104280,-100,4,2,1,60,0,0

[Colours]
Combo1 : 235,173,82
Combo2 : 228,48,84
Combo3 : 219,112,245
Combo4 : 166,126,231
Combo5 : 121,146,227
Combo6 : 136,205,232
Combo7 : 99,231,165
Combo8 : 151,217,91

[HitObjects]
74,269,4395,6,0,P|159:302|260:282,1,192,4|0,0:1|0:0,0:0:0:0:
303,240,5783,2,0,P|218:207|117:227,1,192,0|0,0:0|0:0,0:0:0:0:
62,249,7170,6,0,B|73:188|73:188|59:124|59:124|75:50,1,192,2|0,0:0|0:0,0:0:0:0:
128,91,8557,2,0,L|260:91,1,128
448,248,9944,6,0,P|483:177|447:75,1,192,2|0,0:0|0:0,0:0:0:0:
392,41,11332,2,0,P|357:112|393:214,1,192,0|0,0:0|0:0,0:0:0:0:
448,248,12719,6,0,L|250:247,1,192,2|0,0:0|0:0,0:0:0:0:
201,280,14106,2,0,L|95:280,2,96,0|0|0,0:0|0:0|0:0,0:0:0:0:
255,247,15494,1,2,0:0:0:0:
177,145,16187,6,0,P|146:138|103:151,2,64,2|0|2,0:0|3:0|0:0,0:0:0:0:
301,176,17575,2,0,P|332:183|375:170,2,64,2|0|2,0:0|3:0|0:0,0:0:0:0:
177,145,18962,2,0,L|174:211,1,64,2|0,0:0|0:0,0:0:0:0:
144,265,19655,6,0,P|180:255|272:278,1,128,0|0,0:0|0:0,0:0:0:0:
372,347,21043,1,2,0:0:0:0:
407,224,21736,6,0,P|446:217|472:228,2,64,2|0|2,0:0|3:0|0:0,0:0:0:0:
288,174,23124,2,0,P|249:167|223:178,2,64,2|0|2,0:0|3:0|0:0,0:0:0:0:
385,119,24511,2,0,B|403:66|403:66|381:6,2,111.999996582031,2|2|2,0:0|0:0|0:0,0:0:0:0:
329,269,26592,6,0,P|308:307|191:329,1,160,0|0,1:0|1:0,0:0:0:0:
132,189,27979,2,0,B|107:137|107:137|72:128,2,80,0|0|0,1:0|1:0|1:0,0:0:0:0:
165,261,29020,1,0,1:2:0:0:
201,333,29366,6,0,L|369:330,1,160,0|0,1:0|1:0,0:0:0:0:
425,183,30754,2,0,P|458:170|505:184,2,80,0|0|0,1:0|1:0|1:0,0:0:0:0:
389,254,31794,1,0,1:2:0:0:
360,330,32141,6,0,L|196:330,1,160,0|0,1:0|1:0,0:0:0:0:
76,228,33528,2,0,L|77:137,1,80,0|0,1:0|1:0,0:0:0:0:
41,75,34222,1,0,1:0:0:0:
188,136,34916,6,0,P|229:150|306:126,2,120,0|0|0,1:0|0:0|1:0,0:0:0:0:
127,79,36303,2,0,L|44:83,2,80,0|0|0,1:0|1:0|1:0,0:0:0:0:
203,54,37343,1,2,1:2:0:0:
283,23,37690,6,0,P|336:29|387:120,1,160,4|0,1:0|1:0,0:0:0:0:
387,274,39077,2,0,L|387:360,2,80,0|8|0,1:0|1:0|1:0,0:0:0:0:
347,204,40118,1,8,1:0:0:0:
307,134,40465,6,0,B|264:127|264:127|199:148|199:148|136:137,1,160,0|0,1:0|1:0,0:0:0:0:
3,79,41852,2,0,P|-4:35|10:-7,2,80,0|8|0,1:0|1:0|1:0,0:0:0:0:
37,151,42892,1,8,1:0:0:0:
78,219,43239,6,0,P|91:264|67:345,2,120,4|2|0,1:0|0:0|1:0,0:0:0:0:
37,151,44627,2,0,P|62:91|156:66,1,160,0|0,1:0|1:0,0:0:0:0:
224,85,45667,1,8,1:0:0:0:
300,109,46014,6,0,B|298:158|323:198|323:198|292:208|292:208|323:269|288:329,1,240,2|8,1:2|1:0,0:0:0:0:
203,347,47401,2,0,B|201:298|226:258|226:258|195:248|195:248|226:187|191:127,1,240,2|4,1:2|0:0,0:0:0:0:
256,192,54338,12,0,58499,1:0:0:0:
56,157,59887,6,0,P|96:149|136:162,2,83.9999974365235,4|0|4,0:3|1:0|0:3,0:0:0:0:
33,238,60927,1,0,1:0:0:0:
97,292,61274,2,0,P|144:305|188:289,1,83.9999974365235,4|0,0:3|1:0,0:0:0:0:
246,247,61968,1,4,0:3:0:0:
413,138,62661,6,0,P|429:98|415:55,2,83.9999974365235,4|0|4,0:3|1:0|0:3,0:0:0:0:
358,202,63702,1,0,1:0:0:0:
309,270,64049,2,0,P|293:310|307:353,2,83.9999974365235,4|0|4,0:3|1:0|0:3,0:0:0:0:
216,129,65436,6,0,L|115:128,1,83.9999974365235,4|0,0:3|1:0,0:0:0:0:
114,210,66129,2,0,L|215:211,1,83.9999974365235,4|0,0:3|1:0,0:0:0:0:
261,266,66823,2,0,P|272:292|255:348,2,83.9999974365235,4|0|4,0:3|1:0|0:3,0:0:0:0:
181,112,68210,6,0,P|259:83|335:115,1,167.999994873047,4|4,0:3|0:3,0:0:0:0:
400,167,69251,1,0,1:0:0:0:
466,218,69598,2,0,P|456:258|417:300,2,83.9999974365235,4|0|4,0:3|1:0|0:3,0:0:0:0:
483,135,70638,1,0,1:0:0:0:
457,50,70985,6,0,P|425:39|364:47,1,83.9999974365235,4|0,0:3|1:0,0:0:0:0:
309,94,71679,2,0,P|277:83|216:91,1,83.9999974365235,4|0,0:3|1:0,0:0:0:0:
147,110,72372,2,0,P|115:121|54:113,2,83.9999974365235,4|0|4,0:3|1:0|0:3,0:0:0:0:
348,217,73760,6,0,L|440:214,2,83.9999974365235,4|0|4,0:3|1:0|0:3,0:0:0:0:
279,265,74800,1,0,1:0:0:0:
208,311,75147,2,0,L|116:314,2,83.9999974365235,4|0|4,0:3|1:0|0:3,0:0:0:0:
256,150,76534,6,0,B|247:112|257:67|257:67|224:98|165:91,1,167.999994873047,4|4,0:3|0:3,0:0:0:0:
96,79,77575,1,0,1:0:0:0:
31,133,77921,2,0,P|14:167|22:220,2,83.9999974365235,4|0|4,0:3|1:0|0:3,0:0:0:0:
256,192,79309,12,0,80696,1:0:0:0:
401,220,82083,6,0,P|422:164|388:91,2,125.999996154785,4|2|0,0:3|0:0|1:0,0:0:0:0:
331,266,83470,2,0,L|239:269,1,83.9999974365235,4|0,0:3|1:0,0:0:0:0:
185,326,84164,2,0,L|93:329,1,83.9999974365235,4|0,0:3|1:0,0:0:0:0:
34,277,84858,6,0,P|19:226|41:148,2,125.999996154785,4|2|0,0:3|0:0|1:0,0:0:0:0:
100,328,86245,2,0,L|187:326,2,83.9999974365235,4|0|4,0:3|1:0|0:3,0:0:0:0:
34,277,87286,1,0,1:0:0:0:
109,240,87632,6,0,L|284:237,1,167.999994873047,4|4,0:3|0:3,0:0:0:0:
346,189,88673,1,0,1:0:0:0:
417,145,89020,2,0,P|425:120|475:86,2,83.9999974365235,4|0|4,0:3|1:0|0:3,0:0:0:0:
451,221,90060,1,0,1:0:0:0:
491,294,90407,5,4,0:3:0:0:
330,243,91101,1,4,0:3:0:0:
172,300,91794,2,0,P|151:249|177:171,1,125.999996154785,4|0,0:3|0:3,0:0:0:0:
415,86,93181,6,0,L|423:220,2,125.999996154785,4|2|4,0:3|0:0|0:3,0:0:0:0:
340,125,94569,2,0,P|299:142|250:141,1,83.9999974365235,0|4,1:0|0:3,0:0:0:0:
179,119,95262,1,0,1:0:0:0:
46,221,95956,6,0,P|78:217|201:270,1,167.999994873047,4|4,0:3|0:3,0:0:0:0:
265,320,96997,1,4,0:3:0:0:
339,357,97343,2,0,P|381:368|435:349,2,83.9999974365235,0|4|0,1:0|0:3|1:0,0:0:0:0:
379,283,98384,1,4,0:3:0:0:
256,192,98731,12,0,102892,3:0:0:0:
255,122,103933,6,0,L|256:51,1,71.9999978027344,4|4,3:2|0:1,0:0:0:0:
