osu file format v14

[General]
AudioFilename: audio.mp3
AudioLeadIn: 0
PreviewTime: 54501
Countdown: 0
SampleSet: Soft
StackLeniency: 0.4
Mode: 0
LetterboxInBreaks: 0
WidescreenStoryboard: 1

[Editor]
DistanceSpacing: 0.8
BeatDivisor: 3
GridSize: 32
TimelineZoom: 2.4

[Metadata]
Title:Kiga to Hougyoku
TitleUnicode:飢餓と宝玉
Artist:konore
ArtistUnicode:konore
Creator:gazimal
Version:Everywhere with you!
Source:マルコと銀河竜 ~MARCO&GALAXY DRAGON~
Tags:Kuse KuBsNia_ZhoYL_ TOKYOTOON galgame opening full version MARCO AND THE GALAXY DRAGON Visual Novel video game japanese 斎藤優輝 Yuki Saito Hato はと pop Hunger and Orb rock
BeatmapID:3083843
BeatmapSetID:1505495

[Difficulty]
HPDrainRate:5.5
CircleSize:4
OverallDifficulty:9
ApproachRate:9.4
SliderMultiplier:1.6
SliderTickRate:1

[Events]
//Background and Video events
0,0,"BG.jpg",0,0
//Break Periods
//Storyboard Layer 0 (Background)
//Storyboard Layer 1 (Fail)
//Storyboard Layer 2 (Pass)
//Storyboard Layer 3 (Foreground)
//Storyboard Layer 4 (Overlay)
//Storyboard Sound Samples

[TimingPoints]
0,314.13612565445,4,2,1,60,1,0
1256,-142.857142857143,4,2,1,60,0,0
3454,-250,4,2,1,60,0,0
3769,-142.857142857143,4,2,1,60,0,0
5968,-250.000000000001,4,2,1,60,0,0
6282,-83.3333333333333,4,2,1,75,0,0
7538,-500,4,2,1,75,0,0
8245,-500,4,2,1,5,0,0
8324,-500,4,2,1,75,0,0
8481,-100,4,2,1,75,0,0
8795,-100,4,2,2,65,0,0
9423,314.13612565445,4,2,1,70,1,0
9423,-90.9090909090909,4,2,1,70,0,0
14450,-100,4,2,1,70,0,0
14763,-100,4,2,1,50,0,0
32040,-200,4,2,1,60,0,0
32983,-66.6666666666667,4,2,1,60,0,0
33297,-66.6666666666667,4,2,1,70,0,0
34553,-90.9090909090909,4,2,1,70,0,0
43663,-142.857142857143,4,2,2,70,0,0
44606,-90.9090909090909,4,2,1,70,0,0
50260,-90.9090909090909,4,2,2,70,0,0
52616,-90.9090909090909,4,2,3,70,0,0
54658,-76.9230769230769,4,2,1,85,0,1
66829,-66.6666666666667,4,2,1,5,0,1
66908,-66.6666666666667,4,2,1,85,0,1
67143,-66.6666666666667,4,2,1,5,0,1
67222,-66.6666666666667,4,2,1,85,0,1
67850,-76.9230769230769,4,2,1,85,0,1
68478,-66.6666666666667,4,2,1,85,0,1
69421,-200,4,2,1,85,0,1
69656,-66.6666666666667,4,2,1,5,0,1
69735,-66.6666666666667,4,2,1,85,0,1
70049,-76.9230769230769,4,2,1,85,0,1
83166,-76.9230769230769,4,2,1,5,0,1
83244,-76.9230769230769,4,2,1,85,0,1
83400,-66.6666666666667,4,2,1,85,0,1
84656,-100,4,2,1,85,0,1
86072,-76.9230769230769,4,2,1,85,0,1
86936,-66.6666666666667,4,2,1,5,0,1
87014,-66.6666666666667,4,2,1,85,0,1
87250,-66.6666666666667,4,2,1,5,0,1
87328,-66.6666666666667,4,2,1,85,0,1
87957,-76.9230769230769,4,2,1,85,0,1
91098,-500,4,2,1,85,0,0
91805,-100,4,2,1,5,0,0
91883,-100,4,2,1,85,0,0
92040,-250,4,2,1,85,0,0
92277,-66.6666666666667,4,2,1,5,0,0
92354,-90.9090909090909,4,2,1,85,0,1
92433,-90.9090909090909,4,2,1,70,0,1
92512,-90.9090909090909,4,2,1,70,0,0
97381,-142.857142857143,4,2,1,70,0,0
97459,-142.857142857143,4,2,1,50,0,0
101151,-111.111111111111,4,2,1,50,0,0
107276,-66.6666666666667,4,2,1,50,0,0
107354,-100,4,2,1,50,0,0
107433,-100,4,2,1,55,0,0
107983,-100,4,2,1,5,0,0
108061,-100,4,2,1,55,0,0
108611,-100,4,2,1,5,0,0
108690,-100,4,2,1,55,0,0
109239,-100,4,2,1,5,0,0
109318,-100,4,2,1,55,0,0
109868,-100,4,2,1,5,0,0
109946,-83.3333333333333,4,2,1,55,0,0
110417,-100,4,2,1,55,0,0
110496,-100,4,2,1,5,0,0
110574,-83.3333333333333,4,2,1,55,0,0
111046,-100,4,2,1,55,0,0
111124,-100,4,2,1,5,0,0
111203,-83.3333333333333,4,2,1,55,0,0
112459,-111.111111111111,4,2,1,55,0,0
113637,-111.111111111111,4,2,1,5,0,0
113716,-111.111111111111,4,2,1,55,0,0
114344,-100,4,2,1,55,0,0
114580,-100,4,2,1,5,0,0
114658,-100,4,2,1,55,0,0
115601,-100,4,2,1,60,0,0
116230,-66.6666666666667,4,2,1,70,0,0
117485,-90.9090909090909,4,2,1,70,0,0
118977,-90.9090909090909,4,2,1,5,0,0
119056,-90.9090909090909,4,2,1,70,0,0
119606,-90.9090909090909,4,2,1,5,0,0
119684,-90.9090909090909,4,2,1,70,0,0
122747,-90.9090909090909,4,2,1,5,0,0
122826,-90.9090909090909,4,2,1,70,0,0
124946,-90.9090909090909,4,2,1,5,0,0
125025,-90.9090909090909,4,2,1,70,0,0
126203,-90.9090909090909,4,2,1,5,0,0
126281,-66.6666666666667,4,2,1,70,0,0
127538,-90.9090909090909,4,2,1,70,0,0
132564,-142.857142857143,4,2,1,70,0,0
132878,-142.857142857143,4,2,2,60,0,0
134763,-100,4,2,2,60,0,0
135077,-100,4,2,1,70,0,0
136019,-125,4,2,1,70,0,0
137590,-76.9230769230769,4,2,1,85,0,1
149763,-76.9230769230769,4,2,1,5,0,1
149841,-66.6666666666667,4,2,1,85,0,1
150077,-66.6666666666667,4,2,1,5,0,1
150155,-66.6666666666667,4,2,1,85,0,1
150784,-76.9230769230769,4,2,1,85,0,1
151412,-66.6666666666667,4,2,1,85,0,1
152354,-200,4,2,1,85,0,1
152590,-200,4,2,1,5,0,1
152669,-66.6666666666667,4,2,1,85,0,1
153297,-76.9230769230769,4,2,1,85,0,1
154789,-76.9230769230769,4,2,1,5,0,1
154868,-76.9230769230769,4,2,1,85,0,1
166098,-76.9230769230769,4,2,1,5,0,1
166176,-76.9230769230769,4,2,1,85,0,1
166333,-66.6666666666667,4,2,1,85,0,1
167590,-100,4,2,1,85,0,1
169004,-76.9230769230769,4,2,1,85,0,1
169868,-76.9230769230769,4,2,1,5,0,1
169946,-66.6666666666667,4,2,1,85,0,1
170182,-66.6666666666667,4,2,1,5,0,1
170260,-66.6666666666667,4,2,1,85,0,1
170888,-76.9230769230769,4,2,1,85,0,1
174030,-500,4,2,1,85,0,0
174737,-500,4,2,1,5,0,0
174815,-500,4,2,1,85,0,0
174972,-250,4,2,1,85,0,0
175208,-250,4,2,1,5,0,0
175286,-90.9090909090909,4,2,1,85,0,1
175365,-90.9090909090909,4,2,1,60,0,1
175522,-90.9090909090909,4,2,1,60,0,0
175601,-100,4,2,1,60,0,0
176229,-125,4,2,1,60,0,0
176543,-90.9090909090909,4,2,1,60,0,0
177485,-125,4,2,1,60,0,0
177799,-100,4,2,1,60,0,0
178428,-125,4,2,1,60,0,0
178977,-90.9090909090909,4,2,1,5,0,0
179056,-100,4,2,1,60,0,0
179684,-125,4,2,1,60,0,0
180234,-90.9090909090909,4,2,1,5,0,0
180313,-100,4,2,1,60,0,0
180548,-100,4,2,1,5,0,0
180627,-125,4,2,1,60,0,0
181491,-125,4,2,1,5,0,0
181569,-100,4,2,1,60,0,0
181805,-90.9090909090909,4,2,1,5,0,0
181883,-100,4,2,1,60,0,0
182040,-125,4,2,1,60,0,0
182747,-90.9090909090909,4,2,1,5,0,0
182826,-125,4,2,1,60,0,0
183140,-125,4,2,2,60,0,0
184004,-90.9090909090909,4,2,1,5,0,0
184082,-100,4,2,1,60,0,0
184318,-90.9090909090909,4,2,1,5,0,0
184396,-100,4,2,1,60,0,0
185025,-200,4,2,1,60,0,0
185260,-200,4,2,1,5,0,0
185339,-100,4,2,1,60,0,0
189344,-100,4,2,1,5,0,0
189422,-100,4,2,1,60,0,0
190365,-100,4,2,1,75,0,0
190993,-90.9090909090909,4,2,1,75,0,0
192878,-71.4285714285714,4,2,1,80,0,0
193114,-71.4285714285714,4,2,1,5,0,0
193192,-71.4285714285714,4,2,1,80,0,0
193428,-71.4285714285714,4,2,1,5,0,0
193506,-71.4285714285714,4,2,1,80,0,0
193742,-71.4285714285714,4,2,1,80,0,0
193820,-71.4285714285714,4,2,1,80,0,0
194056,-71.4285714285714,4,2,1,80,0,0
194135,-100,4,2,1,80,0,0
194449,-100,4,2,1,60,0,0
194763,-125,4,2,1,60,0,0
195313,-125,4,2,1,5,0,0
195391,-200,4,2,1,50,0,0
197904,-200,4,2,1,45,0,0
200417,-200,4,2,2,45,0,0
201674,-200,4,2,1,45,0,0
202930,-200,4,2,2,45,0,0
204187,-166.666666666667,4,2,1,45,0,0
205443,-142.857142857143,4,2,2,45,0,0
206700,-200,4,2,2,45,0,0
207878,-200,4,2,2,5,0,0
207957,-100,4,2,1,55,0,0
208192,-100,4,2,1,5,0,0
208271,-100,4,2,1,55,0,0
210077,-100,4,2,1,5,0,0
210155,-100,4,2,1,55,0,0
210391,-100,4,2,1,5,0,0
210470,-100,4,2,1,55,0,0
215182,-100,4,2,1,55,0,0
215496,-100,4,2,1,70,0,0
217381,-100,4,2,1,70,0,1
217459,-100,4,2,1,70,0,0
217538,-100,4,2,1,70,0,1
217616,-100,4,2,1,70,0,0
217695,-100,4,2,1,70,0,1
217773,-100,4,2,1,70,0,0
217852,-100,4,2,1,70,0,1
217930,-100,4,2,1,70,0,0
218009,-71.4285714285714,4,2,1,85,0,1
226412,-71.4285714285714,4,2,1,5,0,1
226491,-71.4285714285714,4,2,1,85,0,1
226648,-62.5,4,2,1,85,0,1
229318,-71.4285714285714,4,2,1,85,0,1
230182,-71.4285714285714,4,2,1,5,0,1
230260,-62.5,4,2,1,85,0,1
230496,-62.5,4,2,1,5,0,1
230574,-62.5,4,2,1,85,0,1
234344,-500,4,2,1,85,0,0
235051,-500,4,2,1,5,0,0
235129,-500,4,2,1,85,0,0
235286,-250,4,2,1,85,0,0
235522,-250,4,2,1,5,0,0
235601,-83.3333333333333,4,2,1,85,0,1
235679,-83.3333333333333,4,2,1,85,0,0
235758,-83.3333333333333,4,2,1,70,0,0
255705,-166.666666666667,4,2,1,35,0,0
255941,-166.666666666667,4,2,1,5,0,0
256019,-200,4,2,1,35,0,0
256333,-200,4,2,1,5,0,0

[Colours]
Combo1 : 255,94,94
Combo2 : 243,205,239
Combo3 : 106,179,244

[HitObjects]
226,228,1256,6,0,B|191:190|244:142|244:142|316:189|256:258|256:258|237:290|244:338|291:355,1,335.999989746094,4|0,3:2|0:0,0:0:0:0:
389,253,2513,2,0,B|368:296|318:293|318:293|380:321|416:285|400:282|454:224|516:269,1,279.999991455078,4|0,3:2|0:0,0:0:0:0:
481,376,3455,6,0,P|476:348|471:318,1,48
495,258,3769,5,6,3:2:0:0:
256,193,3926,1,2,0:0:0:0:
256,193,4397,5,6,3:2:0:0:
495,176,4554,1,2,0:0:0:0:
495,176,5025,6,0,L|480:84,1,83.9999974365235,4|0,3:2|0:0,0:0:0:0:
465,18,5339,1,4,3:2:0:0:
385,126,5496,1,0,0:0:0:0:
319,12,5653,1,4,3:2:0:0:
390,51,5810,1,0,0:0:0:0:
277,119,5968,6,0,L|224:110,1,48,4|0,3:2|0:0,0:0:0:0:
176,47,6282,6,0,L|73:63,1,95.9999970703126,4|0,3:2|3:2,0:0:0:0:
31,75,6517,1,8,0:0:0:0:
31,75,6596,2,0,L|47:186,1,95.9999970703126,8|0,3:2|3:2,0:0:0:0:
163,169,6831,1,8,0:0:0:0:
163,169,6910,2,0,L|146:280,1,95.9999970703126,8|0,3:2|3:2,0:0:0:0:
26,366,7146,1,8,0:0:0:0:
26,366,7224,2,0,P|54:330|112:330,1,95.9999970703126,8|0,3:2|3:2,0:0:0:0:
332,384,7539,6,0,L|403:372,1,72,12|0,3:2|0:0,0:0:0:0:
476,359,8324,1,0,3:0:0:0:
260,293,8481,1,8,0:0:0:0:
476,359,8796,5,2,0:0:0:0:
476,359,9110,1,2,0:0:0:0:
476,359,9424,6,0,L|462:273,1,88.000002685547,6|2,3:2|0:0,0:0:0:0:
441,139,9738,2,0,P|415:176|357:178,1,88.000002685547,8|0,0:0|3:2,0:0:0:0:
336,177,9973,1,8,0:0:0:0:
336,177,10052,1,2,3:2:0:0:
415,42,10209,1,2,3:2:0:0:
257,0,10366,2,0,L|272:100,1,88.000002685547,8|0,0:0|3:2,0:0:0:0:
296,265,10680,6,0,P|266:226|200:227,1,88.000002685547,6|2,3:2|0:0,0:0:0:0:
119,379,10994,2,0,L|219:362,1,88.000002685547,8|0,0:0|3:0,0:0:0:0:
254,360,11230,1,8,0:0:0:0:
254,360,11308,1,2,3:2:0:0:
132,265,11465,1,2,3:2:0:0:
16,384,11622,2,0,L|31:285,1,88.000002685547,8|2,0:0|0:0,0:0:0:0:
51,146,11937,6,0,P|82:182|135:179,1,88.000002685547,6|2,3:2|3:2,0:0:0:0:
224,35,12251,2,0,L|118:51,1,88.000002685547,8|2,0:0|3:2,0:0:0:0:
94,60,12486,1,8,0:0:0:0:
94,60,12565,1,2,3:2:0:0:
216,149,12722,1,2,3:2:0:0:
328,10,12879,2,0,L|310:119,1,88.000002685547,8|2,0:0|3:2,0:0:0:0:
285,214,13115,5,8,0:0:0:0:
285,214,13193,2,0,P|315:182|385:190,1,88.000002685547,6|2,3:2|0:0,0:0:0:0:
507,270,13507,2,0,P|464:260|436:195,1,88.000002685547,8|2,0:0|3:2,0:0:0:0:
418,177,13743,1,8,0:0:0:0:
418,177,13821,1,6,3:2:0:0:
416,359,13978,1,10,3:2:0:0:
238,287,14136,1,10,0:2:0:0:
352,254,14293,1,0,3:2:0:0:
132,384,14450,6,0,L|161:198,1,160,6|0,3:2|3:2,0:0:0:0:
176,116,14921,1,2,0:0:0:0:
132,384,15078,2,0,L|161:198,1,160,2|0,3:2|3:2,0:0:0:0:
176,116,15549,1,2,3:2:0:0:
132,384,15706,6,0,L|161:198,1,160,2|0,3:2|3:2,0:0:0:0:
176,116,16176,1,2,0:0:0:0:
132,384,16333,2,0,L|161:198,1,160,2|0,3:2|3:2,0:0:0:0:
176,116,16806,1,2,3:2:0:0:
132,384,16962,6,0,L|161:198,1,160,2|0,3:2|3:2,0:0:0:0:
176,116,17433,1,2,0:0:0:0:
132,384,17590,2,0,L|161:198,1,160,2|0,3:2|3:2,0:0:0:0:
176,116,18061,1,2,3:2:0:0:
222,331,18218,6,0,P|276:279|367:309,1,160,2|0,3:2|3:2,0:0:0:0:
444,384,18691,1,2,0:0:0:0:
231,204,18847,2,0,P|177:152|85:181,1,160,2|0,3:2|3:2,0:0:0:0:
9,257,19318,1,0,0:0:0:0:
50,115,19475,5,2,3:2:0:0:
182,71,19632,1,2,0:0:0:0:
157,230,19789,2,0,L|172:129,1,80,0|0,3:2|3:0,0:0:0:0:
186,75,20025,1,0,3:0:0:0:
186,75,20103,1,0,3:2:0:0:
309,156,20260,1,0,3:2:0:0:
387,58,20417,2,0,P|355:27|309:28,1,80,0|0,3:2|3:2,0:0:0:0:
438,182,20731,5,2,3:2:0:0:
466,22,20888,1,2,0:0:0:0:
419,200,21046,2,0,L|432:287,1,80,0|0,3:2|3:2,0:0:0:0:
309,156,21360,5,2,3:2:0:0:
281,316,21517,1,2,0:0:0:0:
296,130,21674,2,0,P|254:135|222:184,1,80,0|0,3:2|0:0,0:0:0:0:
63,278,21988,5,2,3:2:0:0:
223,250,22145,1,2,0:2:0:0:
38,267,22302,2,0,L|52:173,1,80,0|0,3:2|3:0,0:0:0:0:
65,114,22538,1,0,3:0:0:0:
65,114,22616,1,0,3:2:0:0:
228,160,22773,1,0,3:2:0:0:
147,41,22930,1,0,3:2:0:0:
125,166,23087,1,2,3:2:0:0:
260,79,23244,5,2,3:2:0:0:
141,280,23401,1,2,3:2:0:0:
215,344,23558,1,2,3:2:0:0:
307,330,23716,1,2,3:2:0:0:
347,244,23873,1,2,3:2:0:0:
422,213,24030,1,2,3:2:0:0:
486,249,24187,1,6,3:2:0:0:
496,311,24344,1,0,0:0:0:0:
307,330,24501,6,0,L|126:301,1,160,6|0,3:2|3:2,0:0:0:0:
10,282,24972,1,2,0:0:0:0:
307,330,25129,2,0,L|126:301,1,160,2|0,3:2|3:2,0:0:0:0:
10,282,25601,1,2,3:2:0:0:
215,235,25758,6,0,L|395:206,1,160,2|0,3:2|3:2,0:0:0:0:
512,187,26228,1,2,0:0:0:0:
307,330,26386,2,0,L|126:301,1,160,2|0,3:2|3:2,0:0:0:0:
10,282,26857,1,2,3:2:0:0:
307,330,27014,6,0,L|126:301,1,160,2|0,3:2|3:2,0:0:0:0:
10,282,27485,1,2,0:0:0:0:
307,330,27642,2,0,L|126:301,1,160,2|0,3:2|3:2,0:0:0:0:
10,282,28114,1,2,3:2:0:0:
215,235,28271,6,0,L|395:206,1,160,2|0,3:2|3:2,0:0:0:0:
512,187,28741,1,2,0:0:0:0:
307,330,28899,1,2,3:2:0:0:
207,316,29056,1,0,3:2:0:0:
108,301,29213,1,0,3:2:0:0:
10,282,29370,1,0,0:0:0:0:
215,235,29527,5,2,3:2:0:0:
307,330,29684,1,2,0:0:0:0:
331,165,29841,2,0,L|315:269,1,80,0|0,3:2|3:0,0:0:0:0:
226,155,30156,1,0,3:2:0:0:
207,316,30313,1,0,3:2:0:0:
10,281,30470,2,0,P|34:250|72:240,1,80,0|0,3:2|3:2,0:0:0:0:
215,235,30784,6,0,P|177:223|154:191,1,80,0|0,3:2|0:0,0:0:0:0:
72,80,31098,2,0,P|86:116|76:154,1,80,0|0,3:2|3:2,0:0:0:0:
77,318,31412,1,0,3:2:0:0:
226,155,31569,1,0,0:0:0:0:
307,330,31726,1,0,3:2:0:0:
439,252,31883,1,0,0:0:0:0:
232,326,32040,6,0,L|152:322,1,80,4|0,3:2|0:0,0:0:0:0:
152,322,32983,6,0,L|281:328,1,120.000004577637,2|0,0:0|0:0,0:0:0:0:
460,351,33297,5,8,0:0:0:0:
424,323,33375,1,8,0:0:0:0:
408,282,33454,1,8,0:0:0:0:
414,238,33532,1,8,0:0:0:0:
442,203,33611,1,8,0:0:0:0:
477,177,33689,1,8,0:0:0:0:
494,135,33768,1,8,0:0:0:0:
487,92,33846,1,8,0:0:0:0:
458,58,33925,5,8,0:0:0:0:
424,87,34004,1,8,0:0:0:0:
381,94,34082,1,8,0:0:0:0:
339,77,34161,1,8,0:0:0:0:
313,42,34239,1,8,0:0:0:0:
278,14,34318,1,8,0:0:0:0:
234,8,34396,1,8,0:0:0:0:
193,24,34475,1,8,0:0:0:0:
166,60,34553,6,0,L|181:156,1,88.000002685547,6|0,3:2|0:0,0:0:0:0:
267,221,34867,1,8,0:0:0:0:
88,167,35024,1,10,0:0:0:0:
368,60,35181,2,0,L|353:156,1,88.000002685547,2|0,0:0|3:2,0:0:0:0:
267,221,35495,1,8,0:0:0:0:
446,167,35652,1,2,0:0:0:0:
166,60,35810,6,0,L|181:156,1,88.000002685547,2|0,3:2|0:0,0:0:0:0:
267,221,36124,1,8,0:0:0:0:
88,167,36281,1,2,3:2:0:0:
368,60,36438,2,0,L|353:156,1,88.000002685547,2|0,3:2|3:2,0:0:0:0:
267,221,36752,1,8,0:0:0:0:
446,167,36909,1,2,0:0:0:0:
356,321,37066,6,0,L|256:305,1,88.000002685547,2|0,3:2|0:0,0:0:0:0:
267,221,37380,1,8,0:0:0:0:
88,275,37537,1,10,0:0:0:0:
178,121,37694,2,0,L|277:136,1,88.000002685547,2|0,0:0|3:2,0:0:0:0:
267,221,38009,1,8,0:0:0:0:
446,167,38166,1,2,3:2:0:0:
356,321,38323,6,0,L|256:305,1,88.000002685547,2|0,3:2|0:0,0:0:0:0:
88,275,38638,1,8,0:0:0:0:
267,221,38795,1,2,3:2:0:0:
356,321,38952,2,0,L|256:305,1,88.000002685547,2|0,0:0|3:2,0:0:0:0:
70,359,39266,2,0,P|133:348|171:283,1,132.00000402832,8|0,0:0|0:0,0:0:0:0:
191,201,39580,6,0,P|211:162|261:144,1,88.000002685547,0|0,3:2|0:0,0:0:0:0:
422,246,39894,1,10,0:0:0:0:
389,79,40051,1,8,0:0:0:0:
249,144,40208,2,0,L|264:47,1,88.000002685547,2|0,0:0|3:0,0:0:0:0:
422,246,40522,2,0,L|405:150,1,88.000002685547,10|0,3:2|0:0,0:0:0:0:
177,188,40836,6,0,P|211:227|269:224,1,88.000002685547,2|0,3:2|0:0,0:0:0:0:
389,79,41150,2,0,P|423:40|481:43,1,88.000002685547,10|0,0:0|3:2,0:0:0:0:
353,288,41464,2,0,P|387:327|445:324,1,88.000002685547,2|0,0:0|3:2,0:0:0:0:
172,103,41778,2,0,P|130:113|105:148,1,88.000002685547,10|0,0:0|0:0,0:0:0:0:
388,164,42092,6,0,P|345:154|320:119,1,88.000002685547,2|0,3:2|0:0,0:0:0:0:
196,16,42407,1,10,0:0:0:0:
100,228,42564,2,0,B|55:235|3:191|7:138|7:138|31:137|48:124,1,176.000005371094,8|0,0:0|3:0,0:0:0:0:
209,182,43035,2,0,L|185:332,1,132.00000402832,10|0,0:0|0:0,0:0:0:0:
142,379,43349,6,0,P|189:333|265:351,1,132.00000402832,6|0,3:2|0:0,0:0:0:0:
323,356,43663,2,0,L|312:288,1,55.9999982910157,10|0,0:0|3:2,0:0:0:0:
434,239,43977,2,0,L|423:306,1,55.9999982910157,2|0,0:0|3:2,0:0:0:0:
314,347,44292,2,0,L|303:279,1,55.9999982910157,10|0,0:0|0:0,0:0:0:0:
295,214,44527,5,8,0:0:0:0:
295,214,44606,2,0,P|252:238|205:236,1,88.000002685547,6|0,3:2|0:0,0:0:0:0:
189,109,44920,1,8,0:0:0:0:
86,269,45077,1,10,0:0:0:0:
40,0,45234,2,0,L|69:186,1,176.000005371094,2|8,0:0|0:0,0:0:0:0:
86,269,45705,1,2,3:2:0:0:
40,0,45862,6,0,L|69:186,1,176.000005371094,2|8,3:2|0:0,0:0:0:0:
86,269,46333,1,2,3:2:0:0:
26,15,46491,6,0,L|39:102,1,88.000002685547,2|0,3:2|3:2,0:0:0:0:
68,272,46805,1,8,0:0:0:0:
189,109,46962,1,2,0:0:0:0:
40,0,47119,2,0,L|67:173,1,176.000005371094,2|8,0:0|0:0,0:0:0:0:
86,269,47590,1,10,0:0:0:0:
26,15,47747,2,0,L|44:130,1,88.000002685547,2|0,0:0|3:2,0:0:0:0:
68,272,48061,1,8,0:0:0:0:
189,109,48218,1,2,0:0:0:0:
40,0,48375,6,0,L|69:186,1,176.000005371094,2|8,3:2|0:0,0:0:0:0:
86,269,48846,1,2,3:2:0:0:
26,15,49003,6,0,L|39:101,1,88.000002685547,2|0,0:0|3:2,0:0:0:0:
68,272,49318,2,0,P|90:237|146:228,1,88.000002685547,8|0,0:0|0:0,0:0:0:0:
340,313,49632,5,6,3:2:0:0:
357,323,49946,1,10,0:0:0:0:
479,202,50103,1,0,3:2:0:0:
340,167,50261,5,2,0:0:0:0:
234,82,50418,1,0,3:2:0:0:
392,94,50575,1,10,0:0:0:0:
498,9,50732,1,0,0:0:0:0:
234,82,50889,5,2,3:2:0:0:
234,228,51046,1,0,0:0:0:0:
498,155,51202,1,10,0:0:0:0:
498,9,51359,1,0,3:2:0:0:
392,94,51517,5,2,0:0:0:0:
340,313,51674,1,0,3:2:0:0:
512,246,51831,1,10,0:0:0:0:
400,247,51988,5,0,3:2:0:0:
400,247,52066,1,8,0:0:0:0:
400,247,52145,1,4,3:2:0:0:
238,355,52617,5,0,3:2:0:0:
253,328,52696,1,8,0:0:0:0:
268,301,52774,1,10,0:0:0:0:
149,121,52931,5,0,3:2:0:0:
154,151,53010,1,8,0:0:0:0:
158,181,53088,1,10,0:0:0:0:
359,255,53245,5,0,3:2:0:0:
336,234,53324,1,8,0:0:0:0:
315,212,53402,1,8,0:0:0:0:
235,223,54030,5,0,3:2:0:0:
303,112,54187,1,8,0:0:0:0:
276,127,54265,1,8,0:0:0:0:
248,140,54344,1,0,3:0:0:0:
109,270,54501,1,8,0:0:0:0:
139,275,54580,1,8,0:0:0:0:
169,281,54658,6,0,L|152:176,1,103.999995239258,6|0,3:2|0:0,0:0:0:0:
27,252,54973,1,8,0:0:0:0:
248,140,55130,1,2,0:0:0:0:
23,91,55287,1,2,3:2:0:0:
169,281,55444,1,2,0:0:0:0:
247,45,55601,1,10,3:2:0:0:
23,170,55758,1,2,3:2:0:0:
264,37,55915,6,0,L|246:149,1,103.999995239258,2|0,3:2|0:0,0:0:0:0:
420,309,56229,2,0,L|402:196,1,103.999995239258,10|0,0:0|0:0,0:0:0:0:
143,356,56543,2,0,B|187:375|230:336|230:336|268:265|338:278,1,207.999990478516,2|8,3:2|0:0,0:0:0:0:
478,376,57014,1,2,0:0:0:0:
460,132,57171,6,0,P|382:105|314:202,1,207.999990478516,2|8,3:2|0:0,0:0:0:0:
325,373,57642,1,2,0:0:0:0:
143,196,57799,2,0,B|187:177|230:216|230:216|268:287|338:274,1,207.999990478516,2|8,3:2|0:0,0:0:0:0:
460,132,58271,1,2,0:0:0:0:
312,192,58428,6,0,B|269:169|256:108|272:60|326:38|359:68|344:103,1,207.999990478516,2|8,3:2|0:0,0:0:0:0:
143,196,58899,1,2,0:0:0:0:
302,354,59056,2,0,B|242:334|240:277|240:277|212:330|146:325,1,207.999990478516,2|8,3:2|0:0,0:0:0:0:
18,163,59527,5,2,0:0:0:0:
97,384,59684,1,6,3:2:0:0:
204,118,59841,1,2,0:0:0:0:
7,340,59998,2,0,P|36:300|110:290,1,103.999995239258,10|0,0:0|0:0,0:0:0:0:
302,354,60312,1,2,3:2:0:0:
143,196,60469,1,2,0:0:0:0:
311,344,60626,1,10,0:0:0:0:
133,207,60783,1,2,0:0:0:0:
320,334,60940,6,0,P|308:280|302:225,1,103.999995239258,2|2,3:2|0:0,0:0:0:0:
156,325,61254,1,10,0:0:0:0:
204,118,61411,1,2,0:0:0:0:
404,250,61568,2,0,P|351:238|277:229,1,103.999995239258,2|0,3:2|0:0,0:0:0:0:
393,50,61883,1,10,0:0:0:0:
204,118,62040,1,2,0:0:0:0:
414,342,62197,6,0,P|486:298|460:180,1,207.999990478516,6|8,3:2|0:0,0:0:0:0:
311,344,62668,1,2,0:0:0:0:
490,111,62825,2,0,B|434:87|390:144|408:146|363:208|294:177,1,207.999990478516,6|8,3:2|0:0,0:0:0:0:
39,26,63296,6,0,B|-4:64|20:117|20:117|83:149|65:208,1,207.999990478516,4|0,3:2|3:0,0:0:0:0:
8,253,63689,1,8,0:0:0:0:
0,235,63768,1,8,0:0:0:0:
147,322,63925,1,0,3:0:0:0:
139,304,64004,1,8,0:0:0:0:
131,286,64082,1,8,0:0:0:0:
303,367,64239,1,0,3:0:0:0:
293,345,64318,1,8,0:0:0:0:
283,323,64396,1,8,0:0:0:0:
470,384,64553,5,2,3:2:0:0:
458,359,64632,1,8,0:0:0:0:
447,335,64710,1,6,0:2:0:0:
283,323,64868,1,2,0:0:0:0:
338,145,65024,1,10,0:0:0:0:
467,258,65181,1,2,0:0:0:0:
303,367,65338,5,2,3:2:0:0:
235,161,65495,1,2,0:0:0:0:
380,243,65652,1,10,0:0:0:0:
463,45,65809,1,2,0:0:0:0:
235,161,65966,6,0,L|348:143,1,103.999995239258,2|0,3:2|0:0,0:0:0:0:
135,45,66281,2,0,L|21:27,1,103.999995239258,10|0,0:0|0:0,0:0:0:0:
311,184,66595,2,0,B|347:177|368:122|340:78|299:68|277:106|294:126,1,155.999992858887,2|0,3:2|0:0,0:0:0:0:
235,161,66909,2,0,L|434:130,1,180.000006866455,10|0,0:0|0:0,0:0:0:0:
434,173,67223,6,0,B|395:208|325:151|338:145|263:73|220:116,1,240.000009155274,2|8,3:2|0:0,0:0:0:0:
91,262,67694,1,2,0:0:0:0:
257,340,67851,2,0,L|237:218,1,103.999995239258,2|0,3:2|3:0,0:0:0:0:
358,303,68165,1,8,0:0:0:0:
161,370,68322,1,2,0:0:0:0:
221,115,68479,6,0,P|110:92|69:201,2,240.000009155274,2|10|2,3:2|0:0|3:2,0:0:0:0:
358,303,69265,1,0,0:0:0:0:
459,97,69422,6,0,B|467:114|453:123|453:123|443:109|463:93,1,60,10|0,0:0|0:0,0:0:0:0:
472,25,69736,6,0,P|450:151|430:287,1,240.000009155274,6|8,3:2|0:0,0:0:0:0:
308,146,70207,1,0,0:0:0:0:
350,384,70364,2,0,P|398:375|437:327,1,103.999995239258,2|0,3:2|3:0,0:0:0:0:
170,206,70678,2,0,P|218:215|257:263,1,103.999995239258,10|0,0:0|0:0,0:0:0:0:
18,357,70993,6,0,L|35:244,1,103.999995239258,2|0,3:2|0:0,0:0:0:0:
153,103,71307,2,0,L|170:215,1,103.999995239258,10|0,0:0|0:0,0:0:0:0:
13,40,71621,2,0,B|48:64|85:54|85:54|120:8|176:24,1,155.999992858887,2|0,3:2|0:0,0:0:0:0:
232,58,71935,1,10,0:0:0:0:
253,254,72092,1,2,0:0:0:0:
71,174,72249,6,0,L|137:163,1,51.999997619629,14|0,3:2|0:0,0:0:0:0:
404,133,72406,1,8,0:0:0:0:
404,133,72878,6,0,L|338:119,1,51.999997619629,8|0,0:0|0:0,0:0:0:0:
72,74,73034,1,0,3:0:0:0:
176,241,73192,2,0,P|200:194|261:178,1,103.999995239258,8|0,3:2|3:2,0:0:0:0:
331,203,73427,1,8,0:0:0:0:
331,203,73506,5,6,3:2:0:0:
196,64,73663,1,2,3:2:0:0:
253,254,73820,1,10,0:2:0:0:
185,49,73977,1,10,3:2:0:0:
253,254,74134,5,8,0:0:0:0:
245,203,74213,1,8,0:0:0:0:
259,152,74292,1,8,0:0:0:0:
290,111,74370,1,8,0:0:0:0:
335,86,74449,1,8,0:0:0:0:
386,79,74527,1,8,0:0:0:0:
436,91,74606,1,10,0:0:0:0:
477,122,74684,1,8,0:0:0:0:
504,167,74763,5,6,3:2:0:0:
331,203,74919,1,2,0:0:0:0:
196,64,75076,1,10,0:0:0:0:
24,104,75233,1,2,0:0:0:0:
153,243,75390,5,2,3:2:0:0:
335,86,75548,1,2,0:0:0:0:
179,156,75705,1,8,0:0:0:0:
361,313,75861,1,2,0:0:0:0:
247,222,76019,5,2,3:2:0:0:
429,65,76175,1,2,0:0:0:0:
442,297,76333,2,0,P|416:247|358:232,1,103.999995239258,10|0,0:0|3:0,0:0:0:0:
55,364,76647,2,0,L|23:158,1,207.999990478516,2|10,3:2|0:0,0:0:0:0:
0,0,77118,1,2,0:0:0:0:
179,156,77275,6,0,B|226:179|271:144|271:144|277:128|277:128|312:93|380:100,1,207.999990478516,2|8,3:2|0:0,0:0:0:0:
200,68,77747,1,2,0:0:0:0:
469,217,77904,2,0,B|510:168|478:111|469:134|422:69|485:15,1,207.999990478516,2|8,3:2|0:0,0:0:0:0:
344,185,78375,1,2,0:0:0:0:
498,371,78532,6,0,B|446:357|427:298|427:298|410:360|364:370,1,207.999990478516,2|8,3:2|0:0,0:0:0:0:
469,217,79003,1,2,0:0:0:0:
259,365,79160,2,0,P|162:321|31:296,1,207.999990478516,2|8,3:2|0:0,0:0:0:0:
305,272,79631,5,2,0:0:0:0:
154,193,79788,1,2,3:2:0:0:
124,384,79945,1,2,0:0:0:0:
233,215,80103,2,0,P|284:189|337:182,1,103.999995239258,10|0,0:0|0:0,0:0:0:0:
469,217,80417,1,2,3:2:0:0:
291,89,80574,1,2,0:0:0:0:
499,15,80731,1,10,0:0:0:0:
281,94,80888,1,2,0:0:0:0:
477,231,81045,5,2,3:2:0:0:
377,23,81202,1,2,0:0:0:0:
485,245,81359,1,10,0:0:0:0:
370,11,81516,1,2,0:0:0:0:
329,181,81673,1,0,3:2:0:0:
178,79,81830,2,0,P|229:85|297:96,1,103.999995239258,2|10,0:0|0:0,0:0:0:0:
147,0,82144,1,2,3:2:0:0:
31,133,82301,6,0,P|22:74|13:24,1,103.999995239258,14|0,0:0|3:0,0:0:0:0:
150,242,82616,1,2,3:2:0:0:
178,79,82773,1,10,0:0:0:0:
20,274,82930,2,0,P|76:225|150:242,1,155.999992858887,2|0,3:2|0:0,0:0:0:0:
222,299,83244,2,0,P|199:319|161:318,1,51.999997619629,8|0,0:0|0:0,0:0:0:0:
243,204,83401,6,0,P|324:128|444:180,1,240.000009155274,4|0,3:2|3:0,0:0:0:0:
305,356,83872,1,12,0:0:0:0:
169,147,84029,1,0,3:0:0:0:
387,285,84186,1,12,0:0:0:0:
149,241,84343,1,0,3:0:0:0:
167,234,84422,1,8,0:0:0:0:
185,227,84500,1,12,0:0:0:0:
336,126,84658,5,2,3:2:0:0:
318,119,84736,1,8,0:0:0:0:
300,112,84814,1,6,3:2:0:0:
387,285,84972,1,2,0:0:0:0:
512,76,85129,1,10,0:0:0:0:
266,44,85286,1,2,0:0:0:0:
467,228,85443,5,2,3:2:0:0:
253,187,85600,1,2,3:2:0:0:
380,66,85757,1,10,0:0:0:0:
166,25,85914,1,2,0:0:0:0:
296,259,86072,6,0,P|332:221|324:154,1,103.999995239258,2|0,3:2|0:0,0:0:0:0:
66,118,86385,2,0,P|29:80|37:13,1,103.999995239258,10|0,0:0|0:0,0:0:0:0:
288,277,86700,2,0,P|346:230|333:146,1,155.999992858887,2|0,3:2|0:0,0:0:0:0:
307,79,87014,2,0,B|312:53|285:26|249:29|213:69|224:125|263:142,1,180.000006866455,10|0,0:0|0:0,0:0:0:0:
439,134,87328,6,0,B|385:101|339:152|339:152|308:230|228:212,1,240.000009155274,2|8,3:2|0:0,0:0:0:0:
66,118,87799,1,2,0:0:0:0:
36,330,87957,2,0,P|76:293|141:307,1,103.999995239258,2|0,3:2|3:2,0:0:0:0:
257,139,88270,1,8,0:0:0:0:
313,341,88427,1,2,0:0:0:0:
394,111,88585,6,0,P|360:91|310:101,1,69.3333301595054,14|0,0:0|0:0,0:0:0:0:
195,194,88794,2,0,P|160:193|132:175,1,69.3333301595054,10|0,0:0|0:0,0:0:0:0:
169,45,89004,2,0,P|167:79|184:110,1,69.3333301595054,10|0,0:0|0:0,0:0:0:0:
339,175,89213,6,0,P|355:205|353:240,1,69.3333301595054,14|0,0:0|0:0,0:0:0:0:
224,272,89422,2,0,P|258:252|274:204,1,69.3333301595054,10|0,0:0|0:0,0:0:0:0:
300,13,89632,2,0,P|270:28|252:58,1,69.3333301595054,10|0,0:0|0:0,0:0:0:0:
259,138,89841,5,14,0:0:0:0:
425,32,89998,1,0,3:0:0:0:
444,235,90155,1,8,0:0:0:0:
331,91,90312,1,0,3:0:0:0:
316,293,90469,1,8,0:0:0:0:
501,167,90626,1,0,3:0:0:0:
308,284,90783,1,8,0:0:0:0:
505,178,90940,1,0,3:0:0:0:
259,101,91098,6,0,L|337:90,1,72,12|0,0:0|0:0,0:0:0:0:
404,79,91883,1,0,3:2:0:0:
191,45,92040,2,0,L|132:35,1,48,8|0,0:0|0:0,0:0:0:0:
84,1,92354,6,0,L|100:106,1,88.000002685547,6|2,3:2|0:0,0:0:0:0:
208,233,92669,2,0,L|224:128,1,88.000002685547,8|0,0:0|3:2,0:0:0:0:
230,115,92904,1,8,0:0:0:0:
230,115,92983,1,2,3:2:0:0:
97,185,93140,1,2,3:2:0:0:
168,332,93297,2,0,P|142:295|76:292,1,88.000002685547,8|0,0:0|3:2,0:0:0:0:
0,384,93611,6,0,L|98:368,1,88.000002685547,6|2,3:2|0:0,0:0:0:0:
294,246,93925,2,0,L|195:230,1,88.000002685547,8|0,0:0|3:0,0:0:0:0:
172,228,94161,1,8,0:0:0:0:
172,228,94239,1,2,3:2:0:0:
256,352,94397,1,2,3:2:0:0:
311,162,94553,2,0,P|357:181|373:232,1,88.000002685547,8|2,0:0|0:0,0:0:0:0:
472,369,94868,6,0,L|491:252,1,88.000002685547,6|2,3:2|3:2,0:0:0:0:
358,126,95182,2,0,L|377:242,1,88.000002685547,8|2,0:0|3:2,0:0:0:0:
385,253,95417,1,8,0:0:0:0:
385,253,95496,1,2,3:2:0:0:
477,151,95653,1,2,3:2:0:0:
396,26,95810,2,0,L|513:8,1,88.000002685547,8|2,0:0|3:2,0:0:0:0:
358,126,96046,5,8,0:0:0:0:
358,126,96124,2,0,L|240:108,1,88.000002685547,6|2,3:2|0:0,0:0:0:0:
115,84,96439,2,0,P|162:65|169:13,1,88.000002685547,8|2,0:0|3:2,0:0:0:0:
163,0,96675,1,8,0:0:0:0:
163,0,96753,1,6,3:2:0:0:
12,95,96910,1,10,3:2:0:0:
157,160,97066,1,10,0:2:0:0:
55,13,97224,1,0,3:2:0:0:
29,186,97381,6,0,L|47:302,1,111.999996582031,6|8,3:2|0:0,0:0:0:0:
64,384,97852,1,2,0:0:0:0:
161,164,98009,1,2,3:2:0:0:
161,164,98166,1,0,3:2:0:0:
142,268,98323,2,0,L|134:324,1,55.9999982910157,8|2,0:0|0:0,0:0:0:0:
29,186,98638,6,0,L|47:302,1,111.999996582031,2|8,3:2|0:0,0:0:0:0:
64,384,99109,1,2,0:0:0:0:
161,164,99264,1,2,3:2:0:0:
161,164,99422,1,0,3:2:0:0:
142,268,99580,2,0,L|134:324,1,55.9999982910157,8|2,0:0|0:0,0:0:0:0:
29,186,99895,6,0,L|47:302,1,111.999996582031,2|8,3:2|0:0,0:0:0:0:
64,384,100366,1,2,0:0:0:0:
161,164,100523,1,2,3:2:0:0:
161,164,100680,1,0,3:2:0:0:
142,268,100837,2,0,L|134:324,1,55.9999982910157,8|2,0:0|0:0,0:0:0:0:
30,187,101151,6,0,P|93:147|181:182,1,143.999995605469,2|8,3:2|0:0,0:0:0:0:
246,245,101621,1,2,0:0:0:0:
261,89,101780,1,2,3:2:0:0:
261,89,101937,1,0,3:2:0:0:
352,184,102094,2,0,P|387:163|429:160,1,71.9999978027344,8|0,0:0|0:0,0:0:0:0:
437,315,102408,5,4,3:2:0:0:
500,198,102565,1,0,0:0:0:0:
430,329,102722,2,0,L|337:314,1,71.9999978027344,10|0,0:0|0:0,0:0:0:0:
174,256,103036,2,0,L|266:241,1,71.9999978027344,2|0,3:2|3:2,0:0:0:0:
417,158,103350,2,0,L|324:143,1,71.9999978027344,10|0,0:0|0:0,0:0:0:0:
295,15,103664,5,2,3:2:0:0:
427,35,103821,1,0,0:0:0:0:
276,11,103977,2,0,L|292:113,1,71.9999978027344,10|0,0:0|0:0,0:0:0:0:
158,27,104293,1,2,3:2:0:0:
177,169,104450,1,0,3:2:0:0:
152,5,104606,2,0,L|49:21,1,71.9999978027344,10|0,0:0|0:0,0:0:0:0:
169,101,104920,5,2,3:2:0:0:
37,121,105077,1,2,0:0:0:0:
188,97,105234,2,0,L|171:199,1,71.9999978027344,10|0,0:0|0:0,0:0:0:0:
141,315,105549,1,0,3:2:0:0:
33,230,105706,1,0,3:2:0:0:
3,374,105863,1,8,0:0:0:0:
161,238,106020,1,2,3:2:0:0:
18,301,106177,5,2,0:0:0:0:
176,384,106333,1,2,3:2:0:0:
265,347,106492,1,10,0:0:0:0:
291,266,106649,1,2,3:2:0:0:
262,194,106806,1,2,0:0:0:0:
203,153,106963,1,2,3:2:0:0:
187,90,107120,1,10,0:0:0:0:
220,26,107277,6,0,P|253:43|269:76,1,60.0000022888184,2|8,3:2|0:0,0:0:0:0:
262,194,107434,2,0,P|295:139|386:136,1,160,6|8,3:2|0:0,0:0:0:0:
495,205,107905,2,0,P|472:219|460:241,1,40,2|0,0:0|0:0,0:0:0:0:
453,373,108062,2,0,P|420:318|329:315,1,160,2|8,3:2|0:0,0:0:0:0:
197,340,108532,6,0,L|247:347,1,40,2|0,3:2|0:0,0:0:0:0:
79,374,108690,2,0,L|235:345,1,160,2|8,3:2|0:0,0:0:0:0:
284,244,109162,2,0,L|233:251,1,40,2|0,0:0|0:0,0:0:0:0:
402,278,109319,2,0,L|245:249,1,160,2|8,3:2|0:0,0:0:0:0:
99,160,109790,6,0,P|91:158|101:167,1,40,2|0,0:0|0:0,0:0:0:0:
215,60,109946,2,0,P|298:57|236:107,1,191.999994140625,6|8,3:2|0:0,0:0:0:0:
136,85,110418,2,0,P|135:70|130:84,1,40,2|0,0:0|0:0,0:0:0:0:
97,244,110574,2,0,P|141:308|165:235,1,191.999994140625,2|8,3:2|0:0,0:0:0:0:
187,148,111046,6,0,P|195:161|182:155,1,40,2|0,0:0|0:0,0:0:0:0:
62,40,111203,2,0,P|-14:48|39:104,1,191.999994140625,2|8,3:2|0:0,0:0:0:0:
215,60,111675,1,2,0:0:0:0:
244,248,111832,1,2,3:2:0:0:
421,221,111989,1,0,0:0:0:0:
321,191,112146,1,8,0:0:0:0:
306,102,112303,1,0,0:0:0:0:
337,286,112459,6,0,L|349:358,1,71.9999978027344,4|0,3:2|0:0,0:0:0:0:
501,215,112773,2,0,P|491:181|457:152,1,71.9999978027344,10|0,0:0|0:0,0:0:0:0:
229,96,113087,2,0,P|238:62|273:33,1,71.9999978027344,2|0,3:2|0:0,0:0:0:0:
487,22,113402,2,0,P|455:56|376:30,1,107.999996704102,10|0,0:0|0:0,0:0:0:0:
340,13,113716,6,0,P|347:55|353:99,1,71.9999978027344,6|0,3:2|0:0,0:0:0:0:
244,248,114030,2,0,P|251:205|257:161,1,71.9999978027344,10|0,0:0|0:0,0:0:0:0:
170,49,114344,2,0,P|124:9|41:29,1,120,2|0,3:2|0:0,0:0:0:0:
15,18,114658,2,0,L|23:69,1,40,10|0,0:0|0:0,0:0:0:0:
151,172,114815,2,0,L|159:120,1,40,2|0,0:0|0:0,0:0:0:0:
11,215,114972,6,0,L|37:379,1,160,6|0,3:2|0:0,0:0:0:0:
36,373,115601,1,8,3:2:0:0:
200,234,115758,1,8,3:2:0:0:
364,373,115915,2,0,P|327:358|267:358,1,80,8|0,3:2|0:0,0:0:0:0:
36,373,116229,5,12,3:2:0:0:
73,349,116307,1,8,0:0:0:0:
94,312,116386,1,8,0:0:0:0:
95,268,116464,1,8,0:0:0:0:
71,230,116543,1,8,0:0:0:0:
34,204,116621,1,8,0:0:0:0:
15,166,116700,1,8,0:0:0:0:
17,122,116779,1,8,0:0:0:0:
43,85,116857,5,8,0:0:0:0:
86,56,116936,1,8,0:0:0:0:
138,55,117014,1,8,0:0:0:0:
182,82,117093,1,8,0:0:0:0:
206,128,117171,1,12,0:0:0:0:
201,179,117250,1,8,0:0:0:0:
170,221,117328,1,8,0:0:0:0:
122,239,117407,1,8,0:0:0:0:
71,230,117485,6,0,L|85:138,1,88.000002685547,6|0,3:2|0:0,0:0:0:0:
110,14,117799,1,8,0:0:0:0:
206,128,117957,1,2,0:0:0:0:
341,230,118114,2,0,L|326:138,1,88.000002685547,2|0,3:2|0:0,0:0:0:0:
302,14,118428,1,8,0:0:0:0:
206,128,118585,1,2,0:0:0:0:
173,280,118742,6,0,P|134:229|71:230,1,132.00000402832,2|0,3:2|0:0,0:0:0:0:
94,308,119056,1,8,0:0:0:0:
250,205,119213,1,2,0:0:0:0:
326,280,119370,2,0,P|365:229|429:230,1,132.00000402832,2|0,3:2|0:0,0:0:0:0:
404,307,119684,1,8,0:0:0:0:
250,205,119841,1,2,0:0:0:0:
173,280,119998,6,0,B|213:285|248:320|248:320|284:287|338:278,1,176.000005371094,2|8,3:2|0:0,0:0:0:0:
250,205,120470,1,2,0:0:0:0:
98,157,120627,2,0,P|124:68|206:51,1,176.000005371094,2|8,3:2|0:0,0:0:0:0:
250,205,121098,1,2,0:0:0:0:
410,162,121255,2,0,P|384:73|302:56,1,176.000005371094,2|8,3:2|0:0,0:0:0:0:
250,205,121727,1,2,0:0:0:0:
173,280,121884,5,2,3:2:0:0:
176,130,122041,1,0,0:0:0:0:
330,133,122198,1,8,0:0:0:0:
326,280,122355,1,0,0:0:0:0:
173,280,122512,6,0,P|136:225|50:229,1,132.00000402832,4|0,3:2|0:0,0:0:0:0:
14,254,122826,2,0,P|21:209|29:160,1,88.000002685547,10|0,0:0|0:0,0:0:0:0:
161,43,123140,2,0,P|167:90|176:136,1,88.000002685547,2|0,3:2|0:0,0:0:0:0:
0,93,123454,2,0,P|49:85|96:123,1,88.000002685547,10|0,0:0|3:2,0:0:0:0:
173,280,123768,6,0,P|222:288|269:250,1,88.000002685547,2|0,3:2|0:0,0:0:0:0:
460,294,124082,2,0,P|451:342|445:390,1,88.000002685547,10|0,0:0|0:0,0:0:0:0:
321,171,124396,2,0,P|327:216|335:267,1,88.000002685547,2|2,3:2|3:2,0:0:0:0:
502,15,124710,2,0,P|491:76|480:149,1,132.00000402832,10|0,0:0|0:0,0:0:0:0:
481,218,125025,6,0,P|462:186|406:170,1,88.000002685547,6|0,3:2|0:0,0:0:0:0:
254,270,125339,1,10,0:0:0:0:
258,59,125496,2,0,B|325:29|364:101|364:101|329:124|339:169,1,176.000005371094,4|0,0:0|0:0,0:0:0:0:
100,92,125967,2,0,B|56:112|19:88|19:88|41:89|78:58,1,132.00000402832,14|0,0:0|0:0,0:0:0:0:
14,17,126281,6,0,P|22:82|33:167,1,120.000004577637,14|0,3:2|3:0,0:0:0:0:
46,215,126517,1,10,0:0:0:0:
51,205,126595,1,8,0:0:0:0:
177,167,126752,1,0,3:2:0:0:
182,177,126831,1,8,0:0:0:0:
187,187,126909,1,8,0:0:0:0:
294,43,127066,1,0,3:0:0:0:
298,32,127145,1,8,0:0:0:0:
302,22,127224,1,8,0:0:0:0:
434,169,127381,5,2,3:2:0:0:
439,179,127459,1,8,0:0:0:0:
441,189,127538,2,0,B|394:206|360:158|375:157|335:101|291:131,1,176.000005371094,6|8,3:2|0:0,0:0:0:0:
512,145,128009,1,2,0:0:0:0:
302,202,128166,2,0,B|351:222|378:159|363:161|386:107|436:115,1,176.000005371094,2|8,3:2|0:0,0:0:0:0:
222,175,128637,1,2,0:0:0:0:
441,189,128794,6,0,B|394:206|360:158|375:157|335:101|291:131,1,176.000005371094,2|8,3:2|0:0,0:0:0:0:
512,145,129265,1,2,0:0:0:0:
302,202,129422,2,0,B|351:222|378:159|363:161|386:107|436:115,1,176.000005371094,2|8,3:2|0:0,0:0:0:0:
222,175,129894,1,2,0:0:0:0:
441,189,130051,6,0,B|394:206|360:158|375:157|335:101|291:131,1,176.000005371094,6|8,3:2|0:0,0:0:0:0:
512,145,130522,1,2,0:0:0:0:
302,202,130679,2,0,B|351:222|378:159|363:161|386:107|436:115,1,176.000005371094,2|8,3:2|0:0,0:0:0:0:
222,175,131150,1,2,0:0:0:0:
435,114,131307,6,0,P|368:49|267:52,1,176.000005371094,6|8,3:2|0:0,0:0:0:0:
500,58,131779,1,2,0:0:0:0:
302,202,131936,2,0,L|333:398,1,176.000005371094,2|8,3:2|0:0,0:0:0:0:
234,260,132407,1,2,0:0:0:0:
130,377,132564,6,0,P|86:339|25:358,1,111.999996582031,6|2,3:2|0:0,0:0:0:0:
153,276,133035,1,0,3:2:0:0:
7,159,133192,2,0,P|15:209|25:274,1,111.999996582031,10|2,0:0|0:0,0:0:0:0:
137,178,133663,6,0,L|195:168,1,55.9999982910157,8|2,0:0|3:2,0:0:0:0:
98,98,133977,2,0,L|156:88,1,55.9999982910157,8|2,0:0|0:0,0:0:0:0:
25,21,134292,1,0,3:0:0:0:
25,21,134370,1,8,0:0:0:0:
25,21,134449,2,0,L|83:11,1,55.9999982910157,10|0,0:0|3:0,0:0:0:0:
165,9,134684,1,8,0:0:0:0:
165,9,134763,2,0,L|150:99,1,80,10|0,0:0|3:0,0:0:0:0:
141,182,134998,1,8,0:0:0:0:
141,182,135077,1,12,0:0:0:0:
141,182,135705,5,8,3:2:0:0:
409,104,135862,1,8,3:2:0:0:
208,7,136019,1,8,3:2:0:0:
208,7,136333,6,0,L|232:159,1,128,4|0,3:2|0:0,0:0:0:0:
261,337,136805,1,0,0:0:0:0:
484,221,136962,1,8,0:0:0:0:
455,248,137040,1,8,0:0:0:0:
417,259,137119,1,8,0:0:0:0:
379,250,137197,1,8,0:0:0:0:
350,223,137276,1,8,0:0:0:0:
338,185,137354,1,8,0:0:0:0:
345,147,137433,1,8,0:0:0:0:
371,116,137512,1,8,0:0:0:0:
408,103,137590,6,0,L|281:83,1,103.999995239258,6|0,3:2|0:0,0:0:0:0:
500,27,137904,1,8,0:0:0:0:
415,182,138061,1,2,0:0:0:0:
365,0,138218,1,2,3:2:0:0:
263,177,138375,1,2,0:0:0:0:
479,137,138532,1,10,3:2:0:0:
233,70,138690,1,2,3:2:0:0:
495,142,138847,6,0,P|486:198|474:273,1,103.999995239258,2|0,3:2|0:0,0:0:0:0:
315,382,139161,2,0,P|350:335|403:326,1,103.999995239258,10|0,0:0|0:0,0:0:0:0:
250,143,139475,2,0,B|204:119|159:163|159:163|139:241|66:236,1,207.999990478516,2|8,3:2|0:0,0:0:0:0:
234,27,139946,1,2,0:0:0:0:
70,156,140103,6,0,B|-11:127|-10:18|71:10|97:41|70:83,1,207.999990478516,2|8,3:2|0:0,0:0:0:0:
9,254,140574,1,2,0:0:0:0:
286,326,140731,2,0,B|325:288|274:225|268:237|194:187|266:124,1,207.999990478516,2|8,3:2|0:0,0:0:0:0:
187,360,141203,1,2,0:0:0:0:
338,174,141360,6,0,P|418:106|523:132,1,207.999990478516,2|8,3:2|0:0,0:0:0:0:
311,81,141831,1,2,0:0:0:0:
206,271,141988,2,0,P|126:203|21:229,1,207.999990478516,2|8,3:2|0:0,0:0:0:0:
90,377,142459,5,2,0:0:0:0:
269,203,142616,1,6,3:2:0:0:
104,286,142773,1,2,0:0:0:0:
297,384,142930,2,0,P|287:324|278:264,1,103.999995239258,10|0,0:0|0:0,0:0:0:0:
454,112,143244,1,2,3:2:0:0:
420,335,143402,1,2,0:0:0:0:
465,114,143559,1,10,0:0:0:0:
408,332,143716,1,2,0:0:0:0:
476,116,143873,6,0,P|455:69|385:57,1,103.999995239258,2|2,3:2|0:0,0:0:0:0:
269,203,144187,1,10,0:0:0:0:
299,3,144344,1,2,0:0:0:0:
136,140,144501,2,0,P|128:90|118:29,1,103.999995239258,2|0,3:2|0:0,0:0:0:0:
41,177,144815,1,10,0:0:0:0:
234,101,144972,1,2,0:0:0:0:
219,342,145129,6,0,P|120:314|14:306,1,207.999990478516,6|8,3:2|0:0,0:0:0:0:
178,214,145601,1,2,0:0:0:0:
366,357,145758,2,0,B|419:345|438:288|439:213|346:217|349:273,1,207.999990478516,6|8,3:2|0:0,0:0:0:0:
7,219,146229,6,0,B|47:237|92:189|92:189|114:122|170:125,1,207.999990478516,4|0,3:2|3:0,0:0:0:0:
193,202,146621,1,8,0:0:0:0:
178,214,146700,1,8,0:0:0:0:
18,109,146857,1,0,3:0:0:0:
20,127,146936,1,8,0:0:0:0:
23,146,147014,1,8,0:0:0:0:
196,44,147171,1,0,3:0:0:0:
179,36,147250,1,8,0:0:0:0:
161,29,147328,1,8,0:0:0:0:
178,214,147485,5,2,3:2:0:0:
193,203,147564,1,8,0:0:0:0:
208,191,147642,1,6,0:2:0:0:
66,293,147799,1,2,0:0:0:0:
291,322,147957,1,10,0:0:0:0:
172,125,148114,1,2,0:0:0:0:
158,316,148271,5,2,3:2:0:0:
331,190,148428,1,2,0:0:0:0:
375,384,148585,1,10,0:0:0:0:
248,254,148742,1,2,0:0:0:0:
449,192,148899,6,0,L|428:315,1,103.999995239258,2|0,3:2|0:0,0:0:0:0:
239,60,149213,2,0,L|259:183,1,103.999995239258,10|0,0:0|0:0,0:0:0:0:
481,112,149527,2,0,B|426:113|417:46|417:46|429:74|459:82,1,155.999992858887,2|0,3:2|0:0,0:0:0:0:
492,18,149841,2,0,P|395:31|308:68,1,180.000006866455,10|0,0:0|0:0,0:0:0:0:
303,145,150155,6,0,B|241:125|239:60|239:60|186:111|113:86,1,240.000009155274,2|8,3:2|0:0,0:0:0:0:
196,181,150627,1,2,0:0:0:0:
21,25,150784,2,0,P|29:79|39:144,1,103.999995239258,2|0,3:2|3:0,0:0:0:0:
167,15,151098,1,8,0:0:0:0:
134,234,151255,1,2,0:0:0:0:
405,147,151412,6,0,P|360:48|225:63,2,240.000009155274,2|10|2,3:2|0:0|3:2,0:0:0:0:
196,181,152197,1,0,0:0:0:0:
339,336,152354,6,0,P|349:304|379:289,1,60,10|0,0:0|0:0,0:0:0:0:
453,330,152669,6,0,B|398:371|334:324|353:317|284:252|221:305,1,240.000009155274,6|8,3:2|0:0,0:0:0:0:
112,384,153140,1,0,0:0:0:0:
19,206,153297,2,0,P|29:264|38:327,1,103.999995239258,2|0,3:2|3:0,0:0:0:0:
212,78,153611,2,0,P|201:136|192:199,1,103.999995239258,10|0,0:0|0:0,0:0:0:0:
94,58,153925,6,0,P|57:21|-1:34,1,103.999995239258,2|0,3:2|0:0,0:0:0:0:
132,230,154239,2,0,P|169:267|227:254,1,103.999995239258,10|0,0:0|0:0,0:0:0:0:
455,122,154553,2,0,B|403:98|364:130|364:130|358:171|311:188,1,155.999992858887,2|0,3:2|0:0,0:0:0:0:
289,116,154868,1,10,0:0:0:0:
346,342,155025,1,2,0:0:0:0:
474,220,155182,6,0,L|405:209,1,51.999997619629,14|0,3:2|0:0,0:0:0:0:
195,180,155339,1,8,0:0:0:0:
195,180,155810,6,0,L|256:167,1,51.999997619629,8|0,0:0|0:0,0:0:0:0:
455,122,155967,1,0,3:0:0:0:
374,341,156124,2,0,P|323:333|294:286,1,103.999995239258,8|0,3:2|3:2,0:0:0:0:
303,221,156360,1,8,0:0:0:0:
303,221,156438,5,6,3:2:0:0:
175,362,156595,1,2,3:2:0:0:
370,264,156752,1,10,0:2:0:0:
156,371,156909,1,10,3:2:0:0:
370,264,157066,5,8,0:0:0:0:
325,291,157145,1,8,0:0:0:0:
274,300,157224,1,8,0:0:0:0:
223,287,157302,1,8,0:0:0:0:
182,257,157381,1,8,0:0:0:0:
155,213,157459,1,8,0:0:0:0:
146,162,157538,1,10,0:0:0:0:
157,112,157616,1,8,0:0:0:0:
187,69,157695,5,6,3:2:0:0:
305,221,157852,1,2,0:0:0:0:
63,297,158009,1,10,0:0:0:0:
116,51,158166,1,2,0:0:0:0:
0,223,158323,5,2,3:2:0:0:
157,112,158480,1,2,0:0:0:0:
305,221,158637,1,8,0:0:0:0:
461,109,158794,1,2,0:0:0:0:
284,61,158951,5,2,3:2:0:0:
230,236,159108,1,2,0:0:0:0:
411,203,159265,2,0,P|383:147|345:130,1,103.999995239258,10|0,0:0|3:0,0:0:0:0:
114,352,159580,2,0,L|329:317,1,207.999990478516,2|10,3:2|0:0,0:0:0:0:
488,294,160051,1,2,0:0:0:0:
230,236,160208,6,0,B|195:210|168:153|206:89|276:101|297:144|259:173,1,207.999990478516,2|8,3:2|0:0,0:0:0:0:
133,279,160679,1,2,0:0:0:0:
105,72,160836,2,0,B|153:48|209:87|209:87|236:156|285:161,1,207.999990478516,2|8,3:2|0:0,0:0:0:0:
401,22,161307,1,2,0:0:0:0:
407,276,161464,6,0,B|351:234|277:238|277:238|324:234|347:187,1,207.999990478516,2|8,3:2|0:0,0:0:0:0:
316,334,161936,1,2,0:0:0:0:
500,160,162093,2,0,P|487:251|472:394,1,207.999990478516,2|8,3:2|0:0,0:0:0:0:
335,205,162564,5,2,0:0:0:0:
512,75,162721,1,2,3:2:0:0:
302,25,162878,1,2,0:0:0:0:
418,159,163035,2,0,P|410:106|400:50,1,103.999995239258,10|0,0:0|0:0,0:0:0:0:
264,222,163349,1,2,3:2:0:0:
302,25,163506,1,2,0:0:0:0:
113,106,163663,1,10,0:0:0:0:
317,17,163820,1,2,0:0:0:0:
135,228,163977,5,2,3:2:0:0:
97,31,164134,1,2,0:0:0:0:
138,242,164292,1,10,0:0:0:0:
95,21,164449,1,2,0:0:0:0:
229,142,164606,1,0,3:2:0:0:
47,195,164763,2,0,L|31:93,1,103.999995239258,2|10,0:0|0:0,0:0:0:0:
76,334,165077,1,2,3:2:0:0:
282,215,165234,6,0,P|273:166|214:142,1,103.999995239258,14|0,0:0|3:0,0:0:0:0:
138,242,165548,1,2,3:2:0:0:
209,44,165705,1,10,0:0:0:0:
282,215,165862,2,0,B|348:192|348:192|356:174|356:174|431:152,1,155.999992858887,2|0,3:2|0:0,0:0:0:0:
464,250,166176,2,0,L|411:234,1,51.999997619629,8|0,0:0|0:0,0:0:0:0:
228,141,166333,6,0,B|135:111|135:111|124:73|124:73|25:46,1,240.000009155274,4|0,3:2|3:0,0:0:0:0:
68,217,166805,1,12,0:0:0:0:
209,44,166962,1,0,3:0:0:0:
216,274,167119,1,12,0:0:0:0:
47,130,167276,1,0,3:0:0:0:
62,124,167354,1,8,0:0:0:0:
77,118,167433,1,12,0:0:0:0:
258,153,167590,5,2,3:2:0:0:
243,147,167668,1,8,0:0:0:0:
228,141,167747,1,6,3:2:0:0:
324,288,167904,1,2,0:0:0:0:
456,76,168061,1,10,0:0:0:0:
209,44,168218,1,2,0:0:0:0:
221,234,168375,5,2,3:2:0:0:
334,60,168532,1,2,3:2:0:0:
422,280,168690,1,10,0:0:0:0:
258,153,168847,1,2,0:0:0:0:
172,341,169004,6,0,L|305:319,1,103.999995239258,2|0,3:2|0:0,0:0:0:0:
361,135,169318,2,0,L|494:156,1,103.999995239258,10|0,0:0|0:0,0:0:0:0:
140,360,169632,2,0,L|294:335,1,155.999992858887,2|0,3:2|0:0,0:0:0:0:
373,324,169946,2,0,B|363:288|328:266|328:266|328:230|356:210|356:210|385:232|381:260,1,180.000006866455,10|0,0:0|0:0,0:0:0:0:
293,335,170260,6,0,B|227:365|184:294|198:292|151:217|89:246,1,240.000009155274,2|8,3:2|0:0,0:0:0:0:
44,384,170731,1,2,0:0:0:0:
16,191,170888,2,0,L|-3:69,1,103.999995239258,2|0,3:2|3:2,0:0:0:0:
203,60,171203,1,8,0:0:0:0:
162,258,171360,1,2,0:0:0:0:
16,191,171517,6,0,P|39:163|96:156,1,69.3333301595054,14|0,0:0|0:0,0:0:0:0:
203,60,171726,2,0,P|216:92|210:126,1,69.3333301595054,10|0,0:0|0:0,0:0:0:0:
223,285,171936,2,0,P|189:280|162:258,1,69.3333301595054,10|0,0:0|0:0,0:0:0:0:
133,99,172145,6,0,P|106:77|72:72,1,69.3333301595054,14|0,0:0|0:0,0:0:0:0:
225,206,172354,2,0,P|257:194|279:168,1,69.3333301595054,10|0,0:0|0:0,0:0:0:0:
84,230,172564,2,0,P|79:264|92:296,1,69.3333301595054,10|0,0:0|0:0,0:0:0:0:
147,178,172773,5,14,0:0:0:0:
0,88,172930,1,0,3:0:0:0:
13,304,173087,1,8,0:0:0:0:
133,99,173244,1,0,3:0:0:0:
223,285,173402,1,8,0:0:0:0:
0,189,173559,1,0,3:0:0:0:
279,167,173716,1,8,0:0:0:0:
84,230,173873,1,0,3:0:0:0:
242,363,174030,6,0,L|313:351,1,72,12|0,0:0|0:0,0:0:0:0:
389,336,174815,1,0,3:2:0:0:
173,303,174972,2,0,L|125:295,1,48,8|0,0:0|0:0,0:0:0:0:
70,348,175286,6,0,L|96:161,2,176.000005371094,6|8|0,3:2|0:0|3:2,0:0:0:0:
94,173,176072,1,0,3:2:0:0:
173,303,176229,2,0,P|208:301|237:273,1,64,8|0,0:2|3:0,0:0:0:0:
306,137,176543,6,0,B|352:116|388:164|375:166|414:228|476:191,2,176.000005371094,2|10|2,3:2|0:0|0:0,0:0:0:0:
456,199,177328,1,0,3:0:0:0:
310,217,177485,2,0,L|327:326,1,96,10|0,0:0|0:0,0:0:0:0:
385,366,177799,6,0,P|331:314|243:347,1,160,2|8,3:2|0:0,0:0:0:0:
162,384,178271,1,2,0:0:0:0:
64,298,178428,2,0,L|144:310,1,64,0|0,3:2|0:0,0:0:0:0:
26,212,178742,2,0,L|137:230,1,96,8|0,0:0|0:0,0:0:0:0:
201,227,179056,6,0,P|185:171|126:150,1,120,0|0,3:2|0:0,0:0:0:0:
105,147,179370,1,8,0:0:0:0:
187,17,179527,1,0,3:2:0:0:
287,140,179684,2,0,L|354:129,1,64,2|0,0:0|3:2,0:0:0:0:
273,64,179998,2,0,L|378:47,1,96,8|0,0:0|0:0,0:0:0:0:
451,34,180313,6,0,L|432:151,1,120,0|0,3:2|0:0,0:0:0:0:
428,197,180627,2,0,P|454:201|489:172,1,64,10|0,0:0|0:0,0:0:0:0:
273,64,180941,2,0,P|299:60|334:89,1,64,2|0,3:2|0:0,0:0:0:0:
155,208,181255,2,0,P|203:221|247:186,1,96,10|0,0:0|0:0,0:0:0:0:
240,197,181569,6,0,P|183:215|155:283,1,120,2|0,3:2|0:0,0:0:0:0:
163,297,181883,1,8,0:0:0:0:
7,356,182040,2,0,L|18:283,1,64,0|2,3:2|0:0,0:0:0:0:
35,194,182354,1,0,3:2:0:0:
155,208,182512,2,0,L|138:105,1,96,8|0,0:0|0:0,0:0:0:0:
132,67,182826,6,0,P|105:45|65:49,1,64,6|0,3:2|0:0,0:0:0:0:
230,140,183140,2,0,L|300:128,1,64,10|0,0:0|3:0,0:0:0:0:
329,128,183375,1,8,0:0:0:0:
329,128,183454,1,2,3:2:0:0:
243,60,183611,1,0,3:2:0:0:
309,209,183768,2,0,L|414:192,1,96,10|0,0:0|0:0,0:0:0:0:
478,184,184082,6,0,P|438:223|463:297,1,120,6|0,3:2|0:0,0:0:0:0:
480,345,184396,2,0,L|388:330,1,80,12|0,0:0|3:0,0:0:0:0:
371,329,184632,1,8,0:0:0:0:
371,329,184710,1,2,3:2:0:0:
512,248,184868,1,0,3:0:0:0:
394,134,185025,6,0,L|403:196,1,60,12|0,0:0|0:0,0:0:0:0:
390,213,185339,6,0,L|377:132,1,80,6|0,3:2|0:0,0:0:0:0:
493,37,185653,1,10,0:0:0:0:
478,128,185810,1,8,0:0:0:0:
388,50,185967,2,0,P|341:53|312:82,1,80,2|0,3:2|0:0,0:0:0:0:
186,150,186281,2,0,P|233:153|262:182,1,80,10|0,0:0|0:0,0:0:0:0:
74,209,186594,6,0,P|79:172|86:128,1,80,2|0,3:2|0:0,0:0:0:0:
208,308,186909,2,0,P|201:268|195:227,1,80,10|0,0:0|3:0,0:0:0:0:
14,367,187224,2,0,P|47:309|140:323,1,160,2|8,0:0|0:0,0:0:0:0:
259,383,187695,1,2,0:0:0:0:
380,285,187852,6,0,L|299:297,1,80,2|0,3:2|0:0,0:0:0:0:
489,384,188166,1,10,0:0:0:0:
390,370,188323,1,8,0:0:0:0:
474,228,188480,2,0,P|466:269|460:313,1,80,2|0,3:2|0:0,0:0:0:0:
353,129,188794,2,0,P|360:170|366:214,1,80,10|0,0:0|0:0,0:0:0:0:
494,29,189108,6,0,P|451:65|381:37,1,120,2|0,3:2|0:0,0:0:0:0:
371,5,189422,2,0,P|331:-1|289:24,1,80,8|0,0:0|3:0,0:0:0:0:
233,176,189737,2,0,P|258:144|257:95,1,80,2|0,0:0|3:0,0:0:0:0:
81,34,190051,1,10,0:0:0:0:
128,230,190208,1,8,0:0:0:0:
191,33,190365,5,14,0:0:0:0:
1,152,190522,1,0,3:2:0:0:
233,176,190679,1,8,0:0:0:0:
3,60,190836,1,0,3:0:0:0:
128,230,190993,2,0,L|40:217,1,88.000002685547,10|0,0:0|3:0,0:0:0:0:
262,362,191307,2,0,L|349:349,1,88.000002685547,10|0,0:0|3:0,0:0:0:0:
469,215,191621,5,10,0:0:0:0:
233,176,191779,1,0,3:0:0:0:
420,70,191936,1,8,0:0:0:0:
349,349,192093,1,0,3:0:0:0:
220,88,192250,2,0,L|235:193,1,88.000002685547,10|0,0:0|3:0,0:0:0:0:
27,304,192564,2,0,L|42:198,1,88.000002685547,10|0,0:0|3:0,0:0:0:0:
269,23,192878,6,0,B|270:0|251:-23|212:-19|181:23|191:68|220:87,1,167.999994873047,14|0,0:0|0:0,0:0:0:0:
290,122,193192,2,0,B|244:97|211:130|211:130|187:177|133:176,1,167.999994873047,14|0,0:0|0:0,0:0:0:0:
36,59,193506,2,0,B|110:37|140:101|140:101|114:81|77:89,1,167.999994873047,14|0,0:0|0:0,0:0:0:0:
46,145,193820,2,0,L|72:314,1,167.999994873047,14|0,0:0|0:0,0:0:0:0:
84,354,194135,6,0,B|91:384|141:392|178:350|169:325|166:329|148:287|191:242|256:252|265:305,1,240,12|2,0:0|0:0,0:0:0:0:
452,195,194763,2,0,B|446:217|388:229|364:179|370:157|374:161|388:127|345:92|310:89|277:123,1,224,2|0,0:0|0:0,0:0:0:0:
261,131,195391,6,0,P|256:90|243:53,2,80,2|2|2,0:0|0:0|0:0,0:0:0:0:
261,131,196333,1,2,0:0:0:0:
261,131,196648,6,0,B|311:145|343:94|344:51|344:51|375:98|428:89|440:40|396:15|372:40,1,280,2|0,0:0|0:0,0:0:0:0:
385,156,197904,6,0,B|352:207|403:253|402:239|439:291|421:343|421:343|439:291|483:295,1,280,2|0,0:0|0:0,0:0:0:0:
344,313,199161,2,0,B|323:265|266:240|206:257|186:290|186:290|223:293|249:315|254:358,1,280,2|0,0:0|0:0,0:0:0:0:
177,370,200417,6,0,B|121:379|91:316|91:316|56:381|14:371|14:371|56:369|71:327,1,280,2|0,0:0|0:0,0:0:0:0:
177,370,201674,2,0,B|218:364|247:301|224:241|190:230|190:230|180:264|142:279,1,240,2|0,0:0|0:0,0:0:0:0:
106,205,202773,1,0,0:0:0:0:
106,205,202930,2,0,B|101:113|72:10|72:10|86:59|141:75,1,280,2|0,0:0|0:0,0:0:0:0:
219,80,204187,6,0,B|267:104|290:69|282:65|309:34|371:51,1,143.999995605469,2|0,0:0|0:0,0:0:0:0:
475,160,204815,2,0,B|427:184|404:149|412:145|385:114|323:131,1,143.999995605469,2|0,0:0|0:0,0:0:0:0:
268,285,205443,6,0,B|332:286|348:206|348:206|334:234|290:240,1,167.999994873047,2|0,0:0|0:0,0:0:0:0:
480,360,206072,2,0,B|416:361|400:281|400:281|414:309|458:315,1,167.999994873047,2|0,0:0|0:0,0:0:0:0:
475,160,206700,6,0,L|461:245,2,80,2|2|2,0:0|0:0|0:0,0:0:0:0:
498,27,207485,1,2,0:0:0:0:
498,27,207564,1,2,0:0:0:0:
498,27,207642,2,0,L|425:38,1,60,2|0,0:0|0:0,0:0:0:0:
383,92,207957,6,0,L|241:69,1,120,6|0,3:2|0:0,0:0:0:0:
186,66,208271,2,0,L|200:157,1,80,2|0,3:2|0:2,0:2:0:0:
69,217,208585,2,0,L|83:125,1,80,2|0,3:2|0:2,0:2:0:0:
223,337,208899,1,2,3:2:0:0:
203,222,209056,1,2,0:2:0:0:
62,296,209213,6,0,L|149:282,1,80,2|0,3:2|0:0,0:0:0:0:
276,206,209527,2,0,L|363:219,1,80,2|0,3:2|0:0,0:0:0:0:
41,319,209841,2,0,L|170:298,1,120,2|0,3:2|0:0,0:0:0:0:
158,212,210155,2,0,B|156:190|165:173|165:173|136:167|108:149|108:149|117:165|123:182,1,120,2|0,3:2|0:0,0:0:0:0:
57,203,210470,6,0,B|131:190|131:190|137:179|137:179|218:167,1,160,2|2,3:2|3:2,0:0:0:0:
369,140,210941,1,2,0:0:0:0:
262,23,211098,2,0,B|235:49|248:97|248:97|300:131|283:185,1,160,2|0,3:2|3:2,0:0:0:0:
334,59,211569,1,2,0:0:0:0:
295,283,211726,6,0,B|333:260|337:219|337:219|355:256|417:266,2,160,2|2|2,3:2|3:2|3:2,0:0:0:0:
16,287,212669,2,0,L|28:366,1,80,2|0,3:2|0:0,0:0:0:0:
156,262,212983,6,0,B|117:282|81:236|92:234|61:188|18:203,1,160,2|0,3:2|3:2,0:0:0:0:
16,287,213454,1,0,0:0:0:0:
156,184,213611,2,0,L|142:97,1,80,2|0,3:2|0:0,0:0:0:0:
40,25,213925,2,0,L|26:111,1,80,2|0,3:2|0:0,0:0:0:0:
207,57,214239,6,0,P|175:30|118:34,1,80,2|0,3:2|0:0,0:0:0:0:
291,187,214553,2,0,P|259:213|202:209,1,80,2|0,3:2|0:0,0:0:0:0:
410,73,214868,2,0,P|360:43|303:73,1,120,2|0,3:2|0:0,0:0:0:0:
278,107,215182,2,0,L|292:199,1,80,2|2,3:2|0:0,0:0:0:0:
318,384,215496,5,14,3:2:0:0:
463,216,215653,1,10,0:0:0:0:
463,216,216124,5,10,0:2:0:0:
221,216,216281,1,2,3:2:0:0:
385,321,216438,2,0,L|370:229,1,80,8|0,0:0|0:0,0:0:0:0:
359,166,216674,1,8,0:0:0:0:
359,166,216752,5,6,3:2:0:0:
299,329,216909,1,2,0:0:0:0:
81,152,217066,1,10,0:0:0:0:
126,319,217224,1,10,0:0:0:0:
226,59,217381,5,8,0:0:0:0:
190,92,217459,1,8,0:0:0:0:
176,140,217538,1,8,0:0:0:0:
189,187,217616,1,8,0:0:0:0:
221,217,217695,1,8,0:0:0:0:
257,251,217773,1,8,0:0:0:0:
270,298,217852,1,10,0:0:0:0:
257,346,217930,1,8,0:0:0:0:
221,380,218009,5,6,3:2:0:0:
108,239,218166,1,2,0:0:0:0:
257,138,218323,1,10,0:0:0:0:
141,0,218480,1,2,0:0:0:0:
0,112,218637,5,2,3:2:0:0:
189,187,218794,1,2,0:0:0:0:
302,62,218951,1,8,0:0:0:0:
483,155,219108,1,2,0:0:0:0:
319,223,219265,5,2,3:2:0:0:
415,56,219422,1,2,0:0:0:0:
508,244,219580,2,0,P|447:241|406:193,1,111.999996582031,10|0,0:0|3:0,0:0:0:0:
141,0,219894,2,0,L|178:234,1,223.999993164063,2|10,3:2|0:0,0:0:0:0:
202,384,220365,1,2,0:0:0:0:
7,219,220522,6,0,B|78:194|127:152|127:152|78:194|94:237,1,223.999993164063,2|8,3:2|0:0,0:0:0:0:
51,47,220993,1,2,0:0:0:0:
176,221,221150,2,0,B|225:249|277:209|277:209|320:143|389:174,1,223.999993164063,2|8,3:2|0:0,0:0:0:0:
212,142,221621,1,2,0:0:0:0:
343,347,221779,6,0,B|358:386|424:374|439:318|428:277|391:237|322:237,1,223.999993164063,2|8,3:2|0:0,0:0:0:0:
171,361,222250,1,2,0:0:0:0:
212,142,222407,2,0,B|181:106|119:113|74:148|74:148|94:191|63:231,1,223.999993164063,2|8,3:2|0:0,0:0:0:0:
99,26,222878,5,2,0:0:0:0:
176,221,223035,1,2,3:2:0:0:
0,183,223192,1,2,0:0:0:0:
212,142,223349,2,0,L|338:121,1,111.999996582031,10|0,0:0|0:0,0:0:0:0:
241,19,223663,1,2,3:2:0:0:
318,214,223820,1,2,0:0:0:0:
395,19,223978,1,10,0:0:0:0:
315,228,224135,1,2,0:0:0:0:
512,147,224292,5,2,3:2:0:0:
322,124,224449,1,2,0:0:0:0:
512,169,224606,1,10,0:0:0:0:
361,287,224763,1,2,0:0:0:0:
512,189,224920,1,0,3:2:0:0:
488,379,225077,5,2,0:0:0:0:
423,232,225234,1,10,0:0:0:0:
277,300,225391,1,2,3:2:0:0:
512,381,225548,6,0,L|494:267,1,111.999996582031,14|0,0:0|3:0,0:0:0:0:
322,124,225862,5,2,3:2:0:0:
277,300,226019,1,10,0:0:0:0:
512,189,226176,2,0,L|484:14,1,167.999994873047,2|0,3:2|0:0,0:0:0:0:
431,176,226491,2,0,L|420:240,1,55.9999982910157,8|0,0:0|0:0,0:0:0:0:
181,330,226648,6,0,P|229:219|353:228,1,256,4|0,3:2|3:0,0:0:0:0:
322,384,227119,1,12,0:0:0:0:
106,240,227276,1,0,3:0:0:0:
375,295,227433,1,12,0:0:0:0:
181,330,227590,1,0,3:0:0:0:
188,306,227669,1,8,0:0:0:0:
195,282,227747,1,12,0:0:0:0:
334,176,227904,5,2,3:2:0:0:
341,200,227983,1,8,0:0:0:0:
348,224,228061,1,6,3:2:0:0:
235,53,228218,1,2,0:0:0:0:
496,14,228375,1,10,0:0:0:0:
422,244,228532,1,2,0:0:0:0:
254,168,228690,5,2,3:2:0:0:
464,130,228847,1,2,3:2:0:0:
313,0,229004,1,10,0:0:0:0:
348,224,229161,1,2,0:0:0:0:
139,115,229318,6,0,P|173:63|235:53,1,111.999996582031,2|0,3:2|0:0,0:0:0:0:
95,330,229632,2,0,P|61:277|0:267,1,111.999996582031,10|0,0:0|0:0,0:0:0:0:
122,130,229946,2,0,P|161:48|262:49,1,167.999994873047,2|0,3:2|0:0,0:0:0:0:
352,49,230260,2,0,B|333:37|318:9|318:9|344:168,1,192,10|0,0:0|0:0,0:0:0:0:
463,215,230574,6,0,B|498:227|528:170|486:125|432:142|415:176|415:176|391:230|336:223,1,256,2|8,3:2|0:0,0:0:0:0:
198,137,231046,1,2,0:0:0:0:
177,345,231203,2,0,P|213:291|288:294,1,128,2|0,3:2|3:2,0:0:0:0:
340,146,231517,1,8,0:0:0:0:
386,370,231674,1,2,0:0:0:0:
512,261,231831,6,0,P|474:236|428:239,1,85.3333333333333,14|0,0:0|0:0,0:0:0:0:
411,110,232040,2,0,P|366:119|336:153,1,85.3333333333333,10|0,0:0|0:0,0:0:0:0:
223,61,232250,2,0,P|197:99|201:145,1,85.3333333333333,10|0,0:0|0:0,0:0:0:0:
109,375,232459,6,0,P|80:345|73:304,1,85.3333333333333,14|0,0:0|0:0,0:0:0:0:
214,279,232669,2,0,P|215:237|239:203,1,85.3333333333333,10|0,0:0|0:0,0:0:0:0:
364,272,232878,2,0,P|394:243|436:236,1,85.3333333333333,10|0,0:0|0:0,0:0:0:0:
386,370,233087,5,14,0:0:0:0:
240,203,233244,1,0,3:0:0:0:
512,261,233402,1,8,0:0:0:0:
278,345,233559,1,0,3:0:0:0:
346,72,233716,5,8,0:0:0:0:
431,310,233873,1,0,3:0:0:0:
504,22,234030,1,8,0:0:0:0:
370,197,234187,1,0,3:0:0:0:
204,48,234344,6,0,L|276:59,1,72,12|0,0:0|0:0,0:0:0:0:
346,72,235129,1,0,3:2:0:0:
119,115,235286,2,0,L|111:65,1,48,8|0,0:0|0:0,0:0:0:0:
95,48,235601,6,0,L|119:185,1,95.9999970703126,6|2,3:2|0:0,0:0:0:0:
193,286,235915,2,0,L|209:191,1,95.9999970703126,8|0,0:0|3:0,0:0:0:0:
220,162,236150,1,8,0:0:0:0:
220,162,236229,1,2,3:2:0:0:
85,249,236386,1,2,3:2:0:0:
203,384,236543,2,0,P|240:348|296:353,1,95.9999970703126,8|0,0:0|3:2,0:0:0:0:
468,384,236857,6,0,L|451:278,1,95.9999970703126,6|2,3:2|0:0,0:0:0:0:
276,247,237171,2,0,L|292:141,1,95.9999970703126,8|2,0:0|3:2,0:0:0:0:
298,121,237407,1,8,0:0:0:0:
298,121,237485,1,2,3:2:0:0:
430,207,237642,1,2,3:2:0:0:
512,18,237799,2,0,P|474:43|407:28,1,95.9999970703126,8|2,0:0|0:0,0:0:0:0:
220,143,238114,6,0,P|217:97|263:47,1,95.9999970703126,6|2,3:2|0:0,0:0:0:0:
348,183,238428,2,0,P|374:144|372:97,1,95.9999970703126,8|2,0:0|3:2,0:0:0:0:
325,35,238663,1,8,0:0:0:0:
325,35,238742,1,2,3:2:0:0:
266,219,238899,1,2,3:2:0:0:
442,167,239056,2,0,L|335:183,1,95.9999970703126,8|2,0:0|3:2,0:0:0:0:
285,304,239292,5,8,0:0:0:0:
285,304,239370,2,0,L|178:287,1,95.9999970703126,6|2,3:2|0:0,0:0:0:0:
15,384,239684,2,0,L|122:367,1,95.9999970703126,10|0,0:0|3:0,0:0:0:0:
153,364,239920,1,8,0:0:0:0:
153,364,239998,1,6,3:2:0:0:
30,269,240155,1,2,3:2:0:0:
173,216,240313,1,10,0:0:0:0:
69,98,240470,1,0,3:2:0:0:
114,282,240627,6,0,P|132:238|174:216,1,95.9999970703126,6|2,3:2|0:0,0:0:0:0:
347,181,240941,2,0,P|300:186|259:162,1,95.9999970703126,8|2,0:0|3:2,0:0:0:0:
250,130,241176,1,8,0:0:0:0:
250,130,241255,1,2,3:2:0:0:
190,288,241412,1,2,3:2:0:0:
69,98,241569,2,0,L|171:114,1,95.9999970703126,8|2,0:0|0:0,0:0:0:0:
325,98,241883,6,0,P|300:59|255:44,1,95.9999970703126,6|2,3:2|0:0,0:0:0:0:
353,256,242197,2,0,P|378:217|423:202,1,95.9999970703126,8|2,0:0|3:2,0:0:0:0:
463,213,242433,1,8,0:0:0:0:
463,213,242512,1,2,3:2:0:0:
408,39,242669,1,2,3:2:0:0:
250,130,242826,2,0,L|268:244,1,95.9999970703126,8|2,0:0|3:2,0:0:0:0:
289,384,243140,6,0,P|255:345|200:346,1,95.9999970703126,6|2,3:2|0:0,0:0:0:0:
39,378,243454,2,0,L|57:263,1,95.9999970703126,8|0,0:0|3:0,0:0:0:0:
63,248,243690,1,8,0:0:0:0:
63,248,243768,1,2,3:2:0:0:
213,341,243925,1,2,3:2:0:0:
189,214,244082,2,0,L|170:99,1,95.9999970703126,8|2,0:0|3:2,0:0:0:0:
111,21,244318,5,8,0:0:0:0:
111,21,244396,2,0,P|70:-3|12:8,1,95.9999970703126,6|2,3:2|0:0,0:0:0:0:
261,100,244710,2,0,P|220:124|162:113,1,95.9999970703126,10|2,0:0|3:2,0:0:0:0:
148,101,244946,1,8,0:0:0:0:
148,101,245025,1,6,3:2:0:0:
277,8,245182,1,2,3:2:0:0:
262,192,245339,1,10,0:0:0:0:
172,17,245496,1,2,0:0:0:0:
355,115,245653,6,0,L|246:97,1,95.9999970703126,6|2,3:2|0:0,0:0:0:0:
380,252,245967,2,0,L|488:234,1,95.9999970703126,8|2,0:0|3:2,0:0:0:0:
512,234,246203,1,8,0:0:0:0:
512,234,246281,1,2,3:2:0:0:
434,115,246438,1,2,3:2:0:0:
352,330,246595,2,0,P|311:303|299:255,1,95.9999970703126,8|2,0:0|3:2,0:0:0:0:
136,363,246909,6,0,L|244:345,1,95.9999970703126,6|2,3:2|0:0,0:0:0:0:
340,161,247224,2,0,L|232:143,1,95.9999970703126,8|0,0:0|3:0,0:0:0:0:
211,140,247460,1,8,0:0:0:0:
211,140,247538,1,2,3:2:0:0:
298,259,247695,1,2,3:2:0:0:
139,282,247852,2,0,L|28:299,1,95.9999970703126,8|0,0:0|3:2,0:0:0:0:
130,125,248166,6,0,P|152:80|218:65,1,95.9999970703126,6|2,3:2|0:0,0:0:0:0:
360,22,248480,2,0,L|341:133,1,95.9999970703126,8|2,0:0|3:2,0:0:0:0:
340,161,248716,1,8,0:0:0:0:
340,161,248794,1,2,3:2:0:0:
473,85,248951,1,2,3:2:0:0:
491,287,249108,2,0,P|459:253|408:250,1,95.9999970703126,8|2,0:0|0:0,0:0:0:0:
326,341,249344,5,8,0:0:0:0:
326,341,249422,2,0,L|427:324,1,95.9999970703126,6|2,3:2|0:0,0:0:0:0:
243,228,249737,2,0,L|141:211,1,95.9999970703126,10|2,0:0|3:2,0:0:0:0:
116,209,249972,1,8,0:0:0:0:
116,209,250051,1,2,3:2:0:0:
221,336,250208,1,2,3:2:0:0:
52,361,250365,1,10,0:0:0:0:
116,209,250522,1,0,3:2:0:0:
142,384,250679,6,0,L|126:286,1,95.9999970703126,6|2,3:2|0:0,0:0:0:0:
264,102,250993,2,0,L|248:199,1,95.9999970703126,10|0,0:0|3:0,0:0:0:0:
247,232,251229,1,8,0:0:0:0:
247,232,251307,1,2,3:2:0:0:
147,122,251464,1,2,3:2:0:0:
347,87,251621,2,0,P|330:47|282:23,1,95.9999970703126,8|0,0:0|3:2,0:0:0:0:
127,0,251936,6,0,L|144:108,1,95.9999970703126,6|2,3:2|0:0,0:0:0:0:
178,274,252250,2,0,P|138:238|86:245,1,95.9999970703126,8|2,0:0|3:2,0:0:0:0:
64,267,252485,1,8,0:0:0:0:
64,267,252564,1,2,3:2:0:0:
27,75,252721,1,2,3:2:0:0:
183,162,252878,2,0,P|223:126|275:129,1,95.9999970703126,12|2,0:0|0:0,0:0:0:0:
351,256,253192,6,0,P|299:239|276:192,1,95.9999970703126,6|2,3:2|0:0,0:0:0:0:
414,155,253506,2,0,P|387:116|341:104,1,95.9999970703126,8|2,0:0|3:2,0:0:0:0:
263,124,253742,1,8,0:0:0:0:
263,124,253820,1,2,3:2:0:0:
433,234,253977,1,2,3:2:0:0:
326,9,254135,2,0,L|342:115,1,95.9999970703126,8|2,0:0|3:2,0:0:0:0:
448,139,254370,5,8,0:0:0:0:
448,139,254449,2,0,L|431:245,1,95.9999970703126,6|2,3:2|0:0,0:0:0:0:
322,374,254763,2,0,P|348:336|401:340,1,95.9999970703126,8|0,0:0|3:0,0:0:0:0:
430,356,254998,1,8,0:0:0:0:
430,356,255077,1,2,3:2:0:0:
244,232,255234,1,2,3:2:0:0:
366,250,255391,1,8,0:0:0:0:
150,313,255548,1,0,3:2:0:0:
322,374,255705,6,0,P|309:341|271:327,1,71.9999978027344,2|0,3:2|0:0,0:0:0:0:
277,326,256019,2,0,P|288:367|330:371,1,80,2|0,0:0|0:0,0:0:0:0:
