osu file format v14

[General]
AudioFilename: audio.mp3
AudioLeadIn: 0
PreviewTime: 54391
Countdown: 0
SampleSet: Soft
StackLeniency: 0.4
Mode: 0
LetterboxInBreaks: 0
WidescreenStoryboard: 1

[Editor]
DistanceSpacing: 1
BeatDivisor: 4
GridSize: 16
TimelineZoom: 1.6

[Metadata]
Title:Kiga to Hougyoku (Game Ver.)
TitleUnicode:飢餓と宝玉 (Game Ver.)
Artist:konore
ArtistUnicode:konore
Creator:RK657
Version:Normal
Source:マルコと銀河竜 ~MARCO&GALAXY DRAGON~
Tags:TOKYOTOON Hunger and Orb marco and the galaxy dragon galgame opening video game 斎藤優輝 Yuki Saito はと Hato visual novel japanese rock j-rock jrock pop j-pop jpop
BeatmapID:3204628
BeatmapSetID:1144382

[Difficulty]
HPDrainRate:3.5
CircleSize:3.5
OverallDifficulty:4
ApproachRate:5.5
SliderMultiplier:1
SliderTickRate:1

[Events]
//Background and Video events
0,0,"BG.jpg",0,0
Video,-80,"OP.mp4"
//Break Periods
//Storyboard Layer 0 (Background)
//Storyboard Layer 1 (Fail)
//Storyboard Layer 2 (Pass)
//Storyboard Layer 3 (Foreground)
//Storyboard Layer 4 (Overlay)
//Storyboard Sound Samples

[TimingPoints]
1225,314.13612565445,4,2,1,70,1,8
1225,-125,4,2,1,70,0,8
3738,-125,4,2,1,70,0,8
4994,-111.111111111111,4,2,1,50,0,8
5308,-111.111111111111,4,2,1,55,0,8
5622,-111.111111111111,4,2,1,60,0,8
5937,-111.111111111111,4,2,1,65,0,8
6251,-100,4,2,1,70,0,8
7507,-125,4,2,1,70,0,8
8293,-111.111111111111,4,2,1,60,0,8
9392,314.13612565445,4,2,1,65,1,8
9392,-100,4,2,1,65,0,8
14418,-111.111111111111,4,2,1,60,0,8
31381,-111.111111111111,4,2,1,65,0,8
32009,-111.111111111111,4,2,1,70,0,8
32952,-111.111111111111,4,2,1,50,0,8
33266,-100,4,2,1,75,0,8
34522,-100,4,2,1,70,0,8
49601,-100,4,2,1,65,0,8
52585,-100,4,2,1,70,0,8
53371,-111.111111111111,4,2,1,70,0,8
54627,-95.2380952380952,4,2,1,80,0,9
62166,-95.2380952380952,4,2,1,80,0,9
64679,-95.2380952380952,4,2,1,80,0,9
72219,-95.2380952380952,4,2,1,80,0,8
73475,-95.2380952380952,4,2,1,70,0,8
73789,-95.2380952380952,4,2,1,77,0,8
74104,-95.2380952380952,4,2,1,85,0,8
74732,-95.2380952380952,4,2,1,80,0,9
82271,-95.2380952380952,4,2,1,80,0,9
84784,-95.2380952380952,4,2,1,80,0,9
88554,-95.2380952380952,4,2,1,85,0,9
91067,-95.2380952380952,4,2,1,80,0,8
91852,-100,4,2,1,70,0,8
92245,-100,4,2,1,5,0,8
92323,-125,4,2,1,40,0,8

[Colours]
Combo1 : 160,230,150
Combo2 : 250,180,240
Combo3 : 120,200,230
Combo4 : 255,230,130

[HitObjects]
32,60,1225,6,0,B|167:91|99:158|238:187,1,240,6|2,3:2|0:0,0:0:0:0:
314,135,2481,2,0,B|370:93|370:93|348:263,1,240,6|2,3:2|0:0,0:0:0:0:
336,355,3738,5,6,3:2:0:0:
207,384,4366,1,4,3:2:0:0:
107,300,4994,6,0,P|93:231|80:199,1,89.9999972534181,6|6,3:2|0:0,0:0:0:0:
12,146,5622,2,0,P|26:77|39:45,1,89.9999972534181,6|6,3:2|0:0,0:0:0:0:
124,18,6251,6,0,P|189:40|241:47,1,100,14|8,0:0|0:0,0:0:0:0:
268,36,6722,1,0,3:2:0:0:
268,36,6879,2,0,P|305:31|327:28,1,50,10|0,0:0|3:2,0:0:0:0:
367,28,7193,1,10,0:0:0:0:
333,127,7507,6,0,B|275:97|224:139|224:139|223:217|300:228,1,240,14|2,0:0|0:0,0:0:0:0:
412,139,9392,6,0,P|389:204|376:254,1,100,6|8,3:2|0:0,0:0:0:0:
388,333,10020,2,0,P|423:320|444:316,2,50,2|2|8,3:2|3:2|0:0,0:0:0:0:
356,371,10491,1,2,3:2:0:0:
356,371,10648,2,0,P|312:351|249:332,1,100,6|8,3:2|0:0,0:0:0:0:
200,257,11276,2,0,P|194:222|185:193,2,50,2|2|8,3:2|3:2|0:0,0:0:0:0:
164,293,11748,1,2,0:0:0:0:
164,293,11905,6,0,B|112:304|112:304|58:274,1,100,6|8,3:2|0:0,0:0:0:0:
44,184,12533,2,0,P|6:197|-9:213,2,50,2|2|8,3:2|3:2|0:0,0:0:0:0:
72,142,13004,1,2,3:2:0:0:
72,142,13161,2,0,P|92:76|136:62,1,100,6|8,3:2|0:0,0:0:0:0:
209,99,13789,2,0,L|196:164,1,50,6|2,3:2|3:2,0:0:0:0:
225,190,14104,2,0,L|215:239,1,50,10|2,0:0|3:2,0:0:0:0:
235,276,14418,6,0,P|289:249|409:218,1,179.999994506836,6|2,3:2|3:2,0:0:0:0:
493,249,15360,1,0,3:2:0:0:
493,249,15674,2,0,B|519:153|452:183|475:72,1,179.999994506836,2|2,3:2|3:2,0:0:0:0:
408,21,16617,1,0,3:2:0:0:
408,21,16931,6,0,B|366:58|366:58|241:29,1,179.999994506836,2|2,3:2|3:2,0:0:0:0:
160,48,17873,1,0,3:2:0:0:
160,48,18187,2,0,B|152:104|152:104|114:138|114:138|107:212,1,179.999994506836,2|2,3:2|3:2,0:0:0:0:
153,287,19130,1,0,3:2:0:0:
241,261,19444,5,0,3:2:0:0:
241,261,19758,2,0,P|296:285|313:325,1,89.9999972534181,2|2,3:2|3:2,0:0:0:0:
386,355,20386,1,2,3:2:0:0:
449,286,20700,2,0,P|478:215|500:191,2,89.9999972534181,2|2|2,3:2|3:2|3:2,0:0:0:0:
369,243,21643,2,0,P|362:210|354:187,1,44.999998626709,2|2,3:2|0:0,0:0:0:0:
335,160,21957,6,0,P|270:180|236:198,2,89.9999972534181,2|2|0,3:2|3:2|3:2,0:0:0:0:
412,112,22899,1,0,3:2:0:0:
412,112,23213,2,0,P|450:85|456:29,1,89.9999972534181,2|2,3:2|3:2,0:0:0:0:
381,0,23842,1,2,3:2:0:0:
312,58,24156,1,6,3:2:0:0:
318,156,24470,6,0,P|257:132|131:107,1,179.999994506836,4|2,3:2|3:2,0:0:0:0:
81,171,25412,1,0,3:2:0:0:
81,171,25727,2,0,B|98:263|141:206|167:331,1,179.999994506836,2|2,3:2|3:2,0:0:0:0:
245,375,26669,1,0,3:2:0:0:
245,375,26983,6,0,P|300:345|422:325,1,179.999994506836,2|2,3:2|3:2,0:0:0:0:
507,341,27926,1,0,3:2:0:0:
507,341,28240,2,0,B|462:254|462:254|491:166,1,179.999994506836,2|2,3:2|3:2,0:0:0:0:
502,87,29182,1,0,3:2:0:0:
417,74,29496,5,0,3:2:0:0:
417,74,29810,2,0,P|353:90|317:98,1,89.9999972534181,2|2,3:2|3:2,0:0:0:0:
271,164,30439,1,2,3:2:0:0:
188,129,30753,2,0,P|207:75|242:46,2,89.9999972534181,2|2|2,3:2|3:2|3:2,0:0:0:0:
143,200,31695,2,0,L|158:256,1,44.999998626709,2|2,3:2|0:0,0:0:0:0:
166,286,32009,1,6,3:2:0:0:
278,376,33109,1,2,0:0:0:0:
278,376,33266,6,0,P|290:326|310:275,1,100,10|10,0:0|0:0,0:0:0:0:
383,215,33894,2,0,P|365:168|353:119,1,100,10|10,0:0|0:0,0:0:0:0:
313,28,34522,6,0,B|268:0|268:0|206:18,1,100,6|8,3:2|0:0,0:0:0:0:
180,37,34994,1,10,0:0:0:0:
180,37,35151,1,2,0:0:0:0:
203,134,35465,2,0,P|186:164|174:194,1,50,8|2,0:0|0:0,0:0:0:0:
135,206,35779,2,0,P|74:211|49:249,1,100,2|8,3:2|0:0,0:0:0:0:
44,288,36250,1,2,3:2:0:0:
44,288,36407,1,2,0:0:0:0:
114,358,36721,2,0,L|179:346,1,50,8|2,0:0|0:0,0:0:0:0:
213,346,37035,6,0,P|251:294|299:279,1,100,2|8,3:2|0:0,0:0:0:0:
332,287,37507,1,10,0:0:0:0:
332,287,37664,1,2,0:0:0:0:
429,309,37978,2,0,P|438:280|452:253,1,50,8|2,0:0|0:0,0:0:0:0:
468,216,38292,2,0,B|510:175|510:175|499:118,1,100,2|8,3:2|0:0,0:0:0:0:
495,84,38763,1,2,3:2:0:0:
495,84,38920,2,0,L|428:94,1,50,2|0,0:0|3:2,0:0:0:0:
395,96,39234,1,8,0:0:0:0:
303,54,39549,5,0,3:2:0:0:
303,54,39863,2,0,P|243:43|197:17,2,100,10|2|10,0:0|0:0|0:0,0:0:0:0:
372,126,40805,2,0,P|340:180|328:228,1,100,2|10,3:2|0:0,0:0:0:0:
232,239,41433,2,0,P|264:293|276:341,1,100,2|10,0:0|0:0,0:0:0:0:
179,371,42062,6,0,P|122:360|93:307,1,100,2|10,3:2|0:0,0:0:0:0:
91,279,42533,2,0,B|83:203|83:203|79:200|79:200|72:120,1,150,8|10,0:0|0:0,0:0:0:0:
26,43,43318,2,0,P|73:9|131:15,1,100,6|10,0:0|0:0,0:0:0:0:
180,82,43946,2,0,P|213:72|234:70,1,50,2|0,0:0|3:2,0:0:0:0:
253,26,44261,2,0,P|286:36|307:38,1,50,8|0,0:0|0:0,0:0:0:0:
347,57,44575,6,0,P|395:6|435:8,1,100,6|8,3:2|0:0,0:0:0:0:
464,28,45046,1,10,0:0:0:0:
464,28,45203,1,2,0:0:0:0:
502,120,45517,2,0,L|510:185,1,50,8|2,0:0|0:0,0:0:0:0:
501,218,45831,2,0,P|445:234|435:281,1,100,2|8,3:2|0:0,0:0:0:0:
430,319,46302,1,2,3:2:0:0:
430,319,46460,1,2,0:0:0:0:
331,337,46774,2,0,P|314:313|288:288,1,50,8|2,0:0|0:0,0:0:0:0:
252,281,47088,6,0,P|205:334|178:333,1,100,2|8,3:2|0:0,0:0:0:0:
137,322,47559,1,10,0:0:0:0:
137,322,47716,1,2,0:0:0:0:
103,227,48030,2,0,L|126:159,1,50,8|2,0:0|0:0,0:0:0:0:
142,137,48344,2,0,P|199:127|237:85,1,100,2|8,3:2|0:0,0:0:0:0:
260,60,48816,1,2,3:2:0:0:
260,60,48973,2,0,L|310:72,1,50,2|0,0:0|3:2,0:0:0:0:
355,88,49287,1,8,0:0:0:0:
367,187,49601,6,0,P|427:150|472:146,2,100,6|10|2,3:2|0:0|0:0,0:0:0:0:
417,279,50543,1,10,0:0:0:0:
417,279,50857,2,0,P|465:290|505:320,2,100,2|10|2,3:2|0:0|0:0,0:0:0:0:
340,349,51800,1,10,0:0:0:0:
247,312,52114,1,6,3:2:0:0:
247,312,53371,6,0,B|192:257|192:203|247:148|247:203|301:148|301:94|247:40,1,314.999990386963,10|10,0:0|0:0,0:0:0:0:
207,6,54627,6,0,B|179:34|179:34|98:23,1,104.999996795654,6|10,3:2|0:0,0:0:0:0:
62,15,55098,2,0,P|75:74|84:132,1,104.999996795654,2|2,0:0|0:0,0:0:0:0:
71,169,55570,2,0,L|62:230,1,52.4999983978272,10|2,0:0|0:0,0:0:0:0:
25,257,55884,2,0,P|0:311|33:358,2,104.999996795654,2|10|2,3:2|0:0|3:2,0:0:0:0:
111,320,56826,1,8,0:0:0:0:
174,236,57140,6,0,B|241:220|207:195|281:177,1,104.999996795654,2|8,3:2|0:0,0:0:0:0:
311,164,57611,1,2,0:0:0:0:
350,198,57768,2,0,B|377:218|377:218|361:301,1,104.999996795654,2|8,3:2|0:0,0:0:0:0:
358,340,58240,1,2,0:0:0:0:
395,376,58397,2,0,P|445:350|498:340,1,104.999996795654,2|8,3:2|0:0,0:0:0:0:
511,291,58868,1,2,0:0:0:0:
480,248,59025,2,0,B|453:228|453:228|469:145,1,104.999996795654,2|8,3:2|0:0,0:0:0:0:
511,62,59653,6,0,P|487:46|456:33,1,52.4999983978272,6|2,3:2|0:0,0:0:0:0:
425,2,59967,2,0,P|370:9|332:49,1,104.999996795654,10|2,0:0|3:2,0:0:0:0:
363,143,60596,2,0,L|293:128,1,52.4999983978272,10|2,0:0|0:0,0:0:0:0:
264,110,60910,2,0,P|230:153|179:170,1,104.999996795654,2|10,3:2|0:0,0:0:0:0:
140,144,61381,1,2,0:0:0:0:
140,144,61538,1,2,3:2:0:0:
193,53,61852,2,0,L|126:33,1,52.4999983978272,10|2,0:0|0:0,0:0:0:0:
101,5,62166,6,0,P|35:23|9:57,1,104.999996795654,6|8,3:2|0:0,0:0:0:0:
6,106,62638,1,2,0:0:0:0:
6,106,62795,2,0,P|26:150|46:219,1,104.999996795654,6|8,3:2|0:0,0:0:0:0:
68,249,63266,1,4,3:2:0:0:
168,277,63580,1,0,3:2:0:0:
168,277,63737,2,0,P|209:271|230:267,1,52.4999983978272,8|0,0:0|3:2,0:0:0:0:
259,234,64051,2,0,P|300:240|321:244,1,52.4999983978272,8|0,0:0|3:2,0:0:0:0:
351,209,64365,1,8,0:0:0:0:
276,134,64679,6,0,P|226:113|219:54,1,104.999996795654,6|10,3:2|0:0,0:0:0:0:
247,26,65151,1,2,0:0:0:0:
247,26,65308,2,0,L|309:35,1,52.4999983978272,2|2,3:2|0:0,0:0:0:0:
339,66,65622,2,0,L|401:75,1,52.4999983978272,10|2,0:0|0:0,0:0:0:0:
434,102,65936,2,0,P|409:146|388:212,2,104.999996795654,2|10|2,3:2|0:0|3:2,0:0:0:0:
510,174,66878,1,10,0:0:0:0:
494,278,67193,6,0,B|483:324|436:388,1,104.999996795654,2|8,3:2|0:0,0:0:0:0:
396,382,67664,1,2,3:2:0:0:
363,340,67821,2,0,P|313:306|255:308,1,104.999996795654,2|8,3:2|0:0,0:0:0:0:
222,325,68292,1,2,0:0:0:0:
184,362,68449,2,0,P|125:370|70:387,1,104.999996795654,2|10,3:2|0:0,0:0:0:0:
19,297,69077,2,0,P|12:247|-5:182,1,104.999996795654,2|10,3:2|0:0,0:0:0:0:
25,92,69706,6,0,P|73:34|122:36,2,104.999996795654,6|8|2,3:2|0:0|3:2,0:0:0:0:
86,183,70648,1,10,0:0:0:0:
86,183,70962,2,0,P|164:194|194:214,1,104.999996795654,2|10,3:2|0:0,0:0:0:0:
239,296,71590,2,0,P|309:277|336:244,1,104.999996795654,2|10,3:2|0:0,0:0:0:0:
372,222,72062,1,2,0:0:0:0:
372,222,72219,6,0,L|435:227,1,52.4999983978272,14|10,0:0|0:0,0:0:0:0:
347,88,72847,2,0,L|410:93,2,52.4999983978272,10|2|8,0:0|3:2|0:0,0:0:0:0:
322,47,73318,1,0,3:2:0:0:
322,47,73475,2,0,P|266:54|205:64,1,104.999996795654,14|10,0:0|0:0,0:0:0:0:
117,29,74104,2,0,L|127:94,1,52.4999983978272,10|10,0:0|0:0,0:0:0:0:
158,121,74418,2,0,L|148:186,1,52.4999983978272,10|10,0:0|0:0,0:0:0:0:
168,221,74732,6,0,P|221:231|252:283,1,104.999996795654,6|10,3:2|0:0,0:0:0:0:
258,326,75203,1,2,0:0:0:0:
258,326,75360,2,0,P|288:329|317:337,1,52.4999983978272,2|2,3:2|0:0,0:0:0:0:
354,360,75674,2,0,P|384:356|413:349,1,52.4999983978272,10|2,0:0|0:0,0:0:0:0:
435,308,75988,2,0,P|456:266|510:246,2,104.999996795654,2|10|2,3:2|0:0|3:2,0:0:0:0:
334,282,76931,2,0,L|325:217,1,52.4999983978272,8|2,0:0|0:0,0:0:0:0:
347,182,77245,6,0,B|376:175|376:175|385:86,1,104.999996795654,2|8,3:2|0:0,0:0:0:0:
388,48,77716,1,2,0:0:0:0:
363,1,77873,2,0,B|314:10|314:10|306:16|306:16|256:27,1,104.999996795654,2|8,3:2|0:0,0:0:0:0:
217,53,78344,1,2,0:0:0:0:
173,82,78501,2,0,P|123:89|92:28,1,104.999996795654,2|8,3:2|0:0,0:0:0:0:
45,23,78973,1,2,0:0:0:0:
0,49,79130,2,0,P|9:98|20:161,1,104.999996795654,2|8,3:2|0:0,0:0:0:0:
114,194,79758,6,0,L|92:261,1,52.4999983978272,2|2,3:2|0:0,0:0:0:0:
65,284,80072,2,0,P|87:339|98:400,2,104.999996795654,10|2|10,0:0|3:2|0:0,0:0:0:0:
168,266,81015,2,0,P|238:289|258:334,1,104.999996795654,2|10,3:2|0:0,0:0:0:0:
287,358,81486,1,2,0:0:0:0:
287,358,81643,2,0,L|354:344,1,52.4999983978272,2|2,3:2|0:0,0:0:0:0:
383,373,81957,2,0,L|450:387,1,52.4999983978272,10|2,0:0|0:0,0:0:0:0:
486,379,82271,6,0,P|469:325|458:258,1,104.999996795654,6|0,3:2|0:0,0:0:0:0:
451,230,82742,1,10,0:0:0:0:
451,230,82899,2,0,P|411:166|366:166,1,104.999996795654,2|8,3:2|0:0,0:0:0:0:
336,173,83371,1,4,0:0:0:0:
243,124,83685,1,0,3:2:0:0:
243,124,83842,2,0,L|175:117,1,52.4999983978272,8|0,0:0|3:2,0:0:0:0:
154,81,84156,2,0,L|86:88,1,52.4999983978272,8|0,0:0|3:2,0:0:0:0:
63,122,84470,1,12,0:0:0:0:
119,210,84784,6,0,B|144:238|144:238|126:320,1,104.999996795654,6|10,3:2|0:0,0:0:0:0:
106,352,85255,1,2,0:0:0:0:
106,352,85412,2,0,L|52:344,1,52.4999983978272,2|2,3:2|0:0,0:0:0:0:
4,326,85727,2,0,L|13:254,1,52.4999983978272,10|2,0:0|0:0,0:0:0:0:
17,226,86041,2,0,P|3:141|-5:107,2,104.999996795654,2|10|2,3:2|0:0|3:2,0:0:0:0:
123,241,86983,1,10,0:0:0:0:
173,149,87297,6,0,B|229:140|229:140|235:136|235:136|280:130,1,104.999996795654,2|8,3:2|0:0,0:0:0:0:
327,123,87768,1,2,0:0:0:0:
364,159,87926,2,0,P|332:214|321:262,1,104.999996795654,2|8,3:2|0:0,0:0:0:0:
367,347,88554,6,0,P|392:336|440:331,2,69.9999978637696,14|10|10,0:0|0:0|0:0,0:0:0:0:
291,382,89182,2,0,P|256:378|223:365,2,69.9999978637696,14|10|10,0:0|0:0|0:0,0:0:0:0:
367,347,89810,6,0,P|376:288|388:238,1,104.999996795654,14|8,0:0|0:0,0:0:0:0:
420,144,90439,2,0,L|359:136,1,52.4999983978272,8|0,0:0|3:2,0:0:0:0:
333,97,90753,2,0,L|272:105,1,52.4999983978272,8|2,0:0|3:2,0:0:0:0:
234,128,91067,1,14,0:0:0:0:
256,192,91145,12,2,92323,0:0:0:0:
