osu file format v14

[General]
AudioFilename: audio.mp3
AudioLeadIn: 0
PreviewTime: 54391
Countdown: 0
SampleSet: Soft
StackLeniency: 0.4
Mode: 0
LetterboxInBreaks: 0
WidescreenStoryboard: 1

[Editor]
DistanceSpacing: 0.5
BeatDivisor: 3
GridSize: 16
TimelineZoom: 1.6

[Metadata]
Title:Kiga to Hougyoku (Game Ver.)
TitleUnicode:飢餓と宝玉 (Game Ver.)
Artist:konore
ArtistUnicode:konore
Creator:RK657
Version:Insane
Source:マルコと銀河竜 ~MARCO&GALAXY DRAGON~
Tags:TOKYOTOON Hunger and Orb marco and the galaxy dragon galgame opening video game 斎藤優輝 Yuki Saito はと Hato visual novel japanese rock j-rock jrock pop j-pop jpop
BeatmapID:3204627
BeatmapSetID:1144382

[Difficulty]
HPDrainRate:5
CircleSize:4
OverallDifficulty:8
ApproachRate:9
SliderMultiplier:1.6
SliderTickRate:1

[Events]
//Background and Video events
0,0,"BG.jpg",0,0
Video,-80,"OP.mp4"
//Break Periods
//Storyboard Layer 0 (Background)
//Storyboard Layer 1 (Fail)
//Storyboard Layer 2 (Pass)
//Storyboard Layer 3 (Foreground)
//Storyboard Layer 4 (Overlay)
//Storyboard Sound Samples

[TimingPoints]
1225,314.13612565445,4,2,1,70,1,8
1225,-166.666666666667,4,2,1,70,0,8
3738,-125,4,2,1,70,0,8
3816,-125,4,2,1,5,0,8
3895,-125,4,2,1,70,0,8
4366,-125,4,2,1,70,0,8
4444,-125,4,2,1,5,0,8
4523,-125,4,2,1,70,0,8
4994,-142.857142857143,4,2,1,50,0,8
5308,-133.333333333333,4,2,1,55,0,8
5622,-125,4,2,1,60,0,8
5937,-117.647058823529,4,2,1,65,0,8
6251,-100,4,2,1,70,0,8
7507,-125,4,2,1,70,0,8
8293,-111.111111111111,4,2,1,60,0,8
9392,314.13612565445,4,2,1,65,1,8
9392,-100,4,2,1,65,0,8
14418,-117.647058823529,4,2,1,60,0,8
31381,-117.647058823529,4,2,1,65,0,8
32009,-117.647058823529,4,2,1,70,0,8
32952,-117.647058823529,4,2,1,50,0,8
33266,-100,4,2,1,75,0,8
34522,-100,4,2,1,70,0,8
49601,-100,4,2,1,65,0,8
52585,-111.111111111111,4,2,1,70,0,8
54156,-100,4,2,1,70,0,8
54627,-90.9090909090909,4,2,1,80,0,9
62166,-90.9090909090909,4,2,1,80,0,9
64679,-90.9090909090909,4,2,1,80,0,9
72219,-90.9090909090909,4,2,1,80,0,8
73475,-90.9090909090909,4,2,1,70,0,8
73789,-90.9090909090909,4,2,1,77,0,8
74104,-90.9090909090909,4,2,1,85,0,8
74732,-90.9090909090909,4,2,1,80,0,9
82271,-90.9090909090909,4,2,1,80,0,9
84784,-90.9090909090909,4,2,1,80,0,9
88554,-90.9090909090909,4,2,1,85,0,9
91067,-100,4,2,1,80,0,8
91852,-100,4,2,1,70,0,8
92245,-100,4,2,1,5,0,8
92323,-142.857142857143,4,2,1,40,0,8

[Colours]
Combo1 : 160,230,150
Combo2 : 250,180,240
Combo3 : 120,200,230
Combo4 : 255,230,130

[HitObjects]
120,131,1225,6,0,B|150:114|160:66|107:16|36:21|-13:101|17:210|106:227,1,335.999989746094,6|2,3:2|0:0,0:0:0:0:
212,266,2481,6,0,B|281:279|326:226|290:218|336:165|402:180|402:180|356:189|341:215,1,287.999991210938,6|2,3:2|0:0,0:0:0:0:
458,326,3738,6,0,L|461:286,1,32,6|0,3:2|0:0,0:0:0:0:
468,213,3895,1,2,0:0:0:0:
339,149,4366,6,0,L|342:189,1,32,4|0,3:2|0:0,0:0:0:0:
349,262,4523,1,2,0:0:0:0:
261,353,4994,6,0,P|233:326|204:319,1,55.9999982910157,6|0,3:2|0:0,0:0:0:0:
227,240,5308,2,0,P|188:240|162:256,1,60.0000022888184,6|0,0:0|0:0,0:0:0:0:
122,184,5622,2,0,P|95:211|88:241,1,64,6|0,3:2|0:0,0:0:0:0:
10,222,5937,2,0,P|10:260|26:286,1,68.0000012969971,6|0,0:0|0:0,0:0:0:0:
217,320,6251,6,0,L|230:221,1,80,14|0,0:0|0:0,0:0:0:0:
232,224,6486,1,8,0:0:0:0:
232,224,6565,1,8,0:0:0:0:
246,81,6722,1,0,3:2:0:0:
246,81,6800,1,8,0:0:0:0:
246,81,6879,6,0,P|288:94|310:130,1,80,10|0,0:0|3:2,0:0:0:0:
308,142,7115,1,8,0:0:0:0:
308,142,7193,1,10,0:0:0:0:
168,165,7350,1,0,3:2:0:0:
319,302,7507,6,0,B|363:326|379:375|379:375|395:384|395:384|394:328|425:285|464:283|464:283|422:312|424:351,1,320,14|0,0:0|3:2,0:0:0:0:
424,338,8450,1,2,0:0:0:0:
362,195,8764,5,2,0:0:0:0:
362,195,9078,5,2,0:0:0:0:
362,195,9392,6,0,B|391:159|391:159|456:141|502:216,1,160,6|8,3:2|0:0,0:0:0:0:
422,271,9863,1,2,3:2:0:0:
422,271,9941,1,8,0:0:0:0:
422,271,10020,1,2,3:2:0:0:
280,182,10177,1,2,3:2:0:0:
227,335,10334,2,0,P|266:313|305:308,1,80,8|2,0:0|3:2,0:0:0:0:
174,233,10648,6,0,B|89:251|121:295|37:313,1,160,6|8,3:2|0:0,0:0:0:0:
148,359,11119,1,2,3:2:0:0:
148,359,11198,1,8,0:0:0:0:
148,359,11276,1,2,3:2:0:0:
35,233,11433,1,2,3:2:0:0:
157,364,11590,2,0,P|204:356|227:334,1,80,8|2,0:0|0:0,0:0:0:0:
320,185,11905,6,0,P|366:252|437:243,1,160,6|8,3:2|0:0,0:0:0:0:
395,137,12376,1,2,3:2:0:0:
395,137,12454,1,8,0:0:0:0:
395,137,12533,1,2,3:2:0:0:
244,192,12690,1,2,3:2:0:0:
179,38,12847,2,0,P|230:48|258:65,1,80,8|2,0:0|3:2,0:0:0:0:
257,81,13083,1,8,0:0:0:0:
257,81,13161,6,0,B|245:137|243:192|243:192|223:168|205:152,1,160,6|8,3:2|0:0,0:0:0:0:
57,108,13632,1,2,3:2:0:0:
57,108,13711,1,8,0:0:0:0:
57,108,13789,5,6,3:2:0:0:
122,290,13946,1,2,3:2:0:0:
203,151,14104,1,10,0:0:0:0:
75,200,14261,1,2,3:2:0:0:
244,294,14418,6,0,P|300:252|381:249,1,136.000002593994,6|0,3:2|3:2,0:0:0:0:
364,245,14889,1,10,0:3:0:0:
393,333,15046,2,0,P|335:322|287:382,1,136.000002593994,2|0,3:2|3:2,0:0:0:0:
287,374,15517,1,10,0:3:0:0:
244,294,15674,6,0,P|300:252|381:249,1,136.000002593994,2|0,3:2|3:2,0:0:0:0:
364,245,16145,1,10,0:3:0:0:
393,333,16302,2,0,P|335:322|287:382,1,136.000002593994,2|0,3:2|3:2,0:0:0:0:
287,374,16773,1,2,0:0:0:0:
244,294,16931,6,0,P|300:252|381:249,1,136.000002593994,2|0,3:2|3:2,0:0:0:0:
364,245,17402,1,10,0:3:0:0:
393,333,17559,2,0,P|335:322|287:382,1,136.000002593994,2|0,3:2|3:2,0:0:0:0:
287,374,18030,1,10,0:3:0:0:
157,322,18187,6,0,P|174:270|189:186,1,136.000002593994,2|0,3:2|3:2,0:0:0:0:
154,75,18659,1,10,0:3:0:0:
36,162,18816,2,0,P|82:153|111:153,1,68.0000012969971,2|2,3:2|0:0,0:0:0:0:
253,102,19130,1,0,3:2:0:0:
253,102,19444,6,0,P|290:109|321:124,1,68.0000012969971,0|2,3:2|0:0,0:0:0:0:
408,61,19758,1,2,3:2:0:0:
455,174,19915,2,0,P|433:179|420:187,2,34.0000006484985,8|8|2,0:3|0:3|3:2,0:0:0:0:
511,249,20229,1,8,0:3:0:0:
511,249,20386,2,0,P|496:287|489:315,1,68.0000012969971,2|8,3:2|0:3,0:0:0:0:
404,374,20700,6,0,P|368:352|355:328,1,68.0000012969971,2|2,3:2|0:0,0:0:0:0:
277,345,21015,2,0,P|278:302|292:279,1,68.0000012969971,2|8,3:2|0:3,0:0:0:0:
237,220,21329,2,0,P|274:199|301:200,1,68.0000012969971,2|2,3:2|0:0,0:0:0:0:
408,226,21643,1,2,3:2:0:0:
408,226,21800,1,2,0:0:0:0:
492,66,21957,6,0,P|418:84|346:97,1,136.000002593994,2|2,3:2|3:2,0:0:0:0:
263,19,22428,1,8,0:3:0:0:
263,19,22507,1,8,0:3:0:0:
263,19,22585,2,0,P|223:11|178:-3,1,68.0000012969971,0|8,3:2|0:3,0:0:0:0:
154,122,22899,2,0,P|194:114|239:100,1,68.0000012969971,0|10,3:2|0:3,0:0:0:0:
359,94,23213,6,0,P|348:137|321:167,3,68.0000012969971,2|10|2|10,3:2|0:3|3:2|0:3,0:0:0:0:
402,5,23842,2,0,P|449:20|477:46,1,68.0000012969971,2|10,3:2|0:3,0:0:0:0:
511,129,24156,2,0,P|464:144|436:170,1,68.0000012969971,6|10,3:2|0:3,0:0:0:0:
368,280,24470,6,0,B|303:250|303:250|230:270,1,136.000002593994,4|0,3:2|3:2,0:0:0:0:
240,267,24941,1,10,0:3:0:0:
233,348,25098,2,0,B|298:333|298:333|365:365,1,136.000002593994,2|0,3:2|3:2,0:0:0:0:
360,362,25570,1,10,0:3:0:0:
368,280,25727,6,0,B|360:210|360:210|362:206|362:206|354:135,1,136.000002593994,2|0,3:2|3:2,0:0:0:0:
355,145,26198,1,10,0:3:0:0:
436,133,26355,2,0,B|444:203|444:203|442:207|442:207|450:278,1,136.000002593994,2|0,3:2|3:2,0:0:0:0:
449,268,26826,1,10,0:3:0:0:
368,280,26983,6,0,B|303:250|303:250|230:270,1,136.000002593994,2|0,3:2|3:2,0:0:0:0:
240,267,27454,1,10,0:3:0:0:
233,348,27611,2,0,B|298:333|298:333|365:365,1,136.000002593994,2|0,3:2|3:2,0:0:0:0:
360,362,28083,1,10,0:3:0:0:
368,280,28240,6,0,B|360:210|360:210|362:206|362:206|354:135,1,136.000002593994,2|0,3:2|3:2,0:0:0:0:
355,145,28711,1,10,0:3:0:0:
296,54,28868,2,0,P|253:61|222:73,1,68.0000012969971,2|8,3:2|0:3,0:0:0:0:
190,162,29182,2,0,P|156:157|124:146,1,68.0000012969971,0|8,3:2|0:3,0:0:0:0:
19,56,29496,6,0,P|26:89|32:130,1,68.0000012969971,0|2,3:2|0:0,0:0:0:0:
45,262,29810,2,0,P|116:281|126:347,2,136.000002593994,2|2|2,3:2|3:2|3:2,0:0:0:0:
45,262,30596,1,8,0:3:0:0:
133,352,30753,6,0,P|177:338|214:341,1,68.0000012969971,2|2,3:2|0:0,0:0:0:0:
217,245,31067,2,0,P|258:266|282:294,1,68.0000012969971,2|2,3:2|0:0,0:0:0:0:
353,232,31381,2,0,P|367:276|363:313,1,68.0000012969971,2|2,3:2|0:0,0:0:0:0:
460,316,31695,2,0,P|438:357|410:381,1,68.0000012969971,2|2,3:2|0:0,0:0:0:0:
296,384,32009,5,6,3:2:0:0:
429,235,32952,2,0,P|444:193|482:145,1,102.000001945496,2|0,0:0|0:0,0:0:0:0:
480,129,33266,6,0,P|465:105|464:91,3,40,10|8|8|8,0:0|0:0|0:0|0:0,0:0:0:0:
383,66,33580,2,0,P|396:41|407:33,3,40,10|8|8|8,0:0|0:0|0:0|0:0,0:0:0:0:
277,92,33894,5,10,0:0:0:0:
277,92,33973,1,8,0:0:0:0:
277,92,34051,2,0,L|290:140,1,40,8|8,0:0|0:0,0:0:0:0:
192,153,34208,5,10,0:0:0:0:
192,153,34287,1,8,0:0:0:0:
192,153,34365,2,0,L|205:201,1,40,8|8,0:0|0:0,0:0:0:0:
142,285,34522,6,0,P|98:246|-12:226,1,160,6|8,3:2|0:0,0:0:0:0:
1,224,34994,1,10,0:0:0:0:
44,381,35151,2,0,P|103:367|143:365,1,80,2|0,0:0|3:2,0:0:0:0:
219,257,35465,2,0,P|270:288|300:315,1,80,8|2,0:0|0:0,0:0:0:0:
427,381,35779,6,0,B|473:340|473:340|444:233,1,160,2|8,3:2|0:0,0:0:0:0:
447,245,36250,1,2,3:2:0:0:
509,129,36407,2,0,P|453:139|426:155,2,80,2|0|8,0:0|3:2|0:0,0:0:0:0:
387,33,36878,1,2,0:0:0:0:
279,139,37035,6,0,B|178:120|231:69|133:49,1,160,2|8,3:2|0:0,0:0:0:0:
150,53,37507,1,10,0:0:0:0:
0,27,37664,2,0,P|15:66|30:118,1,80,2|0,0:0|3:2,0:0:0:0:
160,168,37978,2,0,P|145:207|130:259,1,80,8|2,0:0|0:0,0:0:0:0:
206,378,38292,6,0,P|234:310|342:300,1,160,2|8,3:2|0:0,0:0:0:0:
312,287,38763,1,2,3:2:0:0:
460,343,38920,1,2,0:0:0:0:
460,343,39077,1,0,3:2:0:0:
360,197,39234,2,0,P|396:141|480:118,1,120,8|0,0:0|0:0,0:0:0:0:
463,115,39549,6,0,B|473:51|497:12|497:12|475:31|441:40,1,160,0|10,3:2|0:0,0:0:0:0:
452,36,40020,1,8,0:0:0:0:
329,70,40177,2,0,P|273:48|227:46,1,80,2|0,0:0|3:2,0:0:0:0:
158,171,40491,2,0,P|214:149|260:147,1,80,10|0,0:0|0:0,0:0:0:0:
379,210,40805,6,0,B|368:267|368:267|337:291|337:291|325:363,2,160,2|10|2,3:2|0:0|0:0,0:0:0:0:
379,210,41590,1,0,3:2:0:0:
235,207,41748,2,0,L|247:308,1,80,10|0,0:0|0:0,0:0:0:0:
402,384,42062,6,0,P|445:335|511:335,1,120,2|0,3:2|0:0,0:0:0:0:
512,343,42376,1,10,0:0:0:0:
379,210,42533,2,0,B|358:118|307:163|284:62,1,160,8|0,0:0|0:0,0:0:0:0:
164,5,43004,2,0,P|105:16|77:23,1,80,10|0,0:0|3:2,0:0:0:0:
3,141,43318,6,0,P|61:152|90:159,1,80,6|0,0:0|3:2,0:0:0:0:
230,181,43632,1,10,0:0:0:0:
128,267,43789,1,2,3:2:0:0:
246,168,43946,2,0,P|304:156|333:150,1,80,2|0,0:0|3:2,0:0:0:0:
454,89,44261,2,0,P|429:144|413:216,1,120,8|8,0:0|0:0,0:0:0:0:
414,216,44575,6,0,P|339:238|316:321,1,160,6|8,3:2|0:0,0:0:0:0:
313,309,45046,1,10,0:0:0:0:
172,365,45203,2,0,P|193:320|200:271,1,80,2|0,0:0|3:2,0:0:0:0:
89,228,45517,2,0,P|68:183|61:134,1,80,8|2,0:0|0:0,0:0:0:0:
41,11,45831,6,0,B|137:22|93:64|192:77,1,160,2|8,3:2|0:0,0:0:0:0:
183,75,46302,1,2,3:2:0:0:
315,3,46460,2,0,P|357:34|365:71,2,80,2|0|8,0:0|3:2|0:0,0:0:0:0:
183,75,46931,1,2,0:0:0:0:
287,165,47088,6,0,B|247:191|247:191|270:307,1,160,2|8,3:2|0:0,0:0:0:0:
268,301,47559,1,10,0:0:0:0:
447,239,47716,2,0,P|411:221|364:234,1,80,2|0,0:0|3:2,0:0:0:0:
363,323,48030,2,0,P|398:340|445:327,1,80,8|2,0:0|0:0,0:0:0:0:
263,230,48344,6,0,B|199:244|199:244|179:278|179:278|115:294,1,160,2|8,3:2|0:0,0:0:0:0:
125,291,48816,1,2,3:2:0:0:
21,173,48973,1,2,0:0:0:0:
21,173,49130,1,0,3:2:0:0:
203,118,49287,2,0,P|222:60|306:56,1,120,8|0,0:0|0:0,0:0:0:0:
288,51,49601,6,0,B|306:132|355:92|377:199,2,160,6|10|2,3:2|0:0|0:0,0:0:0:0:
288,51,50386,1,0,3:2:0:0:
264,175,50543,2,0,P|257:220|252:271,1,80,10|0,0:0|0:0,0:0:0:0:
360,374,50857,6,0,P|404:291|484:290,2,160,2|10|2,3:2|0:0|0:0,0:0:0:0:
360,374,51643,1,0,3:2:0:0:
469,276,51800,2,0,P|473:236|479:196,1,80,10|0,0:0|3:2,0:0:0:0:
483,177,52035,1,8,0:0:0:0:
483,177,52114,5,6,3:2:0:0:
363,61,52585,5,0,3:2:0:0:
363,61,52664,1,8,0:0:0:0:
363,61,52742,1,8,0:0:0:0:
246,146,52899,5,0,3:2:0:0:
246,146,52978,1,8,0:0:0:0:
246,146,53056,1,8,0:0:0:0:
166,36,53213,5,2,3:2:0:0:
166,36,53292,1,8,0:0:0:0:
166,36,53371,2,0,B|95:1|95:1|106:66|106:66|105:73|105:73|119:164,1,215.999993408203,10|2,0:0|0:0,0:0:0:0:
114,136,53999,5,2,0:0:0:0:
247,233,54156,1,8,0:0:0:0:
247,233,54234,1,8,0:0:0:0:
247,233,54313,2,0,L|258:176,1,40,0|0,3:2|0:0,0:0:0:0:
149,263,54470,1,10,0:0:0:0:
149,263,54549,1,8,0:0:0:0:
149,263,54627,6,0,B|108:279|94:334|94:334|116:288|164:277,1,176.000005371094,6|10,3:2|0:0,0:0:0:0:
264,179,55098,2,0,P|311:201|328:238,1,88.000002685547,2|2,0:0|3:2,0:0:0:0:
218,342,55412,1,2,0:0:0:0:
336,242,55570,1,10,0:0:0:0:
228,332,55727,1,2,0:0:0:0:
440,382,55884,6,0,P|424:343|411:292,1,88.000002685547,2|0,3:2|0:0,0:0:0:0:
454,117,56198,2,0,P|488:148|501:195,1,88.000002685547,10|0,0:0|0:0,0:0:0:0:
351,94,56512,2,0,B|288:85|288:85|260:48|260:48|179:35,1,176.000005371094,2|8,3:2|0:0,0:0:0:0:
194,37,56983,1,2,0:0:0:0:
20,98,57140,6,0,B|-18:132|-18:132|46:123|46:123|51:126|51:126|118:117,1,176.000005371094,2|8,3:2|0:0,0:0:0:0:
105,118,57611,1,2,0:0:0:0:
220,234,57768,2,0,P|223:192|179:157,1,88.000002685547,2|0,3:2|0:0,0:0:0:0:
86,207,58083,2,0,P|82:248|126:283,1,88.000002685547,8|2,0:0|0:0,0:0:0:0:
274,371,58397,6,0,B|372:352|315:295|416:272,1,176.000005371094,2|8,3:2|0:0,0:0:0:0:
411,273,58868,1,2,0:0:0:0:
299,164,59025,2,0,P|239:184|205:209,1,88.000002685547,2|0,3:2|0:0,0:0:0:0:
431,277,59339,2,0,P|440:229|450:189,1,88.000002685547,8|2,0:0|0:0,0:0:0:0:
428,22,59653,5,6,3:2:0:0:
289,95,59810,1,2,0:0:0:0:
447,12,59967,2,0,P|437:54|420:95,1,88.000002685547,10|0,0:0|0:0,0:0:0:0:
262,167,60282,2,0,P|224:140|213:91,1,88.000002685547,2|0,3:2|0:0,0:0:0:0:
353,173,60596,1,10,0:0:0:0:
195,241,60753,1,2,0:0:0:0:
328,357,60910,6,0,B|351:366|372:388|372:388|345:247,1,176.000005371094,2|10,3:2|0:0,0:0:0:0:
349,268,61381,1,2,0:0:0:0:
226,368,61538,2,0,P|184:353|135:344,1,88.000002685547,2|2,3:2|0:0,0:0:0:0:
35,255,61852,2,0,P|77:240|126:231,1,88.000002685547,10|2,0:0|0:0,0:0:0:0:
216,57,62166,6,0,P|128:65|106:155,1,176.000005371094,6|8,3:2|0:0,0:0:0:0:
101,138,62638,1,2,0:0:0:0:
250,251,62795,2,0,P|240:203|233:150,1,88.000002685547,6|0,3:2|0:0,0:0:0:0:
140,240,63109,1,8,0:0:0:0:
321,339,63266,6,0,P|335:261|369:142,1,176.000005371094,4|0,3:2|3:2,0:0:0:0:
368,153,63659,1,8,0:0:0:0:
368,153,63737,1,8,0:0:0:0:
483,191,63894,5,0,3:2:0:0:
483,191,63973,1,8,0:0:0:0:
483,191,64051,1,8,0:0:0:0:
487,61,64208,5,0,3:2:0:0:
487,61,64287,1,8,0:0:0:0:
487,61,64365,1,8,0:0:0:0:
372,23,64522,5,2,3:2:0:0:
372,23,64601,1,8,0:0:0:0:
372,23,64679,6,0,P|306:40|276:64,1,88.000002685547,6|2,3:2|0:0,0:0:0:0:
133,103,64994,2,0,P|198:120|229:144,1,88.000002685547,10|2,0:0|0:0,0:0:0:0:
295,251,65308,1,2,3:2:0:0:
342,124,65465,1,2,0:0:0:0:
183,212,65622,2,0,P|198:268|204:315,1,88.000002685547,10|2,0:0|0:0,0:0:0:0:
77,377,65936,6,0,P|10:341|35:249,2,176.000005371094,2|10|2,3:2|0:0|3:2,0:0:0:0:
77,377,66721,1,0,0:0:0:0:
202,308,66878,2,0,L|298:319,1,88.000002685547,10|0,0:0|0:0,0:0:0:0:
438,384,67193,6,0,B|487:339|487:339|456:203,1,176.000005371094,2|8,3:2|0:0,0:0:0:0:
462,232,67664,1,2,3:2:0:0:
401,107,67821,2,0,B|310:129|362:182|254:212,1,176.000005371094,2|8,3:2|0:0,0:0:0:0:
264,208,68292,1,2,0:0:0:0:
203,71,68449,6,0,P|162:45|94:57,1,88.000002685547,2|0,3:2|0:0,0:0:0:0:
96,141,68763,2,0,P|137:167|205:155,1,88.000002685547,10|0,0:0|0:0,0:0:0:0:
349,120,69077,2,0,L|365:17,1,88.000002685547,2|0,3:2|0:0,0:0:0:0:
259,163,69391,2,0,L|272:249,1,88.000002685547,10|0,0:0|0:0,0:0:0:0:
413,384,69706,6,0,P|378:344|281:348,1,132.00000402832,6|0,3:2|0:0,0:0:0:0:
293,357,70020,2,0,L|185:371,1,88.000002685547,8|0,0:0|0:0,0:0:0:0:
128,240,70334,6,0,P|174:250|198:288,1,88.000002685547,2|0,3:2|0:0,0:0:0:0:
29,381,70648,2,0,P|48:329|56:283,1,88.000002685547,10|0,0:0|0:0,0:0:0:0:
70,81,70962,2,0,P|23:93|-3:130,1,88.000002685547,2|0,3:2|0:0,0:0:0:0:
176,108,71276,2,0,P|189:61|170:20,1,88.000002685547,10|0,0:0|0:0,0:0:0:0:
101,188,71590,2,0,P|134:222|179:226,1,88.000002685547,2|0,3:2|0:0,0:0:0:0:
296,162,71905,1,10,0:0:0:0:
184,224,72062,1,2,0:0:0:0:
379,258,72219,5,14,0:0:0:0:
218,351,72376,1,10,0:0:0:0:
218,351,72847,5,10,0:0:0:0:
270,173,73004,1,2,3:2:0:0:
379,258,73161,2,0,P|429:237|480:228,1,88.000002685547,8|0,0:0|3:2,0:0:0:0:
480,234,73397,1,8,0:0:0:0:
480,234,73475,5,14,0:0:0:0:
333,340,73632,1,10,0:0:0:0:
270,173,73789,1,10,0:0:0:0:
336,354,73946,1,10,0:0:0:0:
409,175,74104,5,10,0:0:0:0:
413,153,74182,1,8,0:0:0:0:
417,131,74261,1,10,0:0:0:0:
421,109,74339,1,8,0:0:0:0:
425,87,74418,2,0,L|373:97,1,44.0000013427735,10|8,0:0|0:0,0:0:0:0:
299,3,74575,2,0,L|351:13,1,44.0000013427735,10|8,0:0|0:0,0:0:0:0:
253,100,74732,6,0,P|209:88|156:81,1,88.000002685547,6|2,3:2|0:0,0:0:0:0:
30,30,75046,2,0,P|56:73|65:112,1,88.000002685547,10|2,0:0|0:0,0:0:0:0:
161,211,75360,1,2,3:2:0:0:
22,251,75517,1,2,0:0:0:0:
178,205,75674,2,0,P|237:227|260:265,1,88.000002685547,10|2,0:0|0:0,0:0:0:0:
361,380,75988,5,2,3:2:0:0:
262,262,76145,1,2,0:0:0:0:
405,187,76302,2,0,P|390:237|382:284,1,88.000002685547,10|0,0:0|0:0,0:0:0:0:
512,180,76617,2,0,P|483:101|467:5,1,176.000005371094,2|8,3:2|0:0,0:0:0:0:
467,10,77088,1,2,0:0:0:0:
317,110,77245,6,0,P|299:37|184:29,1,176.000005371094,2|8,3:2|0:0,0:0:0:0:
209,14,77716,1,2,0:0:0:0:
100,142,77873,2,0,P|96:184|126:214,1,88.000002685547,2|0,3:2|0:0,0:0:0:0:
234,168,78188,2,0,P|236:125|207:94,1,88.000002685547,8|2,0:0|0:0,0:0:0:0:
43,10,78501,6,0,B|26:99|26:99|116:151,1,176.000005371094,2|8,3:2|0:0,0:0:0:0:
99,141,78973,1,2,0:0:0:0:
106,326,79130,2,0,P|60:334|4:350,1,88.000002685547,2|0,3:2|0:0,0:0:0:0:
190,262,79444,2,0,P|237:298|246:334,1,88.000002685547,8|2,0:0|0:0,0:0:0:0:
351,235,79758,5,2,3:2:0:0:
244,350,79915,1,2,0:0:0:0:
429,381,80072,2,0,P|440:336|458:281,1,88.000002685547,10|0,0:0|0:0,0:0:0:0:
333,175,80386,2,0,P|346:216|356:259,1,88.000002685547,2|0,3:2|0:0,0:0:0:0:
240,186,80700,1,10,0:0:0:0:
379,107,80857,1,2,0:0:0:0:
236,23,81015,6,0,P|182:28|141:39,1,88.000002685547,2|2,3:2|0:0,0:0:0:0:
0,114,81329,2,0,P|53:119|95:130,1,88.000002685547,10|2,0:0|0:0,0:0:0:0:
272,261,81643,1,2,3:2:0:0:
296,137,81800,1,2,0:0:0:0:
137,243,81957,1,10,0:0:0:0:
163,106,82114,1,2,0:0:0:0:
286,278,82271,6,0,B|338:322|338:322|476:303,1,176.000005371094,6|0,3:2|0:0,0:0:0:0:
444,307,82742,1,10,0:0:0:0:
370,141,82899,2,0,L|354:244,1,88.000002685547,2|0,3:2|3:2,0:0:0:0:
472,188,83213,1,8,0:0:0:0:
323,27,83371,2,0,B|216:57|286:108|158:144,1,176.000005371094,4|0,0:0|3:2,0:0:0:0:
85,17,83842,6,0,P|130:24|173:58,1,88.000002685547,8|0,0:0|3:2,0:0:0:0:
42,225,84156,2,0,P|35:186|23:138,1,88.000002685547,8|0,0:0|3:2,0:0:0:0:
20,122,84391,1,8,0:0:0:0:
20,122,84470,1,12,0:0:0:0:
158,230,84627,1,2,3:2:0:0:
158,230,84706,1,8,0:0:0:0:
158,230,84784,6,0,P|225:249|261:275,1,88.000002685547,6|2,3:2|0:0,0:0:0:0:
333,118,85098,2,0,P|266:137|230:163,1,88.000002685547,10|2,0:0|0:0,0:0:0:0:
371,265,85412,1,2,3:2:0:0:
444,144,85570,1,2,0:0:0:0:
261,243,85727,2,0,P|275:288|290:363,1,88.000002685547,10|2,0:0|0:0,0:0:0:0:
465,366,86041,6,0,B|513:319|513:319|497:261|479:204,2,176.000005371094,2|10|2,3:2|0:0|3:2,0:0:0:0:
465,366,86826,1,0,0:0:0:0:
371,265,86983,2,0,P|316:277|256:288,1,88.000002685547,10|0,0:0|0:0,0:0:0:0:
139,375,87297,6,0,B|193:330|193:330|174:192,1,176.000005371094,2|8,3:2|0:0,0:0:0:0:
178,225,87768,1,2,0:0:0:0:
94,89,87926,2,0,B|82:115|51:143|51:143|89:115|177:115,1,176.000005371094,2|8,3:2|0:0,0:0:0:0:
152,115,88397,1,2,0:0:0:0:
303,45,88554,6,0,B|265:95|265:95|286:183,1,117.333336914063,14|10,0:0|0:0,0:0:0:0:
303,259,88973,1,10,0:0:0:0:
439,303,89182,2,0,B|477:253|477:253|456:165,1,117.333336914063,14|10,0:0|0:0,0:0:0:0:
439,89,89601,1,10,0:0:0:0:
258,153,89810,6,0,P|248:197|234:263,1,88.000002685547,14|0,0:0|3:2,0:0:0:0:
355,355,90124,2,0,P|400:331|409:293,1,88.000002685547,8|0,0:0|3:2,0:0:0:0:
238,246,90439,1,8,0:0:0:0:
131,363,90596,1,0,3:2:0:0:
297,300,90753,1,8,0:0:0:0:
157,224,90910,1,2,3:2:0:0:
318,113,91067,5,14,0:0:0:0:
256,192,91145,12,0,91852,3:2:0:0:
145,138,92009,6,0,P|184:88|265:101,1,120,10|0,0:0|0:0,0:0:0:0:
254,96,92323,6,0,P|246:133|245:95,1,111.999996582031,2|2,0:0|0:0,0:0:0:0:
