osu file format v14

[General]
AudioFilename: audio.mp3
AudioLeadIn: 0
PreviewTime: 54391
Countdown: 0
SampleSet: Soft
StackLeniency: 0.4
Mode: 0
LetterboxInBreaks: 0
WidescreenStoryboard: 1

[Editor]
DistanceSpacing: 1.5
BeatDivisor: 4
GridSize: 16
TimelineZoom: 1.6

[Metadata]
Title:Kiga to Hougyoku (Game Ver.)
TitleUnicode:飢餓と宝玉 (Game Ver.)
Artist:konore
ArtistUnicode:konore
Creator:RK657
Version:Hard
Source:マルコと銀河竜 ~MARCO&GALAXY DRAGON~
Tags:TOKYOTOON Hunger and Orb marco and the galaxy dragon galgame opening video game 斎藤優輝 Yuki Saito はと Hato visual novel japanese rock j-rock jrock pop j-pop jpop
BeatmapID:3204626
BeatmapSetID:1144382

[Difficulty]
HPDrainRate:4.5
CircleSize:3.8
OverallDifficulty:6.5
ApproachRate:8
SliderMultiplier:1.4
SliderTickRate:1

[Events]
//Background and Video events
0,0,"BG.jpg",0,0
Video,-80,"OP.mp4"
//Break Periods
//Storyboard Layer 0 (Background)
//Storyboard Layer 1 (Fail)
//Storyboard Layer 2 (Pass)
//Storyboard Layer 3 (Foreground)
//Storyboard Layer 4 (Overlay)
//Storyboard Sound Samples

[TimingPoints]
1225,314.13612565445,4,2,1,70,1,8
1225,-166.666666666667,4,2,1,70,0,8
3738,-125,4,2,1,70,0,8
4994,-142.857142857143,4,2,1,50,0,8
5308,-133.333333333333,4,2,1,55,0,8
5622,-125,4,2,1,60,0,8
5937,-117.647058823529,4,2,1,65,0,8
6251,-100,4,2,1,70,0,8
7507,-111.111111111111,4,2,1,70,0,8
8293,-111.111111111111,4,2,1,60,0,8
9392,314.13612565445,4,2,1,65,1,8
9392,-100,4,2,1,65,0,8
14418,-117.647058823529,4,2,1,60,0,8
31381,-117.647058823529,4,2,1,65,0,8
32009,-117.647058823529,4,2,1,70,0,8
32952,-117.647058823529,4,2,1,50,0,8
33266,-100,4,2,1,75,0,8
34522,-100,4,2,1,70,0,8
49601,-100,4,2,1,65,0,8
52585,-100,4,2,1,70,0,8
54627,-95.2380952380952,4,2,1,80,0,9
62166,-95.2380952380952,4,2,1,80,0,9
64679,-95.2380952380952,4,2,1,80,0,9
72219,-95.2380952380952,4,2,1,80,0,8
73475,-95.2380952380952,4,2,1,70,0,8
73789,-95.2380952380952,4,2,1,77,0,8
74104,-95.2380952380952,4,2,1,85,0,8
74732,-95.2380952380952,4,2,1,80,0,9
82271,-95.2380952380952,4,2,1,80,0,9
84784,-95.2380952380952,4,2,1,80,0,9
88554,-95.2380952380952,4,2,1,85,0,9
91067,-100,4,2,1,80,0,8
91852,-100,4,2,1,70,0,8
92245,-100,4,2,1,5,0,8
92323,-125,4,2,1,40,0,8

[Colours]
Combo1 : 160,230,150
Combo2 : 250,180,240
Combo3 : 120,200,230
Combo4 : 255,230,130

[HitObjects]
380,175,1225,6,0,B|398:126|446:101|502:114|502:114|424:86|463:53|384:27,1,293.999991027832,6|2,3:2|0:0,0:0:0:0:
301,10,2481,6,0,B|234:23|234:23|207:63|207:63|131:78|131:78|163:95|189:111,1,251.999992309571,6|2,3:2|0:0,0:0:0:0:
159,216,3738,5,6,3:2:0:0:
290,314,4366,1,4,3:2:0:0:
445,213,4994,6,0,P|453:160|465:106,1,97.9999970092774,6|6,3:2|0:0,0:0:0:0:
337,34,5622,2,0,P|346:81|358:154,1,112,6|6,3:2|0:0,0:0:0:0:
264,250,6251,6,0,P|221:232|154:224,1,105,14|8,0:0|0:0,0:0:0:0:
145,228,6565,1,8,0:0:0:0:
70,164,6722,1,0,3:2:0:0:
70,164,6800,1,8,0:0:0:0:
70,164,6879,2,0,P|62:104|51:56,1,105,10|8,0:0|0:0,0:0:0:0:
53,38,7193,2,0,L|133:50,1,70,10|0,0:0|3:2,0:0:0:0:
221,65,7507,1,14,0:0:0:0:
256,192,7586,12,2,8450,0:0:0:0:
406,209,8764,5,2,0:0:0:0:
406,209,9078,1,2,0:0:0:0:
406,209,9392,6,0,P|373:276|351:358,1,140,6|8,3:2|0:0,0:0:0:0:
259,360,9863,1,2,3:2:0:0:
259,360,9941,1,8,0:0:0:0:
259,360,10020,2,0,B|171:344|219:302|110:282,1,140,2|8,3:2|0:0,0:0:0:0:
45,305,10491,1,2,3:2:0:0:
0,203,10648,6,0,P|13:145|98:137,1,140,6|8,3:2|0:0,0:0:0:0:
171,85,11119,1,2,3:2:0:0:
171,85,11198,1,8,0:0:0:0:
171,85,11276,2,0,P|237:71|316:56,1,140,2|8,3:2|0:0,0:0:0:0:
399,94,11748,1,2,0:0:0:0:
503,52,11905,6,0,P|472:121|459:197,1,140,6|8,3:2|0:0,0:0:0:0:
494,275,12376,1,2,3:2:0:0:
494,275,12454,1,8,0:0:0:0:
494,275,12533,2,0,P|426:294|401:369,1,140,2|8,3:2|0:0,0:0:0:0:
305,381,13004,1,2,3:2:0:0:
215,313,13161,6,0,B|187:280|187:280|218:179,1,140,6|8,3:2|0:0,0:0:0:0:
174,98,13632,1,2,3:2:0:0:
174,98,13711,1,8,0:0:0:0:
174,98,13789,2,0,L|102:112,1,70,6|2,3:2|3:2,0:0:0:0:
35,32,14104,2,0,L|107:18,1,70,10|2,0:0|3:2,0:0:0:0:
197,5,14418,6,0,B|256:14|256:14|305:60|305:60|373:71,1,178.500003404617,6|10,3:2|0:3,0:0:0:0:
439,67,15046,2,0,P|416:131|393:243,1,178.500003404617,2|10,3:2|0:3,0:0:0:0:
397,322,15674,6,0,P|325:321|226:377,1,178.500003404617,2|10,3:2|0:3,0:0:0:0:
150,380,16302,2,0,B|126:281|81:337|59:231,1,178.500003404617,2|2,3:2|0:0,0:0:0:0:
99,159,16931,6,0,P|160:122|225:197,1,178.500003404617,2|10,3:2|0:3,0:0:0:0:
265,261,17559,2,0,P|332:232|451:214,1,178.500003404617,2|10,3:2|0:3,0:0:0:0:
508,173,18187,6,0,B|485:107|496:50|496:50|482:81|455:94,1,178.500003404617,2|10,3:2|0:3,0:0:0:0:
378,95,18816,2,0,L|309:84,1,59.5000011348725,2|2,3:2|0:0,0:0:0:0:
236,76,19130,1,0,3:2:0:0:
107,13,19444,6,0,P|114:54|124:93,1,59.5000011348725,0|2,3:2|0:0,0:0:0:0:
72,140,19758,2,0,P|56:214|36:278,1,119.000002269745,2|2,3:2|3:2,0:0:0:0:
75,332,20229,1,8,0:3:0:0:
75,332,20386,2,0,P|125:323|147:323,1,59.5000011348725,2|8,3:2|0:3,0:0:0:0:
209,369,20700,6,0,P|244:325|309:308,3,119.000002269745,2|2|2|2,3:2|3:2|3:2|3:2,0:0:0:0:
302,307,21800,1,2,0:0:0:0:
374,349,21957,2,0,L|441:334,1,59.5000011348725,2|0,3:2|0:0,0:0:0:0:
501,289,22271,1,2,3:2:0:0:
374,88,23213,6,0,P|361:117|355:144,3,59.5000011348725,2|10|2|10,3:2|0:3|3:2|0:3,0:0:0:0:
291,207,23842,2,0,P|304:236|310:263,1,59.5000011348725,2|10,3:2|0:3,0:0:0:0:
271,343,24156,2,0,P|302:346|328:354,1,59.5000011348725,6|10,3:2|0:3,0:0:0:0:
402,295,24470,6,0,B|416:201|464:253|483:134,1,178.500003404617,4|10,3:2|0:3,0:0:0:0:
484,58,25098,2,0,P|406:27|344:87,1,178.500003404617,2|10,3:2|0:3,0:0:0:0:
300,157,25727,6,0,B|237:142|237:142|219:107|219:107|147:91,1,178.500003404617,2|10,3:2|0:3,0:0:0:0:
78,42,26355,2,0,B|36:10|36:10|63:153,1,178.500003404617,2|10,3:2|0:3,0:0:0:0:
17,205,26983,6,0,B|21:263|-5:319|-5:319|21:290|61:288,1,178.500003404617,2|10,3:2|0:3,0:0:0:0:
116,244,27611,2,0,P|182:241|220:346,1,178.500003404617,2|10,3:2|0:3,0:0:0:0:
299,370,28240,6,0,P|358:349|480:334,1,178.500003404617,2|10,3:2|0:3,0:0:0:0:
503,256,28868,2,0,B|475:157|435:212|402:107,1,178.500003404617,2|8,3:2|0:3,0:0:0:0:
406,23,29496,6,0,L|324:36,1,59.5000011348725,0|2,3:2|0:0,0:0:0:0:
280,82,29810,2,0,P|207:51|146:37,1,119.000002269745,2|2,3:2|3:2,0:0:0:0:
88,17,30282,1,8,0:3:0:0:
88,17,30439,2,0,P|95:57|99:84,1,59.5000011348725,2|8,3:2|0:3,0:0:0:0:
118,162,30753,6,0,P|149:152|178:147,3,59.5000011348725,2|2|2|2,3:2|0:0|3:2|0:0,0:0:0:0:
217,225,31381,2,0,P|246:230|274:239,3,59.5000011348725,2|2|2|2,3:2|0:0|3:2|0:0,0:0:0:0:
337,311,32009,1,6,3:2:0:0:
469,235,33266,6,0,L|463:186,7,35,10|8|8|8|10|8|8|8,0:0|0:0|0:0|0:0|0:0|0:0|0:0|0:0,0:0:0:0:
438,158,33894,2,0,L|444:109,7,35,10|8|8|8|10|8|8|8,0:0|0:0|0:0|0:0|0:0|0:0|0:0|0:0,0:0:0:0:
463,78,34522,6,0,P|422:25|333:16,1,140,6|8,3:2|0:0,0:0:0:0:
290,77,34994,1,10,0:0:0:0:
290,77,35151,2,0,B|201:92|242:130|149:145,1,140,2|8,0:0|0:0,0:0:0:0:
84,120,35622,1,2,0:0:0:0:
84,120,35779,6,0,P|102:198|111:290,1,140,2|8,3:2|0:0,0:0:0:0:
26,305,36250,1,2,3:2:0:0:
26,305,36407,2,0,P|36:350|40:383,2,70,2|0|8,0:0|3:2|0:0,0:0:0:0:
116,306,36878,1,2,0:0:0:0:
116,306,37035,6,0,B|199:323|149:367|255:384,1,140,2|8,3:2|0:0,0:0:0:0:
323,363,37507,1,10,0:0:0:0:
323,363,37664,2,0,P|332:322|420:272,1,140,2|8,0:0|0:0,0:0:0:0:
472,205,38135,1,2,0:0:0:0:
472,205,38292,6,0,P|446:151|370:157,1,140,2|8,3:2|0:0,0:0:0:0:
313,221,38763,1,2,3:2:0:0:
313,221,38920,2,0,P|277:200|242:188,1,70,2|0,0:0|3:2,0:0:0:0:
198,115,39234,2,0,P|141:128|109:184,1,105,8|0,0:0|0:0,0:0:0:0:
115,191,39549,6,0,B|98:106|52:148|36:56,1,140,0|10,3:2|0:0,0:0:0:0:
100,8,40020,1,8,0:0:0:0:
100,8,40177,2,0,P|143:9|174:23,1,70,2|0,0:0|3:2,0:0:0:0:
208,100,40491,2,0,P|251:99|282:85,1,70,10|0,0:0|0:0,0:0:0:0:
356,34,40805,6,0,B|396:37|420:3|420:3|431:44|488:50,2,140,2|10|2,3:2|0:0|0:0,0:0:0:0:
387,119,41590,1,0,3:2:0:0:
387,119,41748,2,0,L|371:195,1,70,10|0,0:0|0:0,0:0:0:0:
452,243,42062,6,0,B|458:304|467:345|467:345|447:329|418:324,1,140,2|10,3:2|0:0,0:0:0:0:
343,291,42533,2,0,B|268:306|312:352|225:368,1,140,8|0,0:0|0:0,0:0:0:0:
158,313,43004,2,0,L|167:244,1,70,10|0,0:0|3:2,0:0:0:0:
86,188,43318,6,0,P|69:111|47:48,1,140,6|10,0:0|0:0,0:0:0:0:
131,14,43789,1,2,3:2:0:0:
131,14,43946,2,0,P|175:27|203:52,1,70,2|0,0:0|3:2,0:0:0:0:
222,128,44261,2,0,P|286:109|354:107,1,105,8|8,0:0|0:0,0:0:0:0:
340,108,44575,6,0,P|314:157|288:260,1,140,6|8,3:2|0:0,0:0:0:0:
337,315,45046,1,10,0:0:0:0:
337,315,45203,2,0,B|424:296|390:248|460:235,1,140,2|8,0:0|0:0,0:0:0:0:
496,161,45674,1,2,0:0:0:0:
496,161,45831,6,0,P|481:77|424:53,1,140,2|8,3:2|0:0,0:0:0:0:
355,85,46302,1,2,3:2:0:0:
355,85,46460,2,0,P|309:85|278:98,2,70,2|0|8,0:0|3:2|0:0,0:0:0:0:
335,173,46931,1,2,0:0:0:0:
335,173,47088,6,0,B|277:189|277:189|258:214|258:214|201:230,1,140,2|8,3:2|0:0,0:0:0:0:
158,301,47559,1,10,0:0:0:0:
158,301,47716,2,0,B|112:277|112:277|129:172,1,140,2|8,0:0|0:0,0:0:0:0:
146,101,48187,1,2,0:0:0:0:
146,101,48344,6,0,P|91:90|75:5,1,140,2|8,3:2|0:0,0:0:0:0:
161,13,48816,1,2,3:2:0:0:
161,13,48973,2,0,P|202:20|230:23,1,70,2|0,0:0|3:2,0:0:0:0:
303,77,49287,2,0,P|360:63|422:54,1,105,8|0,0:0|0:0,0:0:0:0:
421,57,49601,6,0,B|458:38|458:38|439:141,2,140,6|10|2,3:2|0:0|0:0,0:0:0:0:
328,161,50543,1,10,0:0:0:0:
328,161,50857,6,0,B|347:232|395:189|416:287,2,140,2|10|2,3:2|0:0|0:0,0:0:0:0:
240,270,51800,2,0,P|201:274|160:282,1,70,10|0,0:0|3:2,0:0:0:0:
152,288,52035,1,8,0:0:0:0:
152,288,52114,1,6,3:2:0:0:
13,163,52585,6,0,L|19:123,2,35,0|8|8,3:2|0:0|0:0,0:0:0:0:
76,228,52899,2,0,L|82:268,2,35,0|8|8,3:2|0:0|0:0,0:0:0:0:
136,159,53213,2,0,L|142:119,2,35,2|8|10,3:2|0:0|0:0,0:0:0:0:
250,280,53999,5,2,0:0:0:0:
340,226,54156,2,0,L|329:189,2,35,8|8|0,0:0|0:0|3:2,0:0:0:0:
427,301,54470,1,10,0:0:0:0:
427,301,54549,1,8,0:0:0:0:
427,301,54627,6,0,P|438:232|460:157,1,146.999995513916,6|10,3:2|0:0,0:0:0:0:
503,64,55098,2,0,P|465:34|422:33,1,73.4999977569581,2|2,0:0|3:2,0:0:0:0:
346,42,55412,1,2,0:0:0:0:
300,136,55570,1,10,0:0:0:0:
300,136,55727,1,2,0:0:0:0:
239,40,55884,6,0,L|150:32,1,73.4999977569581,2|0,3:2|0:0,0:0:0:0:
112,110,56198,2,0,L|201:118,1,73.4999977569581,10|0,0:0|0:0,0:0:0:0:
261,185,56512,2,0,P|339:123|392:155,1,146.999995513916,2|8,3:2|0:0,0:0:0:0:
425,223,56983,1,2,0:0:0:0:
425,223,57140,6,0,B|402:299|365:252|340:356,1,146.999995513916,2|8,3:2|0:0,0:0:0:0:
249,380,57611,1,2,0:0:0:0:
249,380,57768,2,0,P|219:313|135:295,1,146.999995513916,2|8,3:2|0:0,0:0:0:0:
49,297,58240,1,2,0:0:0:0:
49,297,58397,6,0,P|37:201|8:124,1,146.999995513916,2|8,3:2|0:0,0:0:0:0:
61,58,58868,1,2,0:0:0:0:
61,58,59025,2,0,P|102:65|136:75,1,73.4999977569581,2|0,3:2|0:0,0:0:0:0:
217,15,59339,2,0,P|258:7|292:-2,1,73.4999977569581,8|2,0:0|0:0,0:0:0:0:
383,38,59653,6,0,P|366:85|357:121,1,73.4999977569581,6|2,3:2|0:0,0:0:0:0:
447,161,59967,2,0,P|464:208|473:244,1,73.4999977569581,10|0,0:0|0:0,0:0:0:0:
476,334,60282,2,0,B|387:318|429:278|338:258,1,146.999995513916,2|10,3:2|0:0,0:0:0:0:
352,261,60753,1,2,0:0:0:0:
281,335,60910,6,0,P|218:322|178:397,1,146.999995513916,2|10,3:2|0:0,0:0:0:0:
94,320,61381,1,2,0:0:0:0:
94,320,61538,2,0,L|87:240,1,73.4999977569581,2|2,3:2|0:0,0:0:0:0:
69,145,61852,2,0,P|125:151|151:166,1,73.4999977569581,10|2,0:0|0:0,0:0:0:0:
223,229,62166,6,0,B|315:204|265:158|360:131,1,146.999995513916,6|8,3:2|0:0,0:0:0:0:
407,66,62638,1,2,0:0:0:0:
484,133,62795,2,0,L|461:214,1,73.4999977569581,6|0,3:2|0:0,0:0:0:0:
485,304,63109,1,8,0:0:0:0:
385,277,63266,6,0,P|322:278|294:376,1,146.999995513916,4|0,3:2|3:2,0:0:0:0:
282,364,63659,1,8,0:0:0:0:
282,364,63737,1,8,0:0:0:0:
196,321,63894,2,0,L|209:282,2,36.749998878479,0|8|8,3:2|0:0|0:0,0:0:0:0:
119,277,64208,2,0,L|132:238,2,36.749998878479,0|8|8,3:2|0:0|0:0,0:0:0:0:
38,242,64522,1,2,3:2:0:0:
38,242,64601,1,8,0:0:0:0:
38,242,64679,6,0,L|20:159,1,73.4999977569581,6|2,3:2|0:0,0:0:0:0:
3,76,64994,2,0,P|45:93|79:96,1,73.4999977569581,10|2,0:0|0:0,0:0:0:0:
116,180,65308,2,0,P|157:162|183:140,1,73.4999977569581,2|2,3:2|0:0,0:0:0:0:
263,190,65622,2,0,P|280:148|283:114,1,73.4999977569581,10|2,0:0|0:0,0:0:0:0:
333,30,65936,6,0,B|427:51|365:100|472:123,2,146.999995513916,2|10|2,3:2|0:0|3:2,0:0:0:0:
283,120,66721,1,0,0:0:0:0:
283,120,66878,2,0,P|277:156|263:190,1,73.4999977569581,10|0,0:0|0:0,0:0:0:0:
318,277,67193,6,0,P|367:234|468:229,1,146.999995513916,2|8,3:2|0:0,0:0:0:0:
445,222,67664,1,2,3:2:0:0:
445,331,67821,2,0,P|396:288|295:283,1,146.999995513916,2|8,3:2|0:0,0:0:0:0:
317,276,68292,1,2,0:0:0:0:
253,356,68449,6,0,P|204:365|177:375,1,73.4999977569581,2|0,3:2|0:0,0:0:0:0:
98,312,68763,2,0,P|85:262|77:228,1,73.4999977569581,10|0,0:0|0:0,0:0:0:0:
2,173,69077,2,0,P|15:123|23:89,1,73.4999977569581,2|0,3:2|0:0,0:0:0:0:
112,57,69391,2,0,P|161:66|188:76,1,73.4999977569581,10|0,0:0|0:0,0:0:0:0:
260,148,69706,6,0,P|316:121|352:61,1,110.249996635437,6|0,3:2|0:0,0:0:0:0:
348,64,70020,2,0,P|385:78|423:88,1,73.4999977569581,8|0,0:0|0:0,0:0:0:0:
498,151,70334,6,0,P|489:210|483:248,1,73.4999977569581,2|0,3:2|0:0,0:0:0:0:
394,268,70648,2,0,P|385:327|379:365,1,73.4999977569581,10|0,0:0|0:0,0:0:0:0:
285,372,70962,2,0,P|238:352|191:341,1,73.4999977569581,2|0,3:2|0:0,0:0:0:0:
195,245,71276,2,0,P|159:255|126:271,1,73.4999977569581,10|0,0:0|0:0,0:0:0:0:
69,185,71590,6,0,B|52:98|10:134|-3:48,1,146.999995513916,2|10,3:2|0:0,0:0:0:0:
0,59,72062,1,2,0:0:0:0:
93,12,72219,5,14,0:0:0:0:
93,12,72376,1,10,0:0:0:0:
216,109,72847,5,10,0:0:0:0:
216,109,73004,1,2,3:2:0:0:
275,34,73161,2,0,B|345:46|311:74|380:84,1,110.249996635437,8|8,0:0|0:0,0:0:0:0:
386,78,73475,6,0,L|394:161,1,73.4999977569581,14|10,0:0|0:0,0:0:0:0:
484,178,73789,2,0,L|476:251,1,73.4999977569581,10|10,0:0|0:0,0:0:0:0:
429,335,74104,2,0,P|398:324|380:321,3,36.749998878479,10|8|10|8,0:0|0:0|0:0|0:0,0:0:0:0:
359,295,74418,2,0,P|341:299|324:306,3,36.749998878479,10|8|10|8,0:0|0:0|0:0|0:0,0:0:0:0:
301,348,74732,6,0,P|259:337|213:332,1,73.4999977569581,6|2,3:2|0:0,0:0:0:0:
130,362,75046,2,0,P|115:317|92:275,1,73.4999977569581,10|2,0:0|0:0,0:0:0:0:
25,226,75360,2,0,P|40:181|63:139,1,73.4999977569581,2|2,3:2|0:0,0:0:0:0:
15,61,75674,2,0,P|57:39|103:26,1,73.4999977569581,10|2,0:0|0:0,0:0:0:0:
157,108,75988,5,2,3:2:0:0:
157,108,76145,1,2,0:0:0:0:
237,43,76302,2,0,P|277:57|314:66,1,73.4999977569581,10|0,0:0|0:0,0:0:0:0:
396,20,76617,2,0,B|507:5|507:5|488:22|484:39,1,146.999995513916,2|8,3:2|0:0,0:0:0:0:
486,32,77088,1,2,0:0:0:0:
474,134,77245,6,0,B|449:203|409:155|381:244,1,146.999995513916,2|8,3:2|0:0,0:0:0:0:
300,303,77716,1,2,0:0:0:0:
300,303,77873,2,0,B|239:286|239:286|220:258|220:258|164:241,1,146.999995513916,2|8,3:2|0:0,0:0:0:0:
93,177,78344,1,2,0:0:0:0:
93,177,78501,6,0,P|77:100|44:28,1,146.999995513916,2|8,3:2|0:0,0:0:0:0:
150,60,78973,1,2,0:0:0:0:
150,60,79130,2,0,B|247:80|195:122|287:140,1,146.999995513916,2|8,3:2|0:0,0:0:0:0:
356,79,79601,1,2,0:0:0:0:
356,79,79758,6,0,L|448:70,1,73.4999977569581,2|2,3:2|0:0,0:0:0:0:
494,151,80072,2,0,L|402:160,1,73.4999977569581,10|0,0:0|0:0,0:0:0:0:
343,225,80386,2,0,B|359:312|399:267|417:355,1,146.999995513916,2|10,3:2|0:0,0:0:0:0:
415,347,80857,1,2,0:0:0:0:
316,377,81015,5,2,3:2:0:0:
316,377,81172,1,2,0:0:0:0:
253,295,81329,1,10,0:0:0:0:
253,295,81486,1,2,0:0:0:0:
161,342,81643,2,0,P|153:295|139:263,1,73.4999977569581,2|2,3:2|0:0,0:0:0:0:
52,222,81957,2,0,P|60:175|74:143,1,73.4999977569581,10|2,0:0|0:0,0:0:0:0:
143,79,82271,6,0,B|242:63|194:20|293:5,1,146.999995513916,6|0,3:2|0:0,0:0:0:0:
344,79,82742,1,10,0:0:0:0:
428,19,82899,2,0,P|474:33|503:64,1,73.4999977569581,2|0,3:2|3:2,0:0:0:0:
436,135,83213,1,8,0:0:0:0:
491,231,83371,6,0,B|457:286|456:331|456:331|446:300|426:286,1,146.999995513916,4|0,0:0|3:2,0:0:0:0:
368,219,83842,2,0,P|332:237|304:259,1,73.4999977569581,8|0,0:0|3:2,0:0:0:0:
257,347,84156,2,0,P|221:329|193:307,1,73.4999977569581,8|0,0:0|3:2,0:0:0:0:
185,288,84391,1,8,0:0:0:0:
185,288,84470,2,0,P|196:245|200:207,1,73.4999977569581,12|2,0:0|3:2,0:0:0:0:
145,128,84784,6,0,L|57:142,1,73.4999977569581,6|2,3:2|0:0,0:0:0:0:
25,48,85098,2,0,L|113:34,1,73.4999977569581,10|2,0:0|0:0,0:0:0:0:
200,30,85412,2,0,P|246:55|256:87,1,73.4999977569581,2|2,3:2|0:0,0:0:0:0:
356,86,85727,2,0,P|357:138|334:162,1,73.4999977569581,10|2,0:0|0:0,0:0:0:0:
384,249,86041,6,0,P|440:204|529:199,2,146.999995513916,2|10|2,3:2|0:0|3:2,0:0:0:0:
339,341,86826,1,0,0:0:0:0:
339,341,86983,2,0,P|281:303|208:284,1,110.249996635437,10|0,0:0|0:0,0:0:0:0:
226,303,87297,6,0,B|144:325|179:366|82:384,1,146.999995513916,2|8,3:2|0:0,0:0:0:0:
12,330,87768,1,2,0:0:0:0:
12,330,87926,2,0,B|53:294|53:294|29:198,1,146.999995513916,2|8,3:2|0:0,0:0:0:0:
24,105,88397,1,2,0:0:0:0:
24,105,88554,6,0,P|72:113|118:166,2,97.9999970092774,14|10|10,0:0|0:0|0:0,0:0:0:0:
115,47,89182,2,0,P|163:39|209:-14,2,97.9999970092774,14|10|10,0:0|0:0|0:0,0:0:0:0:
192,136,89810,6,0,P|188:170|181:209,1,73.4999977569581,14|0,0:0|3:2,0:0:0:0:
264,280,90124,2,0,P|268:246|275:207,1,73.4999977569581,8|0,0:0|3:2,0:0:0:0:
373,155,90439,2,0,P|369:189|362:228,1,73.4999977569581,8|0,0:0|3:2,0:0:0:0:
449,295,90753,2,0,P|453:261|460:222,1,73.4999977569581,8|2,0:0|3:2,0:0:0:0:
500,125,91067,1,14,0:0:0:0:
256,192,91145,12,2,92323,0:0:0:0:
