osu file format v14

[General]
AudioFilename: audio.mp3
AudioLeadIn: 0
PreviewTime: 56573
Countdown: 0
SampleSet: Soft
StackLeniency: 0.7
Mode: 0
LetterboxInBreaks: 0
WidescreenStoryboard: 1

[Editor]
Bookmarks: 76862,86967,97073,116494,147599
DistanceSpacing: 1.4
BeatDivisor: 4
GridSize: 16
TimelineZoom: 2.699999

[Metadata]
Title:Bullets
TitleUnicode:Bullets
Artist:konoco x Kobashiri. Sound produced by MIMI
ArtistUnicode:konoco × こばしり。Sound produced by MIMI
Creator:Log Off Now
Version:Extra
Source:
Tags:japanese pop j-pop jpop scramble planet vn visual novel 秋元康氏 yasushi akimoto
BeatmapID:3898517
BeatmapSetID:1890961

[Difficulty]
HPDrainRate:5
CircleSize:3.8
OverallDifficulty:8.5
ApproachRate:9
SliderMultiplier:1.4
SliderTickRate:1

[Events]
//Background and Video events
0,0,"1669237230_uLrUCcTIKN.jpg",0,0
//Break Periods
2,87167,96473
2,107377,115894
//Storyboard Layer 0 (Background)
//Storyboard Layer 1 (Fail)
//Storyboard Layer 2 (Pass)
//Storyboard Layer 3 (Foreground)
//Storyboard Layer 4 (Overlay)
//Storyboard Sound Samples

[TimingPoints]
-190,315.789473684211,4,2,1,50,1,0
1073,315.789473684211,4,2,1,50,1,0
11178,-90.9090909090909,4,2,1,60,0,0
21599,-83.3333333333333,4,2,1,65,0,0
31388,-111.111111111111,4,2,2,55,0,0
41494,-100,4,2,2,60,0,0
51283,-100,4,2,1,60,0,0
56651,-80,4,2,1,80,0,1
76862,-83.3333333333333,4,2,1,70,0,0
97073,-100,4,2,1,65,0,0
116651,-133.333333333333,4,2,1,60,0,0
117283,-133.333333333333,4,2,1,60,0,0
125178,-133.333333333333,4,2,1,60,0,0
127388,-100,4,2,1,60,0,0
128651,-100,4,2,1,60,0,0
129283,-80,4,2,1,60,0,1
129915,-80,4,2,1,85,0,1
147599,-90.9090909090909,4,2,1,75,0,0
160230,-90.9090909090909,4,2,1,45,0,0

[Colours]
Combo1 : 227,191,224
Combo2 : 240,211,172
Combo3 : 61,171,160
Combo4 : 227,119,119

[HitObjects]
126,329,441,6,0,P|80:312|46:305,3,70,2|0|2|0,0:0|0:0|0:0|0:0,0:0:0:0:
198,286,1073,6,0,P|229:254|234:228,1,70,2|0,0:0|0:0,0:0:0:0:
182,125,1388,1,2,0:0:0:0:
159,219,1546,2,0,P|209:205|322:182,1,140,2|0,0:0|0:0,0:0:0:0:
356,249,2020,1,2,0:0:0:0:
356,249,2178,1,2,0:0:0:0:
403,136,2336,6,0,P|446:145|493:161,2,70,0|0|2,0:0|0:0|0:0,0:0:0:0:
282,0,2809,2,0,P|333:51|318:122,1,140,2|2,0:0|0:0,0:0:0:0:
170,112,3283,1,0,0:0:0:0:
250,75,3441,1,2,0:0:0:0:
186,207,3599,6,0,P|136:193|104:185,2,70,2|2|2,0:0|0:0|0:0,0:0:0:0:
257,311,4073,2,0,P|209:298|100:269,1,140,2|2,0:0|0:0,0:0:0:0:
61,123,4546,1,2,0:0:0:0:
40,233,4704,1,2,0:0:0:0:
138,81,4862,6,0,P|104:48|72:40,1,70,0|2,0:0|0:0,0:0:0:0:
144,171,5178,1,2,0:0:0:0:
218,44,5336,2,0,P|255:24|298:29,1,70,2|0,0:0|0:0,0:0:0:0:
309,162,5651,2,0,P|282:140|272:108,1,70
437,14,5967,2,0,P|423:56|390:158,1,140,2|0,0:0|0:0,0:0:0:0:
480,284,6441,5,2,0:0:0:0:
480,284,6599,2,0,P|457:253|351:244,1,140,2|0,0:0|0:0,0:0:0:0:
317,305,7073,1,2,0:0:0:0:
421,383,7230,2,0,P|405:340|395:294,1,70,2|0,0:0|0:0,0:0:0:0:
278,224,7546,2,0,P|292:183|304:146,1,70,2|0,0:0|0:0,0:0:0:0:
235,313,7862,6,0,P|191:273|111:283,1,140,2|0,0:0|0:0,0:0:0:0:
82,384,8336,1,2,0:0:0:0:
160,354,8494,1,2,0:0:0:0:
18,245,8651,6,0,P|34:293|49:335,1,70,2|0,0:0|0:0,0:0:0:0:
189,221,8967,2,0,P|205:173|220:131,1,70,2|2,0:0|0:0,0:0:0:0:
78,72,9283,5,2,0:0:0:0:
120,152,9441,1,0,0:0:0:0:
161,38,9599,1,2,0:0:0:0:
110,172,9757,1,2,0:0:0:0:
218,111,9915,2,0,P|282:126|361:147,1,140,2|0,0:0|0:0,0:0:0:0:
399,231,10388,1,0,0:0:0:0:
343,361,10546,2,0,P|328:297|307:218,1,140,2|0,0:0|0:0,0:0:0:0:
91,83,11178,5,2,1:2:0:0:
157,253,11336,1,2,0:0:0:0:
226,26,11494,2,0,P|278:-1|316:4,1,77.0000023498536,14|0,0:0|0:0,0:0:0:0:
401,180,11809,5,2,1:2:0:0:
288,92,11967,1,2,1:2:0:0:
461,27,12125,2,0,P|446:77|438:111,1,77.0000023498536,10|0,0:0|0:0,0:0:0:0:
342,257,12441,5,2,1:2:0:0:
495,178,12599,1,2,0:0:0:0:
288,92,12757,2,0,P|303:142|311:176,1,77.0000023498536,10|0,0:0|0:0,0:0:0:0:
435,331,13073,5,2,1:2:0:0:
342,257,13231,1,2,1:2:0:0:
495,178,13388,2,0,P|480:228|472:262,1,77.0000023498536,10|0,0:0|0:0,0:0:0:0:
257,276,13704,5,2,1:2:0:0:
401,181,13862,1,2,0:0:0:0:
208,150,14020,2,0,P|183:190|193:235,1,77.0000023498536,10|0,0:0|1:0,0:0:0:0:
302,363,14336,2,0,P|279:321|235:307,1,77.0000023498536,2|0,1:2|1:0,0:0:0:0:
78,363,14651,2,0,P|122:347|143:307,1,77.0000023498536,10|0,0:0|0:0,0:0:0:0:
94,132,14967,6,0,P|84:171|70:224,1,77.0000023498536,2|0,1:2|1:2,1:2:0:0:
220,321,15283,1,10,0:0:0:0:
167,188,15441,1,2,1:2:0:0:
61,286,15599,2,0,P|17:267|-6:231,1,77.0000023498536,2|2,1:2|1:2,0:0:0:0:
92,104,15915,1,10,0:0:0:0:
149,274,16073,1,2,0:0:0:0:
222,135,16230,6,0,P|264:107|316:110,1,77.0000023498536,2|0,1:2|0:0,0:0:0:0:
388,245,16546,1,10,0:0:0:0:
287,188,16704,1,2,0:0:0:0:
431,45,16862,2,0,P|374:66|285:105,1,154.000004699707,2|10,1:2|0:0,0:0:0:0:
406,260,17336,1,2,0:0:0:0:
491,101,17494,6,0,P|513:57|502:7,1,77.0000023498536,2|0,1:2|0:0,0:0:0:0:
351,164,17809,2,0,P|361:201|369:238,1,77.0000023498536,10|0,0:0|0:0,0:0:0:0:
214,111,18125,2,0,P|256:56|340:97,1,154.000004699707,0|10,1:2|0:0,0:0:0:0:
256,204,18599,1,2,0:0:0:0:
219,22,18757,2,0,P|183:5|140:9,1,77.0000023498536,2|0,1:2|0:0,0:0:0:0:
76,177,19073,5,10,0:0:0:0:
169,92,19231,1,2,0:0:0:0:
37,17,19389,2,0,P|52:67|60:101,1,77.0000023498536,2|0,1:2|1:0,0:0:0:0:
145,270,19704,5,10,0:0:0:0:
52,185,19862,1,2,0:0:0:0:
184,110,20020,2,0,P|169:160|161:194,1,77.0000023498536,2|0,1:2|1:0,0:0:0:0:
87,357,20337,5,10,0:0:0:0:
180,283,20495,1,2,1:2:0:0:
27,204,20652,2,0,P|42:254|50:288,1,77.0000023498536,2|0,1:2|1:2,0:0:0:0:
200,382,20967,1,8,0:0:0:0:
257,125,21125,5,8,0:0:0:0:
257,125,21204,1,8,0:0:0:0:
257,125,21283,2,0,P|307:96|342:99,1,77.0000023498536,2|0,0:0|0:0,0:0:0:0:
330,332,21599,6,0,B|296:289|296:289|327:179,1,167.999994873047,14|2,1:2|1:2,0:0:0:0:
375,23,22073,1,2,0:0:0:0:
460,212,22230,2,0,P|419:252|358:252,1,83.9999974365235,10|0,0:0|0:0,0:0:0:0:
281,21,22546,5,2,1:2:0:0:
445,128,22704,1,2,0:0:0:0:
219,261,22862,2,0,P|208:214|189:159,1,83.9999974365235,10|2,0:0|0:0,0:0:0:0:
311,10,23178,5,2,1:2:0:0:
143,99,23336,1,2,0:0:0:0:
350,161,23494,2,0,P|361:122|383:63,1,83.9999974365235,10|0,0:0|0:0,0:0:0:0:
160,3,23809,5,2,1:2:0:0:
224,173,23967,1,2,0:0:0:0:
269,22,24125,1,10,0:0:0:0:
110,104,24283,1,2,0:0:0:0:
246,181,24441,2,0,P|263:135|284:88,1,83.9999974365235,2|2,1:2|0:0,0:0:0:0:
65,257,24757,2,0,P|82:303|97:346,1,83.9999974365235,10|2,0:0|0:0,0:0:0:0:
259,375,25073,5,2,1:2:0:0:
161,173,25230,1,0,0:0:0:0:
287,257,25388,1,10,0:0:0:0:
124,346,25546,1,0,0:0:0:0:
259,178,25704,2,0,P|310:173|343:195,1,83.9999974365235,2|2,1:2|0:0,0:0:0:0:
497,331,26020,1,10,0:0:0:0:
444,141,26178,1,2,0:0:0:0:
413,336,26336,6,0,P|402:296|391:256,1,83.9999974365235,2|2,1:2|0:0,0:0:0:0:
277,63,26651,2,0,P|266:104|255:145,1,83.9999974365235,10|0,0:0|0:0,0:0:0:0:
175,324,26967,2,0,P|165:283|154:243,1,83.9999974365235,2|0,1:2|0:0,0:0:0:0:
100,80,27283,5,10,0:0:0:0:
257,237,27441,1,2,0:0:0:0:
97,358,27599,2,0,P|55:370|14:359,1,83.9999974365235,2|0,1:2|0:0,0:0:0:0:
225,139,27915,5,10,0:0:0:0:
63,259,28073,1,2,0:0:0:0:
185,363,28231,2,0,P|227:375|265:361,1,83.9999974365235,2|0,1:2|0:0,0:0:0:0:
334,179,28546,5,10,0:0:0:0:
402,374,28704,1,2,0:0:0:0:
484,197,28862,2,0,P|429:215|385:232,1,83.9999974365235,2|0,1:2|0:0,0:0:0:0:
260,282,29178,5,10,0:0:0:0:
425,350,29336,1,2,0:0:0:0:
236,272,29494,2,0,P|181:253|138:238,1,83.9999974365235,2|0,1:2|0:0,0:0:0:0:
334,179,29809,5,10,0:0:0:0:
253,379,29967,1,2,0:0:0:0:
344,153,30125,2,0,P|323:97|222:97,1,167.999994873047,2|8,1:2|0:0,0:0:0:0:
311,262,30599,1,2,0:0:0:0:
422,95,30757,2,0,P|410:48|400:11,1,83.9999974365235,2|0,1:2|0:0,0:0:0:0:
451,250,31073,1,10,0:0:0:0:
324,155,31230,5,8,0:0:0:0:
324,155,31309,1,8,0:0:0:0:
324,155,31388,2,0,B|288:146|266:135|266:135|219:138|186:171,1,125.999996154785,6|8,0:0|0:0,0:0:0:0:
241,285,31862,1,2,0:0:0:0:
241,285,32020,2,0,P|261:237|265:214,1,62.9999980773926
134,190,32336,2,0,P|170:228|201:235,1,62.9999980773926,10|0,0:0|0:0,0:0:0:0:
329,317,32651,5,2,0:0:0:0:
246,378,32809,1,0,0:0:0:0:
356,298,32967,2,0,P|403:312|425:320,1,62.9999980773926,8|2,0:0|0:0,0:0:0:0:
490,364,33283,2,0,P|457:320|478:241,1,125.999996154785,2|8,0:0|0:0,0:0:0:0:
357,96,33915,6,0,P|371:144|392:221,1,125.999996154785,2|8,0:0|0:0,0:0:0:0:
431,49,34388,2,0,P|393:18|295:32,1,125.999996154785,2|2,0:0|0:0,0:0:0:0:
261,157,34862,1,10,0:0:0:0:
335,97,35020,1,0,0:0:0:0:
184,28,35178,6,0,P|200:73|211:107,1,62.9999980773926,2|0,0:0|0:0,0:0:0:0:
346,191,35494,2,0,P|330:236|319:270,1,62.9999980773926,10|0,0:0|0:0,0:0:0:0:
178,359,35809,2,0,P|206:323|293:332,1,125.999996154785,2|8,0:0|0:0,0:0:0:0:
132,264,36441,6,0,P|115:210|87:140,1,125.999996154785,2|8,0:0|0:0,0:0:0:0:
149,69,36915,1,2,0:0:0:0:
108,259,37073,2,0,P|91:205|63:135,1,125.999996154785,2|8,0:0|0:0,0:0:0:0:
224,21,37546,1,2,0:0:0:0:
289,124,37704,6,0,P|243:109|209:101,1,62.9999980773926,2|0,0:0|0:0,0:0:0:0:
344,54,38020,1,10,0:0:0:0:
374,132,38178,1,2,0:0:0:0:
319,237,38336,2,0,P|400:210|461:196,1,125.999996154785,2|8,0:0|0:0,0:0:0:0:
236,367,38967,6,0,P|252:322|263:288,1,62.9999980773926,2|0,0:0|0:0,0:0:0:0:
137,184,39283,2,0,P|147:213|157:243,1,62.9999980773926,10|0,0:0|0:0,0:0:0:0:
301,139,39599,2,0,P|252:92|187:108,1,125.999996154785,2|10,0:0|0:0,0:0:0:0:
284,223,40073,1,2,0:0:0:0:
369,88,40230,2,0,P|352:38|348:21,1,62.9999980773926,2|0,0:0|0:0,0:0:0:0:
228,173,40546,2,0,P|245:223|249:240,1,62.9999980773926,10|2,0:0|0:0,0:0:0:0:
350,302,40862,5,0,0:0:0:0:
276,367,41020,1,2,0:0:0:0:
347,212,41178,1,10,0:0:0:0:
415,370,41336,1,2,0:0:0:0:
334,185,41494,6,0,P|318:136|286:50,1,140,2|8,1:2|1:2,0:0:0:0:
240,244,41967,1,2,0:0:0:0:
359,106,42125,2,0,P|396:90|438:94,1,70,2|0,1:2|0:0,0:0:0:0:
452,228,42441,2,0,P|421:196|409:172,1,70,10|2,1:2|0:0,0:0:0:0:
470,10,42757,5,2,1:2:0:0:
334,111,42915,1,2,0:0:0:0:
491,152,43073,2,0,P|504:109|516:73,1,70,10|0,1:2|0:0,0:0:0:0:
279,3,43388,2,0,P|289:36|326:157,1,140,2|8,1:2|0:0,0:0:0:0:
255,311,43862,1,2,0:3:0:0:
201,199,44020,6,0,P|240:211|279:224,1,70,2|0,1:2|0:0,0:0:0:0:
331,368,44336,2,0,P|370:356|409:343,1,70,10|0,1:2|0:0,0:0:0:0:
451,199,44651,2,0,P|413:153|320:168,1,140,2|10,1:2|1:2,0:0:0:0:
281,227,45125,1,2,0:0:0:0:
417,323,45283,5,2,1:2:0:0:
371,232,45441,1,2,0:0:0:0:
303,372,45599,2,0,P|264:360|225:347,1,70,10|0,1:2|0:0,0:0:0:0:
112,251,45915,2,0,P|133:314|161:402,1,140,2|8,1:2|1:2,0:0:0:0:
213,256,46388,1,2,0:3:0:0:
48,193,46546,6,0,P|28:232|29:273,1,70,2|0,1:2|0:0,0:0:0:0:
235,172,46862,2,0,P|230:137|213:107,1,70,10|0,1:2|0:0,0:0:0:0:
64,53,47178,1,2,1:2:0:0:
142,168,47336,1,2,0:0:0:0:
187,9,47494,1,10,1:2:0:0:
136,196,47651,1,2,0:0:0:0:
247,91,47809,6,0,P|306:107|396:125,1,140,2|10,1:2|1:2,0:0:0:0:
445,285,48283,1,2,0:0:0:0:
512,173,48441,2,0,P|453:189|371:214,1,140,2|8,1:2|1:2,0:0:0:0:
331,372,48915,1,2,0:3:0:0:
255,247,49073,6,0,P|304:263|342:278,1,70,2|0,1:2|0:0,0:0:0:0:
242,377,49388,1,10,1:2:0:0:
192,174,49546,1,2,0:0:0:0:
141,340,49704,2,0,P|92:356|54:371,1,70,0|2,1:2|0:0,0:0:0:0:
62,179,50020,1,10,1:2:0:0:
136,246,50178,1,2,0:0:0:0:
0,294,50336,5,2,1:2:0:0:
0,294,50494,2,0,P|23:233|43:153,1,140,2|2,0:0|0:3,0:0:0:0:
7,44,50967,2,0,P|49:70|89:77,1,70,2|2,1:2|1:3,0:0:0:0:
194,176,51283,5,8,0:0:0:0:
151,104,51441,1,2,0:3:0:0:
220,37,51599,2,0,P|269:15|346:49,1,140,2|2,1:2|0:0,0:0:0:0:
382,201,52073,1,2,1:2:0:0:
477,85,52230,2,0,P|438:98|395:112,1,70,10|0,0:0|0:0,0:0:0:0:
273,222,52546,5,2,1:2:0:0:
327,133,52704,1,2,0:0:0:0:
394,223,52862,2,0,P|378:275|354:358,1,140,2|2,0:0|1:2,0:0:0:0:
276,252,53336,1,2,0:0:0:0:
207,374,53493,2,0,P|194:335|180:292,1,70,10|0,0:0|0:0,0:0:0:0:
130,149,53809,1,2,0:0:0:0:
98,312,53967,1,2,0:0:0:0:
204,216,54125,6,0,P|215:179|229:127,1,70,2|0,1:2|0:0,0:0:0:0:
82,52,54441,2,0,P|93:89|107:141,1,70,2|0,0:0|1:0,0:0:0:0:
242,49,54757,2,0,P|206:24|162:23,1,70,10|0,0:0|0:0,0:0:0:0:
107,225,55073,1,2,1:2:0:0:
7,110,55230,1,2,0:0:0:0:
195,168,55388,5,2,1:2:0:0:
210,200,55704,5,2,1:2:0:0:
147,257,55915,6,0,L|136:289,2,23.3333333333333,0|0|8,1:2|1:0|0:0,0:0:0:0:
350,15,56651,6,0,P|327:91|297:192,1,175,6|8,1:2|0:2,0:2:0:0:
421,294,57125,2,0,P|403:233|396:209,1,87.5,2|0,0:2|1:2,0:2:0:0:
263,30,57441,1,2,1:2:0:0:
411,127,57599,1,10,0:2:0:0:
221,209,57757,1,2,0:2:0:0:
438,119,57915,6,0,P|466:79|383:9,1,175,2|10,1:2|0:2,0:2:0:0:
299,182,58388,2,0,P|322:258|352:359,1,175,2|2,0:2|0:2,0:2:0:0:
397,169,58862,1,10,0:2:0:0:
255,358,59020,1,2,0:2:0:0:
195,173,59178,6,0,P|242:145|280:147,1,87.5,2|0,1:2|0:2,0:2:0:0:
175,315,59494,1,10,0:2:0:0:
84,191,59651,2,0,P|151:208|268:236,1,175,2|2,1:2|1:2,0:0:0:0:
302,358,60125,1,10,0:2:0:0:
357,173,60283,1,2,0:2:0:0:
391,373,60441,5,2,1:2:0:0:
285,100,60599,1,2,0:2:0:0:
210,372,60757,1,10,0:2:0:0:
386,279,60915,2,0,P|300:258|216:237,1,175,2|0,1:2|1:2,0:2:0:0:
102,125,61388,2,0,P|144:135|186:145,1,87.5,10|0,0:2|0:2,0:2:0:0:
21,279,61704,5,2,1:2:0:0:
122,228,61862,1,2,0:2:0:0:
106,332,62020,1,10,0:2:0:0:
32,186,62178,1,2,0:2:0:0:
216,237,62336,2,0,P|230:278|205:330,1,87.5,2|2,1:2|1:2,0:0:0:0:
56,173,62651,2,0,P|39:117|28:86,1,87.5,10|2,0:2|0:2,0:0:0:0:
144,22,62967,6,0,B|181:25|210:45|210:45|239:36|259:14|259:14|293:13|316:28,1,175,2|10,1:2|0:2,0:2:0:0:
323,175,63441,2,0,P|287:137|286:98,1,87.5,2|0,0:2|1:2,0:2:0:0:
397,23,63757,2,0,P|378:80|366:118,1,87.5,2|8,1:2|0:2,0:0:0:0:
214,186,64073,1,2,0:2:0:0:
354,258,64230,5,2,1:2:0:0:
279,82,64388,1,2,0:2:0:0:
207,280,64546,1,10,0:2:0:0:
368,173,64704,2,0,P|421:203|414:320,1,175,2|0,0:2|1:2,0:2:0:0:
263,377,65178,2,0,P|244:313|235:287,1,87.5,10|2,0:2|0:2,0:0:0:0:
130,175,65494,5,2,1:2:0:0:
312,239,65651,1,2,1:2:0:0:
151,319,65809,1,10,0:2:0:0:
277,144,65967,1,2,1:2:0:0:
336,327,66125,2,0,P|382:351|420:343,1,87.5,2|0,1:2|1:2,0:0:0:0:
442,149,66441,1,8,0:2:0:0:
512,281,66599,5,8,0:2:0:0:
512,281,66678,1,8,0:2:0:0:
512,281,66757,2,0,P|434:260|411:256,1,87.5,2|0,1:2|0:2,0:2:0:0:
363,115,67073,2,0,P|417:66|523:117,1,175,14|2,0:2|1:2,0:2:0:0:
334,209,67546,1,2,1:2:0:0:
300,36,67704,1,10,0:2:0:0:
442,149,67862,1,2,0:2:0:0:
233,261,68020,5,2,1:2:0:0:
363,115,68178,1,2,0:2:0:0:
326,322,68336,1,10,0:2:0:0:
252,163,68494,2,0,P|209:132|168:129,1,87.5,2|0,0:2|1:2,0:2:0:0:
155,298,68809,2,0,P|173:246|187:200,1,87.5,2|8,1:2|0:0,0:2:0:0:
131,54,69125,1,2,0:2:0:0:
101,193,69283,6,0,P|58:224|17:227,1,87.5,2|0,1:2|0:2,0:2:0:0:
153,47,69599,1,10,0:2:0:0:
203,229,69757,1,2,1:2:0:0:
279,66,69915,2,0,P|332:40|373:46,1,87.5,2|2,1:2|1:2,0:0:0:0:
444,217,70231,1,10,0:2:0:0:
343,141,70388,1,2,0:2:0:0:
507,56,70546,5,2,1:2:0:0:
453,250,70704,1,2,0:2:0:0:
378,16,70862,1,10,0:2:0:0:
465,339,71020,2,0,P|390:318|277:287,1,175,2|0,1:2|0:2,0:2:0:0:
401,97,71494,2,0,P|424:151|408:184,1,87.5,10|0,0:2|0:2,0:2:0:0:
317,324,71809,5,2,1:2:0:0:
249,134,71967,1,2,0:2:0:0:
213,301,72125,1,10,0:2:0:0:
314,219,72283,1,2,0:2:0:0:
157,130,72441,2,0,P|174:184|184:220,1,87.5,2|2,1:2|1:2,0:0:0:0:
246,384,72757,1,10,0:2:0:0:
123,299,72915,1,2,0:2:0:0:
334,235,73073,6,0,P|317:289|307:325,1,87.5,2|2,1:2|0:2,0:0:0:0:
242,102,73388,1,10,0:2:0:0:
154,281,73546,2,0,P|111:297|-17:351,1,175,2|2,0:2|1:2,0:2:0:0:
109,197,74020,1,10,0:2:0:0:
166,366,74178,1,2,0:2:0:0:
216,216,74336,6,0,P|252:198|320:228,1,87.5,2|0,1:2|0:2,0:2:0:0:
298,367,74651,2,0,P|278:321|266:273,1,87.5,10|0,0:2|0:2,0:2:0:0:
401,170,74967,1,2,1:2:0:0:
362,280,75125,1,2,1:2:0:0:
317,121,75283,2,0,P|303:69|290:21,1,87.5,10|2,0:2|0:2,0:0:0:0:
139,187,75599,5,2,1:2:0:0:
211,28,75757,1,2,1:2:0:0:
73,113,75915,1,10,0:2:0:0:
236,183,76073,1,2,1:2:0:0:
111,33,76230,2,0,P|60:20|25:34,1,87.5,2|0,1:2|1:2,0:2:0:0:
139,187,76546,2,0,P|155:132|169:88,1,87.5,10|0,0:2|0:2,0:2:0:0:
294,13,76862,1,2,0:2:0:0:
294,13,77020,1,2,0:2:0:0:
370,230,77178,6,0,P|326:175|213:208,1,167.999994873047,14|2,0:2|1:2,0:2:0:0:
296,343,77652,1,2,0:2:0:0:
364,146,77809,2,0,P|412:123|467:140,1,83.9999974365235,10|0,0:2|0:2,0:2:0:0:
495,362,78125,5,2,1:2:0:0:
422,216,78283,1,2,0:2:0:0:
374,378,78441,2,0,P|325:366|280:359,1,83.9999974365235,10|0,0:2|0:2,0:2:0:0:
271,212,78757,5,2,1:2:0:0:
198,358,78915,1,2,0:2:0:0:
150,196,79073,2,0,P|101:208|56:215,1,83.9999974365235,10|0,0:2|0:2,0:2:0:0:
40,368,79388,5,2,1:2:0:0:
205,264,79546,1,2,0:2:0:0:
0,172,79704,1,10,0:2:0:0:
116,316,79862,1,0,0:2:0:0:
193,121,80020,2,0,P|208:72|224:21,1,83.9999974365235,2|2,1:2|0:2,0:0:0:0:
19,192,80336,2,0,P|33:238|44:283,1,83.9999974365235,10|2,0:2|0:2,0:0:0:0:
205,347,80652,5,2,1:2:0:0:
146,195,80809,1,2,0:2:0:0:
110,366,80967,1,10,0:2:0:0:
238,218,81125,1,0,0:2:0:0:
291,373,81283,2,0,P|341:381|374:359,1,83.9999974365235,2|2,1:2|0:2,0:0:0:0:
424,153,81599,1,10,0:2:0:0:
338,285,81757,1,2,0:2:0:0:
477,380,81915,6,0,P|466:339|454:299,1,83.9999974365235,2|2,1:2|0:2,0:0:0:0:
308,195,82230,2,0,P|319:157|331:110,1,83.9999974365235,10|0,0:2|0:2,0:2:0:0:
477,11,82546,2,0,P|440:48|377:62,1,83.9999974365235,2|0,1:2|0:2,0:2:0:0:
223,4,82862,5,10,0:2:0:0:
283,208,83020,1,2,0:2:0:0:
143,78,83178,2,0,P|187:90|237:104,1,83.9999974365235,2|0,1:2|0:2,0:2:0:0:
282,304,83494,5,10,0:2:0:0:
342,100,83652,1,2,0:2:0:0:
202,230,83810,2,0,P|246:217|296:204,1,83.9999974365235,2|0,1:2|0:2,0:2:0:0:
443,187,84125,5,10,0:2:0:0:
386,322,84283,1,2,0:2:0:0:
367,118,84441,2,0,P|405:89|462:87,1,83.9999974365235,2|0,1:2|0:2,0:2:0:0:
260,282,84757,5,10,0:2:0:0:
425,350,84915,1,2,0:2:0:0:
236,272,85073,2,0,P|181:253|138:238,1,83.9999974365235,2|0,1:2|0:2,0:2:0:0:
334,179,85388,5,10,0:2:0:0:
253,379,85546,1,2,0:2:0:0:
344,153,85704,2,0,P|323:97|222:97,1,167.999994873047,2|8,1:2|0:2,0:2:0:0:
311,262,86178,1,2,0:2:0:0:
422,95,86336,2,0,P|410:48|400:11,1,83.9999974365235,2|2,1:2|0:2,0:0:0:0:
451,250,86652,1,10,0:2:0:0:
318,58,86809,5,10,0:2:0:0:
318,58,86888,1,10,0:2:0:0:
318,58,86967,1,6,0:2:0:0:
172,117,97073,6,0,P|184:79|205:38,2,46.6666666666667,2|0|0,1:2|0:2|0:2,0:2:0:0:
146,199,97388,2,0,P|184:211|225:232,2,46.6666666666667,2|0|0,1:2|0:2|0:2,0:2:0:0:
65,179,97704,2,0,P|53:217|32:258,2,46.6666666666667,2|0|0,1:2|0:2|0:2,0:2:0:0:
91,97,98019,2,0,P|53:85|12:64,2,46.6666666666667,2|0|0,1:2|0:2|0:2,0:2:0:0:
220,67,98336,5,2,1:2:0:0:
204,90,98441,2,0,P|190:109|179:130,1,46.6666666666667,2|2,0:2|0:2,0:2:0:0:
132,202,98651,5,2,1:2:0:0:
155,217,98757,2,0,P|189:239|223:270,1,46.6666666666667,2|2,0:2|0:2,0:2:0:0:
106,89,98967,5,2,1:2:0:0:
83,74,99073,2,0,P|49:52|15:22,1,46.6666666666667,0|0,0:2|0:2,0:0:0:0:
59,162,99283,5,2,1:2:0:0:
43,184,99388,2,0,P|22:218|-9:252,1,46.6666666666667,0|0,0:2|0:2,0:0:0:0:
203,127,99599,6,0,P|219:110|238:97,2,46.6666666666667,2|2|2,1:2|0:2|0:2,0:0:0:0:
134,224,99914,2,0,P|151:240|166:259,2,46.6666666666667,2|0|0,1:2|0:2|0:2,0:2:0:0:
33,161,100230,2,0,P|17:178|0:193,2,46.6666666666667,2|2|2,1:2|0:2|0:2,0:0:0:0:
103,65,100545,2,0,P|86:49|72:31,2,46.6666666666667,2|0|0,1:2|0:2|0:2,0:2:0:0:
192,146,100862,5,2,1:2:0:0:
236,158,100967,1,2,0:2:0:0:
282,148,101072,1,2,0:2:0:0:
321,123,101177,1,2,1:2:0:0:
360,98,101283,1,2,0:2:0:0:
406,91,101388,1,2,0:2:0:0:
450,106,101494,2,0,P|467:168|496:251,1,140,2|0,1:2|1:0,0:0:0:0:
423,303,101967,1,2,0:3:0:0:
334,295,102125,6,0,P|322:333|301:374,2,46.6666666666667,2|0|0,1:2|0:2|0:2,0:2:0:0:
360,213,102440,2,0,P|322:201|281:180,2,46.6666666666667,2|0|0,1:2|0:2|0:2,0:2:0:0:
441,233,102756,2,0,P|453:195|474:154,2,46.6666666666667,2|0|0,1:2|0:2|0:2,0:2:0:0:
415,315,103073,2,0,P|453:327|494:354,2,46.6666666666667,2|0|0,1:2|0:2|0:2,0:2:0:0:
286,345,103388,5,2,1:2:0:0:
302,322,103493,2,0,P|316:303|327:282,1,46.6666666666667,2|2,0:2|0:2,0:2:0:0:
374,210,103703,5,2,1:2:0:0:
351,195,103809,2,0,P|317:173|283:142,1,46.6666666666667,2|2,0:2|0:2,0:2:0:0:
400,323,104019,5,2,1:2:0:0:
423,338,104125,2,0,P|457:360|491:390,1,46.6666666666667,0|0,0:2|0:2,0:0:0:0:
447,250,104335,5,2,1:2:0:0:
463,228,104440,2,0,P|484:194|515:160,1,46.6666666666667,2|2,0:2|0:2,0:0:0:0:
302,284,104651,6,0,P|286:301|268:315,2,46.6666666666667,2|0|0,1:2|0:2|0:2,0:2:0:0:
371,187,104966,2,0,P|354:171|340:153,2,46.6666666666667,2|0|0,1:2|0:2|0:2,0:2:0:0:
472,250,105282,2,0,P|488:233|506:219,2,46.6666666666667,2|2|2,1:2|0:2|0:2,0:0:0:0:
400,342,105599,2,0,P|419:362|434:381,2,46.6666666666667,2|0|0,1:2|0:2|0:2,0:2:0:0:
302,284,105914,5,2,1:2:0:0:
258,272,106019,1,2,0:2:0:0:
212,282,106124,1,2,0:2:0:0:
173,307,106229,1,2,1:2:0:0:
134,332,106335,1,2,0:2:0:0:
88,339,106440,1,2,0:2:0:0:
44,324,106546,2,0,P|29:260|22:234,1,70,2|0,1:2|1:2,0:2:0:0:
150,92,106862,2,0,P|135:153|112:255,1,140,8|2,0:0|0:0,0:0:0:0:
349,85,116494,5,0,1:0:0:0:
285,149,116651,2,0,P|223:133|160:121,1,105.000004005432,8|0,1:2|0:0,0:0:0:0:
95,34,117283,6,0,P|131:77|91:177,1,157.500006008148,0|0,1:0|1:0,0:0:0:0:
1,92,117915,2,0,P|37:101|72:111,1,52.5000020027161,8|0,0:0|0:0,0:0:0:0:
151,240,118230,2,0,P|187:231|222:221,1,52.5000020027161,0|0,1:0|0:0,0:0:0:0:
266,166,118546,2,0,P|326:181|386:198,3,105.000004005432,0|0|8|2,0:0|1:0|0:0|1:3,0:0:0:0:
502,102,119651,1,0,1:2:0:0:
458,35,119809,6,0,P|425:66|431:139,1,105.000004005432,0|0,1:2|0:0,0:0:0:0:
485,187,120283,1,0,1:0:0:0:
421,260,120441,2,0,P|410:228|399:200,3,52.5000020027161,8|0|0|0,0:0|0:0|1:0|0:0,0:0:0:0:
341,141,121073,2,0,P|310:120|232:139,1,105.000004005432,0|0,0:0|1:0,0:0:0:0:
224,358,121704,2,0,P|238:318|247:290,1,52.5000020027161,8|0,0:0|0:0,0:0:0:0:
304,245,122020,2,0,P|290:205|281:177,1,52.5000020027161,2|0,1:3|0:0,0:0:0:0:
245,127,122336,6,0,P|295:116|341:141,1,105.000004005432,0|0,1:0|0:0,0:0:0:0:
304,245,122809,1,0,1:0:0:0:
178,170,122967,2,0,P|165:131|170:106,1,52.5000020027161,8|0,0:0|0:0,0:0:0:0:
290,5,123283,1,0,1:0:0:0:
217,51,123441,1,0,1:0:0:0:
141,7,123599,2,0,P|94:19|24:39,1,105.000004005432,0|0,0:0|1:0,0:0:0:0:
19,174,124230,2,0,P|44:166|69:160,1,52.5000020027161,8|0,0:0|0:0,0:0:0:0:
124,96,124546,2,0,P|174:110|225:123,1,105.000004005432,2|0,1:3|0:0,0:0:0:0:
277,313,125178,6,0,P|242:292|209:286,1,52.5000020027161,0|2,1:0|0:0,0:0:0:0:
247,204,125494,2,0,P|282:184|303:158,1,52.5000020027161,8|0,0:0|0:0,0:0:0:0:
353,236,125809,2,0,P|352:276|363:308,1,52.5000020027161,0|2,1:0|0:0,0:0:0:0:
195,302,126125,2,0,P|243:303|287:356,2,105.000004005432,2|0|8,0:0|1:0|0:0,0:0:0:0:
136,364,126915,1,0,0:0:0:0:
23,272,127073,1,0,1:0:0:0:
52,358,127230,5,0,1:0:0:0:
52,358,127309,1,0,1:0:0:0:
52,358,127388,2,0,L|124:81,1,280,10|0,1:2|0:0,0:0:0:0:
95,69,128651,6,0,L|130:204,1,140,10|0,1:2|0:0,0:0:0:0:
155,293,129125,1,0,1:2:0:0:
155,293,129204,1,0,1:2:0:0:
155,293,129283,2,0,L|246:323,1,87.5,10|2,1:2|0:0,0:0:0:0:
328,191,129599,2,0,L|237:221,1,87.5,2|2,0:0|0:0,0:0:0:0:
370,384,129915,6,0,P|425:324|379:227,1,175,6|10,1:2|0:2,0:2:0:0:
288,60,130388,2,0,P|332:96|371:101,1,87.5,2|0,1:2|1:2,0:2:0:0:
486,17,130704,5,2,1:2:0:0:
427,208,130862,1,10,0:2:0:0:
363,15,131020,1,2,0:2:0:0:
503,143,131178,5,2,1:2:0:0:
274,85,131336,1,2,0:2:0:0:
486,17,131494,1,10,0:2:0:0:
230,160,131651,2,0,P|188:99|251:4,1,175,2|0,1:2|0:2,0:2:0:0:
315,184,132125,2,0,P|297:233|281:289,1,87.5,10|0,0:2|0:2,0:2:0:0:
140,367,132441,5,2,1:2:0:0:
203,244,132599,1,2,0:2:0:0:
252,377,132757,1,10,0:2:0:0:
201,214,132915,1,2,0:2:0:0:
112,361,133073,2,0,P|77:382|22:371,1,87.5,2|2,1:2|1:2,0:0:0:0:
29,216,133388,2,0,P|50:264|62:311,1,87.5,10|0,0:2|0:2,0:2:0:0:
156,179,133704,6,0,P|125:152|69:153,1,87.5,2|0,1:2|0:0,0:2:0:0:
141,274,134020,1,10,0:2:0:0:
228,125,134178,2,0,P|303:141|399:164,1,175,2|2,0:2|1:2,0:2:0:0:
439,255,134651,1,8,0:2:0:0:
481,116,134809,1,2,0:2:0:0:
354,248,134967,5,2,1:2:0:0:
512,195,135125,1,2,0:2:0:0:
316,170,135283,1,10,0:2:0:0:
462,326,135441,2,0,P|442:262|407:148,1,175,2|2,0:2|1:2,0:2:0:0:
412,0,135915,2,0,P|384:46|393:85,1,87.5,10|0,0:2|0:2,0:2:0:0:
512,195,136230,5,2,1:2:0:0:
304,107,136388,1,2,1:2:0:0:
472,57,136546,1,10,0:2:0:0:
340,224,136704,1,2,1:2:0:0:
292,83,136862,2,0,P|231:61|176:43,1,87.5,2|0,1:2|0:0,0:2:0:0:
117,230,137178,1,10,0:2:0:0:
46,62,137336,5,8,0:2:0:0:
46,62,137415,1,8,0:2:0:0:
46,62,137494,2,0,P|88:28|138:34,1,87.5,2|0,1:2|0:2,0:2:0:0:
258,165,137809,2,0,P|189:183|87:217,1,175,14|2,0:2|1:2,0:2:0:0:
20,151,138283,1,2,1:2:0:0:
99,307,138441,5,10,0:2:0:0:
165,96,138599,1,2,0:2:0:0:
93,333,138757,1,2,1:2:0:0:
26,175,138915,1,2,0:2:0:0:
183,267,139073,1,10,0:2:0:0:
24,379,139230,2,0,P|9:318|31:282,1,87.5,2|0,0:2|1:2,0:2:0:0:
191,179,139546,2,0,P|205:238|236:348,1,175,2|2,1:2|0:2,0:2:0:0:
272,135,140020,2,0,P|234:103|186:101,1,87.5,2|0,1:2|0:2,0:2:0:0:
298,232,140336,5,10,0:2:0:0:
357,37,140494,1,2,1:2:0:0:
448,131,140651,2,0,P|390:151|348:170,1,87.5,2|2,1:2|1:2,0:0:0:0:
113,52,140967,5,10,0:2:0:0:
189,271,141125,1,2,0:2:0:0:
280,23,141283,1,2,1:2:0:0:
184,301,141441,1,2,0:2:0:0:
89,22,141599,5,10,0:2:0:0:
298,232,141757,2,0,P|242:216|106:180,1,175,2|0,1:2|0:2,0:0:0:0:
326,76,142230,2,0,P|369:127|359:180,1,87.5,10|0,0:2|0:2,0:2:0:0:
107,280,142546,5,2,1:2:0:0:
289,146,142704,1,2,0:2:0:0:
97,180,142862,1,10,0:2:0:0:
308,263,143020,1,2,0:2:0:0:
163,105,143178,2,0,P|145:53|134:9,1,87.5,2|2,1:2|1:2,0:0:0:0:
12,219,143494,1,10,0:2:0:0:
59,39,143651,1,2,0:2:0:0:
163,244,143809,5,2,1:2:0:0:
4,112,143967,1,2,0:2:0:0:
227,162,144125,1,10,0:2:0:0:
12,219,144283,2,0,P|-3:269|38:316,1,87.5,2|0,0:2|1:2,0:2:0:0:
169,352,144599,5,2,1:2:0:0:
102,187,144757,1,10,0:2:0:0:
66,373,144915,1,2,0:2:0:0:
209,188,145073,6,0,P|286:128|354:160,1,175,2|10,1:2|0:2,0:2:0:0:
381,346,145546,1,0,0:2:0:0:
290,217,145704,1,2,1:2:0:0:
460,297,145862,1,2,1:2:0:0:
298,372,146020,2,0,P|262:331|264:283,1,87.5,10|0,0:2|0:0,0:2:0:0:
434,168,146336,5,2,1:2:0:0:
381,346,146494,1,2,1:2:0:0:
333,126,146651,1,10,0:2:0:0:
487,332,146809,1,2,1:2:0:0:
259,205,146967,1,2,1:2:0:0:
511,101,147125,1,2,1:2:0:0:
260,384,147283,2,0,P|243:328|232:281,1,87.5,10|0,0:2|0:2,0:2:0:0:
383,58,147599,5,2,0:2:0:0:
383,58,147757,1,2,0:2:0:0:
179,228,147915,2,0,P|129:212|75:198,1,77.0000023498536,14|0,0:2|0:2,0:2:0:0:
4,52,148230,1,2,1:2:0:0:
39,163,148388,1,2,0:2:0:0:
100,19,148546,2,0,P|137:29|173:41,1,77.0000023498536,10|0,0:2|0:2,0:2:0:0:
248,226,148862,5,2,1:2:0:0:
346,25,149020,1,2,0:2:0:0:
169,163,149178,1,10,0:2:0:0:
405,94,149336,1,2,0:2:0:0:
177,72,149494,1,2,1:2:0:0:
388,186,149651,1,2,0:2:0:0:
250,15,149809,2,0,P|268:72|276:96,1,77.0000023498536,10|0,0:2|0:2,0:2:0:0:
325,270,150125,5,2,1:2:0:0:
448,124,150283,1,2,0:2:0:0:
409,324,150441,1,10,0:2:0:0:
351,82,150599,1,2,0:2:0:0:
490,273,150757,1,2,1:2:0:0:
273,121,150914,1,2,0:2:0:0:
505,189,151073,1,10,0:2:0:0:
244,278,151230,1,2,0:2:0:0:
454,100,151388,6,0,P|467:47|479:10,1,77.0000023498536,2|2,1:2|0:2,0:0:0:0:
324,299,151704,2,0,P|338:350|349:389,1,77.0000023498536,10|2,0:2|0:2,0:0:0:0:
263,85,152020,1,2,1:2:0:0:
427,233,152178,1,2,0:2:0:0:
128,336,152336,2,0,P|141:290|153:246,1,77.0000023498536,10|0,0:2|0:2,0:2:0:0:
22,87,152651,5,2,1:2:0:0:
64,239,152809,1,2,0:0:0:0:
114,55,152967,1,10,0:2:0:0:
0,175,153125,1,2,0:2:0:0:
182,113,153283,2,0,P|231:124|259:131,1,77.0000023498536,2|0,1:2|0:2,0:2:0:0:
345,286,153599,5,10,0:2:0:0:
415,62,153757,1,2,0:2:0:0:
498,209,153915,2,0,P|448:220|420:227,1,77.0000023498536,2|0,1:2|0:2,0:2:0:0:
233,44,154230,5,10,0:2:0:0:
303,268,154388,1,2,0:2:0:0:
384,148,154546,2,0,P|334:136|306:129,1,77.0000023498536,2|0,1:2|0:2,0:2:0:0:
169,291,154862,5,10,0:2:0:0:
248,203,155020,1,2,0:2:0:0:
101,71,155178,2,0,P|115:117|126:157,1,77.0000023498536,2|2,1:2|0:2,0:0:0:0:
284,283,155494,5,10,0:2:0:0:
212,104,155651,1,2,0:2:0:0:
141,298,155809,2,0,P|94:332|66:336,1,77.0000023498536,2|0,1:2|0:2,0:2:0:0:
28,149,156125,5,10,0:2:0:0:
188,208,156283,1,2,0:2:0:0:
16,268,156441,1,2,1:2:0:0:
144,115,156599,1,2,0:2:0:0:
209,326,156757,1,10,0:2:0:0:
307,118,156915,5,2,0:2:0:0:
167,219,157073,1,2,1:2:0:0:
402,305,157230,1,2,0:2:0:0:
221,70,157388,1,10,0:2:0:0:
306,363,157546,1,10,0:2:0:0:
306,363,157625,1,10,0:2:0:0:
306,363,157704,1,6,0:2:0:0:
256,192,157862,12,2,160230,0:0:0:0:
