osu file format v14

[General]
AudioFilename: audio.mp3
AudioLeadIn: 0
PreviewTime: 47427
Countdown: 0
SampleSet: Soft
StackLeniency: 0.7
Mode: 0
LetterboxInBreaks: 0
WidescreenStoryboard: 1

[Editor]
DistanceSpacing: 1.3
BeatDivisor: 4
GridSize: 32
TimelineZoom: 1.4

[Metadata]
Title:Sono Hana wa Shougai de Mottomo Imaimashiku Jama datta.
TitleUnicode:その花は生涯で最も忌々しく邪魔だった──。
Artist:konoco
ArtistUnicode:konoco
Creator:SMOKELIND
Version:Pepekcz's Hard
Source:
Tags:An abominably huge flower Japanese Rock JRock J-Rock Pepekcz Iceluin Kowari Nymphe Kiyoshi Guarden Kang-Sae Byeok Reform Kujinn
BeatmapID:3748515
BeatmapSetID:1818579

[Difficulty]
HPDrainRate:4.4
CircleSize:3.8
OverallDifficulty:6.5
ApproachRate:8
SliderMultiplier:1.4
SliderTickRate:1

[Events]
//Background and Video events
0,0,"94694410_p0.jpg",0,0
//Break Periods
2,40816,47459
2,85446,107830
2,187468,192644
//Storyboard Layer 0 (Background)
//Storyboard Layer 1 (Fail)
//Storyboard Layer 2 (Pass)
//Storyboard Layer 3 (Foreground)
//Storyboard Layer 4 (Overlay)
//Storyboard Sound Samples

[TimingPoints]
3025,370.37037037037,4,2,77,77,1,0
14876,-99.9999999999999,4,2,77,77,0,0
27469,370.37037037037,4,2,77,57,1,0
27469,-125,4,2,77,57,0,0
40616,-142.857142857143,4,2,77,27,0,0
48209,-111.111111111111,4,2,77,77,0,0
55617,-99.9999999999999,4,2,77,87,0,0
85246,-125,4,2,77,27,0,0
108950,-125,4,2,77,37,0,0
114876,-125,4,2,77,47,0,0
120802,-111.111111111111,4,2,77,67,0,0
126357,-99.9999999999999,4,2,77,77,0,0
131172,-99.9999999999999,4,2,77,87,0,0
178580,-111.111111111111,4,2,77,77,0,0
193394,-99.9999999999999,4,2,77,87,0,0
199320,-99.9999999999999,4,2,77,77,0,0
205246,-99.9999999999999,4,2,77,87,0,0

[Colours]
Combo1 : 53,53,53
Combo2 : 233,233,233
Combo3 : 77,255,255

[HitObjects]
503,370,14876,5,4,1:0:0:0:
503,370,15062,1,2,1:0:0:0:
424,323,15247,2,0,P|464:287|413:221,2,140,8|0|8,0:0|1:0|0:0,0:0:0:0:
332,315,16173,5,2,0:0:0:0:
318,317,16265,1,8,0:0:0:0:
304,321,16358,2,0,P|272:328|236:337,1,70,4|0,1:0|1:0,0:0:0:0:
152,373,16728,2,0,P|117:364|83:356,1,70,8|2,0:0|0:0,0:0:0:0:
14,297,17099,2,0,P|-5:264|-4:217,1,70,2|2,1:0|1:0,0:0:0:0:
3,223,17376,2,0,P|35:189|22:127,1,105,2|2,0:0|0:0,0:0:0:0:
12,44,17839,5,4,1:0:0:0:
12,44,18024,1,2,1:0:0:0:
100,21,18210,2,0,P|192:43|238:58,2,140,8|2|8,0:0|1:0|0:0,0:0:0:0:
105,112,19136,5,2,0:0:0:0:
118,116,19228,1,8,0:0:0:0:
129,123,19321,2,0,P|162:140|200:137,1,70,6|2,1:0|1:0,0:0:0:0:
235,56,19691,2,0,P|268:39|306:42,1,70,10|2,0:0|0:0,0:0:0:0:
340,121,20062,2,0,L|383:108,3,35,2|10|2|2,1:0|0:0|1:0|0:0,0:0:0:0:
387,110,20432,2,0,L|430:97,3,35,10|2|2|10,0:0|0:0|0:0|0:0,0:0:0:0:
434,96,20802,5,4,1:0:0:0:
496,169,20987,1,2,1:0:0:0:
496,169,21173,2,0,P|522:122|496:38,2,140,8|2|8,0:0|1:0|0:0,0:0:0:0:
409,197,22099,5,0,0:0:0:0:
411,210,22191,1,8,0:0:0:0:
413,223,22284,2,0,L|427:304,1,70,6|0,1:0|1:0,0:0:0:0:
363,359,22654,2,0,L|282:373,1,70,8|2,0:0|0:0,0:0:0:0:
210,335,23024,2,0,P|196:303|202:263,1,70,2|2,1:0|1:0,0:0:0:0:
204,255,23302,2,0,P|256:237|330:217,1,105,2|2,0:0|0:0,0:0:0:0:
364,155,23765,5,4,1:0:0:0:
364,155,23950,1,2,1:0:0:0:
448,190,24136,2,0,P|431:253|409:342,2,140,8|2|8,0:0|1:0|0:0,0:0:0:0:
498,113,25062,5,2,0:0:0:0:
494,99,25154,1,8,0:0:0:0:
490,85,25247,2,0,P|456:77|419:70,1,70,6|2,1:0|1:0,0:0:0:0:
337,36,25617,2,0,P|302:43|268:50,1,70,10|2,0:0|0:0,0:0:0:0:
191,99,25987,2,0,P|168:96|146:86,3,35,2|10|2|2,1:0|0:0|1:0|0:0,0:0:0:0:
142,90,26358,2,0,P|132:69|130:44,3,35,10|2|10|10,0:0|0:0|0:0|0:0,0:0:0:0:
131,43,26728,5,2,1:0:0:0:
138,31,26821,1,8,0:0:0:0:
47,19,27006,2,0,L|36:89,1,70,2|2,1:3|1:3,0:0:0:0:
34,102,27284,1,8,0:0:0:0:
0,192,27469,6,0,P|60:203|69:260,1,112,6|0,1:0|0:0,0:0:0:0:
33,314,28024,1,2,0:3:0:0:
33,314,28209,2,0,P|114:289|209:271,1,168,2|2,1:0|0:3,0:0:0:0:
258,320,28950,6,0,P|302:293|267:139,2,224,2|2|2,1:0|1:0|1:0,0:0:0:0:
115,254,30802,1,2,0:0:0:0:
115,254,30987,2,0,P|84:216|92:147,1,112,0|0,1:0|0:0,0:0:0:0:
206,53,31728,5,8,0:0:0:0:
206,53,31913,2,0,P|269:64|331:79,1,112,2|0,1:0|0:0,0:0:0:0:
390,52,32468,1,2,1:0:0:0:
390,52,33209,5,10,0:0:0:0:
466,117,33394,2,0,P|448:169|429:236,1,112,2|0,1:0|0:0,0:0:0:0:
439,306,33950,1,2,0:3:0:0:
439,306,34135,2,0,B|390:322|357:292|371:278|330:243|275:269,1,168,2|2,1:0|0:3,0:0:0:0:
211,289,34876,6,0,P|143:311|-3:369,2,224,2|2|2,1:0|1:0|1:0,0:0:0:0:
272,144,36728,1,0,0:0:0:0:
284,150,36820,1,2,0:0:0:0:
296,156,36913,2,0,P|346:176|412:203,1,112,2|2,1:0|0:0,0:0:0:0:
509,310,37654,5,8,0:0:0:0:
509,310,37839,2,0,P|480:280|501:213,1,112,2|0,1:0|0:0,0:0:0:0:
497,138,38394,1,0,1:0:0:0:
497,138,38950,2,0,L|490:99,3,28,10|8|10|8,0:0|0:0|0:0|0:0,0:0:0:0:
489,99,39320,6,0,B|414:77|342:107|334:182|339:185|344:188|301:267|231:283|150:226,1,392,6|0,1:0|0:0,0:0:0:0:
16,20,48209,6,0,L|31:92,1,62.9999980773926,6|2,1:0|0:0,0:0:0:0:
87,139,48580,1,10,0:0:0:0:
84,151,48672,1,8,0:0:0:0:
81,163,48765,1,10,0:0:0:0:
3,236,48950,6,0,L|18:308,1,62.9999980773926,6|2,1:0|0:0,0:0:0:0:
79,349,49320,1,10,0:0:0:0:
91,350,49413,1,8,0:0:0:0:
103,346,49506,1,10,0:0:0:0:
181,271,49691,6,0,P|216:248|277:257,2,94.499997116089,6|4|12,1:0|1:0|1:2,0:0:0:0:
315,365,50617,1,8,1:2:0:0:
315,365,50802,2,0,P|360:372|403:332,1,94.499997116089,8|0,1:2|0:0,0:0:0:0:
403,333,51172,6,0,P|457:320|512:310,2,94.499997116089,4|4|12,1:0|1:0|1:2,0:0:0:0:
347,178,52098,1,8,1:2:0:0:
347,178,52283,2,0,P|335:144|339:113,1,62.9999980773926,8|0,1:2|0:0,0:0:0:0:
405,34,52654,6,0,P|455:31|498:62,2,94.499997116089,4|4|12,1:0|1:0|1:2,0:0:0:0:
259,105,53580,1,8,1:2:0:0:
259,105,53765,2,0,P|216:127|164:118,1,94.499997116089,8|0,1:2|0:0,0:0:0:0:
160,114,54135,6,0,P|152:73|141:12,2,94.499997116089,4|8|8,1:0|0:0|1:2,0:0:0:0:
96,198,54876,1,8,1:2:0:0:
219,304,55246,5,2,3:2:0:0:
217,314,55338,1,0,3:0:0:0:
215,323,55431,1,0,3:0:0:0:
213,332,55523,1,0,3:0:0:0:
207,349,55617,6,0,P|133:332|53:317,1,140,6|8,1:0|0:0,0:0:0:0:
15,225,56172,1,0,0:0:0:0:
19,211,56265,1,8,0:0:0:0:
17,197,56357,2,0,P|-5:136|29:66,1,140,2|8,1:0|0:0,0:0:0:0:
108,35,56913,1,0,0:0:0:0:
212,74,57098,6,0,P|269:87|305:96,1,70,6|0,1:0|1:0,0:0:0:0:
293,94,57376,1,2,0:0:0:0:
306,97,57468,1,8,0:0:0:0:
388,58,57654,1,0,0:0:0:0:
456,118,57839,2,0,P|436:193|427:235,1,105,0|0,1:0|0:0,0:0:0:0:
434,233,58209,2,0,L|446:288,3,35,8|2|2|10,0:0|0:0|0:0|0:0,0:0:0:0:
446,280,58580,5,6,1:0:0:0:
390,352,58765,1,2,1:0:0:0:
390,352,58950,2,0,P|347:342|317:337,1,70,10|2,0:0|0:0,0:0:0:0:
236,370,59320,1,2,1:0:0:0:
236,370,59506,1,2,1:0:0:0:
159,321,59691,1,10,0:0:0:0:
72,350,59876,5,0,0:0:0:0:
58,352,59968,1,8,0:0:0:0:
44,353,60061,2,0,P|24:321|25:285,1,70,6|0,1:0|1:0,0:0:0:0:
17,198,60431,2,0,P|140:227|177:240,1,140,8|0,0:0|1:0,0:0:0:0:
165,236,60894,1,8,0:0:0:0:
178,241,60987,1,0,1:0:0:0:
255,289,61172,1,10,0:0:0:0:
359,259,61357,5,8,0:0:0:0:
372,255,61450,1,8,0:0:0:0:
385,259,61543,2,0,P|417:234|400:132,1,140,6|8,1:0|0:0,0:0:0:0:
335,64,62098,1,0,0:0:0:0:
320,64,62191,1,8,0:0:0:0:
307,70,62283,2,0,B|235:82|247:30|151:42,1,140,2|8,1:0|0:0,0:0:0:0:
92,82,62839,1,2,0:0:0:0:
1,70,63024,6,0,L|22:151,1,70,6|0,1:0|1:0,0:0:0:0:
22,151,63302,1,2,0:0:0:0:
26,164,63394,1,8,0:0:0:0:
80,237,63580,1,2,0:0:0:0:
17,302,63765,2,0,P|71:317|131:339,1,105,2|0,1:0|0:0,0:0:0:0:
130,337,64135,1,8,0:0:0:0:
229,286,64320,5,2,0:0:0:0:
229,286,64506,2,0,P|302:304|376:327,2,140,6|10|2,1:0|0:0|1:0,0:0:0:0:
196,201,65431,1,0,1:0:0:0:
200,187,65524,1,2,0:0:0:0:
204,173,65617,2,0,L|281:195,1,70,8|2,0:0|0:0,0:0:0:0:
377,219,65987,6,0,P|412:170|378:91,1,140,6|8,1:0|0:0,0:0:0:0:
313,47,66543,1,2,0:0:0:0:
227,76,66728,2,0,P|194:91|153:83,1,70,10|0,0:0|0:0,0:0:0:0:
83,39,67098,1,10,0:0:0:0:
72,35,67190,1,8,0:0:0:0:
62,32,67283,1,0,3:0:0:0:
52,29,67375,1,8,0:0:0:0:
35,27,67468,6,0,P|0:71|17:159,1,140,6|10,1:0|0:0,0:0:0:0:
18,161,67931,1,8,0:0:0:0:
29,168,68024,1,0,0:0:0:0:
123,172,68209,1,2,1:0:0:0:
123,172,68394,1,2,1:0:0:0:
181,241,68580,1,2,1:0:0:0:
176,254,68672,1,8,0:0:0:0:
172,267,68765,1,0,0:0:0:0:
244,352,68950,6,0,L|274:251,2,105,2|0|12,1:0|1:0|0:0,0:0:0:0:
414,282,69876,1,0,1:0:0:0:
414,282,70061,1,10,0:0:0:0:
496,319,70246,5,10,0:0:0:0:
500,305,70339,1,8,0:0:0:0:
503,291,70431,2,0,P|487:223|466:147,1,140,6|2,1:0|1:0,0:0:0:0:
464,141,70894,1,8,0:0:0:0:
459,127,70987,1,0,0:0:0:0:
406,52,71172,2,0,P|369:37|337:41,1,70,2|2,1:0|1:0,0:0:0:0:
267,95,71543,1,2,1:0:0:0:
254,101,71635,1,8,0:0:0:0:
239,100,71728,1,0,0:0:0:0:
142,47,71913,6,0,P|104:17|37:28,2,105,2|0|12,1:0|1:0|0:0,0:0:0:0:
171,230,72839,1,0,1:0:0:0:
171,230,73024,1,10,0:0:0:0:
253,190,73209,5,10,0:0:0:0:
266,185,73302,1,8,0:0:0:0:
279,181,73394,2,0,B|351:169|339:221|435:209,1,140,6|2,1:0|1:0,0:0:0:0:
426,206,73857,1,8,0:0:0:0:
439,202,73950,1,0,0:0:0:0:
506,263,74135,2,0,L|488:344,1,70,2|0,1:0|1:0,0:0:0:0:
404,361,74506,1,2,1:0:0:0:
390,358,74598,1,8,0:0:0:0:
376,354,74691,1,0,0:0:0:0:
278,304,74876,6,0,P|227:318|162:337,2,105,2|0|12,1:0|1:0|0:0,0:0:0:0:
341,138,75802,1,0,1:0:0:0:
341,138,75987,1,10,0:0:0:0:
235,177,76172,5,10,0:0:0:0:
221,181,76265,1,8,0:0:0:0:
208,186,76357,2,0,L|121:216,1,70,6|0,1:0|0:0,0:0:0:0:
129,215,76635,2,0,P|129:155|83:135,1,105,6|14,1:0|0:0,0:0:0:0:
31,68,77098,2,0,L|109:44,1,70,6|0,0:0|1:0,0:0:0:0:
187,22,77468,1,8,0:0:0:0:
187,22,77654,1,2,0:0:0:0:
262,99,77839,6,0,P|302:115|340:111,1,70,6|0,1:0|0:0,0:0:0:0:
339,105,78117,2,0,P|385:72|443:83,1,105,4|12,1:0|0:0,0:0:0:0:
502,133,78580,2,0,L|481:216,1,70,2|0,3:2|1:0,0:0:0:0:
424,269,78950,2,0,P|385:237|327:244,1,105,10|0,0:0|0:0,0:0:0:0:
321,249,79320,5,6,1:0:0:0:
229,241,79506,2,0,L|219:191,3,35,8|8|0|8,0:0|0:0|3:0|0:0,0:0:0:0:
219,192,79876,1,8,0:0:0:0:
255,85,80061,1,12,1:2:0:0:
255,85,80246,2,0,L|208:73,3,35,8|8|0|8,0:0|0:0|3:0|0:0,0:0:0:0:
207,72,80617,1,8,0:0:0:0:
103,32,80802,5,4,1:0:0:0:
103,32,80987,2,0,L|109:66,3,35,8|8|0|8,0:0|0:0|3:0|0:0,0:0:0:0:
113,80,81357,1,8,0:0:0:0:
42,163,81543,1,4,1:0:0:0:
100,232,81728,1,8,0:0:0:0:
97,245,81820,1,8,0:0:0:0:
94,258,81913,2,0,L|86:301,3,35,8|8|8|4,0:0|0:0|0:3|0:3,0:0:0:0:
85,306,82283,5,4,1:0:0:0:
455,18,83765,5,4,1:0:0:0:
455,18,83950,1,0,1:0:0:0:
11,381,85246,5,0,0:0:0:0:
495,21,108580,6,0,P|451:22|426:50,1,84,0|0,3:0|0:0,0:0:0:0:
417,58,108950,2,0,P|394:78|361:83,1,56,2|0,0:0|0:0,0:0:0:0:
297,54,109320,2,0,P|253:20|186:33,1,112
92,139,110061,2,0,P|124:145|168:113,1,84
175,113,110431,6,0,P|164:164|152:232,2,112,2|0|0,0:0|0:0|0:0,0:0:0:0:
256,126,111357,1,2,0:0:0:0:
256,126,111543,2,0,L|245:192,1,56
285,249,111913,6,0,L|274:315,2,56,2|2|2,0:0|0:0|0:0,0:0:0:0:
340,193,112468,1,2,0:0:0:0:
471,278,112839,1,2,0:0:0:0:
471,278,113024,2,0,P|485:252|485:219,1,56,2|2,0:0|0:0,0:0:0:0:
441,161,113394,6,0,P|427:135|427:102,2,56,2|2|2,0:0|0:0|0:0,0:0:0:0:
392,223,113950,1,2,0:0:0:0:
392,223,114135,2,0,P|338:227|291:178,1,112,2|2,1:0|1:0,0:0:0:0:
208,67,114876,5,2,1:0:0:0:
208,67,115061,1,0,0:0:0:0:
142,110,115246,2,0,P|128:164|113:229,1,112,0|0,1:0|1:0,0:0:0:0:
34,353,115987,2,0,P|65:337|92:336,1,56,0|0,1:0|0:0,0:0:0:0:
161,354,116357,6,0,P|212:373|272:359,1,112,2|0,1:0|1:0,0:0:0:0:
409,291,117098,1,2,1:0:0:0:
409,291,117283,1,2,0:0:0:0:
478,327,117468,2,0,L|491:271,1,56,2|2,1:0|0:0,0:0:0:0:
463,198,117839,6,0,P|451:145|437:76,1,112,2|0,1:0|1:0,0:0:0:0:
420,12,118394,1,0,0:0:0:0:
280,84,118765,1,2,0:0:0:0:
280,84,118950,2,0,P|246:84|217:69,1,56,2|2,1:0|0:0,0:0:0:0:
163,28,119320,6,0,P|129:28|100:43,1,56,2|2,1:0|0:0,0:0:0:0:
41,76,119691,2,0,P|56:132|70:203,1,112,2|2,1:0|1:0,0:0:0:0:
216,246,120431,1,2,1:0:0:0:
216,246,120617,1,2,0:0:0:0:
309,186,120802,6,0,P|354:175|408:166,2,94.499997116089,4|4|12,1:0|1:0|1:2,0:0:0:0:
225,328,121728,1,8,1:2:0:0:
225,328,121913,2,0,P|178:314|126:302,1,94.499997116089,8|0,1:2|0:0,0:0:0:0:
123,296,122283,6,0,P|101:330|119:394,2,94.499997116089,4|4|12,1:0|1:0|1:2,0:0:0:0:
38,161,123209,1,8,1:2:0:0:
38,161,123394,2,0,L|24:96,1,62.9999980773926,8|0,1:2|0:0,0:0:0:0:
129,66,123765,2,0,P|139:112|148:158,2,94.499997116089,4|4|12,1:0|1:0|1:2,0:0:0:0:
197,21,124506,6,0,P|221:22|241:28,2,41.9999987182618,8|8|8,0:0|0:0|0:0,0:0:0:0:
314,21,124876,6,0,P|325:42|329:62,2,41.9999987182618,8|8|4,0:0|0:3|0:3,0:0:0:0:
400,88,125246,6,0,P|393:136|359:167,2,94.499997116089,4|12|12,1:0|1:2|1:2,0:0:0:0:
468,41,125987,2,0,P|482:95|492:151,1,94.499997116089,12|0,1:2|0:0,0:0:0:0:
480,143,126357,6,0,L|454:259,2,105,0|12|12,1:0|1:2|1:2,0:0:0:0:
400,88,127098,1,12,1:2:0:0:
237,166,127468,1,12,1:2:0:0:
237,166,127654,1,8,1:2:0:0:
159,118,127839,1,0,0:0:0:0:
7,218,128209,6,0,L|28:305,1,70,6|0,1:0|0:0,0:0:0:0:
83,354,128580,1,8,0:0:0:0:
96,350,128672,2,0,L|180:332,1,70,2|8,1:0|0:0,0:0:0:0:
177,329,128950,2,0,L|254:346,1,70,6|0,1:0|0:0,0:0:0:0:
325,368,129320,1,0,1:0:0:0:
338,370,129413,2,0,P|383:368|406:351,1,70,10|0,0:0|1:0,0:0:0:0:
412,344,129691,6,0,P|429:278|442:230,2,105,10|10|10,0:0|0:0|0:0,0:0:0:0:
311,296,130431,2,0,P|302:254|295:220,1,70,14|0,1:2|0:0,0:0:0:0:
326,141,130802,1,8,0:0:0:0:
328,130,130894,1,8,0:0:0:0:
331,120,130987,1,8,0:0:0:0:
333,110,131079,1,8,0:0:0:0:
337,98,131172,5,6,1:0:0:0:
428,71,131357,1,2,1:0:0:0:
428,71,131543,2,0,L|413:142,1,70,10|2,0:0|0:0,0:0:0:0:
473,214,131913,1,2,1:0:0:0:
473,214,132098,1,2,1:0:0:0:
426,292,132283,1,10,0:0:0:0:
475,368,132468,5,0,0:0:0:0:
461,370,132561,1,8,0:0:0:0:
447,371,132654,2,0,L|372:386,1,70,6|0,1:0|1:0,0:0:0:0:
309,325,133024,2,0,B|237:313|249:365|153:353,1,140,8|0,0:0|1:0,0:0:0:0:
161,350,133486,1,8,0:0:0:0:
146,350,133580,1,0,1:0:0:0:
58,373,133765,1,10,0:0:0:0:
11,275,133950,5,8,0:0:0:0:
16,261,134043,1,8,0:0:0:0:
20,247,134135,2,0,P|38:179|57:112,1,140,6|8,1:0|0:0,0:0:0:0:
109,18,134691,1,0,0:0:0:0:
124,18,134783,1,8,0:0:0:0:
137,24,134876,2,0,P|189:69|264:53,1,140,2|8,1:0|0:0,0:0:0:0:
339,24,135431,1,2,0:0:0:0:
430,80,135617,6,0,P|445:118|439:157,1,70,6|0,1:0|1:0,0:0:0:0:
438,159,135894,1,2,0:0:0:0:
432,171,135987,1,8,0:0:0:0:
361,228,136172,1,2,0:0:0:0:
405,308,136357,2,0,P|355:320|288:336,1,105,2|0,1:0|0:0,0:0:0:0:
290,335,136728,1,8,0:0:0:0:
183,366,136913,5,2,0:0:0:0:
183,366,137098,2,0,B|111:378|123:326|27:338,2,140,6|10|2,1:0|0:0|1:0,0:0:0:0:
229,287,138024,1,0,1:0:0:0:
232,273,138117,1,2,0:0:0:0:
236,259,138209,2,0,L|252:185,1,70,8|2,0:0|0:0,0:0:0:0:
281,87,138580,6,0,P|222:41|144:57,1,140,6|8,1:0|0:0,0:0:0:0:
88,102,139135,1,2,0:0:0:0:
36,177,139320,2,0,L|53:258,1,70,10|0,0:0|3:0,0:0:0:0:
85,329,139691,1,10,0:0:0:0:
95,326,139783,1,8,0:0:0:0:
105,324,139876,1,0,3:0:0:0:
115,322,139968,1,8,0:0:0:0:
127,319,140061,6,0,P|195:335|263:351,1,140,6|2,1:0|1:0,0:0:0:0:
277,353,140524,1,8,0:0:0:0:
290,357,140617,1,0,0:0:0:0:
368,309,140802,1,2,1:0:0:0:
368,309,140987,1,2,1:0:0:0:
456,332,141173,1,2,1:0:0:0:
461,319,141265,1,8,0:0:0:0:
461,304,141358,1,0,0:0:0:0:
421,204,141543,6,0,P|435:147|451:93,2,105,0|0|12,1:0|1:0|0:0,0:0:0:0:
260,287,142469,1,0,1:0:0:0:
260,287,142654,1,10,0:0:0:0:
218,206,142839,5,10,0:0:0:0:
222,192,142932,1,8,0:0:0:0:
225,178,143024,2,0,P|183:125|113:132,1,140,6|2,1:0|1:0,0:0:0:0:
106,139,143487,1,8,0:0:0:0:
98,150,143580,1,0,0:0:0:0:
29,209,143765,2,0,L|42:282,1,70,2|2,1:0|1:0,0:0:0:0:
109,338,144136,1,2,1:0:0:0:
124,339,144229,1,8,0:0:0:0:
137,333,144321,1,0,0:0:0:0:
225,267,144506,6,0,P|235:317|245:373,2,105,2|0|12,1:0|1:0|0:0,0:0:0:0:
283,96,145432,1,0,1:0:0:0:
283,96,145617,1,10,0:0:0:0:
363,53,145802,5,10,0:0:0:0:
376,56,145894,1,8,0:0:0:0:
389,60,145987,2,0,P|398:125|408:206,1,140,6|2,1:0|1:0,0:0:0:0:
409,212,146450,1,8,0:0:0:0:
410,226,146543,1,0,0:0:0:0:
442,311,146728,2,0,P|410:328|368:330,1,70,2|2,1:0|1:0,0:0:0:0:
295,291,147098,1,0,1:0:0:0:
281,288,147191,1,8,0:0:0:0:
267,291,147283,1,0,0:0:0:0:
172,342,147468,6,0,P|129:369|74:364,2,105,0|0|12,1:0|1:0|0:0,0:0:0:0:
277,193,148394,1,0,1:0:0:0:
277,193,148580,1,14,0:0:0:0:
165,168,148765,5,8,0:0:0:0:
151,172,148857,1,8,0:0:0:0:
138,177,148950,2,0,P|107:150|126:55,1,140,14|10,1:2|0:0,0:0:0:0:
201,19,149506,1,2,1:0:0:0:
283,57,149691,1,10,0:0:0:0:
283,57,149876,1,2,1:0:0:0:
368,26,150061,2,0,L|384:99,1,70,10|2,0:0|1:0,0:0:0:0:
310,175,150431,6,0,P|299:223|285:295,1,105,6|0,1:0|3:0,0:0:0:0:
287,291,150802,2,0,L|296:338,1,35,8|8,0:0|0:0,0:0:0:0:
381,349,151080,1,8,0:0:0:0:
394,346,151172,2,0,L|440:332,2,35,2|8|0,1:0|0:0|3:0,0:0:0:0:
374,256,151543,1,10,0:0:0:0:
376,245,151635,1,8,0:0:0:0:
379,235,151728,1,8,0:3:0:0:
381,225,151820,1,4,0:3:0:0:
384,215,151913,6,0,P|373:150|360:73,1,140,6|8,1:0|0:0,0:0:0:0:
263,47,152468,1,2,0:0:0:0:
250,41,152561,1,8,0:0:0:0:
236,42,152654,2,0,B|164:54|176:2|80:14,1,140,2|8,1:0|0:0,0:0:0:0:
26,61,153209,1,0,0:0:0:0:
98,143,153394,6,0,L|76:236,1,70,6|0,1:0|1:0,0:0:0:0:
78,224,153672,1,2,1:0:0:0:
75,237,153765,1,8,0:0:0:0:
18,308,153950,1,2,0:0:0:0:
90,363,154135,2,0,P|142:350|204:337,1,105,2|0,1:0|0:0,0:0:0:0:
206,336,154505,2,0,L|248:345,3,35,8|2|2|10,0:0|0:0|0:0|0:0,0:0:0:0:
253,348,154876,5,6,1:0:0:0:
343,323,155061,1,2,1:0:0:0:
343,323,155246,2,0,L|411:337,1,70,10|2,0:0|0:0,0:0:0:0:
489,287,155617,1,2,1:0:0:0:
489,287,155802,1,2,1:0:0:0:
451,204,155987,1,10,0:0:0:0:
506,131,156172,5,2,0:0:0:0:
504,116,156265,1,8,0:0:0:0:
500,102,156357,2,0,P|466:83|429:79,1,70,6|2,1:0|1:0,0:0:0:0:
352,115,156728,2,0,P|301:149|220:134,1,140,10|0,0:0|1:0,0:0:0:0:
216,128,157191,1,8,0:0:0:0:
204,120,157283,1,0,1:0:0:0:
116,142,157468,1,10,0:0:0:0:
14,104,157654,5,8,0:0:0:0:
11,117,157746,1,8,0:0:0:0:
7,130,157839,2,0,P|20:197|35:279,1,140,6|8,1:0|0:0,0:0:0:0:
85,363,158394,1,0,0:0:0:0:
98,360,158487,1,8,0:0:0:0:
112,358,158580,2,0,P|180:344|249:330,1,140,2|8,1:0|0:0,0:0:0:0:
333,364,159135,1,2,0:0:0:0:
407,312,159320,6,0,L|428:231,1,70,6|0,1:0|1:0,0:0:0:0:
428,231,159598,1,2,0:0:0:0:
432,218,159691,1,8,0:0:0:0:
450,128,159876,1,2,0:0:0:0:
415,43,160061,2,0,P|358:31|313:66,1,105,2|0,1:0|0:0,0:0:0:0:
314,67,160431,1,8,0:0:0:0:
232,144,160617,5,2,0:0:0:0:
232,144,160802,2,0,P|177:152|128:117,2,105,6|2|2,1:0|0:0|0:0,0:0:0:0:
323,136,161543,2,0,L|334:186,3,35,2|8|0|0,1:0|0:0|1:0|0:0,0:0:0:0:
341,179,161913,2,0,L|357:261,1,70,10|2,0:0|3:2,0:0:0:0:
306,324,162283,6,0,P|287:334|261:336,3,35,10|8|0|8,0:0|0:0|3:0|0:0,0:0:0:0:
260,332,162654,2,0,P|241:321|215:320,3,35,8|0|2|8,0:0|3:0|3:2|0:0,0:0:0:0:
214,323,163024,2,0,L|138:341,1,70,10|0,1:2|3:0,0:0:0:0:
55,335,163394,2,0,L|48:296,3,35,10|8|0|8,1:2|0:0|0:0|0:0,0:0:0:0:
53,287,163765,6,0,P|63:221|78:143,1,140,6|2,1:0|1:0,0:0:0:0:
80,135,164228,1,8,0:0:0:0:
83,121,164320,1,0,0:0:0:0:
145,54,164506,1,2,1:0:0:0:
145,54,164691,1,2,1:0:0:0:
224,98,164876,1,2,1:0:0:0:
237,101,164968,1,8,0:0:0:0:
250,97,165061,1,0,0:0:0:0:
348,44,165247,6,0,P|392:20|447:28,2,105,2|0|12,1:0|1:0|0:0,0:0:0:0:
270,210,166173,1,0,1:0:0:0:
270,210,166357,1,10,0:0:0:0:
336,273,166543,5,10,0:0:0:0:
333,286,166635,1,8,0:0:0:0:
330,299,166728,2,0,B|258:287|270:339|174:327,1,140,6|2,1:0|1:0,0:0:0:0:
183,323,167191,1,8,0:0:0:0:
169,322,167283,1,0,0:0:0:0:
81,345,167468,2,0,P|65:310|68:277,1,70,2|0,1:0|1:0,0:0:0:0:
130,212,167839,1,2,1:0:0:0:
135,199,167931,1,8,0:0:0:0:
133,185,168024,1,0,0:0:0:0:
109,81,168209,6,0,P|54:69|4:62,2,105,2|0|12,1:0|1:0|0:0,0:0:0:0:
236,218,169135,1,0,1:0:0:0:
236,218,169320,1,10,0:0:0:0:
291,290,169506,5,10,0:0:0:0:
303,296,169598,1,8,0:0:0:0:
317,296,169691,2,0,P|377:283|471:267,1,140,6|2,1:0|1:0,0:0:0:0:
468,266,170154,1,8,0:0:0:0:
481,262,170246,1,0,3:0:0:0:
506,174,170431,2,0,L|490:105,1,70,2|0,1:0|1:0,0:0:0:0:
431,36,170802,1,10,0:0:0:0:
417,39,170894,1,8,0:0:0:0:
403,43,170987,1,0,0:0:0:0:
316,103,171172,6,0,P|263:113|222:84,2,105,10|8|8,0:0|0:0|0:0,0:0:0:0:
407,266,172098,1,8,0:0:0:0:
334,327,172283,1,10,0:0:0:0:
323,328,172375,1,8,0:0:0:0:
313,330,172468,1,8,0:0:0:0:
302,332,172560,1,8,0:0:0:0:
288,334,172654,6,0,L|200:351,1,70,6|0,1:0|0:0,0:0:0:0:
206,354,172931,2,0,P|155:344|103:334,1,105,6|14,1:0|1:2,0:0:0:0:
30,279,173394,2,0,P|28:242|46:210,1,70,2|0,0:0|1:0,0:0:0:0:
122,166,173765,1,2,1:3:0:0:
122,166,173950,1,2,3:0:0:0:
72,89,174135,6,0,P|103:72|150:77,1,70,6|0,1:0|0:0,0:0:0:0:
149,79,174413,2,0,P|196:105|252:96,1,105,4|12,1:0|0:0,0:0:0:0:
322,49,174876,2,0,P|349:34|396:31,1,70,2|0,0:0|1:0,0:0:0:0:
463,80,175246,2,0,P|470:132|481:196,1,105,10|0,0:0|3:0,0:0:0:0:
481,197,175617,5,6,1:0:0:0:
468,286,175802,2,0,P|447:285|426:276,3,35,8|8|0|8,0:0|0:0|3:0|0:0,0:0:0:0:
420,275,176172,1,8,0:0:0:0:
314,304,176357,1,12,1:2:0:0:
314,304,176543,2,0,P|304:285|301:262,3,35,8|8|0|8,0:0|0:0|3:0|0:0,0:0:0:0:
299,256,176913,1,8,0:0:0:0:
227,170,177098,5,4,1:0:0:0:
227,170,177284,2,0,P|238:151|256:137,3,35,8|8|0|8,0:0|0:0|3:0|0:0,0:0:0:0:
261,133,177654,1,8,0:0:0:0:
348,66,177839,1,4,1:0:0:0:
427,110,178024,1,8,0:0:0:0:
430,123,178116,1,8,0:0:0:0:
433,136,178209,2,0,L|441:179,3,35,8|8|8|4,0:0|0:0|0:3|0:3,0:0:0:0:
442,184,178579,5,4,1:0:0:0:
349,319,178950,1,4,0:3:0:0:
349,319,179135,1,4,0:3:0:0:
281,273,179320,1,8,0:3:0:0:
281,273,179506,2,0,P|219:287|158:302,1,125.999996154785,8|12,0:3|0:3,0:0:0:0:
79,322,180061,6,0,P|61:290|62:260,1,62.9999980773926,4|0,1:0|0:0,0:0:0:0:
66,253,180339,1,0,3:0:0:0:
74,243,180431,2,0,P|92:211|91:181,1,62.9999980773926,8|0,0:0|0:0,0:0:0:0:
57,110,180802,2,0,P|92:87|173:101,1,125.999996154785,4|8,0:3|0:3,0:0:0:0:
243,189,181357,5,4,0:3:0:0:
243,189,181543,2,0,P|278:213|339:208,2,94.499997116089,4|12|8,1:0|0:0|0:3,0:0:0:0:
171,99,182283,2,0,P|132:117|106:172,2,94.499997116089,4|8|4,1:0|0:3|0:3,0:0:0:0:
279,85,183024,2,0,P|282:42|247:-7,2,94.499997116089,4|8|4,1:0|0:3|0:3,0:0:0:0:
243,189,183765,6,0,L|252:232,1,31.4999990386963,12|0,0:0|0:0,0:0:0:0:
320,260,184043,2,0,L|311:303,1,31.4999990386963,12|0,0:0|0:0,0:0:0:0:
241,329,184320,2,0,L|250:372,1,31.4999990386963,12|0,0:0|0:0,0:0:0:0:
251,371,184506,1,6,1:0:0:0:
251,371,185987,5,2,1:3:0:0:
180,329,186172,1,2,1:3:0:0:
510,26,193394,5,4,1:0:0:0:
510,26,193580,1,2,1:0:0:0:
429,68,193765,2,0,B|357:80|369:28|273:40,2,140,8|0|8,0:0|1:0|0:0,0:0:0:0:
503,121,194691,5,2,0:0:0:0:
508,133,194783,1,8,0:0:0:0:
506,146,194876,2,0,L|494:215,1,70,4|0,1:0|1:0,0:0:0:0:
458,298,195246,2,0,L|389:286,1,70,8|2,0:0|0:0,0:0:0:0:
306,324,195617,2,0,L|237:336,1,70,2|2,1:0|1:0,0:0:0:0:
224,341,195894,2,0,P|171:350|120:359,1,105,2|2,0:0|0:0,0:0:0:0:
49,310,196357,5,4,1:0:0:0:
49,310,196543,1,2,1:0:0:0:
132,274,196728,2,0,P|156:236|122:149,2,140,8|2|8,0:0|1:0|0:0,0:0:0:0:
49,310,197654,5,2,0:0:0:0:
45,297,197746,1,8,0:0:0:0:
38,286,197839,2,0,P|31:252|44:212,1,70,6|2,1:0|1:0,0:0:0:0:
2,135,198209,2,0,P|27:111|69:103,1,70,10|2,0:0|0:0,0:0:0:0:
138,152,198580,2,0,L|188:141,3,35,2|10|2|2,1:0|0:0|1:0|0:0,0:0:0:0:
184,137,198950,2,0,L|234:126,3,35,10|2|2|10,0:0|0:0|0:0|0:0,0:0:0:0:
232,129,199320,5,4,1:0:0:0:
320,168,199506,1,2,1:0:0:0:
320,168,199691,2,0,P|339:92|359:15,2,140,8|2|8,0:0|1:0|0:0,0:0:0:0:
239,211,200617,5,0,0:0:0:0:
235,224,200709,1,8,0:0:0:0:
231,237,200802,2,0,L|245:318,1,70,6|0,1:0|1:0,0:0:0:0:
313,363,201172,2,0,L|381:351,1,70,8|2,0:0|0:0,0:0:0:0:
467,317,201543,2,0,P|481:285|475:245,1,70,2|2,1:0|1:0,0:0:0:0:
466,242,201820,2,0,P|442:197|459:129,1,105,2|2,0:0|0:0,0:0:0:0:
503,72,202283,5,4,1:0:0:0:
503,72,202468,1,2,1:0:0:0:
427,20,202654,2,0,B|355:8|367:60|271:48,2,140,8|2|8,0:0|1:0|0:0,0:0:0:0:
503,72,203580,5,2,0:0:0:0:
499,86,203672,1,8,0:0:0:0:
495,100,203765,2,0,L|476:170,1,70,6|2,1:0|1:0,0:0:0:0:
497,255,204135,2,0,L|478:325,1,70,10|2,0:0|0:0,0:0:0:0:
400,369,204506,2,0,P|381:368|363:363,3,35,2|10|2|2,1:0|0:0|1:0|0:0,0:0:0:0:
355,354,204876,2,0,P|336:355|318:360,3,35,10|2|10|10,0:0|0:0|0:0|0:0,0:0:0:0:
306,360,205246,6,0,P|298:305|288:241,2,105,4|4|12,1:2|1:2|1:2,0:0:0:0:
142,280,206172,1,8,1:2:0:0:
142,280,206357,2,0,P|150:238|160:196,1,70,8|0,0:2|0:0,0:0:0:0:
183,106,206728,6,0,P|146:79|85:86,2,105,4|4|12,1:2|1:2|1:2,0:0:0:0:
326,226,207654,1,8,1:2:0:0:
326,226,207839,1,8,0:2:0:0:
406,63,208209,6,0,P|352:50|298:40,2,105,4|4|12,1:2|1:2|1:2,0:0:0:0:
501,224,209135,1,8,1:2:0:0:
501,224,209320,2,0,P|505:266|492:292,1,70,8|0,0:2|0:0,0:0:0:0:
385,297,209691,6,0,P|372:246|399:197,2,105,4|4|8,1:2|1:2|1:2,0:0:0:0:
447,363,210431,1,8,1:2:0:0:
