osu file format v14

[General]
AudioFilename: audio.mp3
AudioLeadIn: 0
PreviewTime: 47427
Countdown: 0
SampleSet: Soft
StackLeniency: 0.9
Mode: 0
LetterboxInBreaks: 0
WidescreenStoryboard: 1

[Editor]
DistanceSpacing: 0.1
BeatDivisor: 4
GridSize: 32
TimelineZoom: 1.6

[Metadata]
Title:Sono Hana wa Shougai de Mottomo Imaimashiku Jama datta.
TitleUnicode:その花は生涯で最も忌々しく邪魔だった──。
Artist:konoco
ArtistUnicode:konoco
Creator:SMOKELIND
Version:Kowari's Insane
Source:
Tags:An abominably huge flower Japanese Rock JRock J-Rock Pepekcz Iceluin Kowari Nymphe Kiyoshi Guarden Kang-Sae Byeok Reform Kujinn
BeatmapID:3785207
BeatmapSetID:1818579

[Difficulty]
HPDrainRate:5
CircleSize:4
OverallDifficulty:8
ApproachRate:8.8
SliderMultiplier:1.7
SliderTickRate:1

[Events]
//Background and Video events
0,0,"94694410_p0.jpg",0,0
//Break Periods
2,39520,47459
2,85246,102395
2,187468,192765
//Storyboard Layer 0 (Background)
//Storyboard Layer 1 (Fail)
//Storyboard Layer 2 (Pass)
//Storyboard Layer 3 (Foreground)
//Storyboard Layer 4 (Overlay)
//Storyboard Sound Samples

[TimingPoints]
3025,370.37037037037,4,2,6,77,1,0
27469,370.37037037037,4,2,6,57,1,0
27469,-142.857142857143,4,2,6,57,0,0
48209,-142.857142857143,4,2,6,77,0,0
48951,-100,4,2,6,77,0,0
55617,-100,4,2,6,87,0,0
103024,-142.857142857143,4,2,77,27,0,0
108950,-125,4,2,77,37,0,0
114876,-125,4,2,6,47,0,0
120802,-125,4,2,6,67,0,0
126357,-125,4,2,6,77,0,0
127654,-83.3333333333333,4,2,6,77,0,0
130431,-125,4,2,6,77,0,0
130987,-100,4,2,6,77,0,0
131172,-100,4,2,6,87,0,0
178580,-100,4,2,6,77,0,0
193394,-100,4,2,6,87,0,0
199320,-100,4,2,6,77,0,0
205246,-100,4,2,6,87,0,0

[Colours]
Combo1 : 53,53,53
Combo2 : 233,233,233
Combo3 : 77,255,255

[HitObjects]
125,177,14876,6,0,P|115:245|106:281,1,85,4|2,1:0|1:0,2:0:0:0:
47,290,15247,1,8,2:0:0:0:
203,237,15432,1,2,2:0:0:0:
203,237,15524,1,8,2:0:0:0:
203,237,15617,2,0,P|188:306|183:374,1,127.5,0|2,1:0|2:0,2:0:0:0:
183,362,15987,2,0,P|234:377|273:388,1,85,8|2,2:0|2:0,2:0:0:0:
399,338,16358,6,0,P|338:321|306:307,1,85,4|0,1:0|1:0,2:0:0:0:
314,283,16636,1,2,2:0:0:0:
310,254,16728,1,8,2:0:0:0:
307,226,16821,1,0,2:0:0:0:
304,198,16913,1,2,2:0:0:0:
211,93,17099,5,2,1:0:0:0:
249,103,17191,1,10,2:0:0:0:
283,88,17284,1,2,1:0:0:0:
320,68,17376,1,2,2:0:0:0:
357,78,17469,1,10,2:0:0:0:
389,104,17562,1,0,2:0:0:0:
429,105,17654,1,2,2:0:0:0:
504,5,17839,6,0,P|457:17|403:25,1,85,4|2,1:0|1:0,2:0:0:0:
348,10,18210,1,8,2:0:0:0:
489,102,18395,1,2,2:0:0:0:
489,102,18487,1,8,2:0:0:0:
489,102,18580,2,0,P|431:117|356:106,1,127.5,2|2,1:0|2:0,2:0:0:0:
364,109,18950,2,0,P|376:162|378:196,1,85,8|2,2:0|2:0,2:0:0:0:
484,337,19321,6,0,P|469:280|462:228,1,85,6|2,1:0|1:0,2:0:0:0:
475,246,19599,1,2,2:0:0:0:
485,238,19691,1,10,2:0:0:0:
495,230,19784,1,2,2:0:0:0:
505,222,19876,1,2,2:0:0:0:
343,235,20062,1,2,1:0:0:0:
343,235,20154,1,10,2:0:0:0:
343,235,20247,1,2,1:0:0:0:
378,207,20339,1,2,2:0:0:0:
414,178,20432,1,10,2:0:0:0:
452,147,20524,1,2,2:0:0:0:
489,115,20617,1,2,2:0:0:0:
424,300,20802,6,0,P|363:294|324:278,1,85,4|2,1:0|1:0,2:0:0:0:
340,286,21080,1,2,2:0:0:0:
275,199,21265,1,2,2:0:0:0:
275,199,21358,1,2,2:0:0:0:
172,285,21543,2,0,P|162:335|160:380,1,85,2|2,1:0|1:0,2:0:0:0:
159,368,21821,1,2,1:0:0:0:
159,368,21913,1,8,2:0:0:0:
104,205,22099,5,0,2:0:0:0:
104,205,22191,1,8,2:0:0:0:
104,205,22284,2,0,P|86:266|77:333,1,127.5,6|2,1:0|2:0,2:0:0:0:
77,329,22654,2,0,P|21:306|-16:295,1,85,8|2,2:0|2:0,2:0:0:0:
13,188,23024,1,2,1:0:0:0:
34,205,23117,1,10,2:0:0:0:
62,215,23210,1,2,1:0:0:0:
91,217,23302,1,2,2:0:0:0:
117,222,23395,1,10,2:0:0:0:
140,236,23487,1,2,2:0:0:0:
158,255,23580,1,2,2:0:0:0:
103,122,23765,6,0,P|94:65|90:26,1,85,4|2,1:0|1:0,2:0:0:0:
91,37,24043,1,2,2:0:0:0:
15,104,24228,1,2,2:0:0:0:
15,104,24321,1,2,2:0:0:0:
144,185,24506,2,0,P|152:128|194:69,1,127.5,2|2,1:0|2:0,2:0:0:0:
191,71,24876,2,0,P|250:64|284:56,1,85,8|2,2:0|2:0,2:0:0:0:
466,0,25247,5,6,1:0:0:0:
394,43,25432,1,2,1:0:0:0:
383,69,25524,1,2,2:0:0:0:
381,97,25617,1,10,2:0:0:0:
388,124,25709,1,2,2:0:0:0:
403,148,25802,1,2,2:0:0:0:
303,144,25987,5,2,1:0:0:0:
403,148,26173,1,2,1:0:0:0:
432,179,26265,1,2,2:0:0:0:
446,219,26358,1,10,2:0:0:0:
443,261,26450,1,2,2:0:0:0:
424,298,26543,1,10,2:0:0:0:
391,325,26635,1,10,2:0:0:0:
357,335,26728,5,2,1:0:0:0:
357,335,26821,1,8,2:0:0:0:
187,313,27006,1,2,1:3:0:0:
30,288,27192,1,2,1:3:0:0:
30,288,27284,1,8,2:0:0:0:
77,220,27469,6,0,P|66:174|62:108,1,89.2499972763062,6|0,1:0|2:0,2:0:0:0:
61,132,27839,2,0,P|51:89|44:65,1,59.4999981842042,0|2,2:0|2:3,2:0:0:0:
156,120,28209,2,0,P|136:45|133:21,1,89.2499972763062,2|0,1:0|2:0,2:0:0:0:
203,2,28764,1,2,2:3:0:0:
267,82,28950,6,0,P|274:42|353:0,1,118.999996368408,2|0,1:0|2:0,2:0:0:0:
410,23,29506,1,2,2:3:0:0:
481,60,29691,2,0,P|485:25|490:-10,1,59.4999981842042,2|0,1:0|2:0,2:0:0:0:
423,114,30061,2,0,P|419:149|414:184,1,59.4999981842042,0|2,2:0|2:3,2:0:0:0:
469,224,30431,5,2,1:0:0:0:
407,297,30709,1,0,2:0:0:0:
454,373,30987,2,0,P|486:375|517:381,2,59.4999981842042,0|2|0,1:0|2:0|2:0,2:0:0:0:
276,311,31727,5,8,2:0:0:0:
199,298,31913,2,0,B|129:271|99:323|12:279,2,178.499994552612,2|2|2,1:0|1:0|2:0,2:0:0:0:
276,311,33209,1,10,2:0:0:0:
342,214,33394,5,2,1:0:0:0:
342,214,33580,2,0,P|347:173|373:96,1,118.999996368408,2|2,2:0|2:3,2:0:0:0:
249,140,34135,2,0,P|261:107|269:60,1,59.4999981842042,2|0,1:0|2:0,2:0:0:0:
266,83,34414,2,0,P|226:76|166:56,1,89.2499972763062,0|2,2:0|2:3,2:0:0:0:
121,10,34876,5,2,1:0:0:0:
47,14,35061,1,0,2:0:0:0:
7,78,35246,1,0,2:0:0:0:
27,153,35431,1,2,2:3:0:0:
103,187,35617,2,0,P|136:180|166:175,1,59.4999981842042,2|0,1:0|2:0,2:0:0:0:
58,281,35987,2,0,P|101:267|139:261,1,59.4999981842042,0|2,2:0|2:3,2:0:0:0:
189,308,36357,5,2,1:0:0:0:
255,352,36543,2,0,P|267:314|287:273,1,59.4999981842042,0|0,2:0|2:0,2:0:0:0:
120,380,36913,2,0,P|138:336|164:260,1,118.999996368408,2|2,1:0|2:0,2:0:0:0:
54,289,37468,2,0,P|46:255|33:219,1,59.4999981842042,0|8,2:0|2:0,2:0:0:0:
0,136,37839,6,0,B|47:118|65:134|121:110,1,118.999996368408,2|0,1:0|2:0,2:0:0:0:
176,64,38394,1,0,1:0:0:0:
251,84,38580,1,2,2:0:0:0:
497,7,38949,1,10,2:0:0:0:
497,7,39042,1,8,2:0:0:0:
497,7,39135,1,10,2:0:0:0:
497,7,39227,1,8,2:0:0:0:
497,7,39320,1,6,1:0:0:0:
181,232,48209,6,0,P|181:168|167:98,1,118.999996368408,6|10,1:0|2:0,2:0:0:0:
171,113,48672,1,8,2:0:0:0:
171,113,48765,1,10,2:0:0:0:
333,270,48951,6,0,P|333:206|361:96,1,170,6|10,1:0|2:0,2:0:0:0:
357,103,49413,1,8,2:0:0:0:
357,103,49506,1,10,2:0:0:0:
465,197,49691,5,6,1:0:0:0:
438,288,49968,1,4,1:0:0:0:
411,378,50246,1,12,1:2:0:0:
411,378,50617,5,8,1:2:0:0:
465,197,50802,1,8,1:2:0:0:
275,123,51172,5,4,1:0:0:0:
258,234,51450,1,4,1:0:0:0:
243,357,51728,1,12,1:2:0:0:
243,357,52099,5,8,1:2:0:0:
275,123,52283,1,8,1:2:0:0:
37,106,52654,5,4,1:0:0:0:
66,236,52931,1,4,1:0:0:0:
97,368,53209,1,12,1:2:0:0:
97,368,53580,5,8,1:2:0:0:
37,106,53765,1,8,1:2:0:0:
12,205,54135,5,4,1:0:0:0:
481,167,54414,1,8,2:0:0:0:
144,157,54691,5,8,1:2:0:0:
356,213,54876,1,8,1:2:0:0:
255,192,55246,5,2,3:2:0:0:
255,192,55339,1,0,3:2:0:0:
255,192,55431,1,0,3:2:0:0:
255,192,55524,1,8,2:0:0:0:
255,192,55617,2,0,P|251:256|232:333,1,127.5,6|0,1:0|2:0,2:0:0:0:
237,317,55987,1,8,2:0:0:0:
333,251,56172,2,0,L|398:235,1,42.5,0|8,2:0|2:0,2:0:0:0:
166,243,56357,2,0,P|108:259|31:244,1,127.5,2|0,1:0|2:0,2:0:0:0:
42,248,56728,2,0,L|22:149,1,85,8|0,2:0|2:0,2:0:0:0:
0,34,57098,5,6,1:0:0:0:
84,10,57283,1,0,1:0:0:0:
164,87,57468,1,8,2:0:0:0:
164,87,57560,1,2,2:0:0:0:
164,87,57653,1,0,2:0:0:0:
164,87,57746,1,10,2:0:0:0:
164,87,57839,1,0,1:0:0:0:
68,123,58024,1,0,1:0:0:0:
0,48,58209,6,0,L|49:39,1,42.5,8|2,2:0|2:0,2:0:0:0:
139,80,58395,2,0,L|188:71,1,42.5,2|10,2:0|2:0,2:0:0:0:
250,22,58580,5,6,1:0:0:0:
333,53,58765,1,2,1:0:0:0:
425,35,58950,1,10,2:0:0:0:
290,129,59135,5,2,2:0:0:0:
290,129,59228,1,8,2:0:0:0:
290,129,59320,1,2,1:0:0:0:
352,39,59506,1,2,1:0:0:0:
459,50,59691,1,10,2:0:0:0:
512,147,59876,5,0,2:0:0:0:
512,147,59968,1,8,2:0:0:0:
512,147,60061,2,0,P|458:139|418:121,1,85,6|0,1:0|1:0,2:0:0:0:
479,238,60431,1,8,2:0:0:0:
479,238,60524,2,0,P|423:222|386:207,1,85,0|8,1:0|2:0,2:0:0:0:
398,212,60802,2,0,L|414:285,1,42.5,0|8,1:0|2:0,2:0:0:0:
426,329,60987,1,0,1:0:0:0:
316,241,61172,5,10,2:0:0:0:
325,271,61264,1,0,2:0:0:0:
328,303,61357,1,8,2:0:0:0:
325,334,61449,1,8,2:0:0:0:
315,365,61543,2,0,P|241:377|178:375,1,127.5,6|0,1:0|2:0,2:0:0:0:
189,376,61913,1,8,2:0:0:0:
131,237,62098,2,0,L|194:222,1,42.5,0|8,2:0|2:0,2:0:0:0:
78,310,62283,2,0,P|30:320|-22:345,1,85,2|0,1:0|1:0,2:0:0:0:
61,185,62654,2,0,P|69:128|71:72,1,85,8|2,2:0|2:0,2:0:0:0:
70,100,62931,1,8,2:0:0:0:
70,100,63024,5,6,1:0:0:0:
178,155,63209,1,0,1:0:0:0:
178,155,63302,1,2,2:0:0:0:
278,115,63487,1,0,2:0:0:0:
278,115,63580,1,2,2:0:0:0:
204,213,63765,1,2,1:0:0:0:
187,185,63857,1,8,2:0:0:0:
178,155,63950,1,0,1:0:0:0:
176,123,64042,1,0,2:0:0:0:
181,92,64135,1,8,2:0:0:0:
326,32,64320,5,2,2:0:0:0:
326,32,64413,1,8,2:0:0:0:
326,32,64506,2,0,P|375:27|411:14,1,85,6|0,1:0|1:0,2:0:0:0:
196,129,64876,2,0,P|147:124|111:111,1,85,10|0,2:0|2:0,2:0:0:0:
111,80,65154,1,8,2:0:0:0:
85,95,65246,1,2,1:0:0:0:
57,97,65339,1,8,2:0:0:0:
29,92,65431,1,0,1:0:0:0:
70,4,65617,1,8,2:0:0:0:
276,125,65802,5,2,2:0:0:0:
276,125,65894,1,8,2:0:0:0:
276,125,65987,2,0,B|300:202|252:215|281:303,1,170,6|8,1:0|2:0,2:0:0:0:
139,197,66543,1,2,2:0:0:0:
97,268,66728,2,0,P|56:300|9:316,1,85,10|0,2:0|2:0,2:0:0:0:
251,374,67098,5,10,2:0:0:0:
251,374,67191,1,8,2:0:0:0:
251,374,67283,1,0,3:0:0:0:
251,374,67376,1,8,2:0:0:0:
251,374,67468,2,0,P|320:355|376:343,1,127.5,6|0,1:0|2:0,2:0:0:0:
409,341,67839,1,10,2:0:0:0:
449,342,67931,1,8,2:0:0:0:
364,121,68209,5,2,1:0:0:0:
281,151,68394,1,2,1:0:0:0:
193,158,68580,1,2,1:0:0:0:
193,158,68672,2,0,P|140:156|90:137,1,85,8|0,2:0|2:0,2:0:0:0:
48,88,68950,6,0,P|70:156|74:218,1,127.5,2|0,1:0|1:0,2:0:0:0:
139,0,69505,2,0,P|158:70|199:176,1,170,12|0,2:0|1:0,2:0:0:0:
248,55,70061,1,10,2:0:0:0:
272,74,70153,1,0,3:0:0:0:
302,84,70246,1,10,2:0:0:0:
334,84,70338,1,8,2:0:0:0:
364,73,70431,5,6,1:0:0:0:
428,11,70617,1,0,1:0:0:0:
512,59,70802,1,2,1:0:0:0:
512,59,70894,1,8,2:0:0:0:
360,174,71172,5,2,1:0:0:0:
480,150,71357,1,2,1:0:0:0:
512,282,71543,1,2,1:0:0:0:
512,282,71635,1,8,2:0:0:0:
512,282,71728,1,0,2:0:0:0:
349,264,71913,6,0,P|285:256|246:243,1,85,2|0,1:0|2:0,2:0:0:0:
265,250,72191,1,0,1:0:0:0:
395,370,72468,2,0,P|314:350|226:342,1,170,12|0,2:0|1:0,2:0:0:0:
28,365,73024,5,10,2:0:0:0:
28,365,73117,1,0,3:0:0:0:
28,365,73209,1,10,2:0:0:0:
28,365,73302,1,8,2:0:0:0:
28,365,73394,1,6,1:0:0:0:
104,299,73580,1,0,1:0:0:0:
212,324,73765,1,2,1:0:0:0:
212,324,73857,1,8,2:0:0:0:
93,183,74043,5,0,2:0:0:0:
93,183,74135,1,2,1:0:0:0:
251,164,74320,1,0,1:0:0:0:
298,11,74506,1,2,1:0:0:0:
298,11,74598,1,8,2:0:0:0:
298,11,74691,1,0,2:0:0:0:
298,11,74783,1,0,2:0:0:0:
298,11,74876,5,2,1:0:0:0:
183,121,75061,1,0,2:0:0:0:
183,121,75154,1,0,1:0:0:0:
297,242,75339,1,0,2:0:0:0:
297,242,75431,1,12,2:0:0:0:
246,317,75617,2,0,P|241:267|216:213,1,85,0|0,2:0|1:0,2:0:0:0:
169,197,75987,1,10,2:0:0:0:
352,356,76172,5,10,2:0:0:0:
357,320,76265,1,8,2:0:0:0:
366,287,76357,2,0,P|412:269|465:254,1,85,6|0,1:0|2:0,2:0:0:0:
446,258,76635,2,0,P|468:192|493:127,1,127.5,6|14,1:0|2:0,2:0:0:0:
431,71,77098,1,6,2:0:0:0:
346,93,77283,1,0,1:0:0:0:
346,93,77376,1,2,2:0:0:0:
346,93,77468,1,8,2:0:0:0:
260,59,77654,1,2,2:0:0:0:
110,86,77839,6,0,P|52:68|30:57,1,85,6|0,1:0|2:0,2:0:0:0:
30,57,78117,2,0,P|51:102|60:149,1,85,4|0,1:0|2:0,2:0:0:0:
58,136,78394,1,12,2:0:0:0:
152,10,78580,2,0,P|144:89|248:108,1,170,2|10,3:2|2:0,2:0:0:0:
292,97,79135,1,0,2:0:0:0:
146,208,79320,5,6,1:0:0:0:
76,270,79506,1,8,2:0:0:0:
71,249,79598,1,8,2:0:0:0:
67,228,79691,1,0,3:0:0:0:
63,207,79783,1,8,2:0:0:0:
59,186,79876,1,8,2:0:0:0:
177,232,80061,5,12,1:2:0:0:
60,290,80246,1,8,2:0:0:0:
67,259,80338,1,8,2:0:0:0:
73,227,80431,1,0,3:0:0:0:
79,196,80523,1,8,2:0:0:0:
85,165,80616,1,8,2:0:0:0:
176,276,80802,5,4,1:0:0:0:
25,291,80987,1,8,2:0:0:0:
53,259,81079,1,8,2:0:0:0:
83,229,81172,1,0,3:0:0:0:
110,196,81264,1,8,2:0:0:0:
139,165,81357,1,8,2:0:0:0:
152,313,81543,5,4,1:0:0:0:
79,225,81728,1,8,2:0:0:0:
79,225,81820,1,8,2:0:0:0:
79,225,81913,1,8,2:0:0:0:
79,225,82006,1,8,2:0:0:0:
79,225,82098,1,8,2:3:0:0:
79,225,82284,5,4,1:0:0:0:
482,321,83765,1,4,1:0:0:0:
482,321,83950,1,0,1:0:0:0:
381,190,103024,6,0,P|366:137|354:110,1,59.4999981842042,2|0,2:0|2:0,2:0:0:0:
364,132,103302,2,0,P|402:148|436:154,1,59.4999981842042,0|0,2:0|2:0,2:0:0:0:
289,86,103764,2,0,P|275:30|264:-18,2,89.2499972763062,2|0|0,2:0|2:0|2:0,2:0:0:0:
329,153,104506,5,2,2:0:0:0:
294,216,104691,1,0,2:0:0:0:
294,216,104783,1,0,2:0:0:0:
323,286,104968,1,0,2:0:0:0:
323,286,105061,1,0,2:0:0:0:
267,348,105246,6,0,P|302:337|338:321,1,59.4999981842042,2|0,2:0|2:0,2:0:0:0:
323,328,105524,2,0,P|358:337|393:341,1,59.4999981842042,0|0,2:0|2:0,2:0:0:0:
381,340,105802,2,0,L|424:328,1,29.7499990921021,0|0,2:0|2:0,2:0:0:0:
490,306,105987,5,2,2:0:0:0:
371,263,106265,1,0,2:0:0:0:
259,296,106543,1,0,2:0:0:0:
259,296,106635,1,0,2:0:0:0:
259,296,106728,2,0,P|209:310|191:323,1,59.4999981842042,2|0,2:0|2:0,2:0:0:0:
203,313,107006,2,0,P|149:304|110:292,1,89.2499972763062,0|0,2:0|2:0,2:0:0:0:
34,273,107468,5,0,2:0:0:0:
34,273,107746,1,0,2:0:0:0:
34,273,108024,1,0,2:0:0:0:
5,353,108209,5,0,2:0:0:0:
5,353,108487,1,0,2:0:0:0:
5,353,108765,1,0,2:0:0:0:
4,204,108950,6,0,P|47:198|82:188,1,68,2|0,2:0|2:0,2:0:0:0:
25,95,109320,1,0,2:0:0:0:
25,95,109413,2,0,P|70:81|125:56,1,102,0|0,2:0|2:0,2:0:0:0:
195,125,109968,1,0,2:0:0:0:
270,47,110246,2,0,L|265:1,1,34,0|0,2:0|2:0,2:0:0:0:
266,13,110431,6,0,P|304:25|341:31,1,68,2|0,2:0|2:0,2:0:0:0:
435,108,110894,1,0,2:0:0:0:
435,108,110986,1,0,2:0:0:0:
435,108,111079,1,0,2:0:0:0:
435,108,111172,2,0,P|451:56|494:9,2,102,0|0|0,2:0|2:0|2:0,2:0:0:0:
366,166,111913,1,2,2:0:0:0:
447,334,112098,5,2,2:0:0:0:
391,286,112283,1,2,2:0:0:0:
391,286,112376,1,0,2:0:0:0:
422,216,112561,1,0,2:0:0:0:
422,216,112654,1,0,2:0:0:0:
498,225,112839,1,2,2:0:0:0:
498,225,112931,1,0,2:0:0:0:
512,301,113117,1,0,2:0:0:0:
512,301,113209,1,2,2:0:0:0:
409,356,113394,5,2,2:0:0:0:
316,337,113580,1,2,2:0:0:0:
246,373,113765,1,2,2:0:0:0:
137,320,113950,5,2,2:0:0:0:
174,382,114135,2,0,P|190:320|161:165,1,204,2|2,1:0|2:0,2:0:0:0:
197,91,114876,6,0,P|152:104|120:111,1,68,2|0,1:0|2:0,2:0:0:0:
58,16,115246,2,0,P|46:73|17:158,1,136,0|0,1:0|1:0,2:0:0:0:
93,269,115802,1,0,2:0:0:0:
93,269,115894,2,0,P|50:263|-10:227,1,102,0|0,2:0|2:0,2:0:0:0:
75,178,116357,5,2,1:0:0:0:
185,214,116543,1,0,2:0:0:0:
280,237,116728,1,0,1:0:0:0:
280,237,116820,2,0,P|318:227|347:213,1,68,0|0,2:0|2:0,2:0:0:0:
343,214,117098,2,0,P|322:286|313:359,1,136,2|2,1:0|1:0,2:0:0:0:
385,384,117654,1,2,2:0:0:0:
448,213,117839,5,2,1:0:0:0:
512,279,118024,2,0,P|465:295|436:308,1,68,0|0,2:0|1:0,2:0:0:0:
448,302,118302,2,0,P|406:279|379:270,1,68,0|2,2:0|2:0,2:0:0:0:
448,213,118580,2,0,P|456:153|473:84,2,102,0|0|2,1:0|2:0|2:0,2:0:0:0:
448,213,119228,1,0,2:0:0:0:
448,213,119320,1,2,1:0:0:0:
367,170,119506,5,2,2:0:0:0:
304,119,119691,1,2,1:0:0:0:
304,119,119783,1,0,2:0:0:0:
217,118,119968,5,0,2:0:0:0:
217,118,120061,1,2,1:0:0:0:
151,170,120246,1,2,2:0:0:0:
97,120,120431,2,0,P|47:117|-4:95,1,102,2|0,1:0|2:0,2:0:0:0:
0,97,120802,5,4,1:0:0:0:
0,97,121080,1,4,1:0:0:0:
0,97,121357,1,12,1:2:0:0:
51,278,121727,5,8,1:2:0:0:
31,198,121912,1,8,1:2:0:0:
172,83,122283,5,4,1:0:0:0:
178,192,122560,1,4,1:0:0:0:
188,298,122838,1,12,1:2:0:0:
188,298,123210,5,8,1:2:0:0:
172,83,123394,1,8,1:2:0:0:
388,47,123765,5,4,1:0:0:0:
365,187,124043,1,4,1:0:0:0:
340,329,124321,1,12,1:2:0:0:
421,367,124506,5,8,2:0:0:0:
451,360,124629,5,8,2:0:0:0:
470,336,124752,5,8,2:0:0:0:
480,294,124876,5,8,2:0:0:0:
480,294,124999,5,8,2:3:0:0:
480,294,125123,5,4,2:3:0:0:
505,328,125246,5,4,1:0:0:0:
273,299,125524,1,12,1:2:0:0:
66,264,125802,1,12,1:2:0:0:
66,264,125987,1,12,1:2:0:0:
512,42,126357,5,0,1:0:0:0:
261,95,126635,1,12,1:2:0:0:
26,137,126913,1,12,1:2:0:0:
26,137,127098,1,12,1:2:0:0:
299,184,127469,5,12,1:2:0:0:
0,210,127654,2,0,P|51:202|115:183,1,101.999996887207,8|0,1:2|2:0,2:0:0:0:
99,188,128209,5,6,1:0:0:0:
281,269,128579,1,8,2:0:0:0:
281,269,128672,2,0,L|206:253,1,50.9999984436036,2|0,1:0|2:0,2:0:0:0:
99,188,128858,5,8,2:0:0:0:
99,188,128950,2,0,P|163:161|257:175,1,152.999995330811,6|0,1:0|2:0,2:0:0:0:
317,138,129320,1,0,1:0:0:0:
317,138,129413,2,0,L|331:197,1,50.9999984436036,10|0,2:0|2:0,2:0:0:0:
356,356,129598,5,0,1:0:0:0:
356,356,129691,1,10,2:0:0:0:
414,182,129876,1,2,2:0:0:0:
414,182,129968,1,10,2:0:0:0:
473,2,130154,1,2,2:0:0:0:
473,2,130246,1,10,2:0:0:0:
512,83,130431,6,0,B|422:54|399:97|325:60,1,170,14|8,1:2|2:0,2:0:0:0:
344,68,130987,2,0,L|327:7,1,42.5,8|8,2:0|2:0,2:0:0:0:
440,157,131172,6,0,P|447:209|460:248,1,85,6|2,1:0|1:0,2:0:0:0:
365,366,131543,2,0,P|426:345|462:343,1,85,10|2,2:0|2:0,2:0:0:0:
446,343,131820,1,8,2:0:0:0:
446,343,131913,2,0,P|391:324|352:215,1,170,2|10,1:0|2:0,2:0:0:0:
181,313,132468,5,0,2:0:0:0:
181,313,132561,1,8,2:0:0:0:
181,313,132654,2,0,P|134:327|94:334,1,85,6|0,1:0|1:0,2:0:0:0:
5,367,133024,1,8,2:0:0:0:
5,367,133117,2,0,P|19:307|26:249,1,85,0|8,1:0|2:0,2:0:0:0:
46,206,133394,2,0,L|54:248,1,42.5,0|8,1:0|2:0,2:0:0:0:
98,333,133580,1,0,1:0:0:0:
0,138,133765,1,10,2:0:0:0:
19,162,133857,1,0,2:0:0:0:
46,179,133950,1,8,2:0:0:0:
77,186,134042,1,8,2:0:0:0:
108,181,134135,6,0,P|173:161|236:151,1,127.5,6|0,1:0|2:0,2:0:0:0:
231,151,134506,1,8,2:0:0:0:
119,55,134691,1,0,2:0:0:0:
119,55,134783,1,8,2:0:0:0:
119,55,134876,2,0,P|69:73|32:78,1,85,2|0,1:0|1:0,2:0:0:0:
37,77,135246,6,0,L|97:88,1,42.5,8|2,2:0|2:0,2:0:0:0:
139,157,135432,2,0,L|199:168,1,42.5,2|8,2:0|2:0,2:0:0:0:
257,106,135617,6,0,P|307:114|352:99,1,85,6|0,1:0|1:0,2:0:0:0:
339,105,135894,2,0,P|385:127|465:188,1,127.5,2|2,2:0|2:0,2:0:0:0:
480,175,136265,1,8,2:0:0:0:
456,205,136357,1,2,1:0:0:0:
455,241,136450,1,8,2:0:0:0:
468,271,136543,1,0,1:0:0:0:
364,381,136728,2,0,P|372:321|392:269,1,85,8|2,2:0|2:0,2:0:0:0:
379,297,137006,1,8,2:0:0:0:
379,297,137098,6,0,P|311:318|203:336,1,170,6|10,1:0|2:0,2:0:0:0:
75,225,137654,1,0,1:0:0:0:
103,239,137746,1,8,2:0:0:0:
134,244,137839,1,2,1:0:0:0:
166,240,137931,1,8,2:0:0:0:
195,226,138024,1,0,1:0:0:0:
262,151,138209,2,0,P|269:104|296:16,1,127.5,8|8,2:0|2:0,2:0:0:0:
291,27,138580,6,0,P|228:7|181:-9,1,85,6|0,1:0|1:0,2:0:0:0:
390,131,138950,2,0,P|324:168|252:137,1,127.5,8|0,2:0|2:0,2:0:0:0:
276,157,139320,1,10,2:0:0:0:
177,103,139506,1,0,3:0:0:0:
81,161,139691,1,10,2:0:0:0:
81,161,139783,2,0,P|37:177|-5:181,1,85,8|8,2:0|2:0,2:0:0:0:
0,181,140061,5,6,1:0:0:0:
96,241,140246,1,0,1:0:0:0:
19,303,140431,1,2,1:0:0:0:
19,303,140524,2,0,P|72:322|132:366,1,127.5,8|2,2:0|1:0,2:0:0:0:
225,289,140987,1,2,1:0:0:0:
326,333,141172,1,2,1:0:0:0:
326,333,141265,2,0,P|385:327|415:319,1,85,8|0,2:0|2:0,2:0:0:0:
409,320,141543,6,0,P|420:264|448:179,1,127.5,0|0,1:0|1:0,2:0:0:0:
256,372,142098,2,0,P|276:304|298:184,1,170,12|0,2:0|1:0,2:0:0:0:
338,29,142654,2,0,L|344:70,1,42.5,10|0,2:0|3:0,2:0:0:0:
428,90,142839,5,10,2:0:0:0:
428,90,142931,1,8,2:0:0:0:
428,90,143024,2,0,P|375:81|331:65,1,85,6|0,1:0|1:0,2:0:0:0:
218,131,143394,1,2,1:0:0:0:
218,131,143487,2,0,P|161:118|108:111,1,85,8|0,2:0|2:0,2:0:0:0:
134,113,143765,5,2,1:0:0:0:
23,140,143950,1,2,1:0:0:0:
1,35,144135,1,2,1:0:0:0:
1,35,144228,1,8,2:0:0:0:
78,288,144505,6,0,P|93:234|113:197,1,85,2|0,1:0|2:0,2:0:0:0:
105,208,144783,1,0,1:0:0:0:
16,383,145060,2,0,P|87:338|186:331,1,170,12|0,2:0|1:0,2:0:0:0:
300,289,145617,6,0,L|358:300,1,42.5,10|0,2:0|3:0,2:0:0:0:
373,325,145802,2,0,L|431:336,1,42.5,10|8,2:0|2:0,2:0:0:0:
494,361,145987,5,6,1:0:0:0:
504,274,146172,1,0,1:0:0:0:
425,228,146357,1,2,1:0:0:0:
425,228,146450,1,8,2:0:0:0:
425,228,146543,1,0,2:0:0:0:
512,107,146728,5,2,1:0:0:0:
373,145,146913,1,2,1:0:0:0:
281,32,147098,1,0,1:0:0:0:
281,32,147191,1,8,2:0:0:0:
281,32,147283,1,0,2:0:0:0:
281,32,147376,1,0,2:0:0:0:
281,32,147468,5,0,1:0:0:0:
374,1,147654,1,0,2:0:0:0:
374,1,147746,1,0,1:0:0:0:
430,85,147931,1,0,2:0:0:0:
430,85,148024,2,0,P|416:162|421:260,1,170,12|0,2:0|1:0,2:0:0:0:
305,219,148580,1,14,2:0:0:0:
311,250,148672,1,0,3:0:0:0:
317,281,148765,1,8,2:0:0:0:
323,312,148857,1,8,2:0:0:0:
329,344,148950,5,14,1:2:0:0:
221,384,149135,1,0,1:0:0:0:
170,260,149320,5,10,2:0:0:0:
44,297,149506,1,2,1:0:0:0:
219,167,149691,5,10,2:0:0:0:
65,116,149876,1,2,1:0:0:0:
339,81,150061,5,10,2:0:0:0:
186,4,150246,1,2,1:0:0:0:
243,130,150431,6,0,P|255:195|249:286,1,127.5,6|0,1:0|3:0,2:0:0:0:
276,297,150802,5,8,2:0:0:0:
240,273,150894,1,8,2:0:0:0:
199,263,150987,1,0,3:0:0:0:
157,266,151079,1,8,2:0:0:0:
121,241,151172,5,2,1:0:0:0:
116,272,151264,1,8,2:0:0:0:
111,304,151357,1,0,3:0:0:0:
106,335,151449,1,0,2:0:0:0:
77,364,151543,5,10,2:0:0:0:
77,364,151635,1,8,2:0:0:0:
77,364,151728,1,8,2:3:0:0:
77,364,151820,1,4,2:3:0:0:
77,364,151913,2,0,P|128:370|172:384,1,85,6|0,1:0|1:0,2:0:0:0:
22,258,152283,1,8,2:0:0:0:
22,258,152376,2,0,P|78:262|125:275,1,85,0|8,2:0|2:0,2:0:0:0:
105,268,152654,2,0,P|80:187|67:94,1,170,2|8,1:0|2:0,2:0:0:0:
67,103,153117,1,2,2:0:0:0:
222,13,153302,5,10,2:0:0:0:
222,13,153394,1,6,1:0:0:0:
182,115,153580,1,0,1:0:0:0:
291,92,153765,1,8,2:0:0:0:
291,92,153857,1,0,2:0:0:0:
291,92,153950,1,2,2:0:0:0:
148,33,154135,2,0,P|92:24|48:9,1,85,2|0,1:0|1:0,2:0:0:0:
208,174,154506,1,8,2:0:0:0:
216,143,154598,1,2,2:0:0:0:
234,117,154691,1,2,2:0:0:0:
260,99,154783,1,10,2:0:0:0:
291,92,154876,5,6,1:0:0:0:
399,132,155061,1,2,1:0:0:0:
470,57,155246,1,10,2:0:0:0:
363,0,155431,2,0,L|349:43,1,42.5,2|8,2:0|2:0,2:0:0:0:
292,129,155617,5,2,1:0:0:0:
418,164,155802,1,2,1:0:0:0:
346,268,155987,1,10,2:0:0:0:
346,268,156080,2,0,P|337:239|321:200,1,42.5,0|2,2:0|2:0,2:0:0:0:
418,164,156265,1,8,2:0:0:0:
418,164,156357,2,0,P|434:222|455:269,1,85,6|2,1:0|1:0,2:0:0:0:
512,359,156728,5,10,2:0:0:0:
471,356,156820,1,0,1:0:0:0:
431,353,156913,1,0,3:0:0:0:
394,368,157006,2,0,L|331:361,1,42.5,8|0,2:0|1:0,2:0:0:0:
281,330,157191,1,8,2:0:0:0:
281,330,157283,2,0,L|218:324,1,42.5,0|0,1:0|3:0,2:0:0:0:
154,290,157468,1,10,2:0:0:0:
151,300,157560,1,0,3:0:0:0:
149,310,157653,1,8,2:0:0:0:
147,321,157745,1,8,2:0:0:0:
145,331,157839,6,0,P|99:341|39:363,1,85,6|0,1:0|1:0,2:0:0:0:
186,202,158209,1,8,2:0:0:0:
186,202,158302,2,0,P|140:217|99:226,1,85,2|8,2:0|2:0,2:0:0:0:
104,225,158580,2,0,P|153:240|238:328,1,170,2|8,1:0|2:0,2:0:0:0:
330,214,159135,5,2,2:0:0:0:
330,214,159228,1,10,2:0:0:0:
330,214,159320,2,0,P|385:201|436:182,1,85,6|0,1:0|1:0,2:0:0:0:
411,191,159598,2,0,P|423:118|437:29,1,127.5,2|2,2:0|2:0,2:0:0:0:
509,148,160061,1,2,1:0:0:0:
509,148,160154,1,8,2:0:0:0:
509,148,160246,1,0,1:0:0:0:
320,112,160431,2,0,P|259:127|216:129,1,85,8|2,2:0|2:0,2:0:0:0:
237,128,160709,1,8,2:0:0:0:
237,128,160802,5,6,1:0:0:0:
151,62,160987,1,0,1:0:0:0:
41,89,161172,1,8,2:0:0:0:
129,170,161357,1,2,2:0:0:0:
100,183,161449,1,8,2:0:0:0:
77,205,161542,1,2,1:0:0:0:
64,234,161634,1,8,2:0:0:0:
61,266,161727,1,0,1:0:0:0:
182,343,161913,2,0,P|168:286|166:245,1,85,10|2,2:0|3:2,2:0:0:0:
3,331,162283,5,10,2:0:0:0:
23,335,162375,1,8,2:0:0:0:
44,339,162468,1,0,3:0:0:0:
65,344,162560,1,8,2:0:0:0:
90,332,162654,5,8,2:0:0:0:
115,350,162747,1,0,3:0:0:0:
146,356,162839,1,2,3:2:0:0:
177,349,162932,1,8,2:0:0:0:
221,363,163024,5,10,1:2:0:0:
225,320,163116,1,8,2:0:0:0:
230,278,163209,1,0,3:0:0:0:
234,236,163301,1,8,2:0:0:0:
210,201,163394,6,0,L|278:190,1,42.5,10|8,1:2|2:0,2:0:0:0:
314,104,163580,2,0,L|355:97,1,42.5,0|8,2:0|2:0,2:0:0:0:
512,7,163765,5,6,1:0:0:0:
403,31,163950,1,0,1:0:0:0:
489,178,164135,1,2,1:0:0:0:
489,178,164228,2,0,P|489:125|511:65,1,85,8|0,2:0|2:0,2:0:0:0:
497,94,164506,2,0,P|439:108|399:111,1,85,2|2,1:0|1:0,2:0:0:0:
512,270,164876,5,2,1:0:0:0:
512,270,164968,2,0,P|460:256|382:248,1,127.5,8|2,2:0|1:0,2:0:0:0:
235,331,165523,1,0,1:0:0:0:
402,358,165709,1,0,2:0:0:0:
402,358,165802,2,0,P|334:338|215:333,1,170,12|0,2:0|1:0,2:0:0:0:
120,234,166357,1,10,2:0:0:0:
116,265,166449,1,0,3:0:0:0:
101,293,166542,1,10,2:0:0:0:
76,312,166634,1,8,2:0:0:0:
46,321,166728,6,0,P|34:264|26:232,1,85,6|0,1:0|2:0,2:0:0:0:
65,40,167098,1,2,1:0:0:0:
65,40,167191,2,0,P|74:94|85:138,1,85,8|0,2:0|2:0,2:0:0:0:
80,123,167468,1,2,1:0:0:0:
195,173,167654,1,0,1:0:0:0:
268,83,167839,1,2,1:0:0:0:
268,83,167931,1,8,2:0:0:0:
205,283,168117,5,0,2:0:0:0:
205,283,168209,2,0,P|256:275|290:258,1,85,2|0,1:0|2:0,2:0:0:0:
285,260,168487,2,0,P|251:322|240:390,1,127.5,0|12,1:0|2:0,2:0:0:0:
360,325,168949,1,0,2:0:0:0:
451,296,169135,1,0,1:0:0:0:
415,194,169320,6,0,L|425:137,1,42.5,10|0,2:0|3:0,2:0:0:0:
466,128,169506,2,0,L|476:71,1,42.5,10|8,2:0|2:0,2:0:0:0:
420,13,169691,5,6,1:0:0:0:
314,18,169876,1,0,1:0:0:0:
294,132,170061,1,2,1:0:0:0:
294,132,170154,1,8,2:0:0:0:
294,132,170246,1,0,3:0:0:0:
168,71,170431,5,2,1:0:0:0:
178,217,170617,1,0,1:0:0:0:
321,253,170802,1,10,2:0:0:0:
321,253,170894,1,8,2:0:0:0:
321,253,170987,1,0,2:0:0:0:
321,253,171080,1,0,2:0:0:0:
321,253,171172,6,0,L|371:242,1,42.5,10|8,2:0|2:0,2:0:0:0:
431,189,171357,1,0,2:0:0:0:
431,189,171450,2,0,L|373:205,1,42.5,8|0,2:0|2:0,2:0:0:0:
367,331,171635,5,8,2:0:0:0:
367,331,171728,1,8,2:0:0:0:
499,308,171913,1,0,2:0:0:0:
467,294,172006,1,8,2:0:0:0:
438,280,172098,1,8,2:0:0:0:
283,241,172283,5,10,2:0:0:0:
263,278,172375,1,8,2:0:0:0:
228,301,172468,1,10,2:0:0:0:
186,307,172560,1,8,2:0:0:0:
147,293,172654,6,0,P|84:297|26:338,1,127.5,6|6,1:0|1:0,2:0:0:0:
48,174,173209,1,14,1:2:0:0:
31,331,173394,2,0,P|63:269|66:182,1,127.5,2|0,2:0|2:0,2:0:0:0:
69,212,173765,2,0,L|45:115,1,85,2|2,1:3|3:0,2:0:0:0:
11,14,174135,5,6,1:0:0:0:
191,27,174413,1,4,1:0:0:0:
257,193,174691,2,0,P|245:261|240:369,1,170,12|0,2:0|1:0,2:0:0:0:
379,180,175246,2,0,P|362:243|352:319,1,127.5,10|0,2:0|3:0,2:0:0:0:
353,304,175617,5,6,1:0:0:0:
269,252,175802,1,8,2:0:0:0:
238,223,175894,1,8,2:0:0:0:
221,184,175987,1,0,3:0:0:0:
220,142,176079,1,8,2:0:0:0:
235,103,176172,1,8,2:0:0:0:
294,25,176357,5,12,1:2:0:0:
235,103,176543,1,8,2:0:0:0:
212,125,176635,1,8,2:0:0:0:
185,141,176728,1,0,3:0:0:0:
154,150,176820,1,8,2:0:0:0:
123,151,176913,1,8,2:0:0:0:
27,148,177098,5,4,1:0:0:0:
123,151,177283,1,8,2:0:0:0:
143,154,177375,1,8,2:0:0:0:
163,162,177468,1,0,3:0:0:0:
181,174,177560,1,8,2:0:0:0:
195,189,177653,1,8,2:0:0:0:
205,303,177839,5,4,1:0:0:0:
214,168,178024,1,8,2:0:0:0:
214,168,178117,1,8,2:0:0:0:
214,168,178209,1,8,2:0:0:0:
214,168,178302,1,8,2:0:0:0:
214,168,178394,1,8,2:3:0:0:
193,42,178580,6,0,P|198:95|215:172,1,127.5,4|0,1:0|2:0,2:0:0:0:
213,167,178950,1,4,2:3:0:0:
374,125,179135,5,4,2:3:0:0:
328,56,179320,1,8,2:3:0:0:
328,56,179413,1,8,2:3:0:0:
328,56,179506,1,8,2:3:0:0:
291,120,179691,1,12,2:3:0:0:
426,44,179876,5,12,2:3:0:0:
426,44,179968,1,0,2:0:0:0:
426,44,180061,2,0,P|476:32|513:14,1,85,4|0,1:0|2:0,2:0:0:0:
506,17,180431,2,0,P|486:69|480:121,1,85,8|0,2:0|2:0,2:0:0:0:
440,180,180802,1,4,2:3:0:0:
440,180,181080,1,4,2:3:0:0:
440,180,181357,1,4,2:3:0:0:
488,345,181543,6,0,P|430:324|358:310,2,127.5,4|12|8,1:0|2:0|2:3,2:0:0:0:
398,186,182283,6,0,P|349:196|279:240,1,127.5,4|8,1:0|2:3,2:0:0:0:
283,235,182654,2,0,P|272:286|256:315,1,85,0|4,2:0|2:3,2:0:0:0:
231,51,183024,2,0,P|199:96|174:145,1,85,4|0,1:0|2:0,2:0:0:0:
184,122,183302,2,0,P|195:180|192:255,1,127.5,8|4,2:3|2:3,2:0:0:0:
116,0,183765,5,12,2:0:0:0:
15,143,184042,1,12,2:0:0:0:
66,329,184320,1,12,2:0:0:0:
125,271,184506,5,6,1:0:0:0:
125,271,184598,1,0,2:0:0:0:
417,312,185988,1,2,1:3:0:0:
417,312,186173,1,2,1:3:0:0:
100,34,193394,6,0,P|90:102|81:138,1,85,4|2,1:0|1:0,2:0:0:0:
86,117,193672,2,0,P|138:93|172:86,1,85,2|0,2:0|2:0,2:0:0:0:
164,86,193950,1,2,2:0:0:0:
75,233,194135,1,0,1:0:0:0:
75,233,194228,1,2,2:0:0:0:
75,233,194320,1,0,1:0:0:0:
75,233,194413,2,0,P|115:208|213:173,1,127.5,2|2,2:0|2:0,2:0:0:0:
114,381,194876,5,4,1:0:0:0:
114,381,194968,2,0,L|127:325,1,42.5,0|0,2:0|1:0,2:0:0:0:
187,256,195154,2,0,P|171:312|167:357,1,85,2|0,2:0|2:0,2:0:0:0:
167,338,195431,1,2,2:0:0:0:
24,238,195617,5,2,1:0:0:0:
44,285,195709,1,10,2:0:0:0:
81,318,195802,1,2,1:0:0:0:
127,323,195894,1,2,2:0:0:0:
172,303,195987,1,10,2:0:0:0:
200,259,196080,1,0,2:0:0:0:
209,212,196172,1,2,2:0:0:0:
496,331,196357,6,0,P|455:324|414:314,1,85,4|2,1:0|1:0,2:0:0:0:
414,314,196635,2,0,L|404:265,1,42.5,2|8,2:0|2:0,2:0:0:0:
379,178,196820,1,2,2:0:0:0:
379,178,196913,1,2,2:0:0:0:
312,354,197098,2,0,P|316:295|301:226,1,127.5,2|2,1:0|2:0,2:0:0:0:
301,228,197468,2,0,P|248:240|214:242,1,85,8|2,2:0|2:0,2:0:0:0:
287,50,197839,5,6,1:0:0:0:
354,108,198024,1,2,1:0:0:0:
385,115,198116,1,2,2:0:0:0:
416,121,198209,1,10,2:0:0:0:
447,128,198301,1,2,2:0:0:0:
478,135,198394,1,2,2:0:0:0:
306,165,198580,5,2,1:0:0:0:
306,165,198672,1,10,2:0:0:0:
306,165,198765,1,2,1:0:0:0:
324,128,198857,1,2,2:0:0:0:
364,97,198950,1,10,2:0:0:0:
415,90,199043,1,2,2:0:0:0:
470,106,199135,1,2,2:0:0:0:
246,79,199320,6,0,P|185:69|129:58,1,85,4|2,1:0|1:0,2:0:0:0:
162,64,199599,2,0,P|101:78|7:71,1,127.5,2|2,2:0|2:0,2:0:0:0:
182,233,200061,5,2,1:0:0:0:
182,233,200154,2,0,L|191:173,1,42.5,0|2,2:0|1:0,2:0:0:0:
115,132,200339,2,0,P|109:184|94:233,1,85,2|2,1:0|2:0,2:0:0:0:
100,215,200617,2,0,L|53:229,1,42.5,0|8,2:0|2:0,2:0:0:0:
3,314,200802,5,6,1:0:0:0:
33,305,200894,1,0,2:0:0:0:
65,301,200987,1,0,1:0:0:0:
97,302,201080,2,0,P|161:318|197:331,1,85,2|0,2:0|2:0,2:0:0:0:
179,324,201357,1,2,2:0:0:0:
318,205,201543,6,0,L|331:265,1,42.5,2|10,1:0|2:0,2:0:0:0:
307,336,201728,1,2,1:0:0:0:
329,300,201820,1,2,2:0:0:0:
364,277,201913,1,10,2:0:0:0:
406,269,202005,1,2,2:0:0:0:
447,280,202098,1,2,2:0:0:0:
247,232,202283,6,0,P|238:175|229:135,1,85,4|2,1:0|1:0,2:0:0:0:
232,148,202561,2,0,P|180:176|146:185,1,85,2|2,2:0|2:0,2:0:0:0:
155,183,202839,2,0,P|118:174|85:162,1,42.5,2|8,2:0|2:0,2:0:0:0:
23,96,203024,5,2,1:0:0:0:
23,96,203117,1,2,2:0:0:0:
23,96,203209,1,2,1:0:0:0:
23,96,203302,2,0,P|28:153|31:242,1,127.5,2|2,2:0|2:0,2:0:0:0:
186,231,203765,6,0,P|168:272|158:301,1,42.5,6|2,1:0|2:0,2:0:0:0:
93,360,203949,1,2,1:0:0:0:
122,370,204042,1,2,2:0:0:0:
154,369,204135,1,10,2:0:0:0:
183,355,204227,1,2,2:0:0:0:
204,332,204320,1,2,2:0:0:0:
299,384,204506,6,0,P|285:339|281:314,1,42.5,2|10,1:0|2:0,2:0:0:0:
306,258,204691,1,2,1:0:0:0:
337,229,204783,1,2,2:0:0:0:
377,216,204876,1,10,2:0:0:0:
419,221,204968,1,2,2:0:0:0:
455,242,205061,1,10,2:0:0:0:
479,277,205153,1,10,2:0:0:0:
479,277,205246,5,4,1:2:0:0:
251,324,205524,1,4,1:2:0:0:
318,88,205802,1,12,1:2:0:0:
350,215,206172,5,8,1:2:0:0:
354,220,206357,1,8,2:0:0:0:
165,199,206728,5,4,1:2:0:0:
426,81,207006,1,4,1:2:0:0:
414,365,207283,1,12,1:2:0:0:
333,214,207653,5,8,1:2:0:0:
366,224,207838,1,8,2:0:0:0:
309,16,208209,5,4,1:2:0:0:
235,357,208486,1,4,1:2:0:0:
309,16,208765,1,12,1:2:0:0:
236,142,209135,5,8,1:2:0:0:
277,239,209320,1,8,2:0:0:0:
109,219,209691,5,4,1:2:0:0:
395,144,209968,1,4,1:2:0:0:
109,219,210246,5,8,1:2:0:0:
395,144,210431,1,8,1:2:0:0:
