osu file format v14

[General]
AudioFilename: audio.mp3
AudioLeadIn: 0
PreviewTime: 47427
Countdown: 0
SampleSet: Soft
StackLeniency: 0.7
Mode: 0
LetterboxInBreaks: 0
WidescreenStoryboard: 1

[Editor]
Bookmarks: 14876,27469,40802,49691,55617,85246,103024,114876,120802,131172,178580,187468,193394
DistanceSpacing: 1
BeatDivisor: 1
GridSize: 32
TimelineZoom: 1.3

[Metadata]
Title:Sono Hana wa Shougai de Mottomo Imaimashiku Jama datta.
TitleUnicode:その花は生涯で最も忌々しく邪魔だった──。
Artist:konoco
ArtistUnicode:konoco
Creator:SMOKELIND
Version:Iceluin's Normal
Source:
Tags:An abominably huge flower Japanese Rock JRock J-Rock Pepekcz Iceluin Kowari Nymphe Kiyoshi Guarden Kang-Sae Byeok Reform Kujinn
BeatmapID:3785206
BeatmapSetID:1818579

[Difficulty]
HPDrainRate:4
CircleSize:3
OverallDifficulty:4
ApproachRate:5
SliderMultiplier:1.17
SliderTickRate:1

[Events]
//Background and Video events
0,0,"94694410_p0.jpg",0,0
//Break Periods
2,40816,47009
2,85446,101824
2,187468,192194
//Storyboard Layer 0 (Background)
//Storyboard Layer 1 (Fail)
//Storyboard Layer 2 (Pass)
//Storyboard Layer 3 (Foreground)
//Storyboard Layer 4 (Overlay)
//Storyboard Sound Samples

[TimingPoints]
3025,370.37037037037,4,2,77,77,1,0
14876,-103.092783505155,4,2,77,77,0,0
27469,370.37037037037,4,2,77,57,1,0
27469,-114.942528735632,4,2,77,57,0,0
40616,-114.942528735632,4,2,77,27,0,0
48209,-103.092783505155,4,2,77,77,0,0
55617,-93.4579439252336,4,2,77,87,0,0
85246,-114.942528735632,4,2,77,27,0,0
108950,-114.942528735632,4,2,77,37,0,0
114876,-114.942528735632,4,2,77,47,0,0
120802,-103.092783505155,4,2,77,67,0,0
126357,-103.092783505155,4,2,77,77,0,0
131172,-93.4579439252336,4,2,77,87,0,0
178580,-103.092783505155,4,2,77,77,0,0
187468,-114.942528735633,4,2,77,77,0,0
193394,-103.092783505155,4,2,77,87,0,0
199320,-103.092783505155,4,2,77,77,0,0
205246,-103.092783505155,4,2,77,87,0,0

[Colours]
Combo1 : 53,53,53
Combo2 : 233,233,233
Combo3 : 77,255,255

[HitObjects]
452,112,14876,6,0,P|398:100|356:135,1,113.490002684166,4|8,1:0|0:0,0:0:0:0:
325,183,15432,1,2,0:0:0:0:
325,183,15617,2,0,P|269:172|212:165,1,113.490002684166,0|8,1:0|0:0,0:0:0:0:
101,140,16358,2,0,P|108:181|114:224,2,85.1175020131245,4|2|2,1:0|0:0|0:0,0:0:0:0:
47,120,17099,2,0,P|41:77|34:35,2,85.1175020131245,2|2|2,1:0|0:0|0:0,0:0:0:0:
0,151,17839,6,0,P|11:207|18:264,1,113.490002684166,4|8,1:0|0:0,0:0:0:0:
29,323,18395,1,2,0:0:0:0:
29,323,18580,2,0,P|83:311|125:346,1,113.490002684166,2|8,1:0|0:0,0:0:0:0:
209,269,19321,2,0,P|237:273|264:278,1,56.745001342083,6|2,1:0|1:0,0:0:0:0:
320,290,19691,1,10,0:0:0:0:
422,338,20062,2,0,P|426:309|431:282,1,56.745001342083,2|2,1:0|1:0,0:0:0:0:
442,226,20432,1,10,0:0:0:0:
511,136,20802,6,0,P|454:129|399:118,1,113.490002684166,4|8,1:0|0:0,0:0:0:0:
348,105,21358,1,2,0:0:0:0:
348,105,21543,2,0,P|313:147|325:200,1,113.490002684166,2|8,1:0|0:0,0:0:0:0:
237,273,22284,2,0,P|244:314|250:357,2,85.1175020131245,6|2|2,1:0|0:0|0:0,0:0:0:0:
183,253,23025,2,0,P|177:210|170:168,2,85.1175020131245,2|2|2,1:0|0:0|0:0,0:0:0:0:
141,291,23765,6,0,P|98:325|45:313,1,113.490002684166,4|8,1:0|0:0,0:0:0:0:
17,270,24321,1,2,0:0:0:0:
17,270,24506,2,0,P|9:213|0:158,1,113.490002684166,2|8,1:0|0:0,0:0:0:0:
2,44,25247,2,0,B|23:47|23:47|32:53|32:53|55:58,1,56.745001342083,6|2,1:0|1:0,0:0:0:0:
110,75,25617,1,10,0:0:0:0:
211,25,25987,2,0,B|232:28|232:28|241:34|241:34|264:39,1,56.745001342083,2|2,1:0|1:0,0:0:0:0:
319,56,26357,1,10,0:0:0:0:
453,11,26821,6,0,B|467:35|467:35|432:114|432:114|445:138,1,141.862503355208,8|8,0:0|0:0,0:0:0:0:
474,186,27469,6,0,P|465:236|458:286,1,101.790000854256,6|0,1:0|0:0,0:0:0:0:
440,339,28024,2,0,P|414:341|389:346,1,50.8950004271278,2|2,0:3|1:0,0:0:0:0:
196,231,28950,2,0,P|205:181|212:131,1,101.790000854256,2|0,1:0|0:0,0:0:0:0:
230,78,29505,2,0,P|256:76|281:71,1,50.8950004271278,2|2,0:3|1:0,0:0:0:0:
474,186,30431,6,0,P|425:179|384:209,1,101.790000854256,2|2,1:0|0:0,0:0:0:0:
356,257,30987,1,0,1:0:0:0:
230,78,31728,1,8,0:0:0:0:
230,78,31913,2,0,P|154:89|79:102,1,152.685001281384,2|2,1:0|1:0,0:0:0:0:
124,326,33209,5,10,0:0:0:0:
124,326,33394,2,0,P|173:319|213:349,1,101.790000854256,2|0,1:0|0:0,0:0:0:0:
260,378,33949,2,0,P|284:373|310:370,1,50.8950004271278,2|2,0:3|1:0,0:0:0:0:
419,173,34876,2,0,P|370:180|329:149,1,101.790000854256,2|0,1:0|0:0,0:0:0:0:
283,121,35431,2,0,P|258:125|232:128,1,50.8950004271278,2|2,0:3|1:0,0:0:0:0:
11,162,36356,6,0,P|17:111|26:61,1,101.790000854256,2|0,1:0|0:0,0:0:0:0:
38,6,36912,1,2,1:0:0:0:
232,127,37653,1,8,0:0:0:0:
232,127,37839,2,0,P|307:113|382:102,1,152.685001281384,2|0,1:0|1:0,0:0:0:0:
437,90,38580,1,2,0:0:0:0:
512,171,38950,2,0,P|508:196|504:221,1,50.8950004271278,10|10,0:0|0:0,0:0:0:0:
487,274,39320,6,0,B|398:220|319:307|342:325|261:412|174:360,1,356.265002989895,6|0,1:0|0:0,0:0:0:0:
203,317,48209,6,0,P|259:324|315:334,1,113.490002684166,6|10,1:0|0:0,0:0:0:0:
364,303,48765,1,10,0:0:0:0:
364,303,48950,2,0,P|356:246|346:190,1,113.490002684166,6|10,1:0|0:0,0:0:0:0:
320,81,49691,6,0,P|361:87|404:94,2,85.1175020131245,6|4|12,1:0|1:0|1:2,0:0:0:0:
212,65,50617,1,8,1:2:0:0:
212,65,50802,1,8,1:2:0:0:
101,89,51172,6,0,P|107:48|114:4,2,85.1175020131245,4|4|12,1:0|1:0|1:2,0:0:0:0:
85,197,52098,1,8,1:2:0:0:
85,197,52283,1,8,1:2:0:0:
109,308,52654,6,0,P|68:302|24:294,2,85.1175020131245,4|4|12,1:0|1:0|1:2,0:0:0:0:
217,324,53580,1,8,1:2:0:0:
217,324,53765,1,8,1:2:0:0:
286,234,54135,5,4,1:0:0:0:
234,166,54413,1,8,0:0:0:0:
296,108,54691,2,0,P|324:112|353:116,1,56.745001342083,8|8,1:2|1:2,0:0:0:0:
445,50,55246,1,2,3:2:0:0:
512,141,55617,6,0,P|501:202|491:264,1,125.189996179505,6|8,1:0|0:0,0:0:0:0:
480,322,56172,1,0,0:0:0:0:
480,322,56357,2,0,P|448:326|418:331,1,62.5949980897523,2|0,1:0|1:0,0:0:0:0:
363,345,56728,1,8,0:0:0:0:
265,289,57098,2,0,P|242:328|252:373,2,93.8924971346284,6|2|0,1:0|0:0|0:0,0:0:0:0:
309,253,57839,1,0,1:0:0:0:
222,180,58209,2,0,P|190:183|160:190,1,62.5949980897523,8|2,0:0|0:0,0:0:0:0:
120,168,58580,5,6,1:0:0:0:
120,168,58765,1,2,1:0:0:0:
120,168,58950,2,0,P|84:118|103:61,1,125.189996179505,10|2,0:0|1:0,0:0:0:0:
144,23,59506,1,2,1:0:0:0:
144,23,59691,1,10,0:0:0:0:
246,68,60061,2,0,P|307:58|369:49,1,125.189996179505,6|8,1:0|0:0,0:0:0:0:
429,42,60617,1,0,0:0:0:0:
429,42,60802,1,0,1:0:0:0:
510,119,61172,1,10,0:0:0:0:
451,215,61543,6,0,P|393:233|344:197,1,125.189996179505,6|8,1:0|0:0,0:0:0:0:
303,167,62098,1,0,0:0:0:0:
303,167,62283,2,0,P|271:170|241:176,1,62.5949980897523,2|0,1:0|1:0,0:0:0:0:
185,187,62654,1,8,0:0:0:0:
93,252,63024,2,0,P|85:208|77:159,2,93.8924971346284,6|2|2,1:0|0:0|0:0,0:0:0:0:
103,307,63765,1,2,1:0:0:0:
200,362,64135,2,0,P|230:355|261:351,1,62.5949980897523,8|2,0:0|0:0,0:0:0:0:
313,373,64506,6,0,P|373:362|436:353,1,125.189996179505,6|10,1:0|0:0,0:0:0:0:
402,246,65246,2,0,P|355:251|309:260,2,93.8924971346284,2|2|2,1:0|0:0|0:0,0:0:0:0:
441,205,65987,2,0,P|460:147|424:99,1,125.189996179505,6|8,1:0|0:0,0:0:0:0:
378,76,66543,1,2,0:0:0:0:
378,76,66728,2,0,P|347:80|316:84,1,62.5949980897523,10|0,0:0|0:0,0:0:0:0:
260,95,67098,1,10,0:0:0:0:
191,20,67468,5,6,1:0:0:0:
191,20,67654,1,0,1:0:0:0:
191,20,67839,1,10,0:0:0:0:
99,80,68209,5,2,1:0:0:0:
99,80,68394,1,2,1:0:0:0:
99,80,68580,1,2,1:0:0:0:
110,191,68950,2,0,P|103:237|95:283,2,93.8924971346284,2|0|12,1:0|1:0|0:0,0:0:0:0:
226,207,69876,1,0,1:0:0:0:
226,207,70061,2,0,P|220:238|216:274,1,62.5949980897523,10|10,0:0|0:0,0:0:0:0:
215,332,70431,5,6,1:0:0:0:
215,332,70617,1,0,1:0:0:0:
215,332,70802,1,2,1:0:0:0:
327,383,71172,5,2,1:0:0:0:
327,383,71357,1,2,1:0:0:0:
327,383,71543,1,2,1:0:0:0:
403,300,71913,6,0,P|443:322|488:313,2,93.8924971346284,2|0|12,1:0|1:0|0:0,0:0:0:0:
359,201,72839,1,0,1:0:0:0:
359,201,73024,2,0,P|364:170|369:139,1,62.5949980897523,10|10,0:0|0:0,0:0:0:0:
389,92,73394,5,6,1:0:0:0:
389,92,73580,1,0,1:0:0:0:
389,92,73765,1,2,1:0:0:0:
298,21,74135,5,2,1:0:0:0:
298,21,74321,1,0,1:0:0:0:
298,21,74506,1,2,1:0:0:0:
210,91,74876,6,0,P|164:84|118:76,2,93.8924971346284,2|0|12,1:0|1:0|0:0,0:0:0:0:
194,207,75802,1,0,1:0:0:0:
194,207,75987,2,0,P|163:201|127:197,1,62.5949980897523,10|10,0:0|0:0,0:0:0:0:
76,189,76357,5,6,1:0:0:0:
12,245,76635,1,6,1:0:0:0:
58,322,76913,1,14,0:0:0:0:
58,322,77098,2,0,P|119:331|181:343,1,125.189996179505,6|8,0:0|0:0,0:0:0:0:
281,291,77839,5,6,1:0:0:0:
357,329,78117,1,4,1:0:0:0:
439,365,78395,1,12,0:0:0:0:
439,365,78580,2,0,P|473:314|455:257,1,125.189996179505,2|10,3:2|0:0,0:0:0:0:
493,151,79320,6,0,P|434:134|385:169,1,125.189996179505,6|0,1:0|3:0,0:0:0:0:
355,218,79876,1,8,0:0:0:0:
355,218,80061,2,0,P|262:202|169:188,1,187.784994269257,12|8,1:2|0:0,0:0:0:0:
113,183,80802,2,0,B|101:137|68:100|68:100|111:73|135:36,1,187.784994269257,4|8,1:0|0:0,0:0:0:0:
182,4,81543,2,0,P|243:15|305:26,1,125.189996179505,4|8,1:0|0:0,0:0:0:0:
415,46,82283,6,0,B|363:129|405:197|460:214|489:181|551:244|544:360|421:387|381:339|371:304,1,438.164986628266,4|0,1:0|0:0,0:0:0:0:
355,269,83765,1,4,1:0:0:0:
355,269,83950,1,0,1:0:0:0:
512,102,85246,5,0,0:0:0:0:
95,48,103024,6,0,P|194:46|269:111,1,203.580001708511,2|0,0:0|0:0,0:0:0:0:
440,257,104506,2,0,P|340:255|265:320,1,203.580001708511,2|0,0:0|0:0,0:0:0:0:
43,292,105987,6,0,P|49:329|54:367,2,76.3425006406918,2|0|0,0:0|0:0|0:0,0:0:0:0:
75,246,106728,2,0,P|124:239|164:268,1,101.790000854256
265,319,107468,2,0,P|340:305|415:296,2,152.685001281384,2|0|0,0:0|0:0|3:0,0:0:0:0:
259,206,108950,6,0,P|309:197|359:190,1,101.790000854256,2|0,0:0|0:0,0:0:0:0:
429,102,109691,2,0,P|456:126|493:118,2,76.3425006406918
391,60,110431,2,0,P|340:68|290:75,1,101.790000854256,2|0,0:0|0:0,0:0:0:0:
180,52,111172,2,0,P|186:91|191:127,2,76.3425006406918
130,24,111913,6,0,P|104:28|79:33,1,50.8950004271278,2|2,0:0|0:0,0:0:0:0:
30,54,112283,1,2,0:0:0:0:
30,54,112468,1,2,0:0:0:0:
100,148,112839,1,2,0:0:0:0:
100,148,113024,1,2,0:0:0:0:
9,213,113394,2,0,P|13:238|18:263,1,50.8950004271278,2|2,0:0|0:0,0:0:0:0:
68,288,113765,2,0,P|72:313|77:338,1,50.8950004271278,2|2,0:0|0:0,0:0:0:0:
124,367,114135,2,0,P|199:353|274:342,1,152.685001281384,2|2,1:0|0:0,0:0:0:0:
329,330,114876,6,0,P|372:354|421:344,1,101.790000854256,2|0,1:0|1:0,0:0:0:0:
443,234,115617,2,0,P|399:209|350:219,1,101.790000854256,0|0,1:0|1:0,0:0:0:0:
242,249,116357,1,2,1:0:0:0:
180,155,116728,1,0,1:0:0:0:
251,67,117098,1,2,1:0:0:0:
251,67,117283,2,0,P|276:70|301:74,1,50.8950004271278,2|2,0:0|1:0,0:0:0:0:
407,110,117839,6,0,P|398:59|391:9,2,101.790000854256,2|0|0,1:0|1:0|1:0,0:0:0:0:
422,169,118765,1,2,0:0:0:0:
422,169,118950,1,2,1:0:0:0:
506,242,119320,2,0,P|510:266|499:289,1,50.8950004271278,2|2,1:0|0:0,0:0:0:0:
453,321,119691,1,2,1:0:0:0:
361,256,120061,2,0,P|335:259|310:264,1,50.8950004271278,2|2,1:0|0:0,0:0:0:0:
261,238,120431,2,0,P|235:241|210:246,1,50.8950004271278,2|2,1:0|0:0,0:0:0:0:
154,253,120802,6,0,B|139:292|139:292|165:326,2,85.1175020131245,4|4|12,1:0|1:0|1:2,0:0:0:0:
220,161,121728,1,8,1:2:0:0:
220,161,121913,1,8,1:2:0:0:
237,48,122283,6,0,B|197:33|197:33|163:59,2,85.1175020131245,4|4|12,1:0|1:0|1:2,0:0:0:0:
329,114,123209,1,8,1:2:0:0:
329,114,123394,1,8,1:2:0:0:
442,131,123765,6,0,B|456:91|456:91|430:57,2,85.1175020131245,4|4|12,1:0|1:0|1:2,0:0:0:0:
413,180,124506,2,0,B|387:222|428:260|437:249|479:288|454:330,1,170.235004026249,8|0,0:0|0:0,0:0:0:0:
415,371,125246,5,4,1:0:0:0:
350,315,125524,1,12,1:2:0:0:
274,354,125802,2,0,P|245:350|217:346,1,56.745001342083,12|12,1:2|1:2,0:0:0:0:
105,330,126357,5,0,1:0:0:0:
49,265,126635,1,12,1:2:0:0:
88,189,126913,2,0,P|84:160|80:132,1,56.745001342083,12|12,1:2|1:2,0:0:0:0:
66,24,127468,1,12,1:2:0:0:
66,24,127654,1,8,1:2:0:0:
208,116,128209,6,0,L|348:93,1,141.862503355208,6|2,1:0|1:0,0:0:0:0:
363,177,128950,2,0,L|223:200,1,141.862503355208,6|10,1:0|0:0,0:0:0:0:
157,254,129691,2,0,P|136:222|146:171,2,85.1175020131245,10|10|10,0:0|0:0|0:0,0:0:0:0:
197,293,130431,2,0,L|309:276,1,113.490002684166,14|8,1:2|0:0,0:0:0:0:
406,353,131172,5,6,1:0:0:0:
406,353,131357,1,2,1:0:0:0:
406,353,131542,2,0,P|446:306|432:247,1,125.189996179505,10|2,0:0|1:0,0:0:0:0:
396,212,132098,1,2,1:0:0:0:
396,212,132283,1,10,0:0:0:0:
469,126,132654,2,0,P|407:117|345:106,1,125.189996179505,6|8,1:0|0:0,0:0:0:0:
301,139,133209,1,0,0:0:0:0:
301,139,133394,1,0,1:0:0:0:
215,212,133764,1,10,0:0:0:0:
106,178,134135,6,0,P|97:116|86:54,1,125.189996179505,6|8,1:0|0:0,0:0:0:0:
136,26,134690,1,0,0:0:0:0:
136,26,134875,2,0,P|168:29|198:35,1,62.5949980897523,2|0,1:0|1:0,0:0:0:0:
249,12,135246,1,8,0:0:0:0:
336,83,135616,2,0,P|375:60|421:69,2,93.8924971346284,6|2|2,1:0|0:0|0:0,0:0:0:0:
303,129,136357,1,2,1:0:0:0:
398,188,136727,2,0,P|392:220|387:249,1,62.5949980897523,8|2,0:0|0:0,0:0:0:0:
368,303,137098,6,0,P|306:311|244:323,1,125.189996179505,6|10,1:0|0:0,0:0:0:0:
149,263,137838,2,0,P|141:308|135:356,2,93.8924971346284,2|2|2,1:0|0:0|0:0,0:0:0:0:
107,223,138580,2,0,P|87:164|128:116,1,125.189996179505,6|8,1:0|0:0,0:0:0:0:
174,93,139135,1,2,0:0:0:0:
174,93,139320,2,0,P|205:97|236:101,1,62.5949980897523,10|0,0:0|3:0,0:0:0:0:
280,135,139690,1,10,0:0:0:0:
341,242,140060,5,6,1:0:0:0:
341,242,140246,1,0,1:0:0:0:
341,242,140431,1,2,1:0:0:0:
443,188,140801,5,2,1:0:0:0:
443,188,140986,1,2,1:0:0:0:
443,188,141172,1,2,1:0:0:0:
381,93,141542,6,0,P|387:46|396:0,2,93.8924971346284,0|0|12,1:0|1:0|0:0,0:0:0:0:
280,135,142468,1,0,1:0:0:0:
280,135,142653,2,0,P|249:129|213:125,1,62.5949980897523,10|10,0:0|0:0,0:0:0:0:
171,123,143023,5,6,1:0:0:0:
171,123,143209,1,0,1:0:0:0:
171,123,143394,1,2,1:0:0:0:
89,199,143764,5,2,1:0:0:0:
89,199,143949,1,2,1:0:0:0:
89,199,144135,1,2,1:0:0:0:
183,260,144505,6,0,P|229:252|275:247,2,93.8924971346284,2|0|12,1:0|1:0|0:0,0:0:0:0:
203,375,145431,1,0,1:0:0:0:
203,375,145616,2,0,P|234:370|265:365,1,62.5949980897523,10|10,0:0|0:0,0:0:0:0:
328,362,145986,5,6,1:0:0:0:
328,362,146172,1,0,1:0:0:0:
328,362,146357,1,2,1:0:0:0:
406,282,146728,5,2,1:0:0:0:
406,282,146913,1,2,1:0:0:0:
406,282,147098,1,0,1:0:0:0:
466,186,147468,6,0,P|477:141|452:102,2,93.8924971346284,0|0|12,1:0|1:0|0:0,0:0:0:0:
359,167,148394,1,0,1:0:0:0:
359,167,148579,2,0,P|327:163|297:158,1,62.5949980897523,14|8,0:0|0:0,0:0:0:0:
253,194,148950,6,0,P|188:184|129:174,1,125.189996179505,14|10,1:2|0:0,0:0:0:0:
77,170,149506,1,2,1:0:0:0:
77,170,149691,2,0,P|73:138|68:108,1,62.5949980897523,10|2,0:0|1:0,0:0:0:0:
58,52,150061,1,10,0:0:0:0:
161,8,150431,2,0,B|217:17|217:17|227:24|227:24|282:32,1,125.189996179505,6|8,1:0|0:0,0:0:0:0:
355,118,151172,1,2,1:0:0:0:
446,52,151543,1,10,0:0:0:0:
512,143,151913,6,0,P|501:204|491:266,1,125.189996179505,6|8,1:0|0:0,0:0:0:0:
454,309,152468,1,2,0:0:0:0:
454,309,152653,2,0,P|423:303|392:300,1,62.5949980897523,2|0,1:0|1:0,0:0:0:0:
346,333,153024,1,8,0:0:0:0:
248,276,153394,2,0,P|225:315|235:360,2,93.8924971346284,6|2|2,1:0|1:0|0:0,0:0:0:0:
291,240,154135,1,2,1:0:0:0:
365,155,154505,2,0,P|360:124|355:93,1,62.5949980897523,8|2,0:0|0:0,0:0:0:0:
345,47,154876,5,6,1:0:0:0:
345,47,155061,1,2,1:0:0:0:
345,47,155246,2,0,P|287:28|238:64,1,125.189996179505,10|2,0:0|1:0,0:0:0:0:
213,117,155802,1,2,1:0:0:0:
213,117,155987,1,10,0:0:0:0:
126,45,156357,2,0,P|90:93|108:151,1,125.189996179505,6|10,1:0|0:0,0:0:0:0:
150,196,156913,1,0,3:0:0:0:
150,196,157098,1,0,1:0:0:0:
79,284,157468,1,10,0:0:0:0:
171,349,157839,6,0,P|232:338|294:330,1,125.189996179505,6|8,1:0|0:0,0:0:0:0:
346,364,158394,1,0,0:0:0:0:
346,364,158579,2,0,P|376:357|407:355,1,62.5949980897523,2|0,1:0|1:0,0:0:0:0:
463,347,158950,1,8,0:0:0:0:
442,236,159320,2,0,P|397:241|348:247,2,93.8924971346284,6|2|2,1:0|0:0|0:0,0:0:0:0:
475,190,160061,1,2,1:0:0:0:
394,110,160431,2,0,P|363:114|332:119,1,62.5949980897523,8|2,0:0|0:0,0:0:0:0:
282,93,160802,6,0,P|293:48|268:9,2,93.8924971346284,6|2|2,1:0|0:0|0:0,0:0:0:0:
246,136,161543,2,0,P|234:180|259:219,2,93.8924971346284,2|0|2,1:0|0:0|3:2,0:0:0:0:
197,107,162283,2,0,P|138:91|87:124,1,125.189996179505,10|8,0:0|0:0,0:0:0:0:
0,196,163024,2,0,P|4:227|8:258,1,62.5949980897523,10|0,1:2|3:0,0:0:0:0:
20,312,163394,1,10,1:2:0:0:
129,368,163764,5,6,1:0:0:0:
129,368,163950,1,0,1:0:0:0:
129,368,164135,1,2,1:0:0:0:
207,287,164506,5,2,1:0:0:0:
207,287,164692,1,2,1:0:0:0:
207,287,164877,1,2,1:0:0:0:
301,347,165246,6,0,P|347:338|393:331,2,93.8924971346284,2|0|12,1:0|1:0|0:0,0:0:0:0:
207,287,166172,1,0,1:0:0:0:
207,287,166357,2,0,P|212:257|216:225,1,62.5949980897523,10|10,0:0|0:0,0:0:0:0:
232,177,166727,5,6,1:0:0:0:
232,177,166913,1,0,0:0:0:0:
232,177,167098,1,2,1:0:0:0:
325,111,167468,5,2,1:0:0:0:
325,111,167653,1,0,1:0:0:0:
325,111,167839,1,2,1:0:0:0:
393,200,168209,6,0,P|386:247|377:292,2,93.8924971346284,2|0|12,1:0|1:0|0:0,0:0:0:0:
476,123,169135,1,0,1:0:0:0:
476,123,169320,2,0,P|481:92|467:65,1,62.5949980897523,10|10,0:0|0:0,0:0:0:0:
432,37,169690,5,6,1:0:0:0:
432,37,169876,1,0,1:0:0:0:
432,37,170061,1,2,1:0:0:0:
339,96,170431,5,2,1:0:0:0:
339,96,170617,1,0,1:0:0:0:
339,96,170802,1,10,0:0:0:0:
257,18,171172,6,0,P|211:25|165:33,2,93.8924971346284,10|8|8,0:0|0:0|0:0,0:0:0:0:
286,184,172283,2,0,P|254:187|224:193,1,62.5949980897523,10|10,0:0|0:0,0:0:0:0:
168,206,172653,5,6,1:0:0:0:
109,267,172931,1,6,1:0:0:0:
34,233,173209,1,14,1:2:0:0:
34,233,173394,2,0,P|24:171|12:109,1,125.189996179505,2|2,0:0|1:3,0:0:0:0:
64,9,174135,5,6,1:0:0:0:
140,44,174413,1,4,1:0:0:0:
221,82,174691,1,12,0:0:0:0:
221,82,174876,2,0,P|282:71|344:62,1,125.189996179505,2|10,0:0|0:0,0:0:0:0:
450,22,175616,6,0,P|466:80|433:131,1,125.189996179505,6|0,1:0|3:0,0:0:0:0:
389,165,176172,1,8,0:0:0:0:
389,165,176357,2,0,B|360:211|405:252|415:240|461:283|434:329,1,187.784994269257,12|8,1:2|0:0,0:0:0:0:
387,362,177098,2,0,B|301:348|301:348|285:334|285:334|206:322,1,187.784994269257,4|8,1:0|0:0,0:0:0:0:
158,353,177839,2,0,P|99:369|48:336,1,125.189996179505,4|8,1:0|0:0,0:0:0:0:
116,260,178580,6,0,P|105:204|95:148,1,113.490002684166,4|4,1:0|0:3,0:0:0:0:
82,93,179135,1,4,0:3:0:0:
160,11,179506,1,8,0:3:0:0:
260,74,179876,1,12,0:3:0:0:
260,74,180061,2,0,P|264:102|268:130,2,56.745001342083,4|0|8,1:0|0:0|0:0,0:0:0:0:
297,32,180617,1,0,0:0:0:0:
297,32,180802,2,0,P|377:16|440:70,1,170.235004026249,4|4,0:3|0:3,0:0:0:0:
466,120,181543,6,0,P|456:161|448:203,1,85.1175020131245,4|12,1:0|0:0,0:0:0:0:
430,289,182098,1,8,0:3:0:0:
430,289,182283,2,0,P|388:279|346:271,1,85.1175020131245,4|8,1:0|0:3,0:0:0:0:
261,253,182839,1,4,0:3:0:0:
261,253,183024,2,0,P|270:211|278:169,1,85.1175020131245,4|8,1:0|0:3,0:0:0:0:
299,89,183580,1,4,0:3:0:0:
299,89,183765,2,0,P|340:98|382:106,2,85.1175020131245,12|12|12,0:0|0:0|0:0,0:0:0:0:
254,50,184506,6,0,B|165:34|73:19|73:19|5:53|5:165|73:200,1,397.215009394581,6|0,1:0|0:0,0:0:0:0:
120,235,185987,1,2,1:3:0:0:
120,235,186172,1,2,1:3:0:0:
416,320,193394,6,0,P|424:263|434:208,1,113.490002684166,4|8,1:0|0:0,0:0:0:0:
401,169,193950,1,2,0:0:0:0:
401,169,194135,2,0,P|346:157|298:185,1,113.490002684166,0|8,1:0|0:0,0:0:0:0:
228,274,194876,2,0,P|234:316|241:358,2,85.1175020131245,4|2|2,1:0|0:0|0:0,0:0:0:0:
178,245,195617,2,0,P|172:202|165:160,2,85.1175020131245,2|2|2,1:0|0:0|0:0,0:0:0:0:
140,287,196357,6,0,P|86:300|40:270,1,113.490002684166,4|8,1:0|0:0,0:0:0:0:
14,225,196913,1,2,0:0:0:0:
14,225,197098,2,0,P|5:168|-1:112,1,113.490002684166,2|8,1:0|0:0,0:0:0:0:
71,25,197839,2,0,P|95:11|122:16,1,56.745001342083,6|2,1:0|1:0,0:0:0:0:
173,40,198209,1,10,0:0:0:0:
274,91,198580,2,0,P|301:96|325:83,1,56.745001342083,2|2,1:0|1:0,0:0:0:0:
365,42,198950,1,10,0:0:0:0:
469,86,199320,6,0,P|460:142|452:198,1,113.490002684166,4|8,1:0|0:0,0:0:0:0:
439,256,199876,1,2,0:0:0:0:
439,256,200061,2,0,P|383:247|326:239,1,113.490002684166,2|8,1:0|0:0,0:0:0:0:
262,145,200802,2,0,P|283:109|273:69,2,85.1175020131245,6|2|2,1:0|0:0|0:0,0:0:0:0:
220,184,201543,2,0,P|198:219|208:259,2,85.1175020131245,2|2|2,1:0|0:0|0:0,0:0:0:0:
171,154,202283,6,0,P|114:161|58:171,1,113.490002684166,4|8,1:0|0:0,0:0:0:0:
6,185,202839,1,2,0:0:0:0:
6,185,203024,2,0,P|15:240|23:297,1,113.490002684166,2|8,1:0|0:0,0:0:0:0:
114,364,203765,2,0,P|142:359|169:355,1,56.745001342083,6|2,1:0|1:0,0:0:0:0:
225,345,204135,1,10,0:0:0:0:
338,354,204506,2,0,P|333:326|329:299,1,56.745001342083,2|2,1:0|1:0,0:0:0:0:
319,243,204876,1,10,0:0:0:0:
293,132,205246,6,0,B|330:137|330:137|337:142|337:142|379:149,2,85.1175020131245,4|4|12,1:2|1:2|1:2,0:0:0:0:
185,116,206172,1,8,1:2:0:0:
185,116,206357,1,8,0:2:0:0:
74,140,206728,6,0,B|79:103|79:103|84:96|84:96|91:54,2,85.1175020131245,4|4|12,1:2|1:2|1:2,0:0:0:0:
58,248,207653,1,8,1:2:0:0:
58,248,207838,1,8,0:2:0:0:
82,359,208209,6,0,B|45:354|45:354|38:349|38:349|-4:342,2,85.1175020131245,4|4|12,1:2|1:2|1:2,0:0:0:0:
190,375,209135,1,8,1:2:0:0:
190,375,209320,1,8,0:2:0:0:
275,299,209691,5,4,1:2:0:0:
351,335,209968,1,4,1:2:0:0:
427,371,210246,2,0,P|454:366|483:362,1,56.745001342083,8|8,1:2|1:2,0:0:0:0:
