osu file format v14

[General]
AudioFilename: audio.mp3
AudioLeadIn: 0
PreviewTime: 57623
Countdown: 0
SampleSet: Soft
StackLeniency: 0.6
Mode: 0
LetterboxInBreaks: 0
WidescreenStoryboard: 1

[Editor]
Bookmarks: 109258,121181,156950,161181
DistanceSpacing: 1.2
BeatDivisor: 4
GridSize: 8
TimelineZoom: 1.8

[Metadata]
Title:Eien no Shunmu
TitleUnicode:永遠の春夢
Artist:komso
ArtistUnicode:狐夢想
Creator:Shurelia
Version:SupaV's Hard
Source:東方憑依華 ~ Antinomy of Common Flowers.
Tags:ZUN touhou doremy sweet ドレミー・スイート th15.5 夢を見せる妖怪 Dream-Bestowing Youkai Eternal Spring Dream video game instrumental midorijeon advent yf_bmp kowari supav pigeons arsalan
BeatmapID:3952389
BeatmapSetID:1664347

[Difficulty]
HPDrainRate:4
CircleSize:3.6
OverallDifficulty:6
ApproachRate:8
SliderMultiplier:1.39999990463257
SliderTickRate:1

[Events]
//Background and Video events
0,0,"doremybg.jpg",0,0
//Break Periods
2,109458,120431
//Storyboard Layer 0 (Background)
//Storyboard Layer 1 (Fail)
//Storyboard Layer 2 (Pass)
//Storyboard Layer 3 (Foreground)
//Storyboard Layer 4 (Overlay)
//Storyboard Sound Samples

[TimingPoints]
6950,384.615384615385,4,2,1,65,1,0
7720,384.615384615385,4,2,2,65,1,0
7720,-125,4,2,2,65,0,0
8104,-125,4,2,1,65,0,0
32335,-100,4,2,1,70,0,0
55604,-100,4,2,3,70,0,0
55796,-100,4,2,1,70,0,0
55989,-100,4,2,3,70,0,0
56181,-100,4,2,1,70,0,0
56373,-100,4,2,3,70,0,0
56566,-100,4,2,1,70,0,0
56758,-100,4,2,3,70,0,0
56950,-100,4,2,1,70,0,0
57720,-100,4,2,4,70,0,0
58489,-86.9565217391304,4,2,4,80,0,0
58681,-86.9565217391304,4,2,1,80,0,0
58873,-86.9565217391304,4,2,4,80,0,0
59066,-86.9565217391304,4,2,1,80,0,0
59258,-86.9565217391304,4,2,5,80,0,0
59450,-86.9565217391304,4,2,1,80,0,0
59643,-86.9565217391304,4,2,4,80,0,0
59835,-86.9565217391304,4,2,1,80,0,0
60027,-86.9565217391304,4,2,5,80,0,0
60220,-86.9565217391304,4,2,1,80,0,0
61181,-86.9565217391304,4,2,4,80,0,0
61373,-86.9565217391304,4,2,6,80,0,0
61566,-86.9565217391304,4,2,5,80,0,0
61758,-86.9565217391304,4,2,1,80,0,0
61950,-86.9565217391304,4,2,4,80,0,0
62143,-86.9565217391304,4,2,1,80,0,0
62335,-86.9565217391304,4,2,5,80,0,0
62527,-86.9565217391304,4,2,1,80,0,0
62720,-86.9565217391304,4,2,4,80,0,0
62912,-86.9565217391304,4,2,1,80,0,0
63104,-86.9565217391304,4,2,5,80,0,0
63296,-86.9565217391304,4,2,1,80,0,0
64258,-86.9565217391304,4,2,4,80,0,0
64450,-86.9565217391304,4,2,6,80,0,0
64643,-86.9565217391304,4,2,5,80,0,0
64835,-86.9565217391304,4,2,1,80,0,0
65027,-86.9565217391304,4,2,4,80,0,0
65220,-86.9565217391304,4,2,1,80,0,0
65412,-86.9565217391304,4,2,5,80,0,0
65604,-86.9565217391304,4,2,1,80,0,0
65796,-86.9565217391304,4,2,4,80,0,0
65989,-86.9565217391304,4,2,1,80,0,0
66181,-86.9565217391304,4,2,5,80,0,0
66373,-86.9565217391304,4,2,1,80,0,0
66566,-86.9565217391304,4,2,4,80,0,0
66758,-86.9565217391304,4,2,1,80,0,0
66950,-86.9565217391304,4,2,5,80,0,0
67143,-86.9565217391304,4,2,1,80,0,0
67335,-86.9565217391304,4,2,4,80,0,0
67527,-86.9565217391304,4,2,6,80,0,0
67720,-86.9565217391304,4,2,5,80,0,0
67912,-86.9565217391304,4,2,1,80,0,0
68104,-86.9565217391304,4,2,4,80,0,0
68296,-86.9565217391304,4,2,1,80,0,0
68489,-86.9565217391304,4,2,5,80,0,0
68681,-86.9565217391304,4,2,6,80,0,0
68873,-86.9565217391304,4,2,4,80,0,0
69066,-86.9565217391304,4,2,1,80,0,0
69258,-86.9565217391304,4,2,5,80,0,0
69450,-86.9565217391304,4,2,1,80,0,0
70027,-86.9565217391304,4,2,5,80,0,0
70220,-86.9565217391304,4,2,6,80,0,0
70412,-86.9565217391304,4,2,5,80,0,0
70604,-86.9565217391304,4,2,6,80,0,0
70796,-86.9565217391304,4,2,5,80,0,0
70989,-86.9565217391304,4,2,1,80,0,0
71181,-86.9565217391304,4,2,4,80,0,0
71373,-86.9565217391304,4,2,1,80,0,0
71566,-86.9565217391304,4,2,5,80,0,0
71758,-86.9565217391304,4,2,1,80,0,0
71950,-86.9565217391304,4,2,4,80,0,0
72143,-86.9565217391304,4,2,1,80,0,0
72335,-86.9565217391304,4,2,5,80,0,0
72527,-86.9565217391304,4,2,1,80,0,0
73489,-86.9565217391304,4,2,4,80,0,0
73681,-86.9565217391304,4,2,6,80,0,0
73873,-86.9565217391304,4,2,5,80,0,0
74066,-86.9565217391304,4,2,1,80,0,0
74258,-86.9565217391304,4,2,4,80,0,0
74450,-86.9565217391304,4,2,1,80,0,0
74643,-86.9565217391304,4,2,5,80,0,0
74835,-86.9565217391304,4,2,1,80,0,0
75027,-86.9565217391304,4,2,4,80,0,0
75220,-86.9565217391304,4,2,1,80,0,0
75412,-86.9565217391304,4,2,5,80,0,0
75604,-86.9565217391304,4,2,1,80,0,0
76566,-86.9565217391304,4,2,4,80,0,0
76758,-86.9565217391304,4,2,6,80,0,0
76950,-86.9565217391304,4,2,5,80,0,0
77143,-86.9565217391304,4,2,1,80,0,0
77335,-86.9565217391304,4,2,4,80,0,0
77527,-86.9565217391304,4,2,1,80,0,0
77720,-86.9565217391304,4,2,5,80,0,0
77912,-86.9565217391304,4,2,1,80,0,0
78104,-86.9565217391304,4,2,4,80,0,0
78296,-86.9565217391304,4,2,1,80,0,0
78489,-86.9565217391304,4,2,5,80,0,0
78681,-86.9565217391304,4,2,1,80,0,0
78873,-86.9565217391304,4,2,4,80,0,0
79066,-86.9565217391304,4,2,1,80,0,0
79258,-86.9565217391304,4,2,5,80,0,0
79450,-86.9565217391304,4,2,1,80,0,0
79643,-86.9565217391304,4,2,4,80,0,0
79835,-86.9565217391304,4,2,6,80,0,0
80027,-86.9565217391304,4,2,5,80,0,0
80123,-86.9565217391304,4,2,3,80,0,0
80412,-86.9565217391304,4,2,4,80,0,0
80604,-86.9565217391304,4,2,3,80,0,0
80796,-86.9565217391304,4,2,5,80,0,0
80893,-86.9565217391304,4,2,6,80,0,0
81181,-86.9565217391304,4,2,4,80,0,0
81373,-86.9565217391304,4,2,3,80,0,0
81566,-111.111111111111,4,2,7,70,0,0
81950,-111.111111111111,4,2,1,70,0,0
95412,-100,4,2,1,70,0,0
106373,-100,4,2,3,70,0,0
106566,-100,4,2,1,70,0,0
106758,-100,4,2,3,70,0,0
106950,-100,4,2,1,70,0,0
107143,-100,4,2,3,70,0,0
107335,-100,4,2,1,70,0,0
107527,-100,4,2,3,70,0,0
108489,-200,4,2,1,70,0,0
109258,-200,4,2,1,60,0,0
109643,-200,4,2,7,60,0,0
109835,-200,4,2,1,60,0,0
110412,-200,4,2,7,60,0,0
110796,-200,4,2,1,60,0,0
111181,-200,4,2,2,60,0,0
111373,-200,4,2,1,60,0,0
111950,-200,4,2,7,60,0,0
112335,-200,4,2,1,60,0,0
112720,-200,4,2,7,60,0,0
112912,-200,4,2,1,60,0,0
113489,-200,4,2,7,60,0,0
113873,-200,4,2,1,60,0,0
114258,-200,4,2,2,60,0,0
114450,-200,4,2,1,60,0,0
115027,-200,4,2,7,60,0,0
115412,-200,4,2,1,60,0,0
115796,-200,4,2,7,60,0,0
115989,-200,4,2,1,60,0,0
116566,-200,4,2,7,60,0,0
116950,-200,4,2,1,60,0,0
117335,-200,4,2,7,60,0,0
117527,-200,4,2,1,60,0,0
118104,-200,4,2,7,60,0,0
118489,-200,4,2,1,60,0,0
118873,-200,4,2,7,60,0,0
119066,-200,4,2,1,60,0,0
119643,-200,4,2,7,60,0,0
120027,-200,4,2,1,60,0,0
120412,-200,4,2,2,60,0,0
120508,-200,4,2,1,60,0,0
121181,-142.857142857143,4,2,7,60,0,0
121566,-142.857142857143,4,2,1,60,0,0
121950,-142.857142857143,4,2,7,60,0,0
122143,-142.857142857143,4,2,1,60,0,0
122720,-142.857142857143,4,2,7,60,0,0
123104,-142.857142857143,4,2,1,60,0,0
123489,-142.857142857143,4,2,2,60,0,0
123681,-142.857142857143,4,2,1,60,0,0
124258,-142.857142857143,4,2,7,60,0,0
124643,-142.857142857143,4,2,1,60,0,0
125027,-142.857142857143,4,2,7,60,0,0
125220,-142.857142857143,4,2,1,60,0,0
125796,-142.857142857143,4,2,7,60,0,0
126181,-142.857142857143,4,2,1,60,0,0
126566,-142.857142857143,4,2,2,60,0,0
126758,-142.857142857143,4,2,1,60,0,0
127335,-142.857142857143,4,2,7,60,0,0
127720,-142.857142857143,4,2,1,60,0,0
128104,-142.857142857143,4,2,7,60,0,0
128296,-142.857142857143,4,2,1,60,0,0
128873,-142.857142857143,4,2,7,60,0,0
129258,-142.857142857143,4,2,1,60,0,0
129643,-142.857142857143,4,2,7,60,0,0
129835,-142.857142857143,4,2,1,60,0,0
130412,-142.857142857143,4,2,7,60,0,0
130796,-142.857142857143,4,2,1,60,0,0
131181,-142.857142857143,4,2,7,60,0,0
131373,-142.857142857143,4,2,1,60,0,0
132335,-100,4,2,1,60,0,0
133104,-100,4,2,4,70,0,0
133873,-86.9565217391304,4,2,4,80,0,0
134066,-86.9565217391304,4,2,1,80,0,0
134258,-86.9565217391304,4,2,4,80,0,0
134450,-86.9565217391304,4,2,1,80,0,0
134643,-86.9565217391304,4,2,5,80,0,0
134835,-86.9565217391304,4,2,1,80,0,0
135027,-86.9565217391304,4,2,4,80,0,0
135220,-86.9565217391304,4,2,1,80,0,0
135412,-86.9565217391304,4,2,5,80,0,0
135604,-86.9565217391304,4,2,1,80,0,0
136566,-86.9565217391304,4,2,4,80,0,0
136758,-86.9565217391304,4,2,6,80,0,0
136950,-86.9565217391304,4,2,5,80,0,0
137143,-86.9565217391304,4,2,1,80,0,0
137335,-86.9565217391304,4,2,4,80,0,0
137527,-86.9565217391304,4,2,1,80,0,0
137720,-86.9565217391304,4,2,5,80,0,0
137912,-86.9565217391304,4,2,1,80,0,0
138104,-86.9565217391304,4,2,4,80,0,0
138296,-86.9565217391304,4,2,1,80,0,0
138489,-86.9565217391304,4,2,5,80,0,0
138681,-86.9565217391304,4,2,1,80,0,0
139643,-86.9565217391304,4,2,4,80,0,0
139835,-86.9565217391304,4,2,6,80,0,0
140027,-86.9565217391304,4,2,5,80,0,0
140220,-86.9565217391304,4,2,1,80,0,0
140412,-86.9565217391304,4,2,4,80,0,0
140604,-86.9565217391304,4,2,1,80,0,0
140796,-86.9565217391304,4,2,5,80,0,0
140989,-86.9565217391304,4,2,1,80,0,0
141181,-86.9565217391304,4,2,4,80,0,0
141373,-86.9565217391304,4,2,1,80,0,0
141566,-86.9565217391304,4,2,5,80,0,0
141758,-86.9565217391304,4,2,1,80,0,0
141950,-86.9565217391304,4,2,4,80,0,0
142143,-86.9565217391304,4,2,1,80,0,0
142335,-86.9565217391304,4,2,5,80,0,0
142527,-86.9565217391304,4,2,1,80,0,0
142720,-86.9565217391304,4,2,4,80,0,0
142912,-86.9565217391304,4,2,6,80,0,0
143104,-86.9565217391304,4,2,5,80,0,0
143296,-86.9565217391304,4,2,1,80,0,0
143489,-86.9565217391304,4,2,4,80,0,0
143681,-86.9565217391304,4,2,1,80,0,0
143873,-86.9565217391304,4,2,5,80,0,0
144066,-86.9565217391304,4,2,6,80,0,0
144258,-86.9565217391304,4,2,4,80,0,0
144450,-86.9565217391304,4,2,1,80,0,0
144643,-86.9565217391304,4,2,5,80,0,0
144835,-86.9565217391304,4,2,1,80,0,0
145412,-86.9565217391304,4,2,5,80,0,0
145604,-86.9565217391304,4,2,6,80,0,0
145796,-86.9565217391304,4,2,5,80,0,0
145989,-86.9565217391304,4,2,6,80,0,0
146181,-86.9565217391304,4,2,5,80,0,0
146373,-86.9565217391304,4,2,1,80,0,0
146566,-86.9565217391304,4,2,4,80,0,0
146758,-86.9565217391304,4,2,1,80,0,0
146950,-86.9565217391304,4,2,5,80,0,0
147143,-86.9565217391304,4,2,1,80,0,0
147335,-86.9565217391304,4,2,4,80,0,0
147527,-86.9565217391304,4,2,1,80,0,0
147720,-86.9565217391304,4,2,5,80,0,0
147912,-86.9565217391304,4,2,1,80,0,0
148873,-86.9565217391304,4,2,4,80,0,0
149066,-86.9565217391304,4,2,6,80,0,0
149258,-86.9565217391304,4,2,5,80,0,0
149450,-86.9565217391304,4,2,1,80,0,0
149643,-86.9565217391304,4,2,4,80,0,0
149835,-86.9565217391304,4,2,1,80,0,0
150027,-86.9565217391304,4,2,5,80,0,0
150220,-86.9565217391304,4,2,1,80,0,0
150412,-86.9565217391304,4,2,4,80,0,0
150604,-86.9565217391304,4,2,1,80,0,0
150796,-86.9565217391304,4,2,5,80,0,0
150989,-86.9565217391304,4,2,1,80,0,0
151950,-86.9565217391304,4,2,4,80,0,0
152143,-86.9565217391304,4,2,6,80,0,0
152335,-86.9565217391304,4,2,5,80,0,0
152527,-86.9565217391304,4,2,1,80,0,0
152720,-86.9565217391304,4,2,4,80,0,0
152912,-86.9565217391304,4,2,1,80,0,0
153104,-86.9565217391304,4,2,5,80,0,0
153296,-86.9565217391304,4,2,1,80,0,0
153489,-86.9565217391304,4,2,4,80,0,0
153681,-86.9565217391304,4,2,1,80,0,0
153873,-86.9565217391304,4,2,5,80,0,0
154066,-86.9565217391304,4,2,1,80,0,0
154258,-86.9565217391304,4,2,4,80,0,0
154450,-86.9565217391304,4,2,1,80,0,0
154643,-86.9565217391304,4,2,5,80,0,0
154835,-86.9565217391304,4,2,1,80,0,0
155027,-86.9565217391304,4,2,4,80,0,0
155220,-86.9565217391304,4,2,6,80,0,0
155412,-86.9565217391304,4,2,5,80,0,0
155508,-86.9565217391304,4,2,3,80,0,0
155796,-86.9565217391304,4,2,4,80,0,0
155989,-86.9565217391304,4,2,3,80,0,0
156181,-86.9565217391304,4,2,5,80,0,0
156277,-86.9565217391304,4,2,6,80,0,0
156566,-86.9565217391304,4,2,4,80,0,0
156758,-86.9565217391304,4,2,3,80,0,0
156950,-200,4,2,7,80,0,0

[Colours]
Combo1 : 128,0,255
Combo2 : 255,0,128
Combo3 : 128,128,192
Combo4 : 128,0,128

[HitObjects]
256,192,6950,5,6,3:2:0:0:
231,278,7334,1,6,3:2:0:0:
320,260,7720,6,0,P|373:270|429:280,1,111.999992370606,6|2,3:2|3:2,0:0:0:0:
483,210,8296,1,0,0:0:0:0:
483,210,8489,2,0,P|427:200|372:189,1,111.999992370606,2|2,3:2|3:2,0:0:0:0:
207,119,9258,2,0,P|153:129|97:139,1,111.999992370606,2|2,3:2|3:2,0:0:0:0:
25,192,9834,1,0,0:0:0:0:
25,192,10027,1,2,3:2:0:0:
120,343,10412,1,2,3:2:0:0:
280,263,10796,6,0,P|287:315|299:385,1,111.999992370606,2|2,3:2|3:2,0:0:0:0:
390,384,11373,1,0,0:0:0:0:
390,384,11566,2,0,P|381:328|372:273,1,111.999992370606,2|2,3:2|3:2,0:0:0:0:
435,208,12143,1,0,0:0:0:0:
371,145,12335,6,0,P|375:117|379:89,1,55.9999961853028,2|0,3:2|0:0,0:0:0:0:
395,1,12720,2,0,P|422:5|450:9,1,55.9999961853028,2|0,3:2|0:0,0:0:0:0:
512,80,13104,1,2,3:2:0:0:
512,80,13296,1,0,0:0:0:0:
460,153,13489,2,0,P|432:148|404:144,1,55.9999961853028,2|0,3:2|3:3,0:0:0:0:
322,108,13873,6,0,P|266:116|211:125,1,111.999992370606,2|2,3:2|3:2,0:0:0:0:
156,197,14450,1,0,0:0:0:0:
156,197,14643,2,0,P|100:188|45:179,1,111.999992370606,2|2,3:2|3:2,0:0:0:0:
1,5,15412,2,0,P|56:13|111:22,1,111.999992370606,2|2,3:2|3:2,0:0:0:0:
197,62,15989,1,0,0:0:0:0:
197,62,16181,2,0,P|201:34|205:6,1,55.9999961853028,2|0,3:2|0:0,0:0:0:0:
294,22,16566,2,0,P|289:49|285:77,1,55.9999961853028,2|0,3:2|0:0,0:0:0:0:
345,143,16950,6,0,P|400:134|455:125,1,111.999992370606,2|2,3:2|3:2,0:0:0:0:
510,203,17527,1,0,0:0:0:0:
510,203,17720,2,0,P|454:211|399:220,1,111.999992370606,2|2,3:2|3:2,0:0:0:0:
324,269,18296,1,0,0:0:0:0:
252,214,18489,6,0,P|256:186|260:158,1,55.9999961853028,2|0,3:2|0:0,0:0:0:0:
181,116,18873,2,0,P|176:143|172:171,1,55.9999961853028,2|0,3:2|0:0,0:0:0:0:
175,261,19258,2,0,B|184:304|184:304|181:308|181:308|192:356,1,83.9999942779542,6|0,3:2|3:3,0:0:0:0:
153,370,19643,2,0,B|118:377|118:377|114:374|114:374|71:383,1,83.9999942779542,6|0,3:2|0:0,0:0:0:0:
27,380,20027,6,0,P|37:326|47:270,1,111.999992370606,6|2,3:2|3:2,0:0:0:0:
106,202,20603,1,0,0:0:0:0:
106,202,20796,2,0,P|96:146|85:91,1,111.999992370606,2|2,3:2|3:2,0:0:0:0:
239,0,21565,2,0,P|249:53|259:109,1,111.999992370606,2|2,3:2|3:2,0:0:0:0:
217,190,22143,1,0,0:0:0:0:
217,190,22334,1,2,3:2:0:0:
345,315,22719,1,2,3:2:0:0:
504,234,23103,6,0,P|495:178|486:123,1,111.999992370606,2|2,3:2|3:2,0:0:0:0:
401,117,23680,1,0,0:0:0:0:
401,117,23873,2,0,P|409:172|418:227,1,111.999992370606,2|2,3:2|3:2,0:0:0:0:
437,315,24450,1,0,0:0:0:0:
377,381,24642,6,0,P|349:376|321:372,1,55.9999961853028,2|0,3:2|0:0,0:0:0:0:
247,321,25027,2,0,P|219:325|191:329,1,55.9999961853028,2|0,3:2|0:0,0:0:0:0:
119,381,25411,1,2,3:2:0:0:
119,381,25603,1,0,0:0:0:0:
40,336,25796,2,0,P|35:308|31:280,1,55.9999961853028,2|0,3:2|3:3,0:0:0:0:
6,194,26180,6,0,P|61:202|116:211,1,111.999992370606,2|2,3:2|3:2,0:0:0:0:
194,266,26757,1,0,0:0:0:0:
194,266,26950,2,0,P|249:257|304:248,1,111.999992370606,2|2,3:2|3:2,0:0:0:0:
421,113,27719,2,0,P|365:121|310:130,1,111.999992370606,2|2,3:2|3:2,0:0:0:0:
225,121,28296,1,0,0:0:0:0:
225,121,28488,2,0,P|229:148|233:176,1,55.9999961853028,2|0,3:2|0:0,0:0:0:0:
144,188,28873,2,0,P|139:160|135:132,1,55.9999961853028,2|0,3:2|0:0,0:0:0:0:
157,45,29257,6,0,P|101:36|46:27,1,111.999992370606,2|2,3:2|3:2,0:0:0:0:
4,109,29834,1,0,0:0:0:0:
4,109,30027,2,0,P|59:117|114:126,1,111.999992370606,2|2,3:2|3:2,0:0:0:0:
179,187,30603,1,0,0:0:0:0:
251,133,30796,6,0,P|246:105|242:77,1,55.9999961853028,2|0,3:2|0:0,0:0:0:0:
309,18,31180,2,0,P|336:13|364:9,1,55.9999961853028,2|0,3:2|0:0,0:0:0:0:
412,4,31470,1,0,0:0:0:0:
412,4,31566,1,2,2:2:0:0:
488,49,31758,1,0,0:0:0:0:
431,118,31950,1,2,2:2:0:0:
511,179,32143,1,2,2:2:0:0:
511,179,32239,1,0,0:0:0:0:
511,179,32335,6,0,P|503:216|494:264,1,69.9999952316285,6|2,3:2|2:3,0:0:0:0:
508,338,32720,2,0,P|473:331|439:324,1,69.9999952316285,2|2,1:2|2:3,0:0:0:0:
372,262,33104,1,2,3:2:0:0:
372,262,33296,1,2,2:3:0:0:
287,297,33489,2,0,P|279:331|273:365,1,69.9999952316285,2|2,1:2|2:3,0:0:0:0:
183,381,33873,6,0,P|169:313|151:223,1,139.999990463257,2|2,3:2|1:2,0:0:0:0:
208,170,34450,1,2,2:3:0:0:
208,170,34643,2,0,P|242:177|276:183,1,69.9999952316285,2|2,3:2|2:3,0:0:0:0:
318,103,35027,2,0,P|283:96|249:89,1,69.9999952316285,2|2,1:2|2:3,0:0:0:0:
187,21,35412,6,0,P|169:24|152:27,1,34.9999976158143,2|0,3:2|0:0,0:0:0:0:
108,38,35604,1,2,2:3:0:0:
19,19,35796,2,0,P|26:53|32:87,1,69.9999952316285,2|2,1:2|2:3,0:0:0:0:
86,161,36181,6,0,P|82:178|79:195,1,34.9999976158143,2|0,3:2|0:0,0:0:0:0:
69,240,36373,1,2,2:3:0:0:
55,329,36565,2,0,P|89:335|123:342,1,69.9999952316285,2|2,1:2|2:3,0:0:0:0:
209,384,36950,5,2,3:2:0:0:
209,384,37143,1,2,2:3:0:0:
268,315,37335,2,0,P|260:280|254:246,1,69.9999952316285,2|2,1:2|2:3,0:0:0:0:
287,161,37720,1,2,3:2:0:0:
219,100,37912,1,2,2:3:0:0:
292,45,38104,1,2,1:2:0:0:
292,45,38296,1,2,3:3:0:0:
371,0,38489,6,0,P|408:7|456:17,1,69.9999952316285,2|2,3:2|2:3,0:0:0:0:
510,71,38874,2,0,P|503:105|496:139,1,69.9999952316285,2|2,1:2|2:3,0:0:0:0:
512,233,39258,1,2,3:2:0:0:
512,233,39450,1,2,2:3:0:0:
434,281,39643,2,0,P|399:273|365:267,1,69.9999952316285,2|2,1:2|2:3,0:0:0:0:
289,217,40027,6,0,P|275:285|257:375,1,139.999990463257,2|2,3:2|1:2,0:0:0:0:
173,380,40604,1,2,2:3:0:0:
110,313,40796,1,2,3:2:0:0:
110,313,40989,1,2,2:3:0:0:
177,251,41181,1,2,1:2:0:0:
154,163,41373,1,2,2:3:0:0:
131,75,41566,6,0,P|148:71|165:68,1,34.9999976158143,2|0,3:2|0:0,0:0:0:0:
210,58,41758,1,2,2:3:0:0:
282,3,41950,2,0,P|289:37|295:71,1,69.9999952316285,2|2,1:2|2:3,0:0:0:0:
312,161,42335,6,0,P|329:157|346:154,1,34.9999976158143,2|0,3:2|0:0,0:0:0:0:
391,144,42527,1,2,2:3:0:0:
468,96,42719,2,0,P|474:130|481:164,1,69.9999952316285,2|2,1:2|2:3,0:0:0:0:
512,255,43104,5,2,3:2:0:0:
512,255,43297,1,2,2:3:0:0:
445,317,43489,2,0,P|410:309|376:303,1,69.9999952316285,2|2,1:2|2:3,0:0:0:0:
296,347,43874,1,6,3:2:0:0:
223,291,44066,1,2,2:3:0:0:
223,291,44162,1,0,3:3:0:0:
223,291,44258,1,6,1:2:0:0:
253,205,44450,1,2,3:3:0:0:
283,119,44643,6,0,P|275:84|269:50,1,69.9999952316285,6|2,3:2|2:3,0:0:0:0:
345,2,45027,2,0,P|351:36|358:72,1,69.9999952316285,2|2,1:2|2:3,0:0:0:0:
425,131,45412,1,2,3:2:0:0:
425,131,45604,1,2,2:3:0:0:
403,219,45796,2,0,P|368:225|333:232,1,69.9999952316285,2|2,1:2|2:3,0:0:0:0:
265,290,46181,5,2,3:2:0:0:
265,290,46373,1,2,2:3:0:0:
176,268,46566,2,0,P|182:302|189:338,1,69.9999952316285,2|2,1:2|2:3,0:0:0:0:
109,381,46950,1,2,3:2:0:0:
109,381,47143,1,2,2:3:0:0:
19,366,47335,2,0,P|12:331|6:297,1,69.9999952316285,2|2,1:2|2:3,0:0:0:0:
72,234,47720,5,6,3:2:0:0:
72,234,47816,1,0,0:0:0:0:
72,234,47912,1,2,2:3:0:0:
125,160,48104,2,0,P|118:125|112:91,1,69.9999952316285,2|2,1:2|2:3,0:0:0:0:
161,14,48489,1,2,3:2:0:0:
161,14,48585,1,0,0:0:0:0:
161,14,48681,1,2,2:3:0:0:
245,48,48873,2,0,P|279:41|313:35,1,69.9999952316285,2|2,1:2|2:3,0:0:0:0:
398,0,49258,5,2,3:2:0:0:
469,56,49450,1,2,2:3:0:0:
418,132,49643,2,0,P|424:166|430:200,1,69.9999952316285,2|2,1:2|2:3,0:0:0:0:
413,289,50027,1,2,3:2:0:0:
336,239,50220,1,2,2:3:0:0:
274,306,50412,1,6,1:2:0:0:
212,373,50604,1,2,3:3:0:0:
212,373,50700,1,0,0:0:0:0:
212,373,50796,6,0,P|177:366|143:360,1,69.9999952316285,6|2,3:2|2:3,0:0:0:0:
112,274,51181,2,0,P|146:280|180:286,1,69.9999952316285,2|2,1:2|2:3,0:0:0:0:
274,306,51566,1,2,3:2:0:0:
274,306,51758,1,2,2:3:0:0:
350,256,51950,2,0,P|356:221|362:187,1,69.9999952316285,2|2,1:2|2:3,0:0:0:0:
434,130,52335,5,6,3:2:0:0:
434,130,52527,1,2,2:3:0:0:
373,61,52720,2,0,P|338:67|304:73,1,69.9999952316285,2|2,1:2|2:3,0:0:0:0:
225,116,53104,1,2,3:2:0:0:
225,116,53296,1,2,2:3:0:0:
162,49,53489,1,2,1:2:0:0:
82,93,53681,1,2,2:3:0:0:
12,148,53873,5,6,3:2:0:0:
12,148,53970,1,0,0:0:0:0:
12,148,54066,1,2,2:3:0:0:
49,230,54258,2,0,P|42:264|36:298,1,69.9999952316285,2|2,1:2|2:3,0:0:0:0:
96,380,54643,1,6,3:2:0:0:
96,380,54739,1,0,0:0:0:0:
96,380,54835,1,2,2:3:0:0:
169,327,55027,2,0,P|203:333|237:339,1,69.9999952316285,2|2,1:2|2:3,0:0:0:0:
318,381,55412,6,0,P|324:347|330:313,1,69.9999952316285,14|10,3:2|2:2,0:0:0:0:
344,222,55796,2,0,P|327:225|310:228,3,34.9999976158143,10|8|10|8,1:2|2:2|2:2|2:2,0:0:0:0:
269,208,56181,2,0,P|252:211|235:214,3,34.9999976158143,10|8|10|8,3:2|2:2|2:2|3:2,0:0:0:0:
197,240,56566,5,10,1:2:0:0:
179,236,56662,1,8,2:2:0:0:
162,233,56758,1,10,3:2:0:0:
145,230,56854,1,8,2:2:0:0:
128,227,56950,1,8,2:1:0:0:
0,0,57720,6,0,P|29:38|93:26,1,104.999992847443
107,0,58104,1,2,2:2:0:0:
125,4,58200,1,0,0:0:0:0:
142,7,58296,1,2,2:2:0:0:
159,10,58392,1,0,0:0:0:0:
176,13,58489,6,0,P|203:49|183:95,1,80.4999960517884,6|2,3:2|2:3,0:0:0:0:
168,121,58777,1,0,0:0:0:0:
168,121,58873,2,0,P|175:162|185:215,1,80.4999960517884,2|2,1:2|2:3,0:0:0:0:
225,286,59258,2,0,B|244:324|244:324|215:361,1,80.4999960517884,2|2,3:2|2:3,0:0:0:0:
124,342,59643,2,0,B|105:304|105:304|134:267,1,80.4999960517884,2|2,1:2|2:3,0:0:0:0:
153,234,59931,1,0,0:0:0:0:
153,234,60027,6,0,P|94:171|24:190,1,160.999992103577,2|0,3:2|1:1,0:0:0:0:
7,101,60604,1,2,2:3:0:0:
7,101,60700,1,0,0:0:0:0:
7,101,60796,2,0,P|15:58|22:11,1,80.4999960517884,0|0,3:3|0:0,0:0:0:0:
115,2,61181,1,2,1:2:0:0:
178,74,61373,1,2,2:2:0:0:
265,31,61566,6,0,P|305:21|364:8,1,80.4999960517884,2|2,3:2|2:3,0:0:0:0:
394,5,61854,1,0,0:0:0:0:
394,5,61950,2,0,P|427:41|415:83,1,80.4999960517884,2|2,1:2|2:3,0:0:0:0:
387,159,62335,2,0,B|354:134|354:134|309:142,1,80.4999960517884,2|2,3:2|2:3,0:0:0:0:
297,236,62720,2,0,B|329:260|329:260|374:252,1,80.4999960517884,2|2,1:2|2:3,0:0:0:0:
419,248,63008,1,0,0:0:0:0:
419,248,63104,6,0,P|482:297|458:378,1,160.999992103577,2|0,3:2|1:1,0:0:0:0:
378,384,63681,1,2,2:3:0:0:
378,384,63777,1,0,0:0:0:0:
378,384,63873,2,0,P|335:375|289:367,1,80.4999960517884,0|0,3:3|0:0,0:0:0:0:
221,311,64258,1,2,1:2:0:0:
270,228,64450,1,2,3:2:0:0:
356,272,64643,6,0,P|385:247|446:261,1,80.4999960517884,2|2,3:2|2:3,0:0:0:0:
472,273,64931,1,0,0:0:0:0:
472,273,65027,2,0,P|479:233|489:188,1,80.4999960517884,2|2,1:2|2:3,0:0:0:0:
424,120,65412,2,0,B|391:146|391:146|346:139,1,80.4999960517884,2|2,3:2|2:3,0:0:0:0:
332,45,65797,2,0,B|364:18|364:18|409:25,1,80.4999960517884,2|2,1:2|2:3,0:0:0:0:
496,0,66181,6,0,P|503:40|516:100,1,80.4999960517884,2|2,3:2|2:3,0:0:0:0:
511,131,66470,1,0,0:0:0:0:
511,131,66566,1,2,1:2:0:0:
439,193,66758,1,2,2:3:0:0:
439,193,66854,1,0,0:0:0:0:
439,193,66950,2,0,P|399:166|356:174,1,80.4999960517884,2|0,3:2|0:0,0:0:0:0:
299,236,67335,1,2,1:2:0:0:
214,188,67527,1,2,2:2:0:0:
279,116,67720,6,0,P|285:77|295:27,1,80.4999960517884,2|2,3:2|2:3,0:0:0:0:
263,5,68008,1,0,0:0:0:0:
263,5,68104,2,0,P|231:34|187:30,1,80.4999960517884,2|0,1:2|0:0,0:0:0:0:
103,2,68489,1,2,3:2:0:0:
18,49,68681,1,2,2:2:0:0:
88,115,68873,1,2,1:2:0:0:
23,186,69066,1,2,2:3:0:0:
23,186,69162,1,0,0:0:0:0:
23,186,69258,6,0,P|35:247|52:355,2,160.999992103577,2|0|6,3:2|1:1|3:2,0:0:0:0:
88,115,70220,1,2,2:2:0:0:
88,115,70316,1,0,3:3:0:0:
88,115,70412,1,6,1:2:0:0:
167,169,70604,1,2,3:2:0:0:
244,111,70796,6,0,P|275:88|327:101,1,80.4999960517884,6|2,3:2|2:3,0:0:0:0:
358,124,71085,1,0,0:0:0:0:
358,124,71181,2,0,P|349:167|337:221,1,80.4999960517884,2|2,1:2|2:3,0:0:0:0:
384,289,71566,2,0,B|413:319|413:319|400:354,1,80.4999960517884,2|2,3:2|2:3,0:0:0:0:
305,373,71951,2,0,B|275:342|275:342|288:307,1,80.4999960517884,2|2,1:2|2:3,0:0:0:0:
285,258,72239,1,0,0:0:0:0:
285,258,72335,6,0,P|219:273|110:293,1,160.999992103577,2|0,3:2|1:1,0:0:0:0:
49,251,72912,1,2,2:3:0:0:
49,251,73008,1,0,0:0:0:0:
49,251,73104,2,0,P|18:284|27:323,1,80.4999960517884,0|0,3:3|0:0,0:0:0:0:
95,379,73489,1,2,1:2:0:0:
165,313,73681,1,2,2:2:0:0:
248,360,73873,6,0,P|258:320|271:261,1,80.4999960517884,2|2,3:2|2:3,0:0:0:0:
282,238,74161,1,0,0:0:0:0:
282,238,74257,2,0,P|318:230|355:264,1,80.4999960517884,2|2,1:2|2:3,0:0:0:0:
440,291,74642,2,0,B|480:299|480:299|512:275,1,80.4999960517884,2|2,3:2|2:3,0:0:0:0:
496,180,75027,2,0,B|455:171|455:171|423:195,1,80.4999960517884,2|2,1:2|2:3,0:0:0:0:
387,225,75315,1,0,0:0:0:0:
387,225,75411,6,0,P|340:177|371:81,1,160.999992103577,2|0,3:2|1:1,0:0:0:0:
447,47,75988,1,2,2:3:0:0:
447,47,76084,1,0,0:0:0:0:
447,47,76180,2,0,P|455:89|464:136,1,80.4999960517884,0|0,3:3|0:0,0:0:0:0:
510,210,76565,1,2,1:2:0:0:
433,268,76757,1,2,3:2:0:0:
509,327,76950,6,0,P|466:339|402:357,1,80.4999960517884,2|2,3:2|2:3,0:0:0:0:
392,374,77238,1,0,0:0:0:0:
392,374,77334,2,0,P|362:348|380:291,1,80.4999960517884,2|2,1:2|2:3,0:0:0:0:
285,251,77719,2,0,B|252:277|252:277|207:270,1,80.4999960517884,2|2,3:2|2:3,0:0:0:0:
188,178,78104,2,0,B|220:151|220:151|265:158,1,80.4999960517884,2|2,1:2|2:3,0:0:0:0:
354,142,78488,6,0,P|345:102|338:62,1,80.4999960517884,2|2,3:2|2:3,0:0:0:0:
314,26,78777,1,0,0:0:0:0:
314,26,78873,1,2,1:2:0:0:
228,8,79065,1,2,2:3:0:0:
228,8,79161,1,0,0:0:0:0:
228,8,79257,2,0,P|188:35|145:27,1,80.4999960517884,2|2,3:2|2:3,0:0:0:0:
65,3,79642,1,2,1:2:0:0:
2,76,79834,1,2,2:2:0:0:
72,142,80027,6,0,P|75:160|80:185,3,40.2499980258942,10|0|10|8,3:2|0:0|2:2|2:2,0:0:0:0:
114,214,80411,2,0,P|110:232|104:258,3,40.2499980258942,10|0|10|8,1:2|0:0|2:2|2:2,0:0:0:0:
116,300,80796,1,10,3:2:0:0:
184,369,80989,1,10,3:2:0:0:
267,320,81181,5,10,1:2:0:0:
262,299,81277,1,0,0:0:0:0:
259,280,81373,1,10,3:2:0:0:
255,260,81469,1,8,3:2:0:0:
252,241,81565,1,6,3:2:0:0:
256,192,81662,12,2,85796,1:2:0:0:
294,336,86181,6,0,P|229:324|161:312,1,125.999987571717,2|2,3:2|1:2,0:0:0:0:
100,268,86757,1,0,0:0:0:0:
100,268,86950,2,0,P|93:298|88:329,1,62.9999937858584,2|0,3:2|0:0,0:0:0:0:
1,313,87335,2,0,P|6:281|12:251,1,62.9999937858584,2|0,1:2|0:0,0:0:0:0:
70,184,87720,6,0,P|64:152|58:122,1,62.9999937858584,2|0,3:2|0:0,0:0:0:0:
9,48,88104,2,0,P|39:41|70:36,1,62.9999937858584,2|0,1:2|0:0,0:0:0:0:
152,1,88489,1,2,3:2:0:0:
197,76,88681,1,0,0:0:0:0:
278,42,88873,1,2,1:2:0:0:
278,42,89066,1,0,3:3:0:0:
359,8,89258,6,0,P|370:70|381:131,1,125.999987571717,2|2,3:2|1:2,0:0:0:0:
428,213,89835,1,0,0:0:0:0:
428,213,90027,2,0,P|458:219|489:224,1,62.9999937858584,2|0,3:2|0:0,0:0:0:0:
484,312,90412,2,0,P|452:306|422:300,1,62.9999937858584,2|0,1:2|0:0,0:0:0:0:
345,256,90796,6,0,P|313:261|283:267,1,62.9999937858584,2|0,3:2|0:0,0:0:0:0:
225,334,91181,2,0,P|193:328|163:322,1,62.9999937858584,2|0,1:2|0:0,0:0:0:0:
93,375,91566,1,2,3:2:0:0:
93,375,91758,1,0,0:0:0:0:
12,339,91950,1,2,1:2:0:0:
48,258,92143,1,0,0:0:0:0:
95,184,92335,6,0,P|84:121|72:60,1,125.999987571717,2|2,3:2|1:2,0:0:0:0:
141,4,92912,1,0,0:0:0:0:
141,4,93104,2,0,P|171:10|202:15,1,62.9999937858584,2|0,3:2|0:0,0:0:0:0:
276,64,93489,2,0,P|307:58|337:52,1,62.9999937858584,2|0,1:2|0:0,0:0:0:0:
417,14,93873,6,0,P|423:44|428:75,1,62.9999937858584,2|0,3:2|0:0,0:0:0:0:
475,151,94258,2,0,P|444:157|413:162,1,62.9999937858584,2|0,1:2|0:0,0:0:0:0:
327,140,94643,1,6,3:2:0:0:
282,218,94835,1,0,0:0:0:0:
282,218,94931,1,0,3:3:0:0:
282,218,95027,1,6,1:2:0:0:
342,282,95220,1,0,3:3:0:0:
405,346,95412,6,0,P|440:338|474:332,1,69.9999952316285,6|2,3:2|2:3,0:0:0:0:
508,248,95796,2,0,P|474:254|438:261,1,69.9999952316285,2|2,1:2|2:3,0:0:0:0:
378,200,96181,1,2,3:2:0:0:
378,200,96373,1,2,2:3:0:0:
430,126,96565,2,0,P|424:91|417:56,1,69.9999952316285,2|2,1:2|2:3,0:0:0:0:
347,6,96950,5,2,3:2:0:0:
347,6,97142,1,2,2:3:0:0:
268,51,97335,2,0,P|234:45|198:38,1,69.9999952316285,2|2,1:2|2:3,0:0:0:0:
119,5,97719,1,2,3:2:0:0:
119,5,97912,1,2,2:3:0:0:
36,42,98104,2,0,P|29:76|23:110,1,69.9999952316285,2|2,1:2|2:3,0:0:0:0:
9,207,98489,5,6,3:2:0:0:
9,207,98585,1,0,0:0:0:0:
9,207,98681,1,2,2:3:0:0:
82,260,98873,2,0,P|117:253|151:247,1,69.9999952316285,2|2,1:2|2:3,0:0:0:0:
241,293,99258,1,2,3:2:0:0:
241,293,99354,1,0,0:0:0:0:
241,293,99450,1,2,2:3:0:0:
296,220,99643,2,0,P|289:185|283:151,1,69.9999952316285,2|2,1:2|2:3,0:0:0:0:
236,73,100027,5,2,3:2:0:0:
290,0,100219,1,2,2:3:0:0:
368,46,100412,2,0,P|402:52|436:58,1,69.9999952316285,2|2,1:2|2:3,0:0:0:0:
507,114,100796,1,2,3:2:0:0:
433,167,100989,1,2,2:3:0:0:
475,247,101181,1,6,1:2:0:0:
512,340,101373,1,2,3:3:0:0:
512,340,101469,1,0,0:0:0:0:
512,340,101565,6,0,P|477:333|443:327,1,69.9999952316285,6|2,3:2|2:3,0:0:0:0:
362,283,101950,2,0,P|328:289|294:295,1,69.9999952316285,2|2,1:2|2:3,0:0:0:0:
239,370,102335,1,2,3:2:0:0:
239,370,102527,1,2,2:3:0:0:
158,327,102719,2,0,P|152:292|146:258,1,69.9999952316285,2|2,1:2|2:3,0:0:0:0:
94,189,103104,5,6,3:2:0:0:
94,189,103296,1,2,2:3:0:0:
149,116,103489,2,0,P|143:81|137:47,1,69.9999952316285,2|2,1:2|2:3,0:0:0:0:
219,4,103873,1,2,3:2:0:0:
219,4,104065,1,2,2:3:0:0:
278,73,104258,1,2,1:2:0:0:
366,53,104450,1,2,2:3:0:0:
458,28,104642,5,6,3:2:0:0:
458,28,104739,1,0,0:0:0:0:
458,28,104835,1,2,2:3:0:0:
510,101,105027,2,0,P|503:135|497:169,1,69.9999952316285,2|2,1:2|2:3,0:0:0:0:
429,229,105412,1,6,3:2:0:0:
429,229,105508,1,0,0:0:0:0:
429,229,105604,1,2,2:3:0:0:
363,165,105796,2,0,P|369:131|375:97,1,69.9999952316285,2|2,1:2|2:3,0:0:0:0:
336,13,106181,6,0,P|302:19|268:25,1,69.9999952316285,10|10,3:2|2:2,0:0:0:0:
176,15,106565,2,0,P|173:32|170:49,3,34.9999976158143,10|8|10|8,1:2|2:2|2:2|2:2,0:0:0:0:
135,79,106950,2,0,P|132:96|129:113,3,34.9999976158143,10|8|10|8,2:2|2:2|2:2|2:2,0:0:0:0:
94,144,107335,5,10,2:2:0:0:
90,162,107431,1,8,2:2:0:0:
87,179,107527,1,10,2:2:0:0:
84,196,107623,1,8,2:2:0:0:
81,213,107719,1,0,0:0:0:0:
326,281,108489,6,0,P|343:284|360:286,1,34.9999976158143
415,342,108873,2,0,P|432:338|449:336,1,34.9999976158143,0|2,0:0|2:2,0:0:0:0:
512,382,109258,1,10,2:1:0:0:
500,0,121181,6,0,L|491:38,3,24.4999975833894,10|8|10|8,2:2|2:2|2:2|2:2,0:0:0:0:
466,61,121566,2,0,P|474:107|486:168,1,97.9999903335575,10|10,2:1|2:2,0:0:0:0:
399,190,122142,1,8,2:1:0:0:
399,190,122335,2,0,P|390:141|380:92,1,97.9999903335575,10|10,2:1|2:2,0:0:0:0:
207,26,123104,2,0,P|128:11|50:-3,1,146.999985500336,10|8,2:1|2:1,0:0:0:0:
3,71,123873,1,8,2:1:0:0:
147,197,124258,1,10,2:2:0:0:
147,197,124450,1,10,2:2:0:0:
94,274,124643,6,0,P|102:320|114:381,1,97.9999903335575,10|10,2:1|2:2,0:0:0:0:
208,384,125219,1,8,2:1:0:0:
208,384,125412,2,0,P|199:335|189:286,1,97.9999903335575,10|10,2:1|2:2,0:0:0:0:
344,183,126181,2,0,P|390:191|451:203,1,97.9999903335575,10|8,2:1|2:2,0:0:0:0:
508,264,126758,1,8,2:1:0:0:
508,264,126950,1,8,2:1:0:0:
362,380,127335,1,10,2:2:0:0:
362,380,127527,1,10,2:2:0:0:
286,325,127720,6,0,P|277:278|265:217,1,97.9999903335575,10|10,2:1|2:2,0:0:0:0:
137,95,128489,2,0,P|145:48|157:-12,1,97.9999903335575,10|10,2:1|2:2,0:0:0:0:
314,94,129258,1,10,2:1:0:0:
161,201,129643,2,0,P|165:225|170:249,1,48.9999951667788,10|8,2:2|2:1,0:0:0:0:
192,339,130027,1,10,2:1:0:0:
14,384,130412,1,10,2:2:0:0:
14,384,130604,1,10,2:2:0:0:
72,311,130796,5,10,2:1:0:0:
2,138,131181,2,0,P|25:142|55:148,1,48.9999951667788,10|8,2:2|2:1,0:0:0:0:
115,220,131566,1,10,2:1:0:0:
115,220,131758,1,2,2:2:0:0:
204,193,131950,2,0,P|215:195|230:198,3,24.4999975833894,10|8|8|8,2:1|2:1|2:1|2:1,0:0:0:0:
258,217,132335,5,8,2:1:0:0:
486,237,133104,2,0,P|518:280|502:336,1,104.999992847443,2|0,2:2|0:0,0:0:0:0:
497,371,133488,1,2,2:2:0:0:
479,375,133584,1,0,0:0:0:0:
462,378,133680,1,2,2:2:0:0:
445,381,133776,1,0,0:0:0:0:
428,384,133873,6,0,P|383:376|333:365,1,80.4999960517884,6|2,3:2|2:3,0:0:0:0:
304,378,134161,1,0,0:0:0:0:
304,378,134257,2,0,P|280:351|304:295,1,80.4999960517884,2|2,1:2|2:3,0:0:0:0:
226,233,134643,2,0,B|189:249|189:249|151:223,1,80.4999960517884,2|2,3:2|2:3,0:0:0:0:
171,131,135027,2,0,B|208:115|208:115|246:141,1,80.4999960517884,2|2,1:2|2:3,0:0:0:0:
291,152,135315,1,0,0:0:0:0:
291,152,135411,6,0,P|338:120|307:23,1,160.999992103577,2|0,3:2|1:1,0:0:0:0:
232,9,135988,1,2,2:3:0:0:
232,9,136084,1,0,0:0:0:0:
232,9,136180,2,0,P|189:17|142:24,1,80.4999960517884,0|0,3:3|0:0,0:0:0:0:
57,3,136565,1,2,1:2:0:0:
3,83,136757,1,2,2:2:0:0:
74,152,136950,6,0,P|105:121|150:132,1,80.4999960517884,2|2,3:2|2:3,0:0:0:0:
185,150,137238,1,0,0:0:0:0:
185,150,137334,2,0,P|172:189|164:228,1,80.4999960517884,2|2,1:2|2:3,0:0:0:0:
72,257,137719,2,0,B|33:250|33:250|0:275,1,80.4999960517884,2|2,3:2|2:3,0:0:0:0:
23,368,138104,2,0,B|62:375|62:375|94:351,1,80.4999960517884,2|2,1:2|2:3,0:0:0:0:
141,331,138392,1,0,0:0:0:0:
141,331,138488,6,0,P|198:340|321:370,1,160.999992103577,2|0,3:2|1:1,0:0:0:0:
402,384,139065,1,2,2:3:0:0:
402,384,139161,1,0,0:0:0:0:
402,384,139257,2,0,P|427:357|412:300,1,80.4999960517884,0|0,3:3|0:0,0:0:0:0:
364,239,139642,1,2,1:2:0:0:
433,172,139834,1,2,3:2:0:0:
349,122,140027,6,0,P|342:91|328:33,1,80.4999960517884,2|2,3:2|2:3,0:0:0:0:
307,6,140315,1,0,0:0:0:0:
307,6,140411,2,0,P|274:0|230:44,1,80.4999960517884,2|2,1:2|2:3,0:0:0:0:
157,81,140796,2,0,B|125:55|125:55|82:67,1,80.4999960517884,2|2,3:2|2:3,0:0:0:0:
70,161,141181,2,0,B|102:187|102:187|145:175,1,80.4999960517884,2|2,1:2|2:3,0:0:0:0:
233,151,141565,6,0,P|241:190|248:230,1,80.4999960517884,2|2,3:2|2:3,0:0:0:0:
276,275,141854,1,0,0:0:0:0:
276,275,141950,1,2,1:2:0:0:
206,344,142142,1,2,2:3:0:0:
206,344,142238,1,0,0:0:0:0:
206,344,142334,2,0,P|166:317|123:325,1,80.4999960517884,2|2,3:2|2:3,0:0:0:0:
49,363,142719,1,2,1:2:0:0:
0,279,142911,1,2,2:2:0:0:
62,204,143104,6,0,P|54:164|48:124,1,80.4999960517884,2|2,3:2|2:3,0:0:0:0:
30,85,143392,1,0,0:0:0:0:
30,85,143488,2,0,P|62:56|106:60,1,80.4999960517884,2|2,1:2|2:3,0:0:0:0:
179,4,143873,1,2,3:2:0:0:
251,67,144065,1,2,2:2:0:0:
181,133,144257,1,2,1:2:0:0:
252,213,144450,1,0,0:0:0:0:
252,213,144546,1,0,0:0:0:0:
252,213,144642,6,0,P|315:222|419:254,2,160.999992103577,2|0|6,3:2|1:1|3:2,0:0:0:0:
191,151,145604,1,2,2:2:0:0:
191,151,145700,1,0,3:3:0:0:
191,151,145796,1,6,1:2:0:0:
251,75,145988,1,2,3:2:0:0:
328,133,146180,6,0,P|375:145|434:161,1,80.4999960517884,6|2,3:2|2:3,0:0:0:0:
457,147,146469,1,0,0:0:0:0:
457,147,146565,2,0,P|487:175|465:223,1,80.4999960517884,2|2,1:2|2:3,0:0:0:0:
397,261,146950,2,0,B|355:252|355:252|320:280,1,80.4999960517884,2|2,3:2|2:3,0:0:0:0:
348,369,147335,2,0,B|389:377|389:377|424:349,1,80.4999960517884,2|2,1:2|2:3,0:0:0:0:
468,343,147623,1,0,0:0:0:0:
468,343,147719,6,0,P|511:288|473:206,1,160.999992103577,2|0,3:2|1:1,0:0:0:0:
418,150,148296,1,2,2:3:0:0:
418,150,148392,1,0,0:0:0:0:
418,150,148488,2,0,P|411:118|401:58,1,80.4999960517884,0|0,3:3|0:0,0:0:0:0:
332,3,148873,1,2,1:2:0:0:
248,50,149065,1,2,2:2:0:0:
165,0,149257,6,0,P|144:31|161:94,1,80.4999960517884,2|2,3:2|2:3,0:0:0:0:
146,124,149546,1,0,0:0:0:0:
146,124,149643,2,0,P|189:134|229:145,1,80.4999960517884,2|2,1:2|2:3,0:0:0:0:
299,204,150026,2,0,B|324:239|324:239|311:278,1,80.4999960517884,2|2,3:2|2:3,0:0:0:0:
216,291,150412,2,0,B|191:256|191:256|204:217,1,80.4999960517884,2|2,1:2|2:3,0:0:0:0:
201,176,150699,1,0,0:0:0:0:
201,176,150795,6,0,P|129:185|27:205,1,160.999992103577,2|0,3:2|1:1,0:0:0:0:
11,298,151373,1,2,2:3:0:0:
11,298,151470,1,0,0:0:0:0:
11,298,151566,2,0,P|-1:333|40:377,1,80.4999960517884
100,315,151949,1,2,1:2:0:0:
170,380,152143,1,2,3:2:0:0:
258,340,152334,6,0,P|288:318|277:258,1,80.4999960517884,2|2,3:2|2:3,0:0:0:0:
259,248,152622,1,0,0:0:0:0:
259,248,152720,2,0,P|251:208|242:164,1,80.4999960517884,2|2,1:2|2:3,0:0:0:0:
171,105,153103,2,0,B|142:74|142:74|155:32,1,80.4999960517884,2|2,3:2|2:3,0:0:0:0:
248,16,153489,2,0,B|276:46|276:46|263:88,1,80.4999960517884,2|2,1:2|2:3,0:0:0:0:
337,145,153872,6,0,P|377:154|417:161,1,80.4999960517884,2|2,3:2|2:3,0:0:0:0:
465,147,154161,1,0,0:0:0:0:
465,147,154257,1,2,1:2:0:0:
503,63,154449,1,2,2:3:0:0:
503,63,154545,1,0,0:0:0:0:
503,63,154643,2,0,P|468:31|420:35,1,80.4999960517884,2|2,3:2|2:3,0:0:0:0:
346,65,155026,1,2,1:2:0:0:
270,4,155220,1,2,2:2:0:0:
187,55,155411,6,0,P|190:73|195:98,3,40.2499980258942,10|0|10|8,3:2|0:0|3:2|2:2,0:0:0:0:
222,133,155795,2,0,P|218:151|212:177,3,40.2499980258942,10|0|8|0,1:2|0:0|2:2|0:0,0:0:0:0:
234,216,156181,1,10,3:2:0:0:
173,290,156373,1,10,3:2:0:0:
85,247,156566,5,10,1:2:0:0:
64,252,156662,1,0,0:0:0:0:
45,255,156758,1,10,3:2:0:0:
25,259,156854,1,8,3:2:0:0:
6,262,156950,1,6,3:2:0:0:
256,192,157046,12,0,161181,0:0:0:0:
