osu file format v14

[General]
AudioFilename: audio.mp3
AudioLeadIn: 0
PreviewTime: 57623
Countdown: 0
SampleSet: Soft
StackLeniency: 0
Mode: 0
LetterboxInBreaks: 0
WidescreenStoryboard: 0

[Editor]
Bookmarks: 7744,20051,32359,44667,58513,70820,81590,87720,95436,109282,121590,133897,146205
DistanceSpacing: 1
BeatDivisor: 4
GridSize: 32
TimelineZoom: 3.099999

[Metadata]
Title:Eien no Shunmu
TitleUnicode:永遠の春夢
Artist:komso
ArtistUnicode:狐夢想
Creator:Shurelia
Version:Sheep
Source:東方憑依華 ~ Antinomy of Common Flowers.
Tags:ZUN touhou doremy sweet ドレミー・スイート th15.5 夢を見せる妖怪 Dream-Bestowing Youkai Eternal Spring Dream video game instrumental midorijeon advent yf_bmp kowari supav pigeons arsalan
BeatmapID:3397669
BeatmapSetID:1664347

[Difficulty]
HPDrainRate:5
CircleSize:5
OverallDifficulty:9.2
ApproachRate:8.5
SliderMultiplier:1.91999990463257
SliderTickRate:1

[Events]
//Background and Video events
0,0,"doremybg.jpg",0,0
//Break Periods
//Storyboard Layer 0 (Background)
//Storyboard Layer 1 (Fail)
//Storyboard Layer 2 (Pass)
//Storyboard Layer 3 (Foreground)
//Storyboard Layer 4 (Overlay)
//Storyboard Sound Samples

[TimingPoints]
6950,384.615384615385,4,2,1,65,1,0
6950,-50,4,2,1,65,0,0
7720,384.615384615385,4,2,2,65,1,0
7720,-100,4,2,2,65,0,0
8104,-100,4,2,1,65,0,0
23104,-100,4,2,1,65,0,0
26181,-100,4,2,1,65,0,0
32335,-74.0740740740741,4,2,1,70,0,0
35412,-50,4,2,1,70,0,0
38489,-74.0740740740741,4,2,1,70,0,0
41566,-74.0740740740741,4,2,1,70,0,0
44643,-100,4,2,1,70,0,0
55604,-100,4,2,3,70,0,0
55796,-100,4,2,1,70,0,0
55989,-100,4,2,3,70,0,0
56181,-100,4,2,1,70,0,0
56373,-100,4,2,3,70,0,0
56566,-100,4,2,1,70,0,0
56758,-100,4,2,3,70,0,0
56950,-100,4,2,1,70,0,0
57720,-100,4,2,4,70,0,0
58489,-50,4,2,4,80,0,1
58681,-50,4,2,1,80,0,1
58873,-50,4,2,4,80,0,1
59066,-50,4,2,1,80,0,1
59258,-50,4,2,5,80,0,1
59450,-50,4,2,1,80,0,1
59643,-42.9184549356223,4,2,4,80,0,1
59835,-50,4,2,1,80,0,1
60027,-50,4,2,5,80,0,1
60220,-50,4,2,1,80,0,1
60796,-222.222222222222,4,2,1,80,0,1
61181,-74.0740740740741,4,2,4,80,0,1
61373,-74.0740740740741,4,2,6,80,0,1
61566,-50,4,2,5,80,0,1
61758,-50,4,2,1,80,0,1
61950,-50,4,2,4,80,0,1
62143,-50,4,2,1,80,0,1
62335,-50,4,2,5,80,0,1
62527,-50,4,2,1,80,0,1
62720,-42.9184549356223,4,2,4,80,0,1
62912,-50,4,2,1,80,0,1
63104,-50,4,2,5,80,0,1
63296,-50,4,2,1,80,0,1
63873,-222.222222222222,4,2,1,80,0,1
64258,-50,4,2,4,80,0,1
64450,-50,4,2,6,80,0,1
64643,-42.9184549356223,4,2,5,80,0,1
64835,-42.9184549356223,4,2,1,80,0,1
65027,-42.9184549356223,4,2,4,80,0,1
65220,-42.9184549356223,4,2,1,80,0,1
65412,-42.9184549356223,4,2,5,80,0,1
65604,-42.9184549356223,4,2,1,80,0,1
65796,-37.4531835205993,4,2,4,80,0,1
65989,-37.4531835205993,4,2,1,80,0,1
66181,-42.9184549356223,4,2,5,80,0,1
66373,-42.9184549356223,4,2,1,80,0,1
66566,-42.9184549356223,4,2,4,80,0,1
66758,-42.9184549356223,4,2,1,80,0,1
66950,-37.4531835205993,4,2,5,80,0,1
67143,-37.4531835205993,4,2,1,80,0,1
67335,-37.4531835205993,4,2,4,80,0,1
67527,-37.4531835205993,4,2,6,80,0,1
67720,-42.9184549356223,4,2,5,80,0,1
67912,-42.9184549356223,4,2,1,80,0,1
68104,-37.4531835205993,4,2,4,80,0,1
68296,-37.4531835205993,4,2,1,80,0,1
68489,-37.4531835205993,4,2,5,80,0,1
68681,-37.4531835205993,4,2,6,80,0,1
68873,-42.9184549356223,4,2,4,80,0,1
69066,-42.9184549356223,4,2,1,80,0,1
69258,-42.9184549356223,4,2,5,80,0,1
69450,-42.9184549356223,4,2,1,80,0,1
69643,-222.222222222222,4,2,1,80,0,1
70027,-50,4,2,5,80,0,1
70220,-50,4,2,6,80,0,1
70412,-50,4,2,5,80,0,1
70604,-50,4,2,6,80,0,1
70700,-50,4,2,6,80,0,0
70796,-50,4,2,5,80,0,1
70989,-50,4,2,1,80,0,1
71181,-50,4,2,4,80,0,1
71373,-50,4,2,1,80,0,1
71566,-50,4,2,5,80,0,1
71758,-50,4,2,1,80,0,1
71950,-42.9184549356223,4,2,4,80,0,1
72143,-42.9184549356223,4,2,1,80,0,1
72335,-50,4,2,5,80,0,1
72527,-50,4,2,1,80,0,1
73104,-222.222222222222,4,2,1,80,0,1
73489,-50,4,2,4,80,0,1
73681,-50,4,2,6,80,0,1
73873,-50,4,2,5,80,0,1
74066,-50,4,2,1,80,0,1
74258,-50,4,2,4,80,0,1
74450,-50,4,2,1,80,0,1
74643,-50,4,2,5,80,0,1
74835,-50,4,2,1,80,0,1
75027,-37.4531835205993,4,2,4,80,0,1
75220,-37.4531835205993,4,2,1,80,0,1
75412,-50,4,2,5,80,0,1
75604,-50,4,2,1,80,0,1
76181,-222.222222222222,4,2,1,80,0,1
76566,-50,4,2,4,80,0,1
76758,-50,4,2,6,80,0,1
76950,-42.9184549356223,4,2,5,80,0,1
77143,-42.9184549356223,4,2,1,80,0,1
77335,-42.9184549356223,4,2,4,80,0,1
77527,-42.9184549356223,4,2,1,80,0,1
77720,-42.9184549356223,4,2,5,80,0,1
77912,-42.9184549356223,4,2,1,80,0,1
78104,-37.4531835205993,4,2,4,80,0,1
78296,-37.4531835205993,4,2,1,80,0,1
78489,-42.9184549356223,4,2,5,80,0,1
78681,-42.9184549356223,4,2,1,80,0,1
78873,-42.9184549356223,4,2,4,80,0,1
79066,-42.9184549356223,4,2,1,80,0,1
79258,-42.9184549356223,4,2,5,80,0,1
79450,-42.9184549356223,4,2,1,80,0,1
79643,-50,4,2,4,80,0,1
79835,-50,4,2,6,80,0,1
80027,-42.9184549356223,4,2,5,80,0,1
80123,-42.9184549356223,4,2,3,80,0,1
80412,-42.9184549356223,4,2,4,80,0,1
80604,-42.9184549356223,4,2,3,80,0,1
80796,-37.4531835205993,4,2,5,80,0,1
80893,-37.4531835205993,4,2,6,80,0,1
81181,-50,4,2,4,80,0,1
81373,-50,4,2,3,80,0,1
81470,-76.9230769230769,4,2,3,80,0,1
81566,-50,4,2,7,70,0,0
81950,-50,4,2,1,70,0,0
106373,-50,4,2,3,70,0,0
106566,-50,4,2,1,70,0,0
106758,-50,4,2,3,70,0,0
106950,-50,4,2,1,70,0,0
107143,-50,4,2,3,70,0,0
107335,-50,4,2,1,70,0,0
107527,-50,4,2,3,70,0,0
108489,-50,4,2,1,70,0,0
109258,-222.222222222222,4,2,1,60,0,0
109643,-222.222222222222,4,2,7,60,0,0
109835,-222.222222222222,4,2,1,60,0,0
110412,-222.222222222222,4,2,7,60,0,0
110796,-222.222222222222,4,2,1,60,0,0
111181,-222.222222222222,4,2,2,60,0,0
111373,-222.222222222222,4,2,1,60,0,0
111950,-149.253731343284,4,2,7,60,0,0
112335,-222.222222222222,4,2,1,60,0,0
112720,-222.222222222222,4,2,7,60,0,0
112912,-222.222222222222,4,2,1,60,0,0
113489,-222.222222222222,4,2,7,60,0,0
113873,-222.222222222222,4,2,1,60,0,0
114258,-222.222222222222,4,2,2,60,0,0
114450,-222.222222222222,4,2,1,60,0,0
115027,-149.253731343284,4,2,7,60,0,0
115412,-222.222222222222,4,2,1,60,0,0
115796,-222.222222222222,4,2,7,60,0,0
115989,-222.222222222222,4,2,1,60,0,0
116566,-222.222222222222,4,2,7,60,0,0
116950,-222.222222222222,4,2,1,60,0,0
117335,-222.222222222222,4,2,7,60,0,0
117527,-222.222222222222,4,2,1,60,0,0
118104,-149.253731343284,4,2,7,60,0,0
118489,-222.222222222222,4,2,1,60,0,0
118873,-222.222222222222,4,2,7,60,0,0
119066,-222.222222222222,4,2,1,60,0,0
119258,-149.253731343284,4,2,1,60,0,0
119643,-222.222222222222,4,2,7,60,0,0
120027,-222.222222222222,4,2,1,60,0,0
120412,-222.222222222222,4,2,2,60,0,0
120508,-222.222222222222,4,2,1,60,0,0
121181,-222.222222222222,4,2,7,60,0,0
121566,-149.253731343284,4,2,1,60,0,0
121950,-149.253731343284,4,2,7,60,0,0
122143,-149.253731343284,4,2,1,60,0,0
122720,-149.253731343284,4,2,7,60,0,0
123104,-149.253731343284,4,2,1,60,0,0
123489,-149.253731343284,4,2,2,60,0,0
123681,-149.253731343284,4,2,1,60,0,0
124258,-149.253731343284,4,2,7,60,0,0
124643,-149.253731343284,4,2,1,60,0,0
125027,-149.253731343284,4,2,7,60,0,0
125220,-149.253731343284,4,2,1,60,0,0
125796,-149.253731343284,4,2,7,60,0,0
126181,-149.253731343284,4,2,1,60,0,0
126566,-149.253731343284,4,2,2,60,0,0
126758,-149.253731343284,4,2,1,60,0,0
127335,-149.253731343284,4,2,7,60,0,0
127720,-149.253731343284,4,2,1,60,0,0
128104,-149.253731343284,4,2,7,60,0,0
128296,-149.253731343284,4,2,1,60,0,0
128873,-149.253731343284,4,2,7,60,0,0
129258,-149.253731343284,4,2,1,60,0,0
129643,-149.253731343284,4,2,7,60,0,0
129835,-149.253731343284,4,2,1,60,0,0
130412,-149.253731343284,4,2,7,60,0,0
130796,-149.253731343284,4,2,1,60,0,0
131181,-149.253731343284,4,2,7,60,0,0
131373,-149.253731343284,4,2,1,60,0,0
131950,-76.9230769230769,4,2,1,60,0,0
132335,-149.253731343284,4,2,1,60,0,0
133104,-149.253731343284,4,2,4,70,0,0
133873,-42.9184549356223,4,2,4,80,0,1
134066,-42.9184549356223,4,2,1,80,0,1
134258,-42.9184549356223,4,2,4,80,0,1
134450,-42.9184549356223,4,2,1,80,0,1
134643,-42.9184549356223,4,2,5,80,0,1
134835,-42.9184549356223,4,2,1,80,0,1
135027,-42.9184549356223,4,2,4,80,0,1
135220,-42.9184549356223,4,2,1,80,0,1
135412,-42.9184549356223,4,2,5,80,0,1
135604,-42.9184549356223,4,2,1,80,0,1
136181,-222.222222222222,4,2,1,80,0,1
136566,-50,4,2,4,80,0,1
136758,-50,4,2,6,80,0,1
136950,-42.9184549356223,4,2,5,80,0,1
137143,-42.9184549356223,4,2,1,80,0,1
137335,-42.9184549356223,4,2,4,80,0,1
137527,-42.9184549356223,4,2,1,80,0,1
137720,-42.9184549356223,4,2,5,80,0,1
137912,-42.9184549356223,4,2,1,80,0,1
138104,-37.4531835205993,4,2,4,80,0,1
138296,-37.4531835205993,4,2,1,80,0,1
138489,-42.9184549356223,4,2,5,80,0,1
138681,-42.9184549356223,4,2,1,80,0,1
139258,-222.222222222222,4,2,1,80,0,1
139643,-50,4,2,4,80,0,1
139835,-50,4,2,6,80,0,1
140027,-37.4531835205993,4,2,5,80,0,1
140220,-37.4531835205993,4,2,1,80,0,1
140412,-37.4531835205993,4,2,4,80,0,1
140604,-37.4531835205993,4,2,1,80,0,1
140796,-37.4531835205993,4,2,5,80,0,1
140989,-37.4531835205993,4,2,1,80,0,1
141181,-33.3333333333333,4,2,4,80,0,1
141373,-33.3333333333333,4,2,1,80,0,1
141566,-37.4531835205993,4,2,5,80,0,1
141758,-37.4531835205993,4,2,1,80,0,1
141950,-37.4531835205993,4,2,4,80,0,1
142143,-37.4531835205993,4,2,1,80,0,1
142335,-37.4531835205993,4,2,5,80,0,1
142527,-37.4531835205993,4,2,1,80,0,1
142720,-37.4531835205993,4,2,4,80,0,1
142912,-37.4531835205993,4,2,6,80,0,1
143104,-37.4531835205993,4,2,5,80,0,1
143296,-37.4531835205993,4,2,1,80,0,1
143489,-33.3333333333333,4,2,4,80,0,1
143681,-33.3333333333333,4,2,1,80,0,1
143873,-37.4531835205993,4,2,5,80,0,1
144066,-37.4531835205993,4,2,6,80,0,1
144258,-37.4531835205993,4,2,4,80,0,1
144450,-37.4531835205993,4,2,1,80,0,1
144643,-37.4531835205993,4,2,5,80,0,1
144835,-37.4531835205993,4,2,1,80,0,1
145412,-50,4,2,5,80,0,1
145604,-50,4,2,6,80,0,1
145796,-50,4,2,5,80,0,1
145989,-50,4,2,6,80,0,1
146085,-50,4,2,6,80,0,0
146181,-42.9184549356223,4,2,5,80,0,1
146373,-42.9184549356223,4,2,1,80,0,1
146566,-42.9184549356223,4,2,4,80,0,1
146758,-42.9184549356223,4,2,1,80,0,1
146950,-42.9184549356223,4,2,5,80,0,1
147143,-42.9184549356223,4,2,1,80,0,1
147335,-42.9184549356223,4,2,4,80,0,1
147527,-42.9184549356223,4,2,1,80,0,1
147720,-42.9184549356223,4,2,5,80,0,1
147912,-42.9184549356223,4,2,1,80,0,1
148489,-222.222222222222,4,2,1,80,0,1
148873,-50,4,2,4,80,0,1
149066,-50,4,2,6,80,0,1
149258,-42.9184549356223,4,2,5,80,0,1
149450,-42.9184549356223,4,2,1,80,0,1
149643,-42.9184549356223,4,2,4,80,0,1
149835,-42.9184549356223,4,2,1,80,0,1
150027,-42.9184549356223,4,2,5,80,0,1
150220,-42.9184549356223,4,2,1,80,0,1
150412,-42.9184549356223,4,2,4,80,0,1
150604,-42.9184549356223,4,2,1,80,0,1
150796,-42.9184549356223,4,2,5,80,0,1
150989,-42.9184549356223,4,2,1,80,0,1
151566,-222.222222222222,4,2,1,80,0,1
151950,-50,4,2,4,80,0,1
152143,-50,4,2,6,80,0,1
152335,-33.3333333333333,4,2,5,80,0,1
152527,-33.3333333333333,4,2,1,80,0,1
152720,-33.3333333333333,4,2,4,80,0,1
152912,-33.3333333333333,4,2,1,80,0,1
153104,-33.3333333333333,4,2,5,80,0,1
153296,-33.3333333333333,4,2,1,80,0,1
153489,-30.03003003003,4,2,4,80,0,1
153681,-30.03003003003,4,2,1,80,0,1
153873,-33.3333333333333,4,2,5,80,0,1
154066,-33.3333333333333,4,2,1,80,0,1
154258,-33.3333333333333,4,2,4,80,0,1
154450,-33.3333333333333,4,2,1,80,0,1
154643,-33.3333333333333,4,2,5,80,0,1
154835,-33.3333333333333,4,2,1,80,0,1
155027,-37.4531835205993,4,2,4,80,0,1
155220,-37.4531835205993,4,2,6,80,0,1
155412,-30.03003003003,4,2,5,80,0,1
155508,-33.3333333333333,4,2,3,80,0,1
155796,-28.0898876404494,4,2,4,80,0,1
155989,-30.03003003003,4,2,3,80,0,1
156181,-30.03003003003,4,2,5,80,0,1
156277,-30.03003003003,4,2,6,80,0,1
156373,-37.037037037037,4,2,6,80,0,1
156566,-37.037037037037,4,2,4,80,0,1
156758,-37.037037037037,4,2,3,80,0,1
156950,-37.037037037037,4,2,7,80,0,0

[Colours]
Combo1 : 128,0,255
Combo2 : 255,0,128
Combo3 : 128,128,192
Combo4 : 128,0,128

[HitObjects]
192,128,6950,6,0,B|192:0|192:0|352:0,1,287.999985694885,6|0,3:2|0:0,0:0:0:0:
352,0,7334,2,0,B|352:128|352:128|192:128,1,287.999985694885,6|0,3:2|0:0,0:0:0:0:
256,224,7720,6,0,L|256:320,1,95.9999952316285,6|0,3:2|0:0,0:0:0:0:
192,320,8008,1,0,0:0:0:0:
128,320,8104,2,0,L|32:320,1,95.9999952316285,2|0,3:2|0:0,0:0:0:0:
32,256,8393,1,0,0:0:0:0:
32,192,8489,1,2,3:2:0:0:
32,32,8681,1,0,0:0:0:0:
96,32,8777,1,0,0:0:0:0:
160,32,8873,1,2,3:2:0:0:
288,32,9066,1,0,0:0:0:0:
416,32,9258,6,0,L|416:128,1,95.9999952316285,2|0,3:2|0:0,0:0:0:0:
352,128,9546,1,0,0:0:0:0:
352,192,9643,2,0,L|352:288,1,95.9999952316285,2|0,3:2|0:0,0:0:0:0:
352,352,9931,1,0,0:0:0:0:
416,352,10027,1,2,3:2:0:0:
480,256,10220,1,0,0:0:0:0:
480,192,10316,1,0,0:0:0:0:
480,128,10412,1,2,3:2:0:0:
480,32,10604,1,0,0:0:0:0:
320,32,10796,6,0,L|224:32,1,95.9999952316285,2|0,3:2|0:0,0:0:0:0:
128,32,11085,1,0,0:0:0:0:
128,128,11181,2,0,L|224:128,1,95.9999952316285,2|0,3:2|0:0,0:0:0:0:
224,224,11470,1,0,0:0:0:0:
128,224,11566,1,2,3:2:0:0:
224,384,11758,1,0,0:0:0:0:
128,384,11854,1,0,0:0:0:0:
32,384,11950,1,2,3:2:0:0:
224,320,12143,1,0,0:0:0:0:
32,320,12335,6,0,L|32:224,1,95.9999952316285,2|0,3:2|0:0,0:0:0:0:
32,128,12623,1,0,0:0:0:0:
32,32,12720,1,2,3:2:0:0:
224,32,12912,1,0,0:0:0:0:
224,128,13008,1,0,0:0:0:0:
128,128,13104,1,2,3:2:0:0:
128,288,13296,1,0,0:0:0:0:
128,128,13489,1,2,3:2:0:0:
128,32,13681,1,0,3:3:0:0:
320,32,13873,6,0,L|416:32,1,95.9999952316285,2|0,3:2|0:0,0:0:0:0:
480,32,14162,1,0,0:0:0:0:
480,96,14258,2,0,L|480:192,1,95.9999952316285,2|0,3:2|0:0,0:0:0:0:
416,192,14546,1,0,0:0:0:0:
352,192,14643,2,0,L|352:96,1,95.9999952316285,2|0,3:2|0:0,0:0:0:0:
352,320,15027,1,2,3:2:0:0:
288,192,15220,1,0,0:0:0:0:
224,320,15412,6,0,L|128:320,1,95.9999952316285,2|0,3:2|0:0,0:0:0:0:
64,320,15700,1,0,0:0:0:0:
0,320,15796,1,2,3:2:0:0:
128,384,15989,1,0,0:0:0:0:
256,384,16181,1,2,3:2:0:0:
352,384,16373,1,0,0:0:0:0:
416,384,16470,1,0,0:0:0:0:
480,384,16566,1,2,3:2:0:0:
416,288,16758,1,0,0:0:0:0:
256,384,16950,6,0,L|256:288,1,95.9999952316285,2|0,3:2|0:0,0:0:0:0:
320,288,17239,1,0,0:0:0:0:
256,224,17335,2,0,L|352:224,1,95.9999952316285,2|0,3:2|0:0,0:0:0:0:
320,288,17623,1,0,0:0:0:0:
384,288,17720,1,2,3:2:0:0:
512,288,17912,1,0,0:0:0:0:
512,224,18008,1,0,0:0:0:0:
512,160,18104,1,2,3:2:0:0:
384,160,18296,1,0,0:0:0:0:
384,32,18489,5,2,3:2:0:0:
480,32,18681,1,0,0:0:0:0:
288,32,18873,2,0,L|192:32,1,95.9999952316285,2|0,3:2|0:0,0:0:0:0:
128,32,19162,1,0,0:0:0:0:
128,96,19258,2,0,L|224:96,1,95.9999952316285,6|0,3:2|0:0,0:0:0:0:
288,96,19546,1,0,3:3:0:0:
288,160,19643,1,6,3:2:0:0:
384,160,19835,1,0,3:3:0:0:
192,160,20027,6,0,L|192:256,1,95.9999952316285,6|0,3:2|0:0,0:0:0:0:
192,320,20316,1,0,0:0:0:0:
128,320,20412,2,0,L|128:224,1,95.9999952316285,2|0,3:2|0:0,0:0:0:0:
64,224,20700,1,0,0:0:0:0:
0,224,20796,1,2,3:2:0:0:
128,160,20989,1,0,0:0:0:0:
64,160,21085,1,0,0:0:0:0:
64,96,21181,1,2,3:2:0:0:
0,32,21373,1,0,0:0:0:0:
128,32,21566,6,0,L|224:32,1,95.9999952316285,2|0,3:2|0:0,0:0:0:0:
224,96,21854,1,0,0:0:0:0:
288,32,21950,2,0,L|384:32,1,95.9999952316285,2|0,3:2|0:0,0:0:0:0:
384,96,22239,1,0,0:0:0:0:
448,32,22335,1,2,3:2:0:0:
448,160,22527,1,0,0:0:0:0:
448,224,22623,1,0,0:0:0:0:
448,288,22720,1,2,3:2:0:0:
448,384,22912,1,0,0:0:0:0:
352,288,23104,6,0,L|352:192,1,95.9999952316285,2|0,3:2|0:0,0:0:0:0:
256,192,23393,1,0,0:0:0:0:
160,192,23489,2,0,L|160:96,1,95.9999952316285,2|0,3:2|0:0,0:0:0:0:
256,96,23777,1,0,0:0:0:0:
352,96,23873,1,2,3:2:0:0:
512,96,24066,1,0,0:0:0:0:
512,192,24162,1,0,0:0:0:0:
512,288,24258,1,2,3:2:0:0:
352,192,24450,1,0,0:0:0:0:
352,384,24643,6,0,L|256:384,1,95.9999952316285,2|0,3:2|0:0,0:0:0:0:
160,384,24931,1,0,0:0:0:0:
64,384,25027,2,0,L|64:288,1,95.9999952316285,2|0,3:2|0:0,0:0:0:0:
64,192,25316,1,0,0:0:0:0:
64,96,25412,1,2,3:2:0:0:
160,0,25604,1,0,0:0:0:0:
352,0,25796,1,2,3:2:0:0:
256,0,25989,1,0,3:3:0:0:
352,0,26181,6,0,L|352:96,1,95.9999952316285,2|0,3:2|0:0,0:0:0:0:
416,96,26470,1,0,0:0:0:0:
480,96,26566,2,0,L|480:0,1,95.9999952316285,2|0,3:2|0:0,0:0:0:0:
416,0,26854,1,0,0:0:0:0:
352,0,26950,1,2,3:2:0:0:
352,160,27143,1,0,0:0:0:0:
288,160,27239,1,0,0:0:0:0:
288,96,27335,1,2,3:2:0:0:
224,0,27527,1,0,0:0:0:0:
224,96,27720,6,0,L|128:96,1,95.9999952316285,2|0,3:2|0:0,0:0:0:0:
64,96,28008,1,0,0:0:0:0:
64,32,28104,1,2,3:2:0:0:
0,160,28296,1,0,0:0:0:0:
0,32,28489,1,2,3:2:0:0:
0,256,28681,1,0,0:0:0:0:
0,320,28777,1,0,0:0:0:0:
64,320,28873,1,2,3:2:0:0:
192,320,29066,1,0,0:0:0:0:
0,256,29258,6,0,L|0:352,1,95.9999952316285,2|0,3:2|0:0,0:0:0:0:
64,352,29546,1,0,0:0:0:0:
128,352,29643,2,0,L|128:256,1,95.9999952316285,2|0,3:2|0:0,0:0:0:0:
128,192,29931,1,0,0:0:0:0:
192,192,30027,1,2,3:2:0:0:
320,128,30220,1,0,0:0:0:0:
256,128,30316,1,0,0:0:0:0:
256,64,30412,1,2,3:2:0:0:
160,64,30604,1,0,0:0:0:0:
384,64,30796,5,2,3:2:0:0:
384,320,30989,1,0,0:0:0:0:
256,320,31181,1,2,3:2:0:0:
256,64,31373,1,0,0:0:0:0:
256,32,31470,1,0,0:0:0:0:
256,0,31566,2,0,L|208:0,1,47.9999976158143,2|0,2:2|0:0,0:0:0:0:
384,128,31758,2,0,L|432:128,1,47.9999976158143
224,256,31950,2,0,L|128:256,1,95.9999952316285,2|2,2:2|2:2,0:0:0:0:
64,256,32239,1,0,0:0:0:0:
128,384,32335,6,0,L|192:384,1,64.7999970285416,6|0,3:2|0:0,0:0:0:0:
192,320,32527,2,0,L|128:320,1,64.7999970285416,2|0,2:3|0:0,0:0:0:0:
128,384,32720,2,0,L|192:384,1,64.7999970285416,2|0,1:2|0:0,0:0:0:0:
192,320,32912,2,0,L|128:320,1,64.7999970285416,2|0,2:3|0:0,0:0:0:0:
128,384,33104,2,0,L|192:384,1,64.7999970285416,2|0,3:2|0:0,0:0:0:0:
192,320,33296,2,0,L|128:320,1,64.7999970285416,2|0,2:3|0:0,0:0:0:0:
128,384,33489,2,0,L|192:384,1,64.7999970285416,2|0,1:2|0:0,0:0:0:0:
192,320,33681,2,0,L|128:320,1,64.7999970285416,2|0,2:3|0:0,0:0:0:0:
288,256,33873,6,0,L|352:256,1,64.7999970285416,2|0,3:2|0:0,0:0:0:0:
352,192,34066,2,0,L|288:192,1,64.7999970285416,2|0,2:3|0:0,0:0:0:0:
288,256,34258,2,0,L|352:256,1,64.7999970285416,2|0,1:2|0:0,0:0:0:0:
352,192,34450,2,0,L|288:192,1,64.7999970285416,2|0,2:3|0:0,0:0:0:0:
288,256,34643,2,0,L|352:256,1,64.7999970285416,2|0,3:2|0:0,0:0:0:0:
352,192,34835,2,0,L|288:192,1,64.7999970285416,2|0,2:3|0:0,0:0:0:0:
288,256,35027,2,0,L|352:256,1,64.7999970285416,2|0,1:2|0:0,0:0:0:0:
352,192,35220,2,0,L|288:192,1,64.7999970285416,2|0,2:3|0:0,0:0:0:0:
96,128,35412,6,0,L|192:128,1,95.9999952316285,2|0,3:2|0:0,0:0:0:0:
192,32,35604,2,0,L|96:32,1,95.9999952316285,2|0,2:3|0:0,0:0:0:0:
96,128,35796,2,0,L|192:128,1,95.9999952316285,2|0,1:2|0:0,0:0:0:0:
192,32,35989,2,0,L|96:32,1,95.9999952316285,2|0,2:3|0:0,0:0:0:0:
96,128,36181,2,0,L|192:128,1,95.9999952316285,2|0,3:2|0:0,0:0:0:0:
192,32,36373,2,0,L|96:32,1,95.9999952316285,2|0,2:3|0:0,0:0:0:0:
96,128,36566,2,0,L|192:128,1,95.9999952316285,2|0,1:2|0:0,0:0:0:0:
192,32,36758,2,0,L|96:32,1,95.9999952316285,2|0,2:3|0:0,0:0:0:0:
288,128,36950,6,0,L|384:128,1,95.9999952316285,2|0,3:2|0:0,0:0:0:0:
384,32,37143,2,0,L|288:32,1,95.9999952316285,2|0,2:3|0:0,0:0:0:0:
288,128,37335,2,0,L|384:128,1,95.9999952316285,2|0,1:2|0:0,0:0:0:0:
384,32,37527,2,0,L|288:32,1,95.9999952316285,2|0,2:3|0:0,0:0:0:0:
288,128,37720,2,0,L|384:128,1,95.9999952316285,2|0,3:2|0:0,0:0:0:0:
288,192,37912,2,0,L|192:192,1,95.9999952316285,2|0,2:3|0:0,0:0:0:0:
192,256,38104,2,0,L|96:256,1,95.9999952316285,2|0,1:2|0:0,0:0:0:0:
0,320,38296,2,0,L|96:320,1,95.9999952316285,2|0,3:3|0:0,0:0:0:0:
256,320,38489,6,0,L|256:256,1,64.7999970285416,2|0,3:2|0:0,0:0:0:0:
320,256,38681,2,0,L|320:320,1,64.7999970285416,2|0,2:3|0:0,0:0:0:0:
256,320,38873,2,0,L|256:256,1,64.7999970285416,2|0,1:2|0:0,0:0:0:0:
320,256,39066,2,0,L|320:320,1,64.7999970285416,2|0,2:3|0:0,0:0:0:0:
256,320,39258,2,0,L|256:256,1,64.7999970285416,2|0,3:2|0:0,0:0:0:0:
320,256,39450,2,0,L|320:320,1,64.7999970285416,2|0,2:3|0:0,0:0:0:0:
256,320,39643,2,0,L|256:256,1,64.7999970285416,2|0,1:2|0:0,0:0:0:0:
320,256,39835,2,0,L|320:320,1,64.7999970285416,2|0,2:3|0:0,0:0:0:0:
448,192,40027,6,0,L|448:128,1,64.7999970285416,2|0,3:2|0:0,0:0:0:0:
384,128,40220,2,0,L|384:192,1,64.7999970285416,2|0,2:3|0:0,0:0:0:0:
448,192,40412,2,0,L|448:128,1,64.7999970285416,2|0,1:2|0:0,0:0:0:0:
384,128,40604,2,0,L|384:192,1,64.7999970285416,2|0,2:3|0:0,0:0:0:0:
448,192,40796,2,0,L|448:128,1,64.7999970285416,2|0,3:2|0:0,0:0:0:0:
384,256,40989,2,0,L|384:320,1,64.7999970285416,2|0,2:3|0:0,0:0:0:0:
320,192,41181,2,0,L|320:128,1,64.7999970285416,2|0,1:2|0:0,0:0:0:0:
256,255,41373,2,0,L|256:319,1,64.7999970285416,2|0,2:3|0:0,0:0:0:0:
320,64,41566,6,0,L|256:64,1,64.7999970285416,2|0,3:2|0:0,0:0:0:0:
192,64,41758,2,0,L|128:64,1,64.7999970285416,2|0,2:3|0:0,0:0:0:0:
128,128,41950,2,0,L|192:128,1,64.7999970285416,2|0,1:2|0:0,0:0:0:0:
256,128,42143,2,0,L|320:128,1,64.7999970285416,2|0,2:3|0:0,0:0:0:0:
320,192,42335,2,0,L|256:192,1,64.7999970285416,2|0,3:2|0:0,0:0:0:0:
192,192,42527,2,0,L|128:192,1,64.7999970285416,2|0,2:3|0:0,0:0:0:0:
128,256,42720,2,0,L|192:256,1,64.7999970285416,2|0,1:2|0:0,0:0:0:0:
256,256,42912,2,0,L|320:256,1,64.7999970285416,2|0,2:3|0:0,0:0:0:0:
320,256,43104,6,0,L|256:256,1,64.7999970285416,2|0,3:2|0:0,0:0:0:0:
192,256,43296,2,0,L|128:256,1,64.7999970285416,2|0,2:3|0:0,0:0:0:0:
128,192,43489,2,0,L|192:192,1,64.7999970285416,2|0,1:2|0:0,0:0:0:0:
256,192,43681,2,0,L|320:192,1,64.7999970285416,2|0,2:3|0:0,0:0:0:0:
320,128,43873,2,0,L|256:128,1,64.7999970285416,6|0,3:2|0:0,0:0:0:0:
192,128,44066,2,0,L|128:128,1,64.7999970285416,2|0,2:3|3:3,0:0:0:0:
128,64,44258,2,0,L|192:64,1,64.7999970285416,6|0,1:2|0:0,0:0:0:0:
256,64,44450,2,0,L|320:64,1,64.7999970285416,2|0,3:3|0:0,0:0:0:0:
448,64,44643,5,6,3:2:0:0:
448,64,44739,1,0,0:0:0:0:
512,128,44835,5,2,2:3:0:0:
512,128,44931,1,0,0:0:0:0:
448,128,45027,5,2,1:2:0:0:
448,128,45123,1,0,0:0:0:0:
512,64,45220,5,2,2:3:0:0:
512,64,45316,1,0,0:0:0:0:
448,64,45412,5,2,3:2:0:0:
448,64,45508,1,0,0:0:0:0:
512,128,45604,5,2,2:3:0:0:
512,128,45700,1,0,0:0:0:0:
448,128,45796,5,2,1:2:0:0:
448,128,45893,1,0,0:0:0:0:
512,64,45989,5,2,2:3:0:0:
512,64,46085,1,0,0:0:0:0:
416,192,46181,5,2,3:2:0:0:
416,192,46277,1,0,0:0:0:0:
352,256,46373,5,2,2:3:0:0:
352,256,46470,1,0,0:0:0:0:
416,256,46566,5,2,1:2:0:0:
416,256,46662,1,0,0:0:0:0:
352,192,46758,5,2,2:3:0:0:
352,192,46854,1,0,0:0:0:0:
416,192,46950,5,2,3:2:0:0:
416,192,47046,1,0,0:0:0:0:
352,256,47143,5,2,2:3:0:0:
352,256,47239,1,0,0:0:0:0:
416,256,47335,5,2,1:2:0:0:
416,256,47431,1,0,0:0:0:0:
352,192,47527,5,2,2:3:0:0:
352,192,47623,1,0,0:0:0:0:
192,288,47720,5,6,3:2:0:0:
192,288,47816,1,0,0:0:0:0:
288,384,47912,5,2,2:3:0:0:
288,384,48008,1,0,0:0:0:0:
192,384,48104,5,2,1:2:0:0:
192,384,48200,1,0,0:0:0:0:
288,288,48296,5,2,2:3:0:0:
288,288,48393,1,0,0:0:0:0:
192,288,48489,5,2,3:2:0:0:
192,288,48585,1,0,0:0:0:0:
288,384,48681,5,2,2:3:0:0:
288,384,48777,1,0,0:0:0:0:
192,384,48873,5,2,1:2:0:0:
192,384,48970,1,0,0:0:0:0:
288,288,49066,5,2,2:3:0:0:
288,288,49162,1,0,0:0:0:0:
128,288,49258,5,2,3:2:0:0:
128,288,49354,1,0,0:0:0:0:
32,192,49450,5,2,2:3:0:0:
32,192,49546,1,0,0:0:0:0:
128,192,49643,5,2,1:2:0:0:
128,192,49739,1,0,0:0:0:0:
32,288,49835,5,2,2:3:0:0:
32,288,49931,1,0,0:0:0:0:
128,288,50027,5,2,3:2:0:0:
128,288,50123,1,0,0:0:0:0:
224,288,50220,5,2,2:3:0:0:
224,288,50316,1,0,0:0:0:0:
320,288,50412,5,6,1:2:0:0:
320,288,50508,1,0,0:0:0:0:
416,288,50604,5,2,3:3:0:0:
416,288,50700,1,0,0:0:0:0:
448,128,50796,5,6,3:2:0:0:
448,128,50893,1,0,0:0:0:0:
384,128,50989,5,2,2:3:0:0:
384,128,51085,1,0,0:0:0:0:
384,64,51181,5,2,1:2:0:0:
384,64,51277,1,0,0:0:0:0:
320,64,51373,5,2,2:3:0:0:
320,64,51470,1,0,0:0:0:0:
448,128,51566,5,2,3:2:0:0:
448,128,51662,1,0,0:0:0:0:
384,128,51758,5,2,2:3:0:0:
384,128,51854,1,0,0:0:0:0:
384,64,51950,5,2,1:2:0:0:
384,64,52046,1,0,0:0:0:0:
320,64,52143,5,2,2:3:0:0:
320,64,52239,1,0,0:0:0:0:
128,64,52335,5,6,3:2:0:0:
128,64,52431,1,0,0:0:0:0:
192,64,52527,5,2,2:3:0:0:
192,64,52623,1,0,0:0:0:0:
192,0,52720,5,2,1:2:0:0:
192,0,52816,1,0,0:0:0:0:
256,0,52912,5,2,2:3:0:0:
256,0,53008,1,0,0:0:0:0:
128,64,53104,5,2,3:2:0:0:
128,64,53200,1,0,0:0:0:0:
128,128,53296,5,2,2:3:0:0:
128,128,53393,1,0,0:0:0:0:
64,128,53489,5,2,1:2:0:0:
64,128,53585,1,0,0:0:0:0:
64,192,53681,5,2,2:3:0:0:
64,192,53777,1,0,0:0:0:0:
128,256,53873,5,6,3:2:0:0:
128,256,53970,1,0,0:0:0:0:
0,256,54066,5,2,2:3:0:0:
0,256,54162,1,0,0:0:0:0:
192,256,54258,5,2,1:2:0:0:
192,256,54354,1,0,0:0:0:0:
64,256,54450,5,2,2:3:0:0:
64,256,54546,1,0,0:0:0:0:
256,256,54643,5,6,3:2:0:0:
256,256,54739,1,0,0:0:0:0:
128,256,54835,5,2,2:3:0:0:
128,256,54931,1,0,0:0:0:0:
320,256,55027,5,2,1:2:0:0:
320,256,55123,1,0,0:0:0:0:
192,256,55220,5,2,2:3:0:0:
192,256,55316,1,0,0:0:0:0:
384,256,55412,5,14,3:2:0:0:
384,224,55508,1,8,2:2:0:0:
384,192,55604,1,10,2:2:0:0:
384,160,55700,1,8,2:2:0:0:
448,224,55796,1,10,1:2:0:0:
448,192,55893,1,8,2:2:0:0:
448,160,55989,1,10,2:2:0:0:
448,128,56085,1,8,2:2:0:0:
512,192,56181,5,10,3:2:0:0:
512,128,56277,1,8,2:2:0:0:
512,64,56373,1,10,2:2:0:0:
512,0,56470,1,8,3:2:0:0:
448,0,56566,1,10,1:2:0:0:
384,0,56662,1,8,2:2:0:0:
320,0,56758,1,10,3:2:0:0:
256,0,56854,1,8,2:2:0:0:
192,0,56950,5,8,2:1:0:0:
192,0,57046,1,8,2:1:0:0:
128,0,57239,5,8,2:1:0:0:
128,0,57335,1,8,2:1:0:0:
64,0,57527,5,8,2:1:0:0:
64,0,57623,1,8,2:1:0:0:
191,128,58008,5,0,0:0:0:0:
0,128,58104,1,2,2:2:0:0:
191,128,58200,1,0,0:0:0:0:
0,128,58296,1,2,2:2:0:0:
191,128,58393,1,0,0:0:0:0:
0,192,58489,6,0,L|192:192,1,191.999990463257,6|2,3:2|2:3,0:0:0:0:
256,192,58777,1,0,0:0:0:0:
256,256,58873,2,0,L|64:256,1,191.999990463257,2|2,1:2|2:3,0:0:0:0:
0,256,59162,1,0,0:0:0:0:
0,320,59258,2,0,L|192:320,1,191.999990463257,2|2,3:2|2:3,0:0:0:0:
256,320,59546,1,0,0:0:0:0:
480,192,59643,2,0,L|256:192,1,223.679997849045,2|2,1:2|2:3,0:0:0:0:
192,192,59931,1,0,0:0:0:0:
480,64,60027,6,0,L|288:64,1,191.999990463257,2|2,3:2|2:3,0:0:0:0:
224,64,60316,1,0,0:0:0:0:
160,64,60412,1,0,1:1:0:0:
160,64,60604,1,2,2:3:0:0:
160,64,60700,1,0,0:0:0:0:
96,64,60796,2,0,L|32:64,1,64.7999948038103,0|0,3:3|0:0,0:0:0:0:
32,128,61181,6,0,L|96:128,1,64.7999970285416,2|0,1:2|0:0,0:0:0:0:
224,320,61373,2,0,L|288:320,1,64.7999970285416,2|0,2:2|0:0,0:0:0:0:
480,224,61566,6,0,L|288:224,1,191.999990463257,2|2,3:2|2:3,0:0:0:0:
224,224,61854,1,0,0:0:0:0:
224,160,61950,2,0,L|416:160,1,191.999990463257,2|2,1:2|2:3,0:0:0:0:
480,160,62239,1,0,0:0:0:0:
480,96,62335,2,0,L|288:96,1,191.999990463257,2|2,3:2|2:3,0:0:0:0:
224,96,62623,1,0,0:0:0:0:
0,288,62720,2,0,L|224:288,1,223.679997849045,2|2,1:2|2:3,0:0:0:0:
288,288,63008,1,0,0:0:0:0:
0,224,63104,6,0,L|191:224,1,191.999990463257,2|2,3:2|2:3,0:0:0:0:
256,224,63393,1,0,0:0:0:0:
320,224,63489,1,0,1:1:0:0:
320,224,63681,1,2,2:3:0:0:
320,224,63777,1,0,0:0:0:0:
384,224,63873,2,0,L|448:224,1,64.7999948038103,0|0,3:3|0:0,0:0:0:0:
448,288,64258,6,0,L|352:288,1,95.9999952316285,2|0,1:2|0:0,0:0:0:0:
352,32,64450,2,0,L|448:32,1,95.9999952316285,2|0,3:2|0:0,0:0:0:0:
480,96,64643,6,0,L|256:96,1,223.679997849045,2|2,3:2|2:3,0:0:0:0:
192,96,64931,1,0,0:0:0:0:
32,192,65027,2,0,L|256:192,1,223.679997849045,2|2,1:2|2:3,0:0:0:0:
320,192,65316,1,0,0:0:0:0:
480,288,65412,2,0,L|256:288,1,223.679997849045,2|2,3:2|2:3,0:0:0:0:
192,288,65700,1,0,0:0:0:0:
32,32,65796,2,0,L|288:32,1,256.319996166275,2|2,1:2|2:3,0:0:0:0:
352,32,66085,1,0,0:0:0:0:
480,96,66181,6,0,L|256:96,1,223.679997849045,2|2,3:2|2:3,0:0:0:0:
192,96,66470,1,0,0:0:0:0:
32,32,66566,2,0,L|256:32,1,223.679997849045,2|2,1:2|2:3,0:0:0:0:
320,32,66854,1,0,0:0:0:0:
480,224,66950,2,0,L|96:224,1,384.479994249413,2|0,3:2|0:0,0:0:0:0:
160,320,67335,6,0,L|32:320,1,128.159998083138,2|0,1:2|0:0,0:0:0:0:
288,96,67527,2,0,L|416:96,1,128.159998083138,2|0,2:2|0:0,0:0:0:0:
512,160,67720,6,0,L|288:160,1,223.679997849045,2|2,3:2|2:3,0:0:0:0:
224,160,68008,1,0,0:0:0:0:
32,384,68104,2,0,L|416:384,1,384.479994249413,2|0,1:2|0:0,0:0:0:0:
512,320,68489,2,0,L|384:320,1,128.159998083138,2|0,3:2|0:0,0:0:0:0:
64,224,68681,2,0,L|192:224,1,128.159998083138,2|0,2:2|0:0,0:0:0:0:
480,96,68873,2,0,L|256:96,1,223.679997849045,2|2,1:2|2:3,0:0:0:0:
192,96,69162,1,0,0:0:0:0:
32,320,69258,6,0,L|255:320,1,223.679997849045,2|2,3:2|2:3,0:0:0:0:
320,320,69546,1,0,0:0:0:0:
352,384,69643,2,0,L|416:384,1,64.7999948038103,0|0,1:1|0:0,0:0:0:0:
448,256,70027,6,0,L|352:256,1,95.9999952316285,6|0,3:2|0:0,0:0:0:0:
160,64,70220,2,0,L|256:64,1,95.9999952316285,2|0,2:2|3:3,0:0:0:0:
448,192,70412,2,0,L|352:192,1,95.9999952316285,6|0,1:2|0:0,0:0:0:0:
160,0,70604,2,0,L|256:0,1,95.9999952316285,2|0,3:2|0:0,0:0:0:0:
448,128,70796,6,0,L|256:128,1,191.999990463257,6|2,3:2|2:3,0:0:0:0:
192,128,71085,1,0,0:0:0:0:
192,192,71181,2,0,L|384:192,1,191.999990463257,2|2,1:2|2:3,0:0:0:0:
448,192,71470,1,0,0:0:0:0:
448,256,71566,2,0,L|256:256,1,191.999990463257,2|2,3:2|2:3,0:0:0:0:
192,256,71854,1,0,0:0:0:0:
32,128,71950,2,0,L|255:128,1,223.679997849045,2|2,1:2|2:3,0:0:0:0:
320,128,72239,1,0,0:0:0:0:
0,256,72335,6,0,L|192:256,1,191.999990463257,2|2,3:2|2:3,0:0:0:0:
256,256,72623,1,0,0:0:0:0:
256,320,72720,1,0,1:1:0:0:
256,320,72912,1,2,2:3:0:0:
256,320,73008,1,0,0:0:0:0:
192,320,73104,2,0,L|128:320,1,64.7999948038103,0|0,3:3|0:0,0:0:0:0:
128,384,73489,6,0,L|224:384,1,95.9999952316285,2|0,1:2|0:0,0:0:0:0:
224,192,73681,2,0,L|128:192,1,95.9999952316285,2|0,2:2|0:0,0:0:0:0:
0,64,73873,6,0,L|191:64,1,191.999990463257,2|2,3:2|2:3,0:0:0:0:
256,64,74162,1,0,0:0:0:0:
256,128,74258,2,0,L|448:128,1,191.999990463257,2|2,1:2|2:3,0:0:0:0:
512,128,74546,1,0,0:0:0:0:
512,64,74643,2,0,L|320:64,1,191.999990463257,2|2,3:2|2:3,0:0:0:0:
256,64,74931,1,0,0:0:0:0:
0,256,75027,2,0,L|256:256,1,256.319996166275,2|2,1:2|2:3,0:0:0:0:
320,256,75316,1,0,0:0:0:0:
0,352,75412,6,0,L|192:352,1,191.999990463257,2|2,3:2|2:3,0:0:0:0:
256,352,75700,1,0,0:0:0:0:
320,352,75796,1,0,1:1:0:0:
320,352,75989,1,2,2:3:0:0:
320,352,76085,1,0,0:0:0:0:
384,352,76181,2,0,L|448:352,1,64.7999948038103,0|0,3:3|0:0,0:0:0:0:
512,288,76566,6,0,L|416:288,1,95.9999952316285,2|0,1:2|0:0,0:0:0:0:
416,32,76758,2,0,L|512:32,1,95.9999952316285,2|0,3:2|0:0,0:0:0:0:
512,160,76950,6,0,L|288:160,1,223.679997849045,2|2,3:2|2:3,0:0:0:0:
224,160,77239,1,0,0:0:0:0:
0,64,77335,2,0,L|224:64,1,223.679997849045,2|2,1:2|2:3,0:0:0:0:
288,64,77623,1,0,0:0:0:0:
512,160,77720,2,0,L|288:160,1,223.679997849045,2|2,3:2|2:3,0:0:0:0:
224,160,78008,1,0,0:0:0:0:
0,320,78104,2,0,L|256:320,1,256.319996166275,2|2,1:2|2:3,0:0:0:0:
320,320,78393,1,0,0:0:0:0:
512,320,78489,6,0,L|288:320,1,223.679997849045,2|2,3:2|2:3,0:0:0:0:
224,320,78777,1,0,0:0:0:0:
0,256,78873,2,0,L|224:256,1,223.679997849045,2|2,1:2|2:3,0:0:0:0:
288,256,79162,1,0,0:0:0:0:
512,160,79258,2,0,L|288:160,1,223.679997849045,2|2,3:2|2:3,0:0:0:0:
224,160,79546,1,0,0:0:0:0:
352,256,79643,6,0,L|448:256,1,95.9999952316285,2|0,1:2|0:0,0:0:0:0:
128,160,79835,2,0,L|32:160,1,95.9999952316285,2|0,2:2|0:0,0:0:0:0:
0,352,80027,6,0,L|224:352,1,223.679997849045,10|10,3:2|2:2,0:0:0:0:
288,352,80316,1,8,2:2:0:0:
512,160,80412,2,0,L|288:160,1,223.679997849045,10|10,1:2|2:2,0:0:0:0:
224,160,80700,1,8,2:2:0:0:
32,0,80796,2,0,L|160:0,1,128.159998083138,10|8,3:2|2:2,0:0:0:0:
224,96,80989,2,0,L|352:96,1,128.159998083138,10|8,3:2|2:2,0:0:0:0:
512,0,81181,2,0,L|320:0,1,191.999990463257,10|10,1:2|3:2,0:0:0:0:
256,0,81470,2,0,L|224:0,1,31.1999970220567,8|0,3:2|3:3,0:0:0:0:
160,0,81566,6,0,L|64:0,1,95.9999952316285,6|0,3:2|0:0,0:0:0:0:
160,64,81758,2,0,L|64:64,1,95.9999952316285
160,128,81950,2,0,L|64:128,1,95.9999952316285,2|0,1:2|0:0,0:0:0:0:
160,192,82143,2,0,L|64:192,1,95.9999952316285
64,192,82335,6,0,L|160:192,1,95.9999952316285,2|0,3:2|0:0,0:0:0:0:
64,128,82527,2,0,L|160:128,1,95.9999952316285
64,64,82720,2,0,L|160:64,1,95.9999952316285,2|0,1:2|0:0,0:0:0:0:
64,0,82912,2,0,L|160:0,1,95.9999952316285
160,0,83104,6,0,L|64:0,1,95.9999952316285,2|0,3:2|0:0,0:0:0:0:
160,64,83296,2,0,L|64:64,1,95.9999952316285
160,128,83489,2,0,L|64:128,1,95.9999952316285,2|0,1:2|0:0,0:0:0:0:
160,192,83681,2,0,L|64:192,1,95.9999952316285
64,192,83873,6,0,L|160:192,1,95.9999952316285,2|0,3:2|0:0,0:0:0:0:
64,128,84066,2,0,L|160:128,1,95.9999952316285
64,64,84258,2,0,L|160:64,1,95.9999952316285,2|0,1:2|0:0,0:0:0:0:
64,0,84450,2,0,L|160:0,1,95.9999952316285
160,0,84643,6,0,L|64:0,1,95.9999952316285,2|0,3:2|0:0,0:0:0:0:
160,64,84835,2,0,L|64:64,1,95.9999952316285
160,128,85027,2,0,L|64:128,1,95.9999952316285,2|0,1:2|0:0,0:0:0:0:
160,192,85220,2,0,L|64:192,1,95.9999952316285
64,192,85412,6,0,L|160:192,1,95.9999952316285,2|0,3:2|0:0,0:0:0:0:
64,128,85604,2,0,L|160:128,1,95.9999952316285
384,256,85796,2,0,L|288:256,1,95.9999952316285,2|0,1:2|0:0,0:0:0:0:
64,352,85989,2,0,L|160:352,1,95.9999952316285
384,352,86181,6,0,L|384:256,1,95.9999952316285,2|0,3:2|0:0,0:0:0:0:
448,256,86373,2,0,L|448:352,1,95.9999952316285
256,256,86566,6,0,L|256:160,1,95.9999952316285,2|0,1:2|0:0,0:0:0:0:
320,160,86758,2,0,L|320:256,1,95.9999952316285
64,160,86950,6,0,L|64:64,1,95.9999952316285,2|0,3:2|0:0,0:0:0:0:
0,64,87143,2,0,L|0:160,1,95.9999952316285
192,256,87335,6,0,L|192:160,1,95.9999952316285,2|0,1:2|0:0,0:0:0:0:
128,160,87527,2,0,L|128:256,1,95.9999952316285
256,256,87720,6,0,L|256:160,1,95.9999952316285,2|0,3:2|0:0,0:0:0:0:
320,160,87912,2,0,L|320:256,1,95.9999952316285
0,256,88104,6,0,L|0:160,1,95.9999952316285,2|0,1:2|0:0,0:0:0:0:
64,160,88296,2,0,L|64:256,1,95.9999952316285
128,256,88489,6,0,L|128:160,1,95.9999952316285,2|0,3:2|0:0,0:0:0:0:
192,288,88681,2,0,L|192:192,1,95.9999952316285
256,352,88873,2,0,L|256:256,1,95.9999952316285,2|0,1:2|0:0,0:0:0:0:
320,384,89066,2,0,L|320:288,1,95.9999952316285,0|0,3:3|0:0,0:0:0:0:
320,96,89258,6,0,L|416:96,1,95.9999952316285,2|0,3:2|0:0,0:0:0:0:
352,32,89450,2,0,L|256:32,1,95.9999952316285
320,160,89643,6,0,L|416:160,1,95.9999952316285,2|0,1:2|0:0,0:0:0:0:
256,96,89835,2,0,L|160:96,1,95.9999952316285
0,32,90027,6,0,L|96:32,1,95.9999952316285,2|0,3:2|0:0,0:0:0:0:
96,160,90220,2,0,L|0:160,1,95.9999952316285
160,32,90412,6,0,L|256:32,1,95.9999952316285,2|0,1:2|0:0,0:0:0:0:
96,96,90604,2,0,L|0:96,1,95.9999952316285
0,160,90796,6,0,L|0:256,1,95.9999952316285,2|0,3:2|0:0,0:0:0:0:
64,160,90989,2,0,L|64:256,1,95.9999952316285
128,320,91181,6,0,L|224:320,1,95.9999952316285,2|0,1:2|0:0,0:0:0:0:
128,384,91373,2,0,L|224:384,1,95.9999952316285
288,256,91566,6,0,L|288:160,1,95.9999952316285,2|0,3:2|0:0,0:0:0:0:
352,256,91758,2,0,L|352:160,1,95.9999952316285
224,256,91950,6,0,L|224:160,1,95.9999952316285,2|0,1:2|0:0,0:0:0:0:
416,256,92143,2,0,L|416:160,1,95.9999952316285
480,32,92335,6,0,L|384:32,1,95.9999952316285,2|0,3:2|0:0,0:0:0:0:
480,32,92527,2,0,L|384:32,1,95.9999952316285
320,32,92720,6,0,L|224:32,1,95.9999952316285,2|0,1:2|0:0,0:0:0:0:
320,32,92912,2,0,L|224:32,1,95.9999952316285
160,32,93104,6,0,L|64:32,1,95.9999952316285,2|0,3:2|0:0,0:0:0:0:
160,32,93296,2,0,L|64:32,1,95.9999952316285
224,96,93489,6,0,L|320:96,1,95.9999952316285,2|0,1:2|0:0,0:0:0:0:
224,96,93681,2,0,L|320:96,1,95.9999952316285
160,224,93873,6,0,L|64:224,1,95.9999952316285,2|0,3:2|0:0,0:0:0:0:
160,224,94066,2,0,L|64:224,1,95.9999952316285
224,160,94258,6,0,L|320:160,1,95.9999952316285,2|0,1:2|0:0,0:0:0:0:
224,160,94450,2,0,L|320:160,1,95.9999952316285
288,352,94643,6,0,L|384:352,1,95.9999952316285,6|0,3:2|0:0,0:0:0:0:
288,352,94835,2,0,L|384:352,1,95.9999952316285,0|0,0:0|3:3,0:0:0:0:
192,352,95027,5,6,1:2:0:0:
480,352,95220,1,0,3:3:0:0:
128,352,95412,5,6,3:2:0:0:
128,352,95508,1,0,0:0:0:0:
128,352,95604,1,2,2:3:0:0:
128,352,95700,1,0,0:0:0:0:
32,288,95796,5,2,1:2:0:0:
32,288,95893,1,0,0:0:0:0:
32,288,95989,1,2,2:3:0:0:
32,288,96085,1,0,0:0:0:0:
32,352,96181,5,2,3:2:0:0:
32,352,96277,1,0,0:0:0:0:
32,352,96373,1,2,2:3:0:0:
32,352,96470,1,0,0:0:0:0:
128,288,96566,5,2,1:2:0:0:
128,288,96662,1,0,0:0:0:0:
128,288,96758,1,2,2:3:0:0:
128,288,96854,1,0,0:0:0:0:
0,128,96950,5,2,3:2:0:0:
0,128,97046,1,0,0:0:0:0:
0,128,97143,1,2,2:3:0:0:
0,128,97239,1,0,0:0:0:0:
128,224,97335,5,2,1:2:0:0:
128,224,97431,1,0,0:0:0:0:
128,224,97527,1,2,2:3:0:0:
128,224,97623,1,0,0:0:0:0:
0,224,97720,5,2,3:2:0:0:
0,224,97816,1,0,0:0:0:0:
0,224,97912,1,2,2:3:0:0:
0,224,98008,1,0,0:0:0:0:
128,128,98104,5,2,1:2:0:0:
128,128,98200,1,0,0:0:0:0:
128,128,98296,1,2,2:3:0:0:
128,128,98393,1,0,0:0:0:0:
352,0,98489,5,6,3:2:0:0:
352,0,98585,1,0,0:0:0:0:
352,0,98681,1,2,2:3:0:0:
352,0,98777,1,0,0:0:0:0:
192,128,98873,5,2,1:2:0:0:
192,128,98970,1,0,0:0:0:0:
192,128,99066,1,2,2:3:0:0:
192,128,99162,1,0,0:0:0:0:
192,0,99258,5,2,3:2:0:0:
192,0,99354,1,0,0:0:0:0:
192,0,99450,1,2,2:3:0:0:
192,0,99546,1,0,0:0:0:0:
352,128,99643,5,2,1:2:0:0:
352,128,99739,1,0,0:0:0:0:
352,128,99835,1,2,2:3:0:0:
352,128,99931,1,0,0:0:0:0:
192,320,100027,5,2,3:2:0:0:
192,320,100123,1,0,0:0:0:0:
192,320,100220,1,2,2:3:0:0:
192,320,100316,1,0,0:0:0:0:
352,192,100412,5,2,1:2:0:0:
352,192,100508,1,0,0:0:0:0:
352,192,100604,1,2,2:3:0:0:
352,192,100700,1,0,0:0:0:0:
192,192,100796,5,2,3:2:0:0:
192,192,100893,1,0,0:0:0:0:
192,192,100989,1,2,2:3:0:0:
192,192,101085,1,0,0:0:0:0:
352,320,101181,5,6,1:2:0:0:
352,320,101277,1,0,0:0:0:0:
416,352,101373,5,2,3:3:0:0:
416,352,101470,1,0,0:0:0:0:
480,384,101566,5,6,3:2:0:0:
480,384,101662,1,0,0:0:0:0:
480,384,101758,1,2,2:3:0:0:
480,384,101854,1,0,0:0:0:0:
480,256,101950,5,2,1:2:0:0:
480,256,102046,1,0,0:0:0:0:
480,256,102143,1,2,2:3:0:0:
480,256,102239,1,0,0:0:0:0:
320,384,102335,5,2,3:2:0:0:
320,384,102431,1,0,0:0:0:0:
320,384,102527,1,2,2:3:0:0:
320,384,102623,1,0,0:0:0:0:
320,256,102720,5,2,1:2:0:0:
320,256,102816,1,0,0:0:0:0:
320,256,102912,1,2,2:3:0:0:
320,256,103008,1,0,0:0:0:0:
480,160,103104,5,6,3:2:0:0:
480,160,103200,1,0,0:0:0:0:
480,160,103296,1,2,2:3:0:0:
480,160,103393,1,0,0:0:0:0:
320,0,103489,5,2,1:2:0:0:
320,0,103585,1,0,0:0:0:0:
320,0,103681,1,2,2:3:0:0:
320,0,103777,1,0,0:0:0:0:
480,0,103873,5,2,3:2:0:0:
480,0,103970,1,0,0:0:0:0:
480,0,104066,1,2,2:3:0:0:
480,0,104162,1,0,0:0:0:0:
320,160,104258,5,2,1:2:0:0:
320,160,104354,1,0,0:0:0:0:
320,160,104450,1,2,2:3:0:0:
320,160,104546,1,0,0:0:0:0:
192,128,104643,5,6,3:2:0:0:
192,128,104739,1,0,0:0:0:0:
128,128,104835,1,2,2:3:0:0:
128,128,104931,1,0,0:0:0:0:
64,128,105027,1,2,1:2:0:0:
64,128,105123,1,0,0:0:0:0:
0,128,105220,1,2,2:3:0:0:
0,128,105316,1,0,0:0:0:0:
0,192,105412,5,6,3:2:0:0:
0,192,105508,1,0,0:0:0:0:
64,192,105604,1,2,2:3:0:0:
64,192,105700,1,0,0:0:0:0:
128,192,105796,1,2,1:2:0:0:
128,192,105893,1,0,0:0:0:0:
192,192,105989,1,2,2:3:0:0:
192,192,106085,1,0,0:0:0:0:
0,256,106181,5,10,3:2:0:0:
0,256,106277,1,8,2:2:0:0:
96,256,106373,1,10,2:2:0:0:
96,256,106470,1,8,2:2:0:0:
192,256,106566,1,10,1:2:0:0:
192,256,106662,1,8,2:2:0:0:
288,256,106758,1,10,2:2:0:0:
288,256,106854,1,8,2:2:0:0:
384,256,106950,5,10,2:2:0:0:
384,256,107046,1,8,2:2:0:0:
384,256,107143,1,10,2:2:0:0:
384,256,107239,1,8,2:2:0:0:
480,256,107335,5,10,2:2:0:0:
480,256,107431,1,8,2:2:0:0:
480,256,107527,1,10,2:2:0:0:
480,256,107623,1,8,2:2:0:0:
480,352,107720,5,0,0:0:0:0:
256,192,107816,12,2,109066,2:2:0:0:
384,352,109258,6,0,L|320:352,1,64.7999948038103,10|0,2:1|0:0,0:0:0:0:
256,352,109643,1,10,2:2:0:0:
192,352,109835,1,8,2:1:0:0:
128,352,110027,2,0,L|64:352,1,64.7999948038103,10|0,2:1|0:0,0:0:0:0:
0,288,110412,2,0,L|0:352,1,64.7999948038103,10|0,2:2|0:0,0:0:0:0:
64,224,110796,6,0,L|64:288,1,64.7999948038103,10|8,2:1|2:1,0:0:0:0:
128,288,111181,1,8,2:2:0:0:
192,288,111373,1,8,2:1:0:0:
256,288,111566,2,0,L|320:288,1,64.7999948038103,8|0,2:1|0:0,0:0:0:0:
384,288,111950,2,0,L|416:288,1,32.1599968813555,10|0,2:2|0:0,0:0:0:0:
480,288,112143,2,0,L|512:288,1,32.1599968813555,10|0,2:2|0:0,0:0:0:0:
512,224,112335,6,0,L|448:224,1,64.7999948038103,10|0,2:1|0:0,0:0:0:0:
384,224,112720,1,10,2:2:0:0:
320,224,112912,1,8,2:1:0:0:
256,224,113104,2,0,L|192:224,1,64.7999948038103,10|0,2:1|0:0,0:0:0:0:
64,224,113489,2,0,L|128:224,1,64.7999948038103,10|0,2:2|0:0,0:0:0:0:
0,160,113873,6,0,L|64:160,1,64.7999948038103,10|8,2:1|2:1,0:0:0:0:
128,160,114258,1,8,2:2:0:0:
192,160,114450,1,8,2:1:0:0:
256,160,114643,2,0,L|320:160,1,64.7999948038103,8|0,2:1|0:0,0:0:0:0:
384,160,115027,2,0,L|416:160,1,32.1599968813555,10|0,2:2|0:0,0:0:0:0:
480,160,115220,1,10,2:2:0:0:
480,96,115316,1,8,2:2:0:0:
416,96,115412,6,0,L|352:96,1,64.7999948038103,10|0,2:1|0:0,0:0:0:0:
320,32,115796,2,0,L|256:32,1,64.7999948038103,10|0,2:2|0:0,0:0:0:0:
224,96,116181,2,0,L|160:96,1,64.7999948038103,10|0,2:1|0:0,0:0:0:0:
64,32,116566,2,0,L|128:32,1,64.7999948038103,10|0,2:2|0:0,0:0:0:0:
0,96,116950,6,0,L|64:96,1,64.7999948038103,10|8,2:1|2:1,0:0:0:0:
160,96,117335,2,0,L|224:96,1,64.7999948038103,10|0,2:2|0:0,0:0:0:0:
320,96,117720,2,0,L|384:96,1,64.7999948038103,10|0,2:1|0:0,0:0:0:0:
480,96,118104,2,0,L|512:96,1,32.1599968813555,10|0,2:2|0:0,0:0:0:0:
448,160,118296,2,0,L|416:160,1,32.1599968813555,10|0,2:2|0:0,0:0:0:0:
352,160,118489,6,0,L|288:160,1,64.7999948038103,10|0,2:1|0:0,0:0:0:0:
192,256,118873,2,0,L|128:256,1,64.7999948038103,10|0,2:2|0:0,0:0:0:0:
32,352,119258,2,0,L|0:352,1,32.1599968813555,10|0,2:1|0:0,0:0:0:0:
0,256,119450,2,0,L|32:256,1,32.1599968813555,2|0,2:2|0:0,0:0:0:0:
128,352,119643,6,0,L|192:352,1,64.7999948038103,10|0,2:2|0:0,0:0:0:0:
256,352,120027,1,10,2:1:0:0:
320,352,120220,5,8,2:1:0:0:
352,352,120316,1,8,2:1:0:0:
384,352,120412,1,8,2:2:0:0:
384,352,120508,1,8,2:1:0:0:
416,352,120604,1,8,2:1:0:0:
448,352,120700,1,0,0:0:0:0:
448,288,120796,5,10,2:1:0:0:
448,224,120989,5,2,2:2:0:0:
448,160,121181,5,10,2:2:0:0:
448,128,121277,1,8,2:2:0:0:
448,96,121373,1,10,2:2:0:0:
448,64,121470,1,8,2:2:0:0:
448,32,121566,6,0,L|448:0,3,32.1599968813555,10|0|0|0,2:1|0:0|0:0|0:0,0:0:0:0:
384,64,121950,2,0,L|384:32,3,32.1599968813555,10|0|8|0,2:2|0:0|2:1|0:0,0:0:0:0:
320,32,122335,2,0,L|320:0,3,32.1599968813555,10|0|0|0,2:1|0:0|0:0|0:0,0:0:0:0:
256,64,122720,2,0,L|256:32,3,32.1599968813555,10|0|0|0,2:2|0:0|0:0|0:0,0:0:0:0:
256,224,123104,6,0,L|256:192,11,32.1599968813555,10|0|0|8|8|0|8|0|8|0|0|0,2:1|0:0|0:0|2:1|2:2|0:0|2:1|0:0|2:1|0:0|0:0|0:0,0:0:0:0:
288,288,124258,6,0,L|320:288,1,32.1599968813555,10|0,2:2|0:0,0:0:0:0:
224,288,124450,2,0,L|192:288,1,32.1599968813555,10|0,2:2|0:0,0:0:0:0:
256,352,124643,6,0,L|256:384,3,32.1599968813555,10|0|0|0,2:1|0:0|0:0|0:0,0:0:0:0:
320,352,125027,2,0,L|320:384,3,32.1599968813555,10|0|8|0,2:2|0:0|2:1|0:0,0:0:0:0:
192,352,125412,2,0,L|192:384,3,32.1599968813555,10|0|0|0,2:1|0:0|0:0|0:0,0:0:0:0:
384,352,125796,2,0,L|384:384,3,32.1599968813555,10|0|0|0,2:2|0:0|0:0|0:0,0:0:0:0:
448,352,126181,6,0,L|480:352,11,32.1599968813555,10|0|0|8|8|0|8|0|8|0|0|0,2:1|0:0|0:0|2:1|2:2|0:0|2:1|0:0|2:1|0:0|0:0|0:0,0:0:0:0:
448,256,127335,6,0,L|480:256,1,32.1599968813555,10|0,2:2|0:0,0:0:0:0:
448,160,127527,2,0,L|480:160,1,32.1599968813555,10|8,2:2|2:2,0:0:0:0:
448,32,127720,6,0,L|480:32,3,32.1599968813555,10|0|0|0,2:1|0:0|0:0|0:0,0:0:0:0:
352,96,128104,2,0,L|320:96,3,32.1599968813555,10|0|8|0,2:2|0:0|2:1|0:0,0:0:0:0:
192,32,128489,2,0,L|224:32,3,32.1599968813555,10|0|0|0,2:1|0:0|0:0|0:0,0:0:0:0:
32,32,128873,2,0,L|0:32,3,32.1599968813555,10|0|0|0,2:2|0:0|0:0|0:0,0:0:0:0:
64,96,129258,6,0,L|96:96,3,32.1599968813555,10|0|0|8,2:1|0:0|0:0|2:1,0:0:0:0:
32,160,129643,2,0,L|0:160,3,32.1599968813555,10|0|8|0,2:2|0:0|2:1|0:0,0:0:0:0:
64,224,130027,2,0,L|96:224,3,32.1599968813555,10|0|0|0,2:1|0:0|0:0|0:0,0:0:0:0:
32,288,130412,2,0,L|0:288,1,32.1599968813555,10|0,2:2|0:0,0:0:0:0:
64,352,130604,2,0,L|96:352,1,32.1599968813555,10|0,2:2|0:0,0:0:0:0:
128,288,130796,6,0,L|160:288,3,32.1599968813555,10|0|0|0,2:1|0:0|0:0|0:0,0:0:0:0:
224,352,131181,2,0,L|256:352,3,32.1599968813555,10|0|8|0,2:2|0:0|2:1|0:0,0:0:0:0:
320,352,131566,6,0,L|320:320,1,32.1599968813555,10|0,2:1|0:0,0:0:0:0:
224,288,131758,2,0,L|224:256,1,32.1599968813555,2|0,2:2|0:0,0:0:0:0:
320,224,131950,2,0,L|320:192,6,31.1999970220567,10|8|8|8|8|8|8,2:1|2:1|2:1|2:1|2:1|2:1|2:1,0:0:0:0:
416,288,132335,5,8,2:1:0:0:
416,288,132431,1,8,2:1:0:0:
480,224,132623,5,8,2:1:0:0:
480,224,132720,1,8,2:1:0:0:
416,160,132912,5,8,2:1:0:0:
416,160,133008,1,8,2:1:0:0:
480,96,133104,5,2,2:2:0:0:
352,96,133296,5,2,2:2:0:0:
288,96,133393,1,0,0:0:0:0:
224,96,133489,1,2,2:2:0:0:
160,96,133585,1,0,0:0:0:0:
96,96,133681,1,2,2:2:0:0:
32,96,133777,1,0,0:0:0:0:
32,192,133873,6,0,L|256:192,1,223.679997849045,6|2,3:2|2:3,0:0:0:0:
320,192,134162,1,0,0:0:0:0:
320,256,134258,2,0,L|96:256,1,223.679997849045,2|2,1:2|2:3,0:0:0:0:
32,256,134546,1,0,0:0:0:0:
32,320,134643,2,0,L|256:320,1,223.679997849045,2|2,3:2|2:3,0:0:0:0:
320,320,134931,1,0,0:0:0:0:
480,192,135027,2,0,L|256:192,1,223.679997849045,2|2,1:2|2:3,0:0:0:0:
192,192,135316,1,0,0:0:0:0:
0,128,135412,6,0,L|224:128,1,223.679997849045,2|2,3:2|2:3,0:0:0:0:
288,128,135700,1,0,0:0:0:0:
352,128,135796,1,0,1:1:0:0:
352,128,135989,1,2,2:3:0:0:
352,128,136085,1,0,0:0:0:0:
416,128,136181,2,0,L|480:128,1,64.7999948038103,0|0,3:3|0:0,0:0:0:0:
480,192,136566,6,0,L|384:192,1,95.9999952316285,2|0,1:2|0:0,0:0:0:0:
160,0,136758,2,0,L|256:0,1,95.9999952316285,2|0,2:2|0:0,0:0:0:0:
480,64,136950,6,0,L|256:64,1,223.679997849045,2|2,3:2|2:3,0:0:0:0:
192,64,137239,1,0,0:0:0:0:
192,128,137335,2,0,L|416:128,1,223.679997849045,2|2,1:2|2:3,0:0:0:0:
480,128,137623,1,0,0:0:0:0:
480,192,137720,2,0,L|256:192,1,223.679997849045,2|2,3:2|2:3,0:0:0:0:
192,192,138008,1,0,0:0:0:0:
32,64,138104,2,0,L|288:64,1,256.319996166275,2|2,1:2|2:3,0:0:0:0:
352,64,138393,1,0,0:0:0:0:
256,192,138489,6,0,L|32:192,1,223.679997849045,2|2,3:2|2:3,0:0:0:0:
32,256,138777,1,0,0:0:0:0:
32,320,138873,1,0,1:1:0:0:
32,320,139066,1,2,2:3:0:0:
32,320,139162,1,0,0:0:0:0:
96,320,139258,2,0,L|160:320,1,64.7999948038103,0|0,3:3|0:0,0:0:0:0:
96,384,139643,6,0,L|0:384,1,95.9999952316285,2|0,1:2|0:0,0:0:0:0:
192,96,139835,2,0,L|288:96,1,95.9999952316285,2|0,3:2|0:0,0:0:0:0:
512,224,140027,6,0,L|256:224,1,256.319996166275,2|2,3:2|2:3,0:0:0:0:
192,224,140316,1,0,0:0:0:0:
0,160,140412,2,0,L|256:160,1,256.319996166275,2|2,1:2|2:3,0:0:0:0:
320,160,140700,1,0,0:0:0:0:
512,96,140796,2,0,L|256:96,1,256.319996166275,2|2,3:2|2:3,0:0:0:0:
192,96,141085,1,0,0:0:0:0:
0,320,141181,2,0,L|288:320,1,287.999996681213,2|2,1:2|2:3,0:0:0:0:
352,320,141470,1,0,0:0:0:0:
512,384,141566,6,0,L|256:384,1,256.319996166275,2|2,3:2|2:3,0:0:0:0:
192,384,141854,1,0,0:0:0:0:
192,320,141950,2,0,L|448:320,1,256.319996166275,2|2,1:2|2:3,0:0:0:0:
512,320,142239,1,0,0:0:0:0:
512,192,142335,2,0,L|256:192,1,256.319996166275,2|2,3:2|2:3,0:0:0:0:
192,192,142623,1,0,0:0:0:0:
128,192,142720,6,0,L|0:192,1,128.159998083138,2|0,1:2|0:0,0:0:0:0:
320,32,142912,2,0,L|448:32,1,128.159998083138,2|0,2:2|0:0,0:0:0:0:
512,96,143104,6,0,L|256:96,1,256.319996166275,2|2,3:2|2:3,0:0:0:0:
192,96,143393,1,0,0:0:0:0:
32,288,143489,2,0,L|320:288,1,287.999996681213,2|2,1:2|2:3,0:0:0:0:
384,288,143777,1,0,0:0:0:0:
160,352,143873,6,0,L|32:352,1,128.159998083138,2|0,3:2|0:0,0:0:0:0:
256,64,144066,2,0,L|384:64,1,128.159998083138,2|0,2:2|0:0,0:0:0:0:
512,0,144258,6,0,L|128:0,1,384.479994249413,2|0,1:2|0:0,0:0:0:0:
0,64,144643,6,0,B|256:64,1,256.319996166275,2|0,3:2|0:0,0:0:0:0:
320,64,144931,1,0,0:0:0:0:
512,128,145027,2,0,L|256:128,1,256.319996166275,0|0,1:1|0:0,0:0:0:0:
192,128,145316,1,0,0:0:0:0:
128,128,145412,6,0,L|32:128,1,95.9999952316285,6|0,3:2|0:0,0:0:0:0:
32,192,145604,2,0,L|128:192,1,95.9999952316285,2|0,2:2|3:3,0:0:0:0:
192,192,145796,2,0,L|288:192,1,95.9999952316285,6|0,1:2|0:0,0:0:0:0:
352,192,145989,2,0,L|448:192,1,95.9999952316285,2|0,3:2|0:0,0:0:0:0:
448,256,146181,6,0,L|224:256,1,223.679997849045,6|2,3:2|2:3,0:0:0:0:
160,256,146470,1,0,0:0:0:0:
160,320,146566,2,0,L|384:320,1,223.679997849045,2|2,1:2|2:3,0:0:0:0:
448,320,146854,1,0,0:0:0:0:
448,384,146950,2,0,L|224:384,1,223.679997849045,2|2,3:2|2:3,0:0:0:0:
160,384,147239,1,0,0:0:0:0:
0,256,147335,2,0,L|224:256,1,223.679997849045,2|2,1:2|2:3,0:0:0:0:
288,256,147623,1,0,0:0:0:0:
0,128,147720,6,0,L|224:128,1,223.679997849045,2|2,3:2|2:3,0:0:0:0:
288,128,148008,1,0,0:0:0:0:
352,128,148104,1,0,1:1:0:0:
352,128,148296,1,2,2:3:0:0:
352,128,148393,1,0,0:0:0:0:
416,128,148489,2,0,L|480:128,1,64.7999948038103,0|0,3:3|0:0,0:0:0:0:
480,64,148873,6,0,L|384:64,1,95.9999952316285,2|0,1:2|0:0,0:0:0:0:
160,256,149066,2,0,L|256:256,1,95.9999952316285,2|0,2:2|0:0,0:0:0:0:
320,64,149258,6,0,L|96:64,1,223.679997849045,2|2,3:2|2:3,0:0:0:0:
32,64,149546,1,0,0:0:0:0:
32,128,149643,2,0,L|256:128,1,223.679997849045,2|2,1:2|2:3,0:0:0:0:
320,128,149931,1,0,0:0:0:0:
320,192,150027,2,0,L|96:192,1,223.679997849045,2|2,3:2|2:3,0:0:0:0:
32,192,150316,1,0,0:0:0:0:
224,288,150412,2,0,L|448:288,1,223.679997849045,2|2,1:2|2:3,0:0:0:0:
512,288,150700,1,0,0:0:0:0:
288,352,150796,6,0,L|64:352,1,223.679997849045,2|2,3:2|2:3,0:0:0:0:
0,352,151085,1,0,0:0:0:0:
0,288,151181,1,0,1:1:0:0:
0,288,151373,1,2,2:3:0:0:
0,288,151470,1,0,0:0:0:0:
0,224,151566,2,0,L|64:224,1,64.7999948038103,0|0,3:3|0:0,0:0:0:0:
64,288,151950,6,0,L|160:288,1,95.9999952316285,2|0,1:2|0:0,0:0:0:0:
448,0,152143,2,0,L|352:0,1,95.9999952316285,2|0,3:2|0:0,0:0:0:0:
0,128,152335,6,0,L|288:128,1,287.999996681213,2|2,3:2|2:3,0:0:0:0:
352,128,152623,1,0,0:0:0:0:
512,224,152720,2,0,L|224:224,1,287.999996681213,2|2,1:2|2:3,0:0:0:0:
160,224,153008,1,0,0:0:0:0:
0,320,153104,2,0,L|288:320,1,287.999996681213,2|2,3:2|2:3,0:0:0:0:
352,320,153393,1,0,0:0:0:0:
512,32,153489,2,0,L|192:32,1,319.67999192601,2|2,1:2|2:3,0:0:0:0:
128,32,153777,1,0,0:0:0:0:
512,128,153873,6,0,L|224:128,1,287.999996681213,2|2,3:2|2:3,0:0:0:0:
160,128,154162,1,0,0:0:0:0:
0,192,154258,2,0,L|288:192,1,287.999996681213,2|2,1:2|2:3,0:0:0:0:
352,192,154546,1,0,0:0:0:0:
512,320,154643,2,0,L|224:320,1,287.999996681213,2|2,3:2|2:3,0:0:0:0:
160,320,154931,1,0,0:0:0:0:
160,384,155027,6,0,L|32:384,1,128.159998083138,2|0,1:2|0:0,0:0:0:0:
384,96,155220,2,0,L|512:96,1,128.159998083138,2|0,2:2|0:0,0:0:0:0:
512,32,155412,6,0,L|192:32,1,319.67999192601,10|10,3:2|3:2,0:0:0:0:
128,32,155700,1,8,2:2:0:0:
0,256,155796,2,0,L|341:256,1,341.75998328534,10|8,1:2|2:2,0:0:0:0:
416,256,156085,1,0,0:0:0:0:
512,320,156181,2,0,L|352:320,1,159.839995963005,10|8,3:2|2:2,0:0:0:0:
288,320,156373,6,0,L|224:320,1,64.7999970285416,10|0,3:2|3:3,0:0:0:0:
160,320,156470,2,0,L|96:320,1,64.7999970285416,8|0,3:2|3:3,0:0:0:0:
32,320,156566,1,10,1:2:0:0:
256,192,156758,6,0,L|320:192,1,64.7999970285416,10|0,3:2|3:3,0:0:0:0:
384,192,156854,2,0,L|448:192,1,64.7999970285416,8|0,3:2|3:3,0:0:0:0:
512,192,156950,1,6,3:2:0:0:
256,192,157046,12,0,161566,0:0:0:0:
