osu file format v14

[General]
AudioFilename: audio.mp3
AudioLeadIn: 0
PreviewTime: 57623
Countdown: 0
SampleSet: Soft
StackLeniency: 1
Mode: 0
LetterboxInBreaks: 0
WidescreenStoryboard: 1

[Editor]
DistanceSpacing: 0.4
BeatDivisor: 5
GridSize: 4
TimelineZoom: 0.9

[Metadata]
Title:Eien no Shunmu
TitleUnicode:永遠の春夢
Artist:komso
ArtistUnicode:狐夢想
Creator:Shurelia
Version:Kowari's Lunatic
Source:東方憑依華 ~ Antinomy of Common Flowers.
Tags:ZUN touhou doremy sweet ドレミー・スイート th15.5 夢を見せる妖怪 Dream-Bestowing Youkai Eternal Spring Dream video game instrumental midorijeon advent yf_bmp kowari supav pigeons arsalan
BeatmapID:3951573
BeatmapSetID:1664347

[Difficulty]
HPDrainRate:6
CircleSize:3.8
OverallDifficulty:8
ApproachRate:8
SliderMultiplier:1.39999990463257
SliderTickRate:1

[Events]
//Background and Video events
0,0,"doremybg.jpg",0,0
//Break Periods
2,85996,94662
2,109458,120431
//Storyboard Layer 0 (Background)
//Storyboard Layer 1 (Fail)
//Storyboard Layer 2 (Pass)
//Storyboard Layer 3 (Foreground)
//Storyboard Layer 4 (Overlay)
//Storyboard Sound Samples

[TimingPoints]
6950,384.615384615385,4,2,1,65,1,0
7720,384.615384615385,4,2,2,65,1,0
8104,-100,4,2,1,65,0,0
32335,-100,4,2,1,70,0,0
55604,-100,4,2,3,70,0,0
55796,-100,4,2,1,70,0,0
55989,-100,4,2,3,70,0,0
56181,-100,4,2,1,70,0,0
56373,-100,4,2,3,70,0,0
56566,-100,4,2,1,70,0,0
56758,-100,4,2,3,70,0,0
56950,-100,4,2,1,70,0,0
57720,-100,4,2,4,70,0,0
58489,-83.3333333333333,4,2,4,80,0,0
58681,-83.3333333333333,4,2,1,80,0,0
58873,-83.3333333333333,4,2,4,80,0,0
59066,-83.3333333333333,4,2,1,80,0,0
59258,-83.3333333333333,4,2,5,80,0,0
59450,-83.3333333333333,4,2,1,80,0,0
59643,-83.3333333333333,4,2,4,80,0,0
59835,-83.3333333333333,4,2,1,80,0,0
60027,-83.3333333333333,4,2,5,80,0,0
60220,-83.3333333333333,4,2,1,80,0,0
61181,-83.3333333333333,4,2,4,80,0,0
61373,-83.3333333333333,4,2,6,80,0,0
61566,-83.3333333333333,4,2,5,80,0,0
61758,-83.3333333333333,4,2,1,80,0,0
61950,-83.3333333333333,4,2,4,80,0,0
62143,-83.3333333333333,4,2,1,80,0,0
62335,-83.3333333333333,4,2,5,80,0,0
62527,-83.3333333333333,4,2,1,80,0,0
62720,-83.3333333333333,4,2,4,80,0,0
62912,-83.3333333333333,4,2,1,80,0,0
63104,-83.3333333333333,4,2,5,80,0,0
63296,-83.3333333333333,4,2,1,80,0,0
64258,-83.3333333333333,4,2,4,80,0,0
64450,-83.3333333333333,4,2,6,80,0,0
64643,-83.3333333333333,4,2,5,80,0,0
64835,-83.3333333333333,4,2,1,80,0,0
65027,-83.3333333333333,4,2,4,80,0,0
65220,-83.3333333333333,4,2,1,80,0,0
65412,-83.3333333333333,4,2,5,80,0,0
65604,-83.3333333333333,4,2,1,80,0,0
65796,-83.3333333333333,4,2,4,80,0,0
65989,-83.3333333333333,4,2,1,80,0,0
66181,-83.3333333333333,4,2,5,80,0,0
66373,-83.3333333333333,4,2,1,80,0,0
66566,-83.3333333333333,4,2,4,80,0,0
66758,-83.3333333333333,4,2,1,80,0,0
66950,-83.3333333333333,4,2,5,80,0,0
67143,-83.3333333333333,4,2,1,80,0,0
67335,-83.3333333333333,4,2,4,80,0,0
67527,-83.3333333333333,4,2,6,80,0,0
67720,-83.3333333333333,4,2,5,80,0,0
67912,-83.3333333333333,4,2,1,80,0,0
68104,-83.3333333333333,4,2,4,80,0,0
68296,-83.3333333333333,4,2,1,80,0,0
68489,-83.3333333333333,4,2,5,80,0,0
68681,-83.3333333333333,4,2,6,80,0,0
68873,-83.3333333333333,4,2,4,80,0,0
69066,-83.3333333333333,4,2,1,80,0,0
69258,-83.3333333333333,4,2,5,80,0,0
69450,-83.3333333333333,4,2,1,80,0,0
70027,-83.3333333333333,4,2,5,80,0,0
70220,-83.3333333333333,4,2,6,80,0,0
70412,-83.3333333333333,4,2,5,80,0,0
70604,-83.3333333333333,4,2,6,80,0,0
70796,-83.3333333333333,4,2,5,80,0,0
70989,-83.3333333333333,4,2,1,80,0,0
71181,-83.3333333333333,4,2,4,80,0,0
71373,-83.3333333333333,4,2,1,80,0,0
71566,-83.3333333333333,4,2,5,80,0,0
71758,-83.3333333333333,4,2,1,80,0,0
71950,-83.3333333333333,4,2,4,80,0,0
72143,-83.3333333333333,4,2,1,80,0,0
72335,-83.3333333333333,4,2,5,80,0,0
72527,-83.3333333333333,4,2,1,80,0,0
73489,-83.3333333333333,4,2,4,80,0,0
73681,-83.3333333333333,4,2,6,80,0,0
73873,-83.3333333333333,4,2,5,80,0,0
74066,-83.3333333333333,4,2,1,80,0,0
74258,-83.3333333333333,4,2,4,80,0,0
74450,-83.3333333333333,4,2,1,80,0,0
74643,-83.3333333333333,4,2,5,80,0,0
74835,-83.3333333333333,4,2,1,80,0,0
75027,-83.3333333333333,4,2,4,80,0,0
75220,-83.3333333333333,4,2,1,80,0,0
75412,-83.3333333333333,4,2,5,80,0,0
75604,-83.3333333333333,4,2,1,80,0,0
76566,-83.3333333333333,4,2,4,80,0,0
76758,-83.3333333333333,4,2,6,80,0,0
76950,-83.3333333333333,4,2,5,80,0,0
77143,-83.3333333333333,4,2,1,80,0,0
77335,-83.3333333333333,4,2,4,80,0,0
77527,-83.3333333333333,4,2,1,80,0,0
77720,-83.3333333333333,4,2,5,80,0,0
77912,-83.3333333333333,4,2,1,80,0,0
78104,-83.3333333333333,4,2,4,80,0,0
78296,-83.3333333333333,4,2,1,80,0,0
78489,-83.3333333333333,4,2,5,80,0,0
78681,-83.3333333333333,4,2,1,80,0,0
78873,-83.3333333333333,4,2,4,80,0,0
79066,-83.3333333333333,4,2,1,80,0,0
79258,-83.3333333333333,4,2,5,80,0,0
79450,-83.3333333333333,4,2,1,80,0,0
79643,-83.3333333333333,4,2,4,80,0,0
79835,-83.3333333333333,4,2,6,80,0,0
80027,-83.3333333333333,4,2,5,80,0,0
80123,-83.3333333333333,4,2,3,80,0,0
80412,-83.3333333333333,4,2,4,80,0,0
80604,-83.3333333333333,4,2,3,80,0,0
80796,-83.3333333333333,4,2,5,80,0,0
80893,-83.3333333333333,4,2,6,80,0,0
81181,-83.3333333333333,4,2,4,80,0,0
81373,-83.3333333333333,4,2,3,80,0,0
81566,-83.3333333333333,4,2,7,70,0,0
81950,-83.3333333333333,4,2,1,70,0,0
95412,-100,4,2,1,70,0,0
106373,-100,4,2,3,70,0,0
106566,-100,4,2,1,70,0,0
106758,-100,4,2,3,70,0,0
106950,-100,4,2,1,70,0,0
107143,-100,4,2,3,70,0,0
107335,-100,4,2,1,70,0,0
107527,-100,4,2,3,70,0,0
108489,-100,4,2,1,70,0,0
109258,-100,4,2,1,60,0,0
109643,-100,4,2,7,60,0,0
109835,-100,4,2,1,60,0,0
110412,-100,4,2,7,60,0,0
110796,-100,4,2,1,60,0,0
111181,-100,4,2,2,60,0,0
111373,-100,4,2,1,60,0,0
111950,-100,4,2,7,60,0,0
112335,-100,4,2,1,60,0,0
112720,-100,4,2,7,60,0,0
112912,-100,4,2,1,60,0,0
113489,-100,4,2,7,60,0,0
113873,-100,4,2,1,60,0,0
114258,-100,4,2,2,60,0,0
114450,-100,4,2,1,60,0,0
115027,-100,4,2,7,60,0,0
115412,-100,4,2,1,60,0,0
115796,-100,4,2,7,60,0,0
115989,-100,4,2,1,60,0,0
116566,-100,4,2,7,60,0,0
116950,-100,4,2,1,60,0,0
117335,-100,4,2,7,60,0,0
117527,-100,4,2,1,60,0,0
118104,-100,4,2,7,60,0,0
118489,-100,4,2,1,60,0,0
118873,-100,4,2,7,60,0,0
119066,-100,4,2,1,60,0,0
119643,-100,4,2,7,60,0,0
120027,-100,4,2,1,60,0,0
120412,-100,4,2,2,60,0,0
120508,-100,4,2,1,60,0,0
121181,-100,4,2,7,60,0,0
121566,-100,4,2,1,60,0,0
121950,-100,4,2,7,60,0,0
122143,-100,4,2,1,60,0,0
122720,-100,4,2,7,60,0,0
123104,-100,4,2,1,60,0,0
123489,-100,4,2,2,60,0,0
123681,-100,4,2,1,60,0,0
124258,-100,4,2,7,60,0,0
124643,-100,4,2,1,60,0,0
125027,-100,4,2,7,60,0,0
125220,-100,4,2,1,60,0,0
125796,-100,4,2,7,60,0,0
126181,-100,4,2,1,60,0,0
126566,-100,4,2,2,60,0,0
126758,-100,4,2,1,60,0,0
127335,-100,4,2,7,60,0,0
127720,-100,4,2,1,60,0,0
128104,-100,4,2,7,60,0,0
128296,-100,4,2,1,60,0,0
128873,-100,4,2,7,60,0,0
129258,-100,4,2,1,60,0,0
129643,-100,4,2,7,60,0,0
129835,-100,4,2,1,60,0,0
130412,-100,4,2,7,60,0,0
130796,-100,4,2,1,60,0,0
131181,-100,4,2,7,60,0,0
131373,-100,4,2,1,60,0,0
133104,-100,4,2,4,70,0,0
133873,-100,4,2,4,80,0,0
134066,-100,4,2,1,80,0,0
134258,-83.3333333333333,4,2,4,80,0,0
134450,-83.3333333333333,4,2,1,80,0,0
134643,-83.3333333333333,4,2,5,80,0,0
134835,-83.3333333333333,4,2,1,80,0,0
135027,-83.3333333333333,4,2,4,80,0,0
135220,-83.3333333333333,4,2,1,80,0,0
135412,-83.3333333333333,4,2,5,80,0,0
135604,-83.3333333333333,4,2,1,80,0,0
136566,-83.3333333333333,4,2,4,80,0,0
136758,-83.3333333333333,4,2,6,80,0,0
136950,-83.3333333333333,4,2,5,80,0,0
137143,-83.3333333333333,4,2,1,80,0,0
137335,-83.3333333333333,4,2,4,80,0,0
137527,-83.3333333333333,4,2,1,80,0,0
137720,-83.3333333333333,4,2,5,80,0,0
137912,-83.3333333333333,4,2,1,80,0,0
138104,-83.3333333333333,4,2,4,80,0,0
138296,-83.3333333333333,4,2,1,80,0,0
138489,-83.3333333333333,4,2,5,80,0,0
138681,-83.3333333333333,4,2,1,80,0,0
139643,-83.3333333333333,4,2,4,80,0,0
139835,-83.3333333333333,4,2,6,80,0,0
140027,-83.3333333333333,4,2,5,80,0,0
140220,-83.3333333333333,4,2,1,80,0,0
140412,-83.3333333333333,4,2,4,80,0,0
140604,-83.3333333333333,4,2,1,80,0,0
140796,-83.3333333333333,4,2,5,80,0,0
140989,-83.3333333333333,4,2,1,80,0,0
141181,-83.3333333333333,4,2,4,80,0,0
141373,-83.3333333333333,4,2,1,80,0,0
141566,-83.3333333333333,4,2,5,80,0,0
141758,-83.3333333333333,4,2,1,80,0,0
141950,-83.3333333333333,4,2,4,80,0,0
142143,-83.3333333333333,4,2,1,80,0,0
142335,-83.3333333333333,4,2,5,80,0,0
142527,-83.3333333333333,4,2,1,80,0,0
142720,-83.3333333333333,4,2,4,80,0,0
142912,-83.3333333333333,4,2,6,80,0,0
143104,-83.3333333333333,4,2,5,80,0,0
143296,-83.3333333333333,4,2,1,80,0,0
143489,-83.3333333333333,4,2,4,80,0,0
143681,-83.3333333333333,4,2,1,80,0,0
143873,-83.3333333333333,4,2,5,80,0,0
144066,-83.3333333333333,4,2,6,80,0,0
144258,-83.3333333333333,4,2,4,80,0,0
144450,-83.3333333333333,4,2,1,80,0,0
144643,-83.3333333333333,4,2,5,80,0,0
144835,-83.3333333333333,4,2,1,80,0,0
145412,-83.3333333333333,4,2,5,80,0,0
145604,-83.3333333333333,4,2,6,80,0,0
145796,-83.3333333333333,4,2,5,80,0,0
145989,-83.3333333333333,4,2,6,80,0,0
146181,-83.3333333333333,4,2,5,80,0,0
146373,-83.3333333333333,4,2,1,80,0,0
146566,-83.3333333333333,4,2,4,80,0,0
146758,-83.3333333333333,4,2,1,80,0,0
146950,-83.3333333333333,4,2,5,80,0,0
147143,-83.3333333333333,4,2,1,80,0,0
147335,-83.3333333333333,4,2,4,80,0,0
147527,-83.3333333333333,4,2,1,80,0,0
147720,-83.3333333333333,4,2,5,80,0,0
147912,-83.3333333333333,4,2,1,80,0,0
148873,-83.3333333333333,4,2,4,80,0,0
149066,-83.3333333333333,4,2,6,80,0,0
149258,-83.3333333333333,4,2,5,80,0,0
149450,-83.3333333333333,4,2,1,80,0,0
149643,-83.3333333333333,4,2,4,80,0,0
149835,-83.3333333333333,4,2,1,80,0,0
150027,-83.3333333333333,4,2,5,80,0,0
150220,-83.3333333333333,4,2,1,80,0,0
150412,-83.3333333333333,4,2,4,80,0,0
150604,-83.3333333333333,4,2,1,80,0,0
150796,-83.3333333333333,4,2,5,80,0,0
150989,-83.3333333333333,4,2,1,80,0,0
151950,-83.3333333333333,4,2,4,80,0,0
152143,-83.3333333333333,4,2,6,80,0,0
152335,-83.3333333333333,4,2,5,80,0,0
152527,-83.3333333333333,4,2,1,80,0,0
152720,-83.3333333333333,4,2,4,80,0,0
152912,-83.3333333333333,4,2,1,80,0,0
153104,-83.3333333333333,4,2,5,80,0,0
153296,-83.3333333333333,4,2,1,80,0,0
153489,-83.3333333333333,4,2,4,80,0,0
153681,-83.3333333333333,4,2,1,80,0,0
153873,-83.3333333333333,4,2,5,80,0,0
154066,-83.3333333333333,4,2,1,80,0,0
154258,-83.3333333333333,4,2,4,80,0,0
154450,-83.3333333333333,4,2,1,80,0,0
154643,-83.3333333333333,4,2,5,80,0,0
154835,-83.3333333333333,4,2,1,80,0,0
155027,-83.3333333333333,4,2,4,80,0,0
155220,-83.3333333333333,4,2,6,80,0,0
155412,-83.3333333333333,4,2,5,80,0,0
155508,-83.3333333333333,4,2,3,80,0,0
155796,-83.3333333333333,4,2,4,80,0,0
155989,-83.3333333333333,4,2,3,80,0,0
156181,-83.3333333333333,4,2,5,80,0,0
156277,-83.3333333333333,4,2,6,80,0,0
156566,-83.3333333333333,4,2,4,80,0,0
156758,-83.3333333333333,4,2,3,80,0,0
156950,-83.3333333333333,4,2,7,80,0,0

[Colours]
Combo1 : 128,0,255
Combo2 : 255,0,128
Combo3 : 128,128,192
Combo4 : 128,0,128

[HitObjects]
455,307,6950,5,6,3:2:0:0:
455,307,7334,1,6,3:2:0:0:
455,307,7720,2,0,L|375:292,1,69.9999952316285,6|0,3:2|0:0,0:0:0:0:
306,356,8104,2,0,P|296:310|286:261,1,69.9999952316285,2|0,3:2|0:0,0:0:0:0:
327,138,8489,2,0,P|337:184|347:233,1,69.9999952316285,2|0,3:2|0:0,0:0:0:0:
242,202,8873,2,0,P|200:194|146:187,1,69.9999952316285,2|0,3:2|0:0,0:0:0:0:
37,135,9258,6,0,P|21:205|70:270,1,139.999990463257,2|2,3:2|3:2,0:0:0:0:
141,231,9835,1,0,0:0:0:0:
89,377,10027,2,0,L|16:385,1,69.9999952316285,2|0,3:2|0:0,0:0:0:0:
134,311,10412,2,0,L|207:303,1,69.9999952316285,2|0,3:2|0:0,0:0:0:0:
304,366,10796,6,0,P|313:305|319:278,1,69.9999952316285,2|0,3:2|0:0,0:0:0:0:
230,187,11181,2,0,P|221:248|215:275,1,69.9999952316285,2|0,3:2|0:0,0:0:0:0:
400,306,11566,2,0,P|395:271|389:236,1,69.9999952316285,2|0,3:2|0:0,0:0:0:0:
252,98,11950,2,0,P|256:132|262:167,1,69.9999952316285,2|0,3:2|0:0,0:0:0:0:
355,123,12335,6,0,P|430:140|453:145,1,69.9999952316285,2|0,3:2|0:0,0:0:0:0:
505,166,12720,1,2,3:2:0:0:
505,166,12912,1,0,0:0:0:0:
369,30,13104,1,2,3:2:0:0:
386,109,13296,1,0,0:0:0:0:
463,89,13489,1,2,3:2:0:0:
447,11,13681,1,0,3:3:0:0:
289,45,13873,6,0,P|231:58|162:4,1,139.999990463257,2|2,3:2|3:2,0:0:0:0:
117,145,14450,1,0,0:0:0:0:
11,78,14643,2,0,L|92:68,1,69.9999952316285,2|0,3:2|0:0,0:0:0:0:
190,148,15027,2,0,L|109:158,1,69.9999952316285,2|0,3:2|0:0,0:0:0:0:
171,253,15412,6,0,P|161:304|155:346,1,69.9999952316285,2|0,3:2|0:0,0:0:0:0:
19,250,15796,1,2,3:2:0:0:
19,250,15989,2,0,P|64:243|95:235,1,69.9999952316285,0|2,0:0|3:2,0:0:0:0:
94,384,16373,1,0,0:0:0:0:
94,384,16566,2,0,P|64:338|44:311,1,69.9999952316285,2|0,3:2|0:0,0:0:0:0:
255,325,16950,6,0,L|342:341,1,69.9999952316285,2|0,3:2|0:0,0:0:0:0:
230,232,17335,2,0,L|143:216,1,69.9999952316285,2|0,3:2|0:0,0:0:0:0:
343,190,17720,2,0,L|435:205,1,69.9999952316285,2|0,3:2|0:0,0:0:0:0:
358,101,18104,2,0,L|266:86,1,69.9999952316285,2|0,3:2|0:0,0:0:0:0:
425,0,18489,6,0,P|434:53|446:90,1,69.9999952316285,2|0,3:2|0:0,0:0:0:0:
510,196,18873,1,2,3:2:0:0:
398,234,19066,1,0,0:0:0:0:
429,148,19258,1,6,3:2:0:0:
467,295,19450,1,0,0:0:0:0:
467,295,19546,1,0,3:3:0:0:
467,295,19643,1,6,3:2:0:0:
313,253,19835,1,0,3:3:0:0:
497,376,20027,6,0,B|436:361|421:384|347:358,1,139.999990463257,6|2,3:2|3:2,0:0:0:0:
296,288,20604,1,0,0:0:0:0:
203,362,20796,2,0,L|195:288,1,69.9999952316285,2|0,3:2|0:0,0:0:0:0:
283,190,21181,2,0,L|275:116,1,69.9999952316285,2|0,3:2|0:0,0:0:0:0:
131,227,21566,6,0,P|82:244|49:262,1,69.9999952316285,2|0,3:2|0:0,0:0:0:0:
109,130,21950,2,0,P|115:93|118:49,1,69.9999952316285,2|0,3:2|0:0,0:0:0:0:
221,205,22335,2,0,P|215:242|212:286,1,69.9999952316285,2|0,3:2|0:0,0:0:0:0:
302,125,22720,2,0,P|262:114|221:96,1,69.9999952316285,2|0,3:2|0:0,0:0:0:0:
82,0,23104,5,2,3:2:0:0:
176,33,23296,1,0,0:0:0:0:
59,152,23489,1,2,3:2:0:0:
104,79,23681,1,0,0:0:0:0:
183,232,23873,1,2,3:2:0:0:
143,160,24066,1,0,0:0:0:0:
237,165,24258,2,0,P|279:157|315:144,1,69.9999952316285,2|0,3:2|0:0,0:0:0:0:
101,233,24643,6,0,L|86:322,1,69.9999952316285,2|0,3:2|0:0,0:0:0:0:
169,369,25027,1,2,3:2:0:0:
192,288,25220,1,0,0:0:0:0:
96,315,25412,1,2,3:2:0:0:
274,357,25604,1,0,0:0:0:0:
274,357,25700,1,0,0:0:0:0:
274,357,25796,1,2,3:2:0:0:
243,217,25989,1,0,3:3:0:0:
373,304,26181,6,0,P|427:316|464:321,1,69.9999952316285,2|0,3:2|0:0,0:0:0:0:
339,209,26566,2,0,P|285:197|248:192,1,69.9999952316285,2|0,3:2|0:0,0:0:0:0:
438,116,26950,2,0,P|492:128|529:133,1,69.9999952316285,2|0,3:2|0:0,0:0:0:0:
405,4,27335,1,2,3:2:0:0:
347,72,27527,1,0,0:0:0:0:
291,149,27720,6,0,P|244:135|210:118,1,69.9999952316285,2|0,3:2|0:0,0:0:0:0:
123,63,28104,1,2,3:2:0:0:
188,0,28296,1,0,0:0:0:0:
261,59,28489,1,2,3:2:0:0:
131,194,28681,1,0,0:0:0:0:
157,88,28873,1,2,3:2:0:0:
237,139,29066,1,0,0:0:0:0:
67,126,29258,6,0,L|-23:98,1,69.9999952316285,2|0,3:2|0:0,0:0:0:0:
75,255,29643,2,0,L|165:283,1,69.9999952316285,2|0,3:2|0:0,0:0:0:0:
218,350,30027,1,2,3:2:0:0:
266,251,30220,1,0,0:0:0:0:
173,269,30412,1,2,3:2:0:0:
309,369,30604,1,0,0:0:0:0:
382,304,30796,6,0,P|432:291|472:286,1,69.9999952316285,2|0,3:2|0:0,0:0:0:0:
360,198,31181,1,2,3:2:0:0:
468,132,31373,1,0,0:0:0:0:
468,132,31470,1,0,0:0:0:0:
468,132,31566,2,0,L|460:192,2,34.9999976158143,2|0|0,2:2|0:0|0:0,0:0:0:0:
385,75,31950,2,0,L|392:5,1,69.9999952316285,2|2,2:2|2:2,0:0:0:0:
291,113,32335,6,0,P|240:127|207:127,1,69.9999952316285,6|2,3:2|2:3,0:0:0:0:
115,57,32720,2,0,P|169:39|203:34,1,69.9999952316285,2|2,1:2|2:3,0:0:0:0:
235,224,33104,2,0,L|152:207,1,69.9999952316285,2|2,3:2|2:3,0:0:0:0:
166,209,33393,1,0,0:0:0:0:
166,209,33489,1,2,1:2:0:0:
95,142,33681,1,2,2:3:0:0:
31,285,33873,6,0,L|17:208,1,69.9999952316285,2|2,3:2|2:3,0:0:0:0:
124,312,34258,2,0,L|138:389,1,69.9999952316285,2|2,1:2|2:3,0:0:0:0:
301,303,34643,1,2,3:2:0:0:
216,268,34835,1,2,2:3:0:0:
216,268,34931,1,0,0:0:0:0:
216,268,35027,2,0,L|156:254,2,34.9999976158143,2|0|2,1:2|0:0|2:3,0:0:0:0:
386,358,35412,6,0,P|394:308|402:281,1,69.9999952316285,2|2,3:2|2:3,0:0:0:0:
305,143,35796,2,0,P|313:176|318:211,1,69.9999952316285,2|2,1:2|2:3,0:0:0:0:
501,226,36181,1,2,3:2:0:0:
404,169,36373,1,2,2:3:0:0:
404,169,36470,1,0,0:0:0:0:
404,169,36566,1,2,1:2:0:0:
512,121,36758,1,2,2:3:0:0:
421,49,36950,6,0,P|368:39|329:26,1,69.9999952316285,2|2,3:2|2:3,0:0:0:0:
242,5,37335,1,2,1:2:0:0:
255,110,37527,1,2,2:3:0:0:
342,57,37720,1,2,3:2:0:0:
171,82,37912,1,2,2:3:0:0:
171,82,38008,1,0,0:0:0:0:
171,82,38104,1,2,1:2:0:0:
318,170,38296,1,2,3:3:0:0:
168,189,38489,6,0,P|116:196|79:203,1,69.9999952316285,2|2,3:2|2:3,0:0:0:0:
0,124,38873,2,0,P|51:116|87:105,1,69.9999952316285,2|2,1:2|2:3,0:0:0:0:
138,37,39258,1,2,3:2:0:0:
98,199,39450,1,2,2:3:0:0:
98,199,39546,1,0,0:0:0:0:
98,199,39643,2,0,L|82:282,1,69.9999952316285,2|2,1:2|2:3,0:0:0:0:
174,384,40027,6,0,L|190:301,1,69.9999952316285,2|2,3:2|2:3,0:0:0:0:
232,177,40412,1,2,1:2:0:0:
282,297,40604,1,2,2:3:0:0:
365,216,40796,1,2,3:2:0:0:
277,329,40989,1,2,2:3:0:0:
277,329,41085,1,0,0:0:0:0:
277,329,41181,1,2,1:2:0:0:
391,309,41373,1,2,2:3:0:0:
220,235,41566,6,0,P|177:226|139:212,1,69.9999952316285,2|2,3:2|2:3,0:0:0:0:
324,173,41950,2,0,P|367:182|405:196,1,69.9999952316285,2|2,1:2|2:3,0:0:0:0:
243,36,42335,2,0,L|256:124,1,69.9999952316285,2|2,3:2|2:3,0:0:0:0:
253,105,42623,1,0,0:0:0:0:
253,105,42720,1,2,1:2:0:0:
288,255,42912,1,2,2:3:0:0:
425,167,43104,6,0,P|387:178|349:194,1,69.9999952316285,2|2,3:2|2:3,0:0:0:0:
218,305,43489,1,2,1:2:0:0:
368,350,43681,1,2,2:3:0:0:
257,226,43873,1,6,3:2:0:0:
284,378,44066,1,2,2:3:0:0:
284,378,44162,1,0,3:3:0:0:
284,378,44258,1,6,1:2:0:0:
252,208,44450,1,2,3:3:0:0:
136,308,44643,6,0,L|57:290,1,69.9999952316285,6|2,3:2|2:3,0:0:0:0:
46,300,44931,1,0,0:0:0:0:
23,306,45027,2,0,L|9:229,1,69.9999952316285,2|2,1:2|2:3,0:0:0:0:
11,113,45412,1,2,3:2:0:0:
123,212,45604,1,2,2:3:0:0:
123,212,45700,1,0,0:0:0:0:
123,212,45796,2,0,L|128:139,1,69.9999952316285,2|2,1:2|2:3,0:0:0:0:
57,24,46181,6,0,P|104:18|151:-1,1,69.9999952316285,2|2,3:2|2:3,0:0:0:0:
125,11,46470,1,0,0:0:0:0:
125,11,46566,2,0,L|184:23,2,34.9999976158143,2|0|2,1:2|0:0|2:3,0:0:0:0:
249,112,46950,2,0,L|260:22,1,69.9999952316285,2|2,3:2|2:3,0:0:0:0:
257,42,47239,1,0,0:0:0:0:
257,42,47335,1,2,1:2:0:0:
158,140,47527,1,2,2:3:0:0:
342,107,47720,6,0,L|353:190,1,69.9999952316285,6|2,3:2|2:3,0:0:0:0:
367,192,48008,1,0,0:0:0:0:
382,207,48104,2,0,L|461:191,1,69.9999952316285,2|2,1:2|2:3,0:0:0:0:
305,288,48489,1,2,3:2:0:0:
430,365,48681,1,2,2:3:0:0:
430,365,48777,1,0,0:0:0:0:
430,365,48873,1,2,1:2:0:0:
399,237,49066,1,2,2:3:0:0:
254,341,49258,6,0,L|175:352,1,69.9999952316285,2|2,3:2|2:3,0:0:0:0:
184,350,49546,1,0,0:0:0:0:
184,350,49643,1,2,1:2:0:0:
73,235,49835,1,2,2:3:0:0:
214,263,50027,1,2,3:2:0:0:
214,263,50123,1,0,0:0:0:0:
214,263,50220,1,2,2:3:0:0:
61,322,50412,1,6,1:2:0:0:
183,179,50604,1,2,3:3:0:0:
3,213,50796,6,0,L|17:300,1,69.9999952316285,6|2,3:2|2:3,0:0:0:0:
20,306,51085,1,0,0:0:0:0:
24,328,51181,2,0,L|21:372,2,34.9999976158143,2|0|2,1:2|0:0|2:3,0:0:0:0:
129,231,51566,2,0,L|217:249,1,69.9999952316285,2|2,3:2|2:3,0:0:0:0:
197,245,51854,1,0,0:0:0:0:
197,245,51950,2,0,P|215:202|221:161,1,69.9999952316285,2|2,1:2|2:3,0:0:0:0:
151,16,52335,6,0,L|145:87,1,69.9999952316285,6|2,3:2|2:3,0:0:0:0:
145,85,52623,1,0,0:0:0:0:
145,85,52720,1,2,1:2:0:0:
303,171,52912,1,2,2:3:0:0:
273,35,53104,1,2,3:2:0:0:
234,118,53296,1,2,2:3:0:0:
234,118,53393,1,0,0:0:0:0:
234,118,53489,1,2,1:2:0:0:
380,62,53681,1,2,2:3:0:0:
425,209,53873,6,0,L|411:293,1,69.9999952316285,6|2,3:2|2:3,0:0:0:0:
428,298,54162,1,0,0:0:0:0:
441,320,54258,2,0,L|452:403,1,69.9999952316285,2|2,1:2|2:3,0:0:0:0:
271,369,54643,2,0,L|257:285,1,69.9999952316285,6|2,3:2|2:3,0:0:0:0:
274,280,54931,1,0,0:0:0:0:
287,258,55027,2,0,L|298:175,1,69.9999952316285,2|2,1:2|2:3,0:0:0:0:
345,75,55412,5,14,3:2:0:0:
318,77,55508,1,8,2:2:0:0:
292,73,55604,1,10,2:2:0:0:
268,63,55700,1,8,2:2:0:0:
247,50,55796,2,0,L|191:58,3,34.9999976158143,10|8|10|8,1:2|2:2|2:2|2:2,0:0:0:0:
132,5,56181,5,10,3:2:0:0:
126,30,56277,1,8,2:2:0:0:
121,56,56373,1,10,2:2:0:0:
116,82,56470,1,8,3:2:0:0:
111,107,56566,1,10,1:2:0:0:
2,166,56758,1,10,3:2:0:0:
187,237,56950,1,8,2:1:0:0:
187,237,57720,6,0,L|85:259,1,104.999992847443,2|0,2:2|0:0,0:0:0:0:
9,220,58104,6,0,P|42:229|67:233,1,34.9999976158143,2|0,2:2|0:0,0:0:0:0:
78,336,58296,2,0,P|111:345|136:349,1,34.9999976158143,2|0,2:2|0:0,0:0:0:0:
213,384,58489,6,0,L|234:297,1,83.9999942779542,6|2,3:2|2:3,0:0:0:0:
255,285,58777,1,0,0:0:0:0:
276,265,58873,2,0,L|260:154,1,83.9999942779542,2|2,1:2|2:3,0:0:0:0:
264,181,59162,1,0,0:0:0:0:
264,181,59258,1,2,3:2:0:0:
157,44,59450,1,2,2:3:0:0:
157,44,59546,1,0,0:0:0:0:
157,44,59643,1,2,1:2:0:0:
88,152,59835,1,2,2:3:0:0:
270,64,60027,6,0,B|347:42|366:85|453:42,1,167.999988555908,2|0,3:2|1:1,0:0:0:0:
504,183,60604,1,2,2:3:0:0:
504,183,60700,1,0,0:0:0:0:
504,183,60796,2,0,P|443:167|399:159,1,83.9999942779542,0|2,3:3|2:3,0:0:0:0:
396,171,61085,1,0,0:0:0:0:
370,179,61181,1,2,1:2:0:0:
250,281,61373,1,2,2:2:0:0:
413,384,61566,6,0,L|395:294,1,83.9999942779542,2|2,3:2|2:3,0:0:0:0:
378,283,61854,1,0,0:0:0:0:
357,262,61950,2,0,L|262:242,1,83.9999942779542,2|2,1:2|2:3,0:0:0:0:
274,244,62239,1,0,0:0:0:0:
274,244,62335,1,2,3:2:0:0:
138,338,62527,1,2,2:3:0:0:
138,338,62623,1,0,0:0:0:0:
138,338,62720,2,0,L|240:359,1,83.9999942779542,2|2,1:2|2:3,0:0:0:0:
342,163,63104,6,0,P|283:138|176:175,1,167.999988555908,2|0,3:2|1:1,0:0:0:0:
66,300,63681,1,2,2:3:0:0:
66,300,63777,1,0,0:0:0:0:
66,300,63873,1,0,3:3:0:0:
272,243,64066,1,2,2:3:0:0:
272,243,64162,1,0,0:0:0:0:
272,243,64258,1,2,1:2:0:0:
114,106,64450,1,2,3:2:0:0:
163,296,64643,6,0,L|151:379,1,83.9999942779542,2|2,3:2|2:3,0:0:0:0:
151,379,64931,1,0,0:0:0:0:
151,379,65027,1,2,1:2:0:0:
83,97,65220,1,2,2:3:0:0:
83,97,65316,1,0,0:0:0:0:
83,97,65412,2,0,L|94:13,1,83.9999942779542,2|2,3:2|2:3,0:0:0:0:
173,63,65700,1,0,0:0:0:0:
173,63,65796,2,0,B|208:78|208:78|272:83,1,83.9999942779542,2|2,1:2|2:3,0:0:0:0:
120,227,66181,6,0,L|19:240,1,83.9999942779542,2|2,3:2|2:3,0:0:0:0:
36,237,66470,1,0,0:0:0:0:
36,237,66566,1,2,1:2:0:0:
414,146,66758,1,2,2:3:0:0:
414,146,66854,1,0,0:0:0:0:
414,146,66950,2,0,L|515:133,1,83.9999942779542,2|2,3:2|2:3,0:0:0:0:
504,147,67239,1,0,0:0:0:0:
512,158,67335,1,2,1:2:0:0:
343,57,67527,1,2,2:2:0:0:
426,264,67720,6,0,L|338:246,1,83.9999942779542,2|2,3:2|2:3,0:0:0:0:
326,257,68008,1,0,0:0:0:0:
311,268,68104,2,0,P|319:331|334:376,1,83.9999942779542,2|2,1:2|2:3,0:0:0:0:
115,286,68489,1,2,3:2:0:0:
293,168,68681,1,2,2:2:0:0:
198,367,68873,6,0,L|210:265,1,83.9999942779542,2|2,1:2|2:3,0:0:0:0:
207,283,69162,1,0,0:0:0:0:
207,283,69258,1,2,3:2:0:0:
249,58,69450,1,2,2:3:0:0:
249,58,69546,1,0,0:0:0:0:
249,58,69643,1,0,1:1:0:0:
55,202,69835,1,2,2:3:0:0:
55,202,69931,1,0,0:0:0:0:
55,202,70027,2,0,L|203:184,1,125.999991416931,6|0,3:2|3:3,0:0:0:0:
180,186,70412,1,6,1:2:0:0:
438,150,70604,1,2,3:2:0:0:
274,54,70796,6,0,P|221:43|179:22,1,83.9999942779542,6|2,3:2|2:3,0:0:0:0:
177,24,71085,1,0,0:0:0:0:
160,15,71181,2,0,L|179:113,1,83.9999942779542,2|2,1:2|2:3,0:0:0:0:
175,97,71470,1,0,0:0:0:0:
175,97,71566,1,2,3:2:0:0:
76,238,71758,1,2,2:3:0:0:
76,238,71854,1,0,0:0:0:0:
76,238,71950,2,0,L|54:140,1,83.9999942779542,2|2,1:2|2:3,0:0:0:0:
18,363,72335,6,0,P|111:370|176:317,1,167.999988555908,2|0,3:2|1:1,0:0:0:0:
265,190,72912,1,2,2:3:0:0:
265,190,73008,1,0,0:0:0:0:
265,190,73104,2,0,L|285:297,1,83.9999942779542,0|2,3:3|2:3,0:0:0:0:
278,298,73393,1,0,0:0:0:0:
273,320,73489,1,2,1:2:0:0:
169,235,73681,1,2,2:2:0:0:
402,350,73873,6,0,P|409:297|420:255,1,83.9999942779542,2|2,3:2|2:3,0:0:0:0:
442,256,74162,1,0,0:0:0:0:
460,249,74258,2,0,P|448:186|440:135,1,83.9999942779542,2|2,1:2|2:3,0:0:0:0:
444,166,74546,1,0,0:0:0:0:
444,166,74643,1,2,3:2:0:0:
341,4,74835,1,2,2:3:0:0:
341,4,74931,1,0,0:0:0:0:
341,4,75027,2,0,P|336:79|325:119,1,83.9999942779542,2|2,1:2|2:3,0:0:0:0:
179,234,75412,6,0,L|350:206,1,167.999988555908,2|0,3:2|1:1,0:0:0:0:
192,127,75989,1,2,2:3:0:0:
192,127,76085,1,0,0:0:0:0:
192,127,76181,1,0,3:3:0:0:
349,302,76373,1,2,2:3:0:0:
349,302,76470,1,0,0:0:0:0:
349,302,76566,1,2,1:2:0:0:
181,267,76758,1,2,3:2:0:0:
337,123,76950,6,0,L|438:104,1,83.9999942779542,2|2,3:2|2:3,0:0:0:0:
419,107,77239,1,0,0:0:0:0:
419,107,77335,1,2,1:2:0:0:
109,230,77527,1,2,2:3:0:0:
109,230,77623,1,0,0:0:0:0:
109,230,77720,2,0,L|26:245,1,83.9999942779542,2|2,3:2|2:3,0:0:0:0:
77,333,78008,1,0,0:0:0:0:
77,333,78104,2,0,B|117:346|117:346|180:345,1,83.9999942779542,2|2,1:2|2:3,0:0:0:0:
239,84,78489,6,0,L|254:-17,1,83.9999942779542,2|2,3:2|2:3,0:0:0:0:
251,0,78777,1,0,0:0:0:0:
251,0,78873,1,2,1:2:0:0:
318,300,79066,1,2,2:3:0:0:
318,300,79162,1,0,0:0:0:0:
318,300,79258,2,0,L|305:383,1,83.9999942779542,2|2,3:2|2:3,0:0:0:0:
147,232,79643,1,2,1:2:0:0:
362,172,79835,1,2,2:2:0:0:
239,84,80027,5,10,3:2:0:0:
208,77,80123,1,8,2:2:0:0:
176,78,80220,1,10,2:2:0:0:
146,86,80316,1,8,2:2:0:0:
118,101,80412,2,0,L|61:93,3,41.9999971389771,10|8|10|8,1:2|2:2|2:2|2:2,0:0:0:0:
132,195,80796,5,10,3:2:0:0:
136,226,80893,1,8,2:2:0:0:
140,257,80989,1,10,3:2:0:0:
144,288,81085,1,8,2:2:0:0:
149,319,81181,1,10,1:2:0:0:
29,379,81373,2,0,P|39:347|51:314,1,41.9999971389771,10|8,3:2|3:2,0:0:0:0:
233,245,81566,1,6,3:2:0:0:
256,192,81662,12,2,85796,1:2:0:0:
273,273,95412,6,0,L|358:254,1,69.9999952316285,6|2,3:2|2:3,0:0:0:0:
503,291,95796,2,0,L|418:310,1,69.9999952316285,2|2,1:2|2:3,0:0:0:0:
435,307,96085,1,0,0:0:0:0:
435,307,96181,1,2,3:2:0:0:
355,366,96373,1,2,2:3:0:0:
426,208,96566,2,0,P|434:156|432:109,1,69.9999952316285,2|2,1:2|2:3,0:0:0:0:
301,34,96950,6,0,L|311:124,1,69.9999952316285,2|2,3:2|2:3,0:0:0:0:
308,103,97239,1,0,0:0:0:0:
308,103,97335,1,2,1:2:0:0:
334,211,97527,1,2,2:3:0:0:
221,127,97720,1,2,3:2:0:0:
221,127,97816,1,0,0:0:0:0:
221,127,97912,1,2,2:3:0:0:
248,306,98104,2,0,P|257:255|267:223,1,69.9999952316285,2|2,1:2|2:3,0:0:0:0:
205,42,98489,6,0,L|118:57,1,69.9999952316285,6|2,3:2|2:3,0:0:0:0:
114,42,98777,1,0,0:0:0:0:
93,32,98873,2,0,L|10:44,1,69.9999952316285,2|2,1:2|2:3,0:0:0:0:
99,225,99258,2,0,L|114:138,1,69.9999952316285,2|2,3:2|2:3,0:0:0:0:
110,156,99546,1,0,0:0:0:0:
110,156,99643,1,2,1:2:0:0:
181,304,99835,1,2,2:3:0:0:
30,269,100027,6,0,P|91:257|128:242,1,69.9999952316285,2|2,3:2|2:3,0:0:0:0:
98,254,100316,1,0,0:0:0:0:
98,254,100412,1,2,1:2:0:0:
195,189,100604,1,2,2:3:0:0:
230,328,100796,1,2,3:2:0:0:
280,223,100989,1,2,2:3:0:0:
141,293,101181,1,6,1:2:0:0:
261,347,101373,1,2,3:3:0:0:
356,194,101566,6,0,L|340:97,1,69.9999952316285,6|2,3:2|2:3,0:0:0:0:
344,124,101854,1,0,0:0:0:0:
344,124,101950,1,2,1:2:0:0:
422,58,102143,1,2,2:3:0:0:
268,54,102335,2,0,L|252:151,1,69.9999952316285,2|2,3:2|2:3,0:0:0:0:
256,124,102623,1,0,0:0:0:0:
256,124,102720,1,2,1:2:0:0:
440,196,102912,1,2,2:3:0:0:
336,279,103104,6,0,P|290:264|255:243,1,69.9999952316285,6|2,3:2|2:3,0:0:0:0:
271,253,103393,1,0,0:0:0:0:
271,253,103489,1,2,1:2:0:0:
187,191,103681,1,2,2:3:0:0:
156,316,103873,2,0,L|147:363,2,34.9999976158143,2|0|2,3:2|0:0|2:3,0:0:0:0:
220,157,104258,1,2,1:2:0:0:
220,157,104354,1,0,0:0:0:0:
220,157,104450,1,2,2:3:0:0:
82,228,104643,6,0,L|3:248,1,69.9999952316285,6|2,3:2|2:3,0:0:0:0:
56,93,105027,2,0,L|135:73,1,69.9999952316285,2|2,1:2|2:3,0:0:0:0:
123,75,105316,1,0,0:0:0:0:
123,75,105412,2,0,P|166:95|206:102,1,69.9999952316285,6|2,3:2|2:3,0:0:0:0:
337,204,105796,2,0,L|321:71,1,104.999992847443,2|0,1:2|0:0,0:0:0:0:
303,18,106181,5,10,3:2:0:0:
329,15,106277,1,8,2:2:0:0:
355,18,106373,1,10,2:2:0:0:
380,24,106470,1,8,2:2:0:0:
404,35,106566,2,0,L|460:27,3,34.9999976158143,10|8|10|8,1:2|2:2|2:2|2:2,0:0:0:0:
460,129,106950,5,10,2:2:0:0:
452,163,107046,1,8,2:2:0:0:
445,197,107143,1,10,2:2:0:0:
437,231,107239,1,8,2:2:0:0:
430,265,107335,2,0,L|441:324,1,34.9999976158143,10|8,2:2|2:2,0:0:0:0:
340,220,107527,2,0,L|329:161,2,34.9999976158143,10|8|0,2:2|2:2|0:0,0:0:0:0:
406,382,108489,5,2,2:2:0:0:
406,382,108681,1,2,2:2:0:0:
406,382,108873,1,2,2:2:0:0:
406,382,109066,1,2,2:2:0:0:
406,382,109258,1,10,2:1:0:0:
406,382,121181,5,10,2:2:0:0:
406,382,121277,1,8,2:2:0:0:
406,382,121373,1,10,2:2:0:0:
406,382,121470,1,8,2:2:0:0:
406,382,121566,2,0,L|253:363,1,139.999990463257,10|10,2:1|2:2,0:0:0:0:
182,343,122143,1,8,2:1:0:0:
341,285,122335,2,0,P|409:271|449:271,1,104.999992847443,10|0,2:1|0:0,0:0:0:0:
472,286,122720,2,0,L|488:203,1,69.9999952316285,10|0,2:2|0:0,0:0:0:0:
421,56,123104,6,0,L|403:172,1,104.999992847443,10|8,2:1|2:1,0:0:0:0:
404,159,123489,1,8,2:2:0:0:
498,128,123681,1,8,2:1:0:0:
335,80,123873,2,0,B|266:63|259:90|187:67,1,139.999990463257,8|10,2:1|2:2,0:0:0:0:
130,6,124450,1,10,2:2:0:0:
83,152,124643,6,0,L|105:309,1,139.999990463257,10|10,2:1|2:2,0:0:0:0:
203,372,125220,1,8,2:1:0:0:
33,367,125412,2,0,P|78:340|143:330,1,104.999992847443,10|0,2:1|0:0,0:0:0:0:
159,321,125796,2,0,L|247:333,1,69.9999952316285,10|0,2:2|0:0,0:0:0:0:
360,371,126181,6,0,L|342:245,1,104.999992847443,10|8,2:1|2:1,0:0:0:0:
345,267,126566,1,8,2:2:0:0:
281,192,126758,1,8,2:1:0:0:
409,118,126950,2,0,L|401:161,3,34.9999976158143,8|0|0|0,2:1|0:0|0:0|0:0,0:0:0:0:
389,179,127335,2,0,L|469:164,1,69.9999952316285,10|10,2:2|2:2,0:0:0:0:
457,166,127623,1,8,2:2:0:0:
457,166,127720,6,0,P|491:219|476:306,1,139.999990463257,10|10,2:1|2:2,0:0:0:0:
349,373,128296,1,8,2:1:0:0:
389,268,128489,2,0,L|276:254,1,104.999992847443,10|0,2:1|0:0,0:0:0:0:
272,271,128873,2,0,L|194:256,1,69.9999952316285,10|0,2:2|0:0,0:0:0:0:
1,212,129258,6,0,P|53:184|106:186,1,104.999992847443,10|8,2:1|2:1,0:0:0:0:
97,183,129643,1,10,2:2:0:0:
147,321,129835,1,8,2:1:0:0:
187,141,130027,1,10,2:1:0:0:
187,141,130412,5,10,2:2:0:0:
103,234,130604,1,10,2:2:0:0:
120,75,130796,2,0,L|131:1,1,69.9999952316285,10|0,2:1|0:0,0:0:0:0:
202,118,131181,2,0,L|194:209,1,69.9999952316285,10|8,2:2|2:1,0:0:0:0:
34,107,131566,1,10,2:1:0:0:
34,107,131758,1,2,2:2:0:0:
246,48,131950,2,0,L|297:38,3,34.9999976158143,10|8|8|8,2:1|2:1|2:1|2:1,0:0:0:0:
345,0,132335,6,0,P|365:50|370:97,1,69.9999952316285,8|0,2:1|0:0,0:0:0:0:
321,134,132623,2,0,P|287:82|282:20,1,104.999992847443,8|8,2:1|2:1,0:0:0:0:
467,63,133104,6,0,L|455:187,1,104.999992847443,2|0,2:2|0:0,0:0:0:0:
372,221,133489,6,0,L|384:273,1,34.9999976158143,2|0,2:2|0:0,0:0:0:0:
480,329,133681,2,0,L|468:277,1,34.9999976158143,2|0,2:2|0:0,0:0:0:0:
456,167,133873,5,6,3:2:0:0:
383,365,134066,1,2,2:3:0:0:
383,365,134162,1,0,0:0:0:0:
383,365,134258,2,0,L|292:344,1,83.9999942779542,2|2,1:2|2:3,0:0:0:0:
301,346,134546,1,0,0:0:0:0:
301,346,134643,1,2,3:2:0:0:
125,318,134835,1,2,2:3:0:0:
125,318,134931,1,0,0:0:0:0:
125,318,135027,1,2,1:2:0:0:
292,248,135220,1,2,2:3:0:0:
166,124,135412,6,0,L|175:219,1,83.9999942779542,2|2,3:2|2:3,0:0:0:0:
173,207,135700,1,0,0:0:0:0:
173,207,135796,1,0,1:1:0:0:
203,383,135989,1,2,2:3:0:0:
203,383,136085,1,0,0:0:0:0:
203,383,136181,1,0,3:3:0:0:
57,208,136373,1,2,2:3:0:0:
57,208,136470,1,0,0:0:0:0:
57,208,136566,1,2,1:2:0:0:
281,261,136758,1,2,2:2:0:0:
106,319,136950,6,0,P|38:332|2:349,1,83.9999942779542,2|2,3:2|2:3,0:0:0:0:
11,350,137239,1,0,0:0:0:0:
3,365,137335,1,2,1:2:0:0:
255,175,137527,1,2,2:3:0:0:
255,175,137623,1,0,0:0:0:0:
255,175,137720,2,0,P|305:162|346:143,1,83.9999942779542,2|2,3:2|2:3,0:0:0:0:
344,126,138008,1,0,0:0:0:0:
348,104,138104,1,2,1:2:0:0:
128,11,138296,5,2,2:3:0:0:
128,11,138393,1,0,0:0:0:0:
128,11,138489,2,0,P|114:65|113:115,1,83.9999942779542,2|2,3:2|2:3,0:0:0:0:
119,121,138777,1,0,0:0:0:0:
130,144,138873,2,0,L|43:131,1,83.9999942779542,0|2,1:1|2:3,0:0:0:0:
46,131,139162,1,0,0:0:0:0:
46,131,139258,1,0,3:3:0:0:
224,70,139450,1,2,2:3:0:0:
224,70,139546,1,0,0:0:0:0:
224,70,139643,1,2,1:2:0:0:
91,253,139835,1,2,3:2:0:0:
330,197,140027,6,0,L|232:182,1,83.9999942779542,2|2,3:2|2:3,0:0:0:0:
246,184,140316,1,0,0:0:0:0:
246,184,140412,1,2,1:2:0:0:
417,342,140604,1,2,2:3:0:0:
417,342,140700,1,0,0:0:0:0:
417,342,140796,1,2,3:2:0:0:
346,39,140989,1,2,2:3:0:0:
346,39,141085,1,0,0:0:0:0:
346,39,141181,1,2,1:2:0:0:
225,201,141373,5,2,2:3:0:0:
225,201,141470,1,0,0:0:0:0:
225,201,141566,2,0,L|317:213,1,83.9999942779542,2|2,3:2|2:3,0:0:0:0:
308,211,141854,1,0,0:0:0:0:
308,211,141950,1,2,1:2:0:0:
430,110,142143,1,2,2:3:0:0:
407,115,142239,1,0,0:0:0:0:
387,119,142335,1,2,3:2:0:0:
249,284,142527,1,2,2:3:0:0:
249,284,142623,1,0,0:0:0:0:
249,284,142720,1,2,1:2:0:0:
170,91,142912,1,2,2:2:0:0:
257,311,143104,5,2,3:2:0:0:
76,230,143296,1,2,2:3:0:0:
76,230,143393,1,0,0:0:0:0:
76,230,143489,1,2,1:2:0:0:
421,161,143681,1,2,2:3:0:0:
421,161,143777,1,0,0:0:0:0:
421,161,143873,1,2,3:2:0:0:
212,31,144066,5,2,2:2:0:0:
212,31,144162,1,0,0:0:0:0:
212,31,144258,2,0,L|229:131,1,83.9999942779542,2|2,1:2|2:3,0:0:0:0:
214,134,144546,1,0,0:0:0:0:
202,154,144643,2,0,L|221:246,1,83.9999942779542,2|2,3:2|2:3,0:0:0:0:
200,256,144931,1,0,0:0:0:0:
193,277,145027,2,0,L|101:262,1,83.9999942779542,0|2,1:1|2:3,0:0:0:0:
110,263,145316,1,0,0:0:0:0:
110,263,145412,2,0,P|79:317|77:390,1,125.999991416931,6|0,3:2|3:3,0:0:0:0:
75,380,145796,1,6,1:2:0:0:
34,174,145989,1,2,3:2:0:0:
182,352,146181,6,0,L|291:332,1,83.9999942779542,6|2,3:2|2:3,0:0:0:0:
264,336,146470,1,0,0:0:0:0:
264,336,146566,1,2,1:2:0:0:
485,290,146758,1,2,2:3:0:0:
485,290,146854,1,0,0:0:0:0:
485,290,146950,1,2,3:2:0:0:
274,201,147143,1,2,2:3:0:0:
274,201,147239,1,0,0:0:0:0:
274,201,147335,1,2,1:2:0:0:
382,373,147527,5,2,2:3:0:0:
382,373,147623,1,0,0:0:0:0:
382,373,147720,2,0,L|392:278,1,83.9999942779542,2|2,3:2|2:3,0:0:0:0:
411,272,148008,1,0,0:0:0:0:
431,257,148104,2,0,L|441:162,1,83.9999942779542,0|2,1:1|2:3,0:0:0:0:
439,173,148393,1,0,0:0:0:0:
439,173,148489,1,0,3:3:0:0:
291,19,148681,1,2,2:3:0:0:
291,19,148777,1,0,0:0:0:0:
291,19,148873,1,2,1:2:0:0:
326,189,149066,1,2,2:2:0:0:
495,70,149258,6,0,P|429:75|375:88,1,83.9999942779542,2|2,3:2|2:3,0:0:0:0:
412,79,149546,1,0,0:0:0:0:
412,79,149643,1,2,1:2:0:0:
206,168,149835,1,2,2:3:0:0:
206,168,149931,1,0,0:0:0:0:
206,168,150027,1,2,3:2:0:0:
365,283,150220,1,2,2:3:0:0:
365,283,150316,1,0,0:0:0:0:
365,283,150412,1,2,1:2:0:0:
274,9,150604,5,2,2:3:0:0:
274,9,150700,1,0,0:0:0:0:
274,9,150796,2,0,L|261:104,1,83.9999942779542,2|2,3:2|2:3,0:0:0:0:
270,116,151085,1,0,0:0:0:0:
275,135,151181,2,0,L|182:112,1,83.9999942779542,0|2,1:1|2:3,0:0:0:0:
193,114,151470,1,0,0:0:0:0:
193,114,151566,1,0,3:3:0:0:
113,265,151758,1,2,2:3:0:0:
113,265,151854,1,0,0:0:0:0:
113,265,151950,1,2,1:2:0:0:
377,103,152143,1,2,3:2:0:0:
57,179,152335,6,0,L|43:84,1,83.9999942779542,2|2,3:2|2:3,0:0:0:0:
44,95,152623,1,0,0:0:0:0:
44,95,152720,1,2,1:2:0:0:
197,1,152912,1,2,2:3:0:0:
292,227,153104,2,0,L|306:132,1,83.9999942779542,2|2,3:2|2:3,0:0:0:0:
304,143,153393,1,0,0:0:0:0:
304,143,153489,1,2,1:2:0:0:
142,86,153681,1,2,2:3:0:0:
275,348,153873,5,2,3:2:0:0:
485,154,154066,1,2,2:3:0:0:
485,154,154162,1,0,0:0:0:0:
485,154,154258,1,2,1:2:0:0:
37,220,154450,1,2,2:3:0:0:
37,220,154546,1,0,0:0:0:0:
37,220,154643,1,2,3:2:0:0:
193,377,154835,1,2,2:3:0:0:
193,377,154931,1,0,0:0:0:0:
193,377,155027,2,0,L|204:275,1,83.9999942779542,2|2,1:2|2:2,0:0:0:0:
185,212,155316,5,0,0:0:0:0:
185,212,155412,2,0,L|236:200,1,41.9999971389771,10|8,3:2|2:2,0:0:0:0:
346,247,155604,2,0,L|295:259,1,41.9999971389771,10|8,3:2|2:2,0:0:0:0:
219,112,155796,6,0,L|259:121,1,41.9999971389771,10|8,1:2|2:2,0:0:0:0:
299,337,155989,2,0,L|258:327,1,41.9999971389771,10|8,3:2|2:2,0:0:0:0:
332,83,156181,5,10,3:2:0:0:
192,370,156373,1,10,3:2:0:0:
192,370,156470,1,8,3:2:0:0:
192,370,156566,1,10,1:2:0:0:
251,9,156758,1,10,3:2:0:0:
251,9,156854,1,8,3:2:0:0:
251,9,156950,1,6,3:2:0:0:
256,192,157046,12,0,161181,0:0:0:0:
