osu file format v14

[General]
AudioFilename: audio.mp3
AudioLeadIn: 0
PreviewTime: 57623
Countdown: 0
SampleSet: Soft
StackLeniency: 0.6
Mode: 0
LetterboxInBreaks: 0
WidescreenStoryboard: 1

[Editor]
Bookmarks: 20027,44643,46566,81566,86181,109258,121181,133873,156950
DistanceSpacing: 1
BeatDivisor: 4
GridSize: 32
TimelineZoom: 1.8

[Metadata]
Title:Eien no Shunmu
TitleUnicode:永遠の春夢
Artist:komso
ArtistUnicode:狐夢想
Creator:Shurelia
Version:Arsalan's Normal
Source:東方憑依華 ~ Antinomy of Common Flowers.
Tags:ZUN touhou doremy sweet ドレミー・スイート th15.5 夢を見せる妖怪 Dream-Bestowing Youkai Eternal Spring Dream video game instrumental midorijeon advent yf_bmp kowari supav pigeons arsalan
BeatmapID:3958104
BeatmapSetID:1664347

[Difficulty]
HPDrainRate:3
CircleSize:3
OverallDifficulty:4
ApproachRate:4.5
SliderMultiplier:1.29999990463257
SliderTickRate:1

[Events]
//Background and Video events
0,0,"doremybg.jpg",0,0
//Break Periods
2,86381,93972
2,109258,120126
//Storyboard Layer 0 (Background)
//Storyboard Layer 1 (Fail)
//Storyboard Layer 2 (Pass)
//Storyboard Layer 3 (Foreground)
//Storyboard Layer 4 (Overlay)
//Storyboard Sound Samples

[TimingPoints]
6950,384.615384615385,4,2,1,65,1,0
7720,384.615384615385,4,2,2,65,1,0
8104,-100,4,2,1,65,0,0
32335,-100,4,2,1,70,0,0
55604,-100,4,2,3,70,0,0
55796,-100,4,2,1,70,0,0
55989,-100,4,2,3,70,0,0
56181,-100,4,2,1,70,0,0
56373,-100,4,2,3,70,0,0
56566,-100,4,2,1,70,0,0
56758,-100,4,2,3,70,0,0
56950,-100,4,2,1,70,0,0
58489,-100,4,2,4,80,0,0
58681,-100,4,2,1,80,0,0
58873,-100,4,2,4,80,0,0
59258,-100,4,2,5,80,0,0
59450,-100,4,2,1,80,0,0
59643,-100,4,2,4,80,0,0
59835,-100,4,2,1,80,0,0
60027,-100,4,2,5,80,0,0
60604,-100,4,2,1,80,0,0
61181,-100,4,2,4,80,0,0
61373,-100,4,2,6,80,0,0
61566,-100,4,2,5,80,0,0
61758,-100,4,2,1,80,0,0
61950,-100,4,2,4,80,0,0
62335,-100,4,2,5,80,0,0
62527,-100,4,2,1,80,0,0
62720,-100,4,2,4,80,0,0
62912,-100,4,2,1,80,0,0
63104,-100,4,2,5,80,0,0
63296,-100,4,2,1,80,0,0
64258,-100,4,2,4,80,0,0
64450,-100,4,2,6,80,0,0
64643,-100,4,2,5,80,0,0
64835,-100,4,2,1,80,0,0
65027,-100,4,2,4,80,0,0
65412,-100,4,2,5,80,0,0
66373,-100,4,2,1,80,0,0
66566,-100,4,2,4,80,0,0
66758,-100,4,2,1,80,0,0
66950,-100,4,2,5,80,0,0
67143,-100,4,2,1,80,0,0
67334,-100,4,2,4,80,0,0
67527,-100,4,2,6,80,0,0
67720,-100,4,2,5,80,0,0
67912,-100,4,2,1,80,0,0
68104,-100,4,2,4,80,0,0
68489,-100,4,2,5,80,0,0
68681,-100,4,2,6,80,0,0
68873,-100,4,2,4,80,0,0
69258,-100,4,2,5,80,0,0
69450,-100,4,2,1,80,0,0
70027,-100,4,2,5,80,0,0
70220,-100,4,2,6,80,0,0
70412,-100,4,2,5,80,0,0
70604,-100,4,2,6,80,0,0
70796,-100,4,2,5,80,0,0
70989,-100,4,2,1,80,0,0
71180,-100,4,2,4,80,0,0
71566,-100,4,2,5,80,0,0
71758,-100,4,2,1,80,0,0
71950,-100,4,2,4,80,0,0
72335,-100,4,2,5,80,0,0
72527,-100,4,2,1,80,0,0
73489,-100,4,2,4,80,0,0
73681,-100,4,2,6,80,0,0
73873,-100,4,2,5,80,0,0
74066,-100,4,2,1,80,0,0
74257,-100,4,2,4,80,0,0
74643,-100,4,2,5,80,0,0
74835,-100,4,2,1,80,0,0
75027,-100,4,2,4,80,0,0
75219,-100,4,2,1,80,0,0
75412,-100,4,2,5,80,0,0
75604,-100,4,2,1,80,0,0
76566,-100,4,2,4,80,0,0
76758,-100,4,2,6,80,0,0
76950,-100,4,2,5,80,0,0
77142,-100,4,2,1,80,0,0
77335,-100,4,2,4,80,0,0
77720,-100,4,2,5,80,0,0
77912,-100,4,2,1,80,0,0
78104,-100,4,2,4,80,0,0
78489,-100,4,2,5,80,0,0
78681,-100,4,2,1,80,0,0
78873,-100,4,2,4,80,0,0
79065,-100,4,2,1,80,0,0
79258,-100,4,2,5,80,0,0
79450,-100,4,2,1,80,0,0
79642,-100,4,2,4,80,0,0
79835,-100,4,2,6,80,0,0
80027,-100,4,2,5,80,0,0
80123,-100,4,2,3,80,0,0
80411,-100,4,2,4,80,0,0
80796,-100,4,2,5,80,0,0
80989,-100,4,2,6,80,0,0
81181,-100,4,2,4,80,0,0
81373,-100,4,2,3,80,0,0
81566,-100,4,2,7,70,0,0
86181,-100,4,2,1,70,0,0
106373,-100,4,2,3,70,0,0
106566,-100,4,2,1,70,0,0
106758,-100,4,2,3,70,0,0
106950,-100,4,2,1,70,0,0
107143,-100,4,2,3,70,0,0
107335,-100,4,2,1,70,0,0
107527,-100,4,2,3,70,0,0
121566,-100,4,2,1,60,0,0
121950,-100,4,2,7,60,0,0
122335,-100,4,2,1,60,0,0
125027,-100,4,2,7,60,0,0
125412,-100,4,2,1,60,0,0
128104,-100,4,2,7,60,0,0
128489,-100,4,2,1,60,0,0
128873,-100,4,2,7,60,0,0
129258,-100,4,2,1,60,0,0
129642,-100,4,2,7,60,0,0
129835,-100,4,2,1,60,0,0
130412,-100,4,2,7,60,0,0
130796,-100,4,2,1,60,0,0
131180,-100,4,2,7,60,0,0
131566,-100,4,2,1,60,0,0
133104,-100,4,2,4,70,0,0
133873,-100,4,2,4,80,0,0
134066,-100,4,2,1,80,0,0
134257,-100,4,2,4,80,0,0
134450,-100,4,2,1,80,0,0
134643,-100,4,2,5,80,0,0
134835,-100,4,2,1,80,0,0
135027,-100,4,2,4,80,0,0
135219,-100,4,2,1,80,0,0
135412,-100,4,2,5,80,0,0
135604,-100,4,2,1,80,0,0
136566,-100,4,2,4,80,0,0
136758,-100,4,2,6,80,0,0
136950,-100,4,2,5,80,0,0
137143,-100,4,2,1,80,0,0
137334,-100,4,2,4,80,0,0
137527,-100,4,2,1,80,0,0
137720,-100,4,2,5,80,0,0
137912,-100,4,2,1,80,0,0
138104,-100,4,2,4,80,0,0
138296,-100,4,2,1,80,0,0
138489,-100,4,2,5,80,0,0
138681,-100,4,2,1,80,0,0
139643,-100,4,2,4,80,0,0
139835,-100,4,2,6,80,0,0
140027,-100,4,2,5,80,0,0
140220,-100,4,2,1,80,0,0
140411,-100,4,2,4,80,0,0
140604,-100,4,2,1,80,0,0
140796,-100,4,2,5,80,0,0
140988,-100,4,2,1,80,0,0
141181,-100,4,2,4,80,0,0
141373,-100,4,2,1,80,0,0
141566,-100,4,2,5,80,0,0
141758,-100,4,2,1,80,0,0
141950,-100,4,2,4,80,0,0
142143,-100,4,2,1,80,0,0
142335,-100,4,2,5,80,0,0
142912,-100,4,2,6,80,0,0
143104,-100,4,2,5,80,0,0
143296,-100,4,2,1,80,0,0
143488,-100,4,2,4,80,0,0
143681,-100,4,2,1,80,0,0
143873,-100,4,2,5,80,0,0
144065,-100,4,2,6,80,0,0
144257,-100,4,2,4,80,0,0
144643,-100,4,2,5,80,0,0
144835,-100,4,2,1,80,0,0
145412,-100,4,2,5,80,0,0
145604,-100,4,2,6,80,0,0
145796,-100,4,2,5,80,0,0
145989,-100,4,2,6,80,0,0
146181,-100,4,2,5,80,0,0
146373,-100,4,2,1,80,0,0
146565,-100,4,2,4,80,0,0
146758,-100,4,2,1,80,0,0
146950,-100,4,2,5,80,0,0
147142,-100,4,2,1,80,0,0
147335,-100,4,2,4,80,0,0
147527,-100,4,2,1,80,0,0
147720,-100,4,2,5,80,0,0
147912,-100,4,2,1,80,0,0
148873,-100,4,2,4,80,0,0
149065,-100,4,2,6,80,0,0
149258,-100,4,2,5,80,0,0
149450,-100,4,2,1,80,0,0
149642,-100,4,2,4,80,0,0
149835,-100,4,2,1,80,0,0
150027,-100,4,2,5,80,0,0
150219,-100,4,2,1,80,0,0
150412,-100,4,2,4,80,0,0
150604,-100,4,2,1,80,0,0
150796,-100,4,2,5,80,0,0
150988,-100,4,2,1,80,0,0
151950,-100,4,2,4,80,0,0
152142,-100,4,2,6,80,0,0
152335,-100,4,2,5,80,0,0
152527,-100,4,2,1,80,0,0
152719,-100,4,2,4,80,0,0
152912,-100,4,2,1,80,0,0
153104,-100,4,2,5,80,0,0
153296,-100,4,2,1,80,0,0
153489,-100,4,2,4,80,0,0
153681,-100,4,2,1,80,0,0
153873,-100,4,2,5,80,0,0
154066,-100,4,2,1,80,0,0
154257,-100,4,2,4,80,0,0
154450,-100,4,2,1,80,0,0
154642,-100,4,2,5,80,0,0
155219,-100,4,2,6,80,0,0
155412,-100,4,2,5,80,0,0
155508,-100,4,2,3,80,0,0
155796,-100,4,2,4,80,0,0
156181,-100,4,2,5,80,0,0
156277,-100,4,2,6,80,0,0
156565,-100,4,2,4,80,0,0
156758,-100,4,2,3,80,0,0
156950,-100,4,2,7,80,0,0

[Colours]
Combo1 : 128,0,255
Combo2 : 255,0,128
Combo3 : 128,128,192
Combo4 : 128,0,128

[HitObjects]
185,301,7720,6,0,P|133:351|71:335,2,129.999990463257,6|2|2,3:2|3:2|3:2,2:0:0:0:
276,57,9258,2,0,P|341:43|388:92,2,129.999990463257,2|2|2,3:2|3:2|3:2,2:0:0:0:
415,276,10796,2,0,P|428:341|379:388,2,129.999990463257,2|2|2,3:2|3:2|3:2,2:0:0:0:
191,142,12335,2,0,P|177:76|226:29,2,129.999990463257,2|2|2,3:2|3:2|3:2,2:0:0:0:
395,302,13873,6,0,P|458:268|534:303,2,129.999990463257,2|2|2,3:2|3:2|3:2,2:0:0:0:
136,267,15412,2,0,P|102:330|137:406,2,129.999990463257,2|2|2,3:2|3:2|3:2,2:0:0:0:
196,15,16950,2,0,P|133:49|57:14,2,129.999990463257,2|2|2,3:2|3:2|3:2,2:0:0:0:
405,169,18489,2,0,P|439:106|404:30,2,129.999990463257,2|2|6,3:2|3:2|3:2,2:0:0:0:
351,203,19450,1,0,2:0:0:0:
351,203,19643,2,0,P|332:235|351:283,1,64.9999952316285,6|0,3:2|3:0,2:0:0:0:
370,315,20027,6,0,P|323:366|253:335,1,129.999990463257,6|2,3:2|3:2,2:0:0:0:
186,253,20796,2,0,L|203:100,1,129.999990463257,2|2,3:2|3:2,2:0:0:0:
108,31,21566,2,0,P|59:13|21:83,1,129.999990463257,2|2,3:2|3:2,2:0:0:0:
75,184,22335,2,0,L|58:322,1,129.999990463257,2|2,3:2|3:2,2:0:0:0:
179,359,23104,6,0,P|226:371|274:293,1,129.999990463257,2|2,3:2|3:2,2:0:0:0:
245,190,23873,2,0,P|227:159|245:116,1,64.9999952316285,2|0,3:2|2:0,2:0:0:0:
259,72,24258,1,2,3:2:0:0:
375,14,24643,2,0,P|409:31|454:15,1,64.9999952316285,2|0,3:2|2:0,2:0:0:0:
495,54,25027,1,2,3:2:0:0:
437,169,25412,2,0,L|363:179,2,64.9999952316285,2|0|2,3:2|2:0|3:2,2:0:0:0:
490,216,25989,1,0,3:0:0:0:
490,216,26181,6,0,L|464:366,1,129.999990463257,2|2,3:2|3:2,2:0:0:0:
345,300,26950,2,0,P|289:283|233:336,1,129.999990463257,2|2,3:2|3:2,2:0:0:0:
112,367,27720,2,0,L|88:229,1,129.999990463257,2|2,3:2|3:2,2:0:0:0:
64,111,28489,2,0,L|-17:101,2,64.9999952316285,2|0|2,3:2|2:0|3:2,2:0:0:0:
112,67,29066,1,0,2:0:0:0:
112,67,29258,6,0,P|187:92|229:42,1,129.999990463257,2|2,3:2|3:2,2:0:0:0:
341,14,30027,2,0,L|361:167,1,129.999990463257,2|2,3:2|3:2,2:0:0:0:
293,256,30796,2,0,P|255:275|219:259,1,64.9999952316285,2|0,3:2|2:0,2:0:0:0:
201,222,31181,1,2,3:2:0:0:
201,222,31373,2,0,P|164:215|126:236,1,64.9999952316285,0|2,2:0|2:0,2:0:0:0:
93,271,31758,2,0,L|81:361,2,64.9999952316285,0|2|2,2:0|2:0|2:0,2:0:0:0:
42,229,32335,5,6,3:2:0:0:
89,107,32720,2,0,P|129:64|207:91,1,129.999990463257,2|2,1:2|3:2,2:0:0:0:
244,125,33296,1,2,2:3:0:0:
244,125,33489,1,2,1:2:0:0:
355,55,33873,5,2,3:2:0:0:
463,126,34258,2,0,L|447:282,1,129.999990463257,2|2,1:2|3:2,2:0:0:0:
443,323,34835,1,2,2:3:0:0:
443,323,35027,1,2,1:2:0:0:
331,257,35412,5,2,3:2:0:0:
229,331,35796,2,0,P|176:373|113:351,1,129.999990463257,2|2,1:2|3:2,2:0:0:0:
84,310,36373,1,2,2:3:0:0:
84,310,36566,2,0,L|97:216,1,64.9999952316285,2|2,1:2|2:3,2:0:0:0:
62,188,36950,5,2,3:2:0:0:
123,73,37335,2,0,P|192:50|242:96,1,129.999990463257,2|2,1:2|3:2,2:0:0:0:
274,131,37912,2,0,L|260:211,2,64.9999952316285,2|2|2,2:3|1:2|3:0,2:0:0:0:
328,94,38489,5,2,3:2:0:0:
453,60,38873,2,0,L|473:217,1,129.999990463257,2|2,1:2|3:2,2:0:0:0:
482,258,39450,1,2,2:3:0:0:
482,258,39643,1,2,1:2:0:0:
390,349,40027,6,0,P|364:303|275:322,1,129.999990463257,2|2,3:2|1:2,2:0:0:0:
197,224,40796,1,2,3:2:0:0:
197,224,40989,2,0,P|220:195|211:150,1,64.9999952316285,2|2,2:3|1:2,2:0:0:0:
192,115,41373,1,2,2:3:0:0:
192,115,41566,6,0,P|133:97|65:147,1,129.999990463257,2|2,3:2|1:2,2:0:0:0:
30,252,42335,1,2,3:2:0:0:
30,252,42527,2,0,L|40:335,1,64.9999952316285,2|2,2:3|1:2,2:0:0:0:
151,380,43104,6,0,P|195:324|263:345,1,129.999990463257,2|2,3:2|1:2,2:0:0:0:
366,383,43873,2,0,P|389:355|382:306,1,64.9999952316285,6|2,3:2|2:3,2:0:0:0:
364,270,44258,1,6,1:2:0:0:
364,270,44450,2,0,P|348:238|359:204,1,64.9999952316285,2|6,3:0|3:2,2:0:0:0:
359,79,45027,6,0,L|266:59,1,64.9999952316285,2|2,1:2|2:3,2:0:0:0:
247,21,45412,1,2,3:2:0:0:
126,65,45796,2,0,L|51:53,1,64.9999952316285,2|2,1:2|2:3,2:0:0:0:
0,75,46181,1,2,3:2:0:0:
61,188,46566,2,0,L|136:200,1,64.9999952316285,2|2,1:2|2:3,2:0:0:0:
187,178,46950,1,2,3:2:0:0:
293,245,47335,2,0,L|368:257,1,64.9999952316285,2|2,1:2|2:3,2:0:0:0:
412,294,47720,6,0,P|397:360|317:372,1,129.999990463257,6|2,3:2|1:2,2:0:0:0:
287,359,48296,1,2,2:3:0:0:
287,359,48489,2,0,L|135:385,1,129.999990463257,2|2,3:2|1:2,2:0:0:0:
42,322,49258,2,0,P|15:269|78:217,1,129.999990463257,2|2,3:2|1:2,2:0:0:0:
123,211,49835,1,2,2:3:0:0:
123,211,50027,2,0,L|204:228,1,64.9999952316285,2|2,3:2|2:3,2:0:0:0:
244,193,50412,2,0,L|328:177,1,64.9999952316285,6|2,1:2|3:0,2:0:0:0:
366,208,50796,5,6,3:2:0:0:
467,126,51181,2,0,P|457:57|388:39,1,129.999990463257,2|2,1:2|3:2,2:0:0:0:
351,65,51758,1,2,2:3:0:0:
351,65,51950,2,0,L|258:48,1,64.9999952316285,2|2,1:2|2:3,2:0:0:0:
230,21,52335,5,6,3:2:0:0:
104,56,52720,2,0,P|39:82|46:150,1,129.999990463257,2|2,1:2|3:2,2:0:0:0:
77,191,53296,1,2,2:3:0:0:
77,191,53489,2,0,L|171:208,1,64.9999952316285,2|2,1:2|2:3,2:0:0:0:
200,175,53873,5,6,3:2:0:0:
290,268,54258,2,0,L|303:355,1,64.9999952316285,2|2,1:2|2:3,2:0:0:0:
344,379,54643,1,6,3:2:0:0:
446,299,55027,2,0,L|459:212,1,64.9999952316285,2|2,1:2|2:3,2:0:0:0:
465,170,55412,6,0,B|346:43|327:218|225:140,2,259.999980926514,14|10|8,3:2|3:2|2:1,2:0:0:0:
32,0,58489,6,0,P|87:48|67:115,1,129.999990463257,6|2,3:2|1:2,2:0:0:0:
4,204,59258,2,0,L|20:280,1,64.9999952316285,2|2,3:2|2:3,2:0:0:0:
69,306,59643,2,0,L|151:291,1,64.9999952316285,2|2,1:2|2:3,2:0:0:0:
188,327,60027,1,2,3:2:0:0:
238,206,60412,2,0,L|311:194,1,64.9999952316285,0|2,1:0|2:3,2:0:0:0:
349,227,60796,1,0,3:0:0:0:
401,112,61181,5,2,1:2:0:0:
401,112,61373,1,2,2:0:0:0:
401,112,61566,2,0,P|462:104|523:153,1,129.999990463257,2|2,3:2|1:2,2:0:0:0:
508,270,62335,2,0,L|494:340,1,64.9999952316285,2|2,3:2|2:3,2:0:0:0:
440,369,62720,2,0,L|365:347,1,64.9999952316285,2|2,1:2|2:3,2:0:0:0:
334,302,63104,2,0,B|266:275|217:332|217:332|169:388|82:350,1,259.999980926514,2|0,3:2|3:0,2:0:0:0:
15,256,64258,6,0,P|0:226|-1:193,1,64.9999952316285,2|2,1:2|3:2,2:0:0:0:
26,136,64643,2,0,L|106:116,1,64.9999952316285,2|2,3:2|2:3,2:0:0:0:
131,71,65027,1,2,1:2:0:0:
244,135,65412,1,2,3:2:0:0:
368,96,65796,1,2,1:2:0:0:
476,168,66181,2,0,L|463:232,1,64.9999952316285,2|2,3:2|2:3,2:0:0:0:
403,259,66566,2,0,L|339:271,1,64.9999952316285,2|2,1:2|2:3,2:0:0:0:
275,260,66950,2,0,P|297:319|249:364,1,129.999990463257,2|2,3:2|1:2,2:0:0:0:
196,383,67527,1,2,2:0:0:0:
196,383,67720,6,0,P|151:351|82:390,1,129.999990463257,2|2,3:2|1:2,2:0:0:0:
27,263,68489,2,0,L|2:201,2,64.9999952316285,2|2|2,3:2|2:0|1:2,2:0:0:0:
109,161,69258,2,0,L|259:134,1,129.999990463257,2|0,3:2|1:0,2:0:0:0:
350,213,70027,5,6,3:2:0:0:
350,213,70220,2,0,L|422:225,1,64.9999952316285,2|6,2:0|1:2,2:0:0:0:
474,196,70604,1,2,3:2:0:0:
474,196,70796,6,0,P|441:142|473:88,1,129.999990463257,6|2,3:2|1:2,2:0:0:0:
371,6,71566,2,0,L|304:25,1,64.9999952316285,2|2,3:2|2:3,2:0:0:0:
255,60,71950,1,2,1:2:0:0:
134,10,72335,2,0,L|59:30,1,64.9999952316285,2|2,3:2|2:3,2:0:0:0:
34,80,72720,1,0,1:0:0:0:
115,191,73104,1,0,3:0:0:0:
250,171,73489,5,2,1:2:0:0:
250,171,73681,1,2,2:0:0:0:
250,171,73873,2,0,B|276:226|276:226|236:282,1,129.999990463257,2|2,3:2|1:2,2:0:0:0:
128,356,74643,2,0,L|55:337,1,64.9999952316285,2|2,3:2|2:3,2:0:0:0:
16,297,75027,2,0,L|1:219,1,64.9999952316285,2|2,1:2|2:3,2:0:0:0:
38,177,75412,2,0,B|112:202|145:128|139:124|139:124|133:121|165:44|248:67,1,259.999980926514,2|0,3:2|3:0,2:0:0:0:
359,18,76566,6,0,L|429:7,1,64.9999952316285,2|2,1:2|3:2,2:0:0:0:
476,45,76950,2,0,L|460:119,1,64.9999952316285,2|2,3:2|2:3,2:0:0:0:
447,172,77335,1,2,1:2:0:0:
320,192,77720,2,0,L|336:266,1,64.9999952316285,2|2,3:2|2:3,2:0:0:0:
353,318,78104,1,2,1:2:0:0:
238,378,78489,2,0,L|164:365,1,64.9999952316285,2|2,3:2|2:3,2:0:0:0:
127,321,78873,2,0,L|141:245,1,64.9999952316285,2|2,1:2|2:3,2:0:0:0:
192,219,79258,2,0,P|193:171|108:136,1,129.999990463257,2|2,3:2|1:2,2:0:0:0:
68,141,79835,1,2,2:0:0:0:
68,141,80027,6,0,P|20:109|31:40,1,129.999990463257,10|10,3:2|1:2,2:0:0:0:
152,6,80796,1,10,3:2:0:0:
152,6,80989,2,0,L|227:20,1,64.9999952316285,10|10,3:2|1:2,2:0:0:0:
274,56,81373,1,10,3:2:0:0:
274,56,81566,1,6,3:2:0:0:
256,192,81950,12,2,86181,3:2:0:0:
28,256,95412,6,0,L|8:384,1,129.999990463257,6|2,3:2|1:2,2:0:0:0:
138,375,96181,2,0,L|157:246,1,129.999990463257,2|2,3:2|1:2,2:0:0:0:
286,235,96950,2,0,L|266:363,1,129.999990463257,2|2,3:2|1:2,2:0:0:0:
397,354,97720,2,0,L|416:225,1,129.999990463257,2|2,3:2|1:2,2:0:0:0:
464,104,98489,5,6,3:2:0:0:
355,33,98873,1,2,1:2:0:0:
226,71,99258,1,2,3:2:0:0:
104,25,99643,1,2,1:2:0:0:
16,120,100027,6,0,P|32:180|44:246,1,129.999990463257,2|2,3:2|1:2,2:0:0:0:
131,342,100796,1,2,3:2:0:0:
250,289,101181,2,0,L|317:301,1,64.9999952316285,6|2,1:2|3:0,2:0:0:0:
379,295,101566,6,0,P|404:242|488:241,1,129.999990463257,6|2,3:2|1:2,2:0:0:0:
498,104,102335,2,0,L|411:78,1,64.9999952316285,2|2,3:2|2:3,2:0:0:0:
384,45,102720,2,0,L|317:62,1,64.9999952316285,2|2,1:2|2:3,2:0:0:0:
259,82,103104,6,0,B|210:121|210:121|151:78,1,129.999990463257,6|2,3:2|1:2,2:0:0:0:
34,128,103873,2,0,L|18:213,1,64.9999952316285,2|2,3:2|2:3,2:0:0:0:
48,251,104258,2,0,L|63:333,1,64.9999952316285,2|2,1:2|2:3,2:0:0:0:
116,346,104643,6,0,B|162:321|162:321|206:328|247:365,1,129.999990463257,6|2,3:2|1:2,2:0:0:0:
357,310,105412,1,6,3:2:0:0:
357,310,105604,2,0,B|366:280|366:280|351:249,1,64.9999952316285,2|2,2:3|1:2,2:0:0:0:
244,175,106181,2,0,P|222:195|182:197,1,64.9999952316285,10|10,3:2|2:0,2:0:0:0:
131,165,106566,2,0,P|124:135|141:100,2,64.9999952316285,10|10|10,1:2|2:0|2:0,2:0:0:0:
91,217,107143,5,10,2:0:0:0:
91,217,107335,2,0,P|73:283|71:353,1,129.999990463257,10|0,2:0|2:0,2:0:0:0:
488,26,121566,5,10,2:1:0:0:
363,61,121950,1,10,2:0:0:0:
236,90,122335,1,10,2:1:0:0:
52,273,123104,5,10,2:1:0:0:
24,26,124643,5,10,2:1:0:0:
149,61,125027,1,10,2:0:0:0:
276,90,125412,1,10,2:1:0:0:
460,273,126181,5,10,2:1:0:0:
268,345,127720,6,0,B|218:328|218:328|187:362|136:372,1,129.999990463257,10|10,2:1|2:0,2:0:0:0:
30,324,128489,2,0,B|6:280|6:280|4:237|44:188,1,129.999990463257,10|10,2:1|2:0,2:0:0:0:
145,144,129258,2,0,B|185:85|184:82|136:23,2,129.999990463257,10|10|10,2:1|2:0|2:1,2:0:0:0:
246,225,130412,6,0,L|320:242,1,64.9999952316285,10|10,2:0|2:0,2:0:0:0:
373,230,130796,2,0,B|409:214|412:156|412:156|381:103,1,129.999990463257,10|10,2:1|2:0,2:0:0:0:
284,45,131566,2,0,L|214:61,2,64.9999952316285,10|2|10,2:1|2:0|2:1,2:0:0:0:
341,14,132143,1,8,2:1:0:0:
341,14,132335,1,8,2:1:0:0:
496,222,133104,6,0,B|446:236|446:236|440:263|440:263|391:282,1,129.999990463257,2|2,2:0|2:0,2:0:0:0:
284,354,133873,2,0,B|234:322|234:322|157:357,1,129.999990463257,6|2,3:2|1:2,2:0:0:0:
112,378,134450,1,2,2:3:0:0:
112,378,134643,2,0,L|95:295,1,64.9999952316285,2|2,3:2|2:3,2:0:0:0:
140,264,135027,2,0,L|154:183,1,64.9999952316285,2|2,1:2|2:3,2:0:0:0:
126,139,135412,2,0,B|74:125|74:125|31:158|-19:158,2,129.999990463257,2|0|0,3:2|1:0|3:0,2:0:0:0:
209,39,136566,6,0,L|289:27,1,64.9999952316285,2|2,1:2|2:0,2:0:0:0:
334,51,136950,2,0,B|360:116|365:120|441:103,1,129.999990463257,2|2,3:2|1:2,2:0:0:0:
482,153,137527,1,2,2:3:0:0:
482,153,137720,2,0,L|468:221,1,64.9999952316285,2|2,3:2|2:3,2:0:0:0:
423,263,138104,2,0,L|352:246,1,64.9999952316285,2|2,1:2|2:3,2:0:0:0:
295,256,138489,2,0,B|265:316|265:316|305:372,2,129.999990463257,2|0|0,3:2|1:0|3:0,2:0:0:0:
254,132,139643,6,0,L|267:56,1,64.9999952316285,2|2,1:2|3:2,2:0:0:0:
210,32,140027,2,0,B|163:71|163:71|100:43,1,129.999990463257,2|2,3:2|1:2,2:0:0:0:
51,85,140604,1,2,2:3:0:0:
51,85,140796,2,0,L|39:155,1,64.9999952316285,2|2,3:2|2:3,2:0:0:0:
2,202,141181,2,0,L|26:276,1,64.9999952316285,2|2,1:2|2:3,2:0:0:0:
77,298,141566,2,0,B|129:313|129:313|137:341|137:341|202:362,2,129.999990463257,2|2|2,3:2|1:2|3:2,2:0:0:0:
151,191,142720,6,0,L|224:175,1,64.9999952316285,2|2,1:2|2:0,2:0:0:0:
273,203,143104,2,0,B|323:256|329:256|385:225,1,129.999990463257,2|2,3:2|1:2,2:0:0:0:
446,257,143681,1,2,2:3:0:0:
446,257,143873,2,0,L|468:339,2,64.9999952316285,2|2|2,3:2|2:0|1:2,2:0:0:0:
487,133,144643,6,0,B|513:72|513:72|468:6,1,129.999990463257,2|0,3:2|1:0,2:0:0:0:
359,70,145412,1,6,3:2:0:0:
359,70,145604,2,0,L|341:153,1,64.9999952316285,2|6,2:0|1:2,2:0:0:0:
332,200,145989,1,2,3:2:0:0:
332,200,146181,6,0,B|279:169|279:169|209:204,1,129.999990463257,6|2,3:2|1:2,2:0:0:0:
175,250,146758,1,2,2:3:0:0:
175,250,146950,2,0,L|166:328,1,64.9999952316285,2|2,3:2|2:3,2:0:0:0:
121,361,147335,2,0,L|38:357,1,64.9999952316285,2|2,1:2|2:3,2:0:0:0:
6,314,147720,6,0,B|-8:285|-8:285|19:256,1,64.9999952316285,2|2,3:2|2:3,2:0:0:0:
57,212,148104,2,0,B|71:183|71:183|44:154,1,64.9999952316285,0|2,1:0|2:3,2:0:0:0:
5,110,148489,1,0,3:0:0:0:
105,27,148873,6,0,L|185:37,1,64.9999952316285,2|2,1:2|2:0,2:0:0:0:
230,57,149258,2,0,B|288:13|295:15|334:78,1,129.999990463257,2|2,3:2|1:2,2:0:0:0:
367,132,149835,1,2,2:3:0:0:
367,132,150027,2,0,L|453:149,1,64.9999952316285,2|2,3:2|2:3,2:0:0:0:
470,196,150412,2,0,L|455:272,1,64.9999952316285,2|2,1:2|2:3,2:0:0:0:
416,310,150796,6,0,B|384:287|384:287|351:300,1,64.9999952316285,2|2,3:2|2:3,2:0:0:0:
307,335,151181,2,0,B|273:356|273:356|242:345,1,64.9999952316285,0|2,1:0|2:3,2:0:0:0:
192,314,151566,1,0,3:0:0:0:
268,209,151950,6,0,L|281:137,1,64.9999952316285,2|2,1:2|3:2,2:0:0:0:
253,85,152335,2,0,B|209:64|209:64|179:99|113:95,1,129.999990463257,2|2,3:2|1:2,2:0:0:0:
79,122,152912,1,2,2:3:0:0:
79,122,153104,2,0,L|65:195,1,64.9999952316285,2|2,3:2|2:3,2:0:0:0:
35,242,153489,2,0,L|56:316,1,64.9999952316285,2|2,1:2|2:3,2:0:0:0:
115,321,153873,6,0,B|172:351|172:351|245:318,2,129.999990463257,2|2|2,3:2|1:2|3:2,2:0:0:0:
167,201,155027,2,0,L|241:189,1,64.9999952316285,2|2,1:2|2:0,2:0:0:0:
274,141,155412,6,0,B|333:122|333:122|395:168,1,129.999990463257,10|10,3:2|1:2,2:0:0:0:
437,212,155989,1,8,2:0:0:0:
437,212,156181,2,0,B|417:253|417:253|434:306|434:306|416:354,1,129.999990463257,10|10,3:2|1:2,2:0:0:0:
369,369,156758,2,0,L|303:375,1,64.9999952316285,10|6,3:2|3:2,2:0:0:0:
