osu file format v14

[General]
AudioFilename: audio.mp3
AudioLeadIn: 0
PreviewTime: 31322
Countdown: 0
SampleSet: Normal
StackLeniency: 0.7
Mode: 1
LetterboxInBreaks: 0
WidescreenStoryboard: 1

[Editor]
DistanceSpacing: 0.1
BeatDivisor: 4
GridSize: 32
TimelineZoom: 1.9

[Metadata]
Title:your first take
TitleUnicode:your first take
Artist:komato
ArtistUnicode:komato
Creator:ler1211
Version:my first muzukashii
Source:
Tags:sar7 hyperflip overture ke$ha kesha die young astrid glaive The Kid LAROI Justin Bieber stay utumiyqcom summer one take (CaoN1MarB) CaoN1MarB 鎖那 カプセル sana capsule katy perry last friday night (T.G.I.F.) TGIF rinze english japanese dariacore electronic remix mashcore hyperpop experimental my angel koishi
BeatmapID:4159754
BeatmapSetID:2000693

[Difficulty]
HPDrainRate:6
CircleSize:5
OverallDifficulty:5
ApproachRate:5
SliderMultiplier:1.4
SliderTickRate:1

[Events]
//Background and Video events
0,0,"rikotan.jpg",0,50
//Break Periods
//Storyboard Layer 0 (Background)
//Storyboard Layer 1 (Fail)
//Storyboard Layer 2 (Pass)
//Storyboard Layer 3 (Foreground)
//Storyboard Layer 4 (Overlay)
//Storyboard Sound Samples

[TimingPoints]
722,222.222222222222,4,1,0,100,1,0
722,-133.333333333333,4,1,0,100,0,0
2388,-100,4,1,0,100,0,0
3388,222.222222222222,7,1,0,100,1,8
4922,300,4,1,0,100,1,0
4922,-111.111111111111,4,1,0,100,0,0
21572,-100,4,1,0,100,0,0
33647,-111.111111111111,4,1,0,100,0,0
34022,-111.111111111111,4,1,0,100,0,1
43322,-111.111111111111,4,1,0,100,0,0
43622,-100,4,1,0,100,0,1
52922,-100,4,1,0,100,0,0
52997,-100,4,1,0,50,0,0
53222,-125,4,1,0,50,0,0
62372,-111.111111111111,4,1,0,70,0,0
71972,-100,4,1,0,100,0,0
91170,-100,4,1,0,60,0,0
93047,-100,4,1,0,90,0,0
93722,-100,4,1,0,100,0,1
93872,-111.111111111111,4,1,0,100,0,1
99947,-108.108108108108,4,1,0,100,0,1
100247,-105.263157894737,4,1,0,100,0,1
100547,-102.564102564103,4,1,0,100,0,1
100697,-101.26582278481,4,1,0,100,0,1
100922,-100,4,1,0,100,0,1
110222,-100,4,1,0,100,0,0
110522,-100,4,1,0,100,0,1
120122,-100,4,1,0,100,0,0
120347,-111.111111111111,4,1,0,70,0,0
129647,-111.111111111111,4,1,0,30,0,0

[HitObjects]
265,194,722,5,0,0:0:0:0:
277,194,944,1,0,0:0:0:0:
289,192,1166,1,0,0:0:0:0:
301,193,1388,1,8,0:0:0:0:
313,191,1610,1,0,0:0:0:0:
325,192,1833,1,0,0:0:0:0:
337,189,2055,1,0,0:0:0:0:
349,187,2277,1,8,0:0:0:0:
256,192,2499,8,0,3388,0:0:0:0:
262,202,4922,5,4,0:0:0:0:
296,194,5222,1,8,0:0:0:0:
330,192,5522,1,0,0:0:0:0:
296,194,5672,1,0,0:0:0:0:
330,192,5822,1,8,0:0:0:0:
330,192,6122,1,0,0:0:0:0:
340,206,6272,1,8,0:0:0:0:
325,214,6572,1,8,0:0:0:0:
340,206,6722,1,0,0:0:0:0:
357,207,7022,1,8,0:0:0:0:
345,202,7322,1,0,0:0:0:0:
333,204,7622,1,8,0:0:0:0:
333,204,7922,1,0,0:0:0:0:
327,207,8072,1,8,0:0:0:0:
345,202,8222,1,8,0:0:0:0:
333,204,8522,1,0,0:0:0:0:
327,207,8972,1,8,0:0:0:0:
328,207,9122,1,0,0:0:0:0:
327,208,9422,1,8,0:0:0:0:
310,202,9722,1,0,0:0:0:0:
304,200,10022,1,8,0:0:0:0:
332,208,10322,1,0,0:0:0:0:
310,202,10472,1,0,0:0:0:0:
310,202,10622,1,8,0:0:0:0:
315,198,10922,1,0,0:0:0:0:
309,190,11072,1,8,0:0:0:0:
310,202,11372,1,8,0:0:0:0:
309,190,11522,1,0,0:0:0:0:
314,187,11822,1,8,0:0:0:0:
319,185,11972,1,8,0:0:0:0:
310,202,12122,1,0,0:0:0:0:
304,200,12422,1,8,0:0:0:0:
332,208,12722,1,0,0:0:0:0:
310,202,12872,1,8,0:0:0:0:
310,202,13022,1,8,0:0:0:0:
315,198,13322,1,0,0:0:0:0:
310,202,13772,1,8,0:0:0:0:
310,191,13922,1,0,0:0:0:0:
313,194,14222,1,0,0:0:0:0:
302,189,14372,1,0,0:0:0:0:
306,192,14522,1,8,0:0:0:0:
294,191,14822,1,8,0:0:0:0:
291,196,15122,1,8,0:0:0:0:
299,193,15422,1,8,0:0:0:0:
298,193,15722,1,8,0:0:0:0:
308,194,16022,1,8,0:0:0:0:
313,196,16322,1,8,0:0:0:0:
312,197,16622,1,8,0:0:0:0:
308,194,16772,1,8,0:0:0:0:
317,200,16922,1,8,0:0:0:0:
322,201,17222,1,8,0:0:0:0:
315,204,17522,1,8,0:0:0:0:
317,200,17822,1,8,0:0:0:0:
322,208,18122,1,8,0:0:0:0:
322,208,18422,1,8,0:0:0:0:
310,212,18722,1,8,0:0:0:0:
315,212,19022,1,8,0:0:0:0:
322,208,19322,1,0,0:0:0:0:
310,212,19472,1,8,0:0:0:0:
310,212,19622,1,0,0:0:0:0:
315,212,19772,1,8,0:0:0:0:
318,218,19922,1,8,0:0:0:0:
318,218,20072,1,0,0:0:0:0:
319,224,20222,1,8,0:0:0:0:
315,235,20522,1,8,0:0:0:0:
321,232,20672,1,8,0:0:0:0:
326,227,20822,1,0,0:0:0:0:
319,227,20972,1,8,0:0:0:0:
324,222,21122,1,0,0:0:0:0:
326,227,21272,1,8,0:0:0:0:
330,232,21422,1,8,0:0:0:0:
329,227,21722,1,0,0:0:0:0:
326,227,21872,1,8,0:0:0:0:
335,232,21947,1,8,0:0:0:0:
324,222,22022,1,8,0:0:0:0:
322,220,22172,1,0,0:0:0:0:
330,232,22322,1,8,0:0:0:0:
332,233,22472,1,8,0:0:0:0:
334,235,22622,1,0,0:0:0:0:
333,238,22772,1,0,0:0:0:0:
331,238,22922,1,8,0:0:0:0:
324,230,22997,1,8,0:0:0:0:
332,231,23072,1,8,0:0:0:0:
331,229,23222,1,0,0:0:0:0:
328,232,23372,1,0,0:0:0:0:
329,236,23522,1,8,0:0:0:0:
322,230,24122,1,0,0:0:0:0:
329,231,24272,1,0,0:0:0:0:
324,227,24422,1,8,0:0:0:0:
314,231,24497,1,8,0:0:0:0:
326,234,24572,1,8,0:0:0:0:
321,227,24722,1,0,0:0:0:0:
314,231,25022,1,8,0:0:0:0:
309,237,25172,1,8,0:0:0:0:
305,238,25322,1,0,0:0:0:0:
301,230,25472,1,0,0:0:0:0:
309,237,25622,1,8,0:0:0:0:
315,240,25772,1,0,0:0:0:0:
310,231,25922,1,8,0:0:0:0:
315,226,26222,1,8,0:0:0:0:
321,225,26522,1,0,0:0:0:0:
314,230,26672,1,8,0:0:0:0:
324,227,26822,1,8,0:0:0:0:
326,234,26972,1,8,0:0:0:0:
321,227,27122,1,0,0:0:0:0:
314,231,27422,1,8,0:0:0:0:
309,237,27572,1,8,0:0:0:0:
321,227,27722,1,0,0:0:0:0:
309,237,28022,1,8,0:0:0:0:
315,240,28172,1,8,0:0:0:0:
314,231,28322,1,0,0:0:0:0:
314,231,28397,1,0,0:0:0:0:
310,231,28472,1,0,0:0:0:0:
315,226,28622,1,8,0:0:0:0:
314,231,28772,1,8,0:0:0:0:
321,225,28922,1,0,0:0:0:0:
326,234,29372,1,0,0:0:0:0:
321,227,29522,1,8,0:0:0:0:
319,225,29672,1,0,0:0:0:0:
314,231,29822,1,8,0:0:0:0:
309,237,29972,1,8,0:0:0:0:
305,238,30122,1,0,0:0:0:0:
317,226,30422,1,8,0:0:0:0:
315,240,30572,1,8,0:0:0:0:
314,231,30722,1,0,0:0:0:0:
310,231,30872,1,0,0:0:0:0:
315,226,31022,1,8,0:0:0:0:
321,225,31322,1,0,0:0:0:0:
324,217,31472,1,8,0:0:0:0:
316,218,31622,1,0,0:0:0:0:
314,231,31772,1,0,0:0:0:0:
306,227,31922,1,8,0:0:0:0:
302,229,31997,1,8,0:0:0:0:
303,232,32072,1,8,0:0:0:0:
324,224,32222,1,0,0:0:0:0:
330,227,32372,1,8,0:0:0:0:
327,219,32522,1,0,0:0:0:0:
321,225,32822,1,8,0:0:0:0:
325,215,32972,1,8,0:0:0:0:
324,216,33122,1,0,0:0:0:0:
328,216,33197,1,0,0:0:0:0:
316,218,33272,1,0,0:0:0:0:
315,219,33422,1,12,0:0:0:0:
21,32,34022,1,0,0:0:0:0:
25,34,34172,1,0,0:0:0:0:
29,37,34322,1,8,0:0:0:0:
41,44,34622,1,0,0:0:0:0:
45,46,34922,1,8,0:0:0:0:
52,49,35147,1,0,0:0:0:0:
54,50,35222,1,0,0:0:0:0:
58,53,35372,1,0,0:0:0:0:
61,55,35522,1,8,0:0:0:0:
68,60,35822,1,8,0:0:0:0:
71,61,35972,1,8,0:0:0:0:
75,63,36122,1,0,0:0:0:0:
81,65,36422,1,0,0:0:0:0:
84,66,36572,1,0,0:0:0:0:
86,67,36722,1,8,0:0:0:0:
90,68,37022,1,0,0:0:0:0:
95,70,37322,1,8,0:0:0:0:
99,71,37547,1,8,0:0:0:0:
100,71,37622,1,8,0:0:0:0:
103,72,37772,1,0,0:0:0:0:
105,72,37922,1,8,0:0:0:0:
110,73,38222,1,8,0:0:0:0:
113,74,38522,1,0,0:0:0:0:
118,76,38822,1,0,0:0:0:0:
121,77,38972,1,0,0:0:0:0:
123,79,39122,1,8,0:0:0:0:
127,81,39422,1,0,0:0:0:0:
131,84,39722,1,8,0:0:0:0:
135,86,39947,1,0,0:0:0:0:
136,86,40022,1,0,0:0:0:0:
139,88,40172,1,0,0:0:0:0:
141,89,40322,1,8,0:0:0:0:
145,90,40622,1,8,0:0:0:0:
146,90,40772,1,0,0:0:0:0:
148,91,40922,1,8,0:0:0:0:
159,95,41222,1,0,0:0:0:0:
155,94,41372,1,0,0:0:0:0:
158,95,41522,1,8,0:0:0:0:
162,95,41822,1,8,0:0:0:0:
164,97,41972,1,8,0:0:0:0:
166,97,42122,1,0,0:0:0:0:
171,98,42422,1,0,0:0:0:0:
175,100,42572,1,8,0:0:0:0:
182,114,42647,1,8,0:0:0:0:
176,101,42722,1,8,0:0:0:0:
177,102,42872,1,0,0:0:0:0:
180,105,43022,1,8,0:0:0:0:
182,106,43172,1,8,0:0:0:0:
191,113,43622,1,8,0:0:0:0:
197,118,43772,1,8,0:0:0:0:
200,126,43922,1,0,0:0:0:0:
191,113,44222,1,8,0:0:0:0:
226,151,44372,1,0,0:0:0:0:
224,147,44522,1,8,0:0:0:0:
191,113,44822,1,8,0:0:0:0:
197,118,44972,1,8,0:0:0:0:
243,169,45122,1,0,0:0:0:0:
249,175,45272,1,0,0:0:0:0:
191,113,45422,1,8,0:0:0:0:
193,115,45497,1,8,0:0:0:0:
191,113,45572,1,8,0:0:0:0:
197,118,45722,1,0,0:0:0:0:
273,196,46022,1,8,0:0:0:0:
276,194,46172,1,8,0:0:0:0:
280,201,46322,1,0,0:0:0:0:
286,206,46472,1,0,0:0:0:0:
191,113,46622,1,8,0:0:0:0:
307,215,46922,1,0,0:0:0:0:
313,221,47072,1,0,0:0:0:0:
321,222,47222,1,8,0:0:0:0:
330,223,47522,1,8,0:0:0:0:
313,221,47822,1,8,0:0:0:0:
315,220,48122,1,0,0:0:0:0:
198,122,48197,1,0,0:0:0:0:
336,224,48272,1,0,0:0:0:0:
191,113,48422,1,8,0:0:0:0:
200,126,48722,1,0,0:0:0:0:
206,131,48872,1,0,0:0:0:0:
191,113,49022,1,8,0:0:0:0:
224,147,49322,1,0,0:0:0:0:
232,159,49622,1,8,0:0:0:0:
238,162,49772,1,0,0:0:0:0:
243,169,49922,1,8,0:0:0:0:
251,178,49997,1,8,0:0:0:0:
279,193,50072,1,8,0:0:0:0:
191,113,50222,1,8,0:0:0:0:
282,190,50372,1,0,0:0:0:0:
280,188,50522,1,8,0:0:0:0:
273,196,50822,1,8,0:0:0:0:
276,194,50972,1,8,0:0:0:0:
282,205,51122,1,0,0:0:0:0:
333,222,51197,1,0,0:0:0:0:
286,206,51272,1,0,0:0:0:0:
294,208,51422,1,8,0:0:0:0:
300,212,51572,1,0,0:0:0:0:
307,215,51722,1,8,0:0:0:0:
321,222,52022,1,8,0:0:0:0:
327,219,52172,1,0,0:0:0:0:
330,223,52322,1,8,0:0:0:0:
336,221,52472,1,0,0:0:0:0:
313,221,52622,1,8,0:0:0:0:
191,113,52772,1,8,0:0:0:0:
197,118,52922,1,0,0:0:0:0:
256,192,53072,8,0,61922,0:0:0:0:
268,224,62522,5,0,0:0:0:0:
268,224,62747,1,8,0:0:0:0:
268,224,62972,1,8,0:0:0:0:
250,221,63422,1,8,0:0:0:0:
268,224,63572,1,8,0:0:0:0:
250,221,63722,1,0,0:0:0:0:
250,221,63947,1,8,0:0:0:0:
256,221,64172,1,8,0:0:0:0:
246,211,64622,1,8,0:0:0:0:
252,209,64772,1,8,0:0:0:0:
252,209,64922,1,0,0:0:0:0:
252,209,65147,1,8,0:0:0:0:
256,224,65372,1,8,0:0:0:0:
256,224,65822,1,8,0:0:0:0:
256,224,65972,1,8,0:0:0:0:
256,224,66122,1,0,0:0:0:0:
256,224,66347,1,8,0:0:0:0:
256,224,66572,1,8,0:0:0:0:
256,224,66872,1,0,0:0:0:0:
256,224,67022,1,8,0:0:0:0:
256,224,67172,1,8,0:0:0:0:
256,224,67322,1,0,0:0:0:0:
256,224,67547,1,8,0:0:0:0:
256,224,67772,1,8,0:0:0:0:
256,224,68072,1,0,0:0:0:0:
256,224,68222,1,8,0:0:0:0:
256,224,68372,1,8,0:0:0:0:
256,224,68522,1,0,0:0:0:0:
256,224,68747,1,8,0:0:0:0:
256,224,68972,1,8,0:0:0:0:
256,224,69272,1,0,0:0:0:0:
256,224,69422,1,8,0:0:0:0:
256,224,69572,1,8,0:0:0:0:
256,224,69722,1,0,0:0:0:0:
256,224,69947,1,8,0:0:0:0:
256,224,70172,1,8,0:0:0:0:
256,224,70472,1,0,0:0:0:0:
256,224,70622,1,8,0:0:0:0:
256,192,70922,8,0,71822,0:0:0:0:
322,230,72122,5,4,0:0:0:0:
324,227,72422,1,8,0:0:0:0:
326,234,72572,1,8,0:0:0:0:
321,227,72722,1,0,0:0:0:0:
314,231,73022,1,8,0:0:0:0:
309,237,73172,1,0,0:0:0:0:
305,238,73322,1,8,0:0:0:0:
315,240,73772,1,8,0:0:0:0:
314,231,73922,1,0,0:0:0:0:
310,231,74072,1,0,0:0:0:0:
315,226,74222,1,8,0:0:0:0:
321,225,74522,1,0,0:0:0:0:
315,226,74672,1,0,0:0:0:0:
324,227,74822,1,8,0:0:0:0:
326,234,74972,1,0,0:0:0:0:
319,225,75272,1,0,0:0:0:0:
314,231,75422,1,8,0:0:0:0:
309,237,75572,1,8,0:0:0:0:
321,227,75722,1,0,0:0:0:0:
314,231,75797,1,0,0:0:0:0:
314,231,75872,1,0,0:0:0:0:
309,237,76022,1,8,0:0:0:0:
314,231,76322,1,0,0:0:0:0:
315,226,76622,1,8,0:0:0:0:
315,226,76772,1,0,0:0:0:0:
314,230,77072,1,0,0:0:0:0:
324,227,77222,1,8,0:0:0:0:
326,234,77372,1,8,0:0:0:0:
321,227,77522,1,0,0:0:0:0:
314,231,77822,1,8,0:0:0:0:
305,238,78122,1,0,0:0:0:0:
317,226,78422,1,8,0:0:0:0:
315,240,78572,1,8,0:0:0:0:
310,231,78872,1,0,0:0:0:0:
315,226,79022,1,8,0:0:0:0:
321,225,79322,1,8,0:0:0:0:
324,217,79472,1,0,0:0:0:0:
316,218,79622,1,8,0:0:0:0:
314,231,79772,1,8,0:0:0:0:
303,232,80072,1,0,0:0:0:0:
324,224,80222,1,8,0:0:0:0:
330,227,80372,1,8,0:0:0:0:
322,211,80672,1,0,0:0:0:0:
321,225,80822,1,8,0:0:0:0:
316,218,80897,1,8,0:0:0:0:
321,225,80972,1,8,0:0:0:0:
324,216,81122,1,0,0:0:0:0:
316,218,81272,1,8,0:0:0:0:
311,218,81722,1,4,0:0:0:0:
294,191,82022,1,8,0:0:0:0:
294,191,82172,1,0,0:0:0:0:
291,196,82322,1,8,0:0:0:0:
299,193,82622,1,8,0:0:0:0:
294,191,82772,1,8,0:0:0:0:
298,193,82922,1,0,0:0:0:0:
308,194,83222,1,8,0:0:0:0:
313,196,83522,1,8,0:0:0:0:
299,193,83672,1,0,0:0:0:0:
312,197,83822,1,8,0:0:0:0:
294,191,83972,1,8,0:0:0:0:
317,200,84122,1,0,0:0:0:0:
322,201,84422,1,8,0:0:0:0:
315,204,84572,1,0,0:0:0:0:
315,204,84722,1,8,0:0:0:0:
315,204,84872,1,0,0:0:0:0:
317,200,85022,1,8,0:0:0:0:
322,208,85322,1,0,0:0:0:0:
322,208,85622,1,8,0:0:0:0:
310,212,85922,1,8,0:0:0:0:
315,204,86072,1,0,0:0:0:0:
315,212,86222,1,8,0:0:0:0:
322,208,86522,1,0,0:0:0:0:
310,212,86672,1,0,0:0:0:0:
310,212,86822,1,8,0:0:0:0:
315,212,86972,1,0,0:0:0:0:
318,218,87272,1,0,0:0:0:0:
319,224,87422,1,8,0:0:0:0:
315,235,87722,1,0,0:0:0:0:
321,232,87872,1,0,0:0:0:0:
326,227,88022,1,8,0:0:0:0:
319,227,88172,1,8,0:0:0:0:
326,227,88472,1,0,0:0:0:0:
330,232,88622,1,8,0:0:0:0:
329,227,88922,1,0,0:0:0:0:
330,230,89072,1,0,0:0:0:0:
324,222,89222,1,8,0:0:0:0:
326,220,89297,1,8,0:0:0:0:
322,220,89372,1,8,0:0:0:0:
330,232,89522,1,0,0:0:0:0:
332,233,89672,1,0,0:0:0:0:
334,235,89822,1,8,0:0:0:0:
333,238,89972,1,8,0:0:0:0:
331,238,90122,1,0,0:0:0:0:
335,232,90197,1,0,0:0:0:0:
332,231,90272,1,0,0:0:0:0:
331,229,90422,1,8,0:0:0:0:
329,236,90722,1,0,0:0:0:0:
310,232,91022,1,12,0:0:0:0:
256,224,91322,1,0,0:0:0:0:
256,224,91472,1,0,0:0:0:0:
256,224,91622,1,8,0:0:0:0:
256,224,91772,1,0,0:0:0:0:
256,224,91922,1,8,0:0:0:0:
256,224,92072,1,8,0:0:0:0:
256,224,92222,1,0,0:0:0:0:
256,224,92372,1,8,0:0:0:0:
256,224,92522,1,0,0:0:0:0:
260,229,92672,1,8,0:0:0:0:
255,218,92822,1,8,0:0:0:0:
260,229,92972,1,0,0:0:0:0:
253,232,93122,1,8,0:0:0:0:
246,235,93272,1,8,0:0:0:0:
239,238,93422,1,8,0:0:0:0:
232,236,93572,1,8,0:0:0:0:
238,237,93722,1,4,0:0:0:0:
243,228,94322,1,12,0:0:0:0:
254,220,94622,1,0,0:0:0:0:
260,220,94772,1,8,0:0:0:0:
272,224,95072,1,8,0:0:0:0:
278,227,95222,1,0,0:0:0:0:
288,231,95522,1,12,0:0:0:0:
278,225,95822,1,8,0:0:0:0:
280,226,95897,1,8,0:0:0:0:
278,227,95972,1,8,0:0:0:0:
284,225,96122,1,0,0:0:0:0:
288,231,96422,1,8,0:0:0:0:
285,224,96572,1,0,0:0:0:0:
291,222,96722,1,12,0:0:0:0:
297,220,97022,1,0,0:0:0:0:
303,220,97322,1,8,0:0:0:0:
306,219,97472,1,8,0:0:0:0:
302,217,97622,1,0,0:0:0:0:
298,215,97772,1,0,0:0:0:0:
297,218,97922,1,12,0:0:0:0:
303,219,98222,1,8,0:0:0:0:
307,219,98297,1,8,0:0:0:0:
306,219,98372,1,8,0:0:0:0:
308,220,98522,1,0,0:0:0:0:
300,220,98822,1,0,0:0:0:0:
306,219,98972,1,0,0:0:0:0:
309,217,99122,1,12,0:0:0:0:
309,217,99422,1,8,0:0:0:0:
312,218,99572,1,8,0:0:0:0:
315,217,99722,1,0,0:0:0:0:
307,214,100022,1,12,0:0:0:0:
302,217,100322,1,12,0:0:0:0:
293,216,100622,1,8,0:0:0:0:
303,214,100772,1,8,0:0:0:0:
307,214,100922,1,0,0:0:0:0:
302,217,101222,1,0,0:0:0:0:
303,214,101372,1,0,0:0:0:0:
303,214,101522,1,8,0:0:0:0:
303,214,101822,1,8,0:0:0:0:
307,214,101972,1,0,0:0:0:0:
307,214,102047,1,0,0:0:0:0:
302,217,102122,1,0,0:0:0:0:
303,214,102272,1,0,0:0:0:0:
303,214,102422,1,8,0:0:0:0:
303,214,102722,1,8,0:0:0:0:
307,214,102872,1,0,0:0:0:0:
307,214,103022,1,8,0:0:0:0:
307,214,103172,1,0,0:0:0:0:
302,217,103322,1,0,0:0:0:0:
302,217,103622,1,8,0:0:0:0:
302,217,103772,1,0,0:0:0:0:
289,209,103922,1,8,0:0:0:0:
302,217,103997,1,8,0:0:0:0:
236,190,104072,1,8,0:0:0:0:
302,217,104222,1,8,0:0:0:0:
302,217,104372,1,0,0:0:0:0:
255,196,104672,1,8,0:0:0:0:
250,191,104822,1,0,0:0:0:0:
255,196,104972,1,8,0:0:0:0:
236,190,105122,1,8,0:0:0:0:
255,196,105272,1,0,0:0:0:0:
255,196,105347,1,0,0:0:0:0:
255,196,105422,1,0,0:0:0:0:
255,196,105572,1,0,0:0:0:0:
307,214,105722,1,8,0:0:0:0:
302,217,106022,1,0,0:0:0:0:
303,214,106322,1,8,0:0:0:0:
303,214,106622,1,0,0:0:0:0:
303,214,106772,1,0,0:0:0:0:
302,217,106922,1,8,0:0:0:0:
303,214,107222,1,0,0:0:0:0:
303,214,107522,1,8,0:0:0:0:
307,214,107672,1,8,0:0:0:0:
303,214,107822,1,0,0:0:0:0:
303,214,107897,1,0,0:0:0:0:
302,217,107972,1,0,0:0:0:0:
302,217,108122,1,8,0:0:0:0:
302,217,108422,1,0,0:0:0:0:
289,209,108722,1,8,0:0:0:0:
307,214,108872,1,0,0:0:0:0:
302,217,109022,1,8,0:0:0:0:
302,217,109097,1,8,0:0:0:0:
302,217,109172,1,8,0:0:0:0:
255,196,109322,1,0,0:0:0:0:
250,191,109622,1,8,0:0:0:0:
252,193,109772,1,8,0:0:0:0:
236,190,109922,1,0,0:0:0:0:
255,196,110072,1,0,0:0:0:0:
255,196,110222,1,8,0:0:0:0:
236,190,110297,1,8,0:0:0:0:
255,196,110372,1,8,0:0:0:0:
255,196,110522,1,4,0:0:0:0:
269,180,110822,1,8,0:0:0:0:
264,182,110972,1,0,0:0:0:0:
285,166,111422,1,0,0:0:0:0:
264,182,111572,1,0,0:0:0:0:
285,166,111722,1,8,0:0:0:0:
238,165,112022,1,0,0:0:0:0:
261,175,112172,1,0,0:0:0:0:
261,175,112322,1,8,0:0:0:0:
261,175,112397,1,8,0:0:0:0:
261,175,112472,1,8,0:0:0:0:
261,175,112622,1,0,0:0:0:0:
261,175,112922,1,0,0:0:0:0:
238,165,113072,1,0,0:0:0:0:
238,165,113222,1,8,0:0:0:0:
238,165,113372,1,0,0:0:0:0:
210,151,113672,1,8,0:0:0:0:
210,151,113822,1,0,0:0:0:0:
210,151,113972,1,0,0:0:0:0:
200,149,114122,1,8,0:0:0:0:
210,151,114422,1,0,0:0:0:0:
210,151,114572,1,0,0:0:0:0:
210,151,114722,1,8,0:0:0:0:
210,151,114872,1,0,0:0:0:0:
210,151,115022,1,8,0:0:0:0:
210,151,115097,1,8,0:0:0:0:
210,151,115172,1,8,0:0:0:0:
210,151,115322,1,0,0:0:0:0:
224,160,115622,1,8,0:0:0:0:
224,160,115772,1,0,0:0:0:0:
224,160,116072,1,0,0:0:0:0:
224,160,116222,1,8,0:0:0:0:
224,160,116372,1,8,0:0:0:0:
256,192,116522,1,0,0:0:0:0:
224,160,116822,1,8,0:0:0:0:
224,160,116972,1,0,0:0:0:0:
224,160,117122,1,8,0:0:0:0:
224,160,117272,1,8,0:0:0:0:
224,160,117422,1,0,0:0:0:0:
256,192,117722,1,0,0:0:0:0:
256,160,117872,1,0,0:0:0:0:
256,160,118022,1,8,0:0:0:0:
256,160,118172,1,0,0:0:0:0:
256,160,118247,1,0,0:0:0:0:
256,160,118322,1,0,0:0:0:0:
288,160,118472,1,8,0:0:0:0:
256,160,118622,1,0,0:0:0:0:
256,192,118772,1,0,0:0:0:0:
256,192,118922,1,8,0:0:0:0:
256,192,119222,1,8,0:0:0:0:
256,192,119372,1,0,0:0:0:0:
256,192,119447,1,0,0:0:0:0:
256,192,119522,1,0,0:0:0:0:
256,160,119672,1,0,0:0:0:0:
256,192,119822,1,8,0:0:0:0:
256,160,119897,1,8,0:0:0:0:
256,192,119972,1,8,0:0:0:0:
256,192,120122,1,0,0:0:0:0:
224,256,121322,1,0,0:0:0:0:
224,256,122522,1,0,0:0:0:0:
224,256,123722,1,0,0:0:0:0:
256,256,124622,1,0,0:0:0:0:
256,256,124772,1,0,0:0:0:0:
256,256,124922,1,0,0:0:0:0:
224,256,126122,1,0,0:0:0:0:
224,256,127322,1,0,0:0:0:0:
256,256,128522,1,0,0:0:0:0:
256,256,129272,1,0,0:0:0:0:
256,256,129422,1,0,0:0:0:0:
256,192,129722,12,0,131822,0:0:0:0:
