osu file format v14

[General]
AudioFilename: audio.mp3
AudioLeadIn: 0
PreviewTime: 11408
Countdown: 0
SampleSet: Normal
StackLeniency: 0.7
Mode: 1
LetterboxInBreaks: 0
WidescreenStoryboard: 0

[Editor]
DistanceSpacing: 1
BeatDivisor: 4
GridSize: 32
TimelineZoom: 2.2

[Metadata]
Title:kirby's dreamland 3 stage 1-4 remix
TitleUnicode:kirby's dreamland 3 stage 1-4 remix
Artist:kohu
ArtistUnicode:こふ
Creator:Erowdi
Version:wonderland oni
Source:星のカービィ3
Tags:meiqth instrumental video game vgm videogame electronic chiptune breakbeat bitpop 8-bit 8 bit 8bit hoshi no kirby kirby's kirbys dream land nintendo snes カービィ undead alice undeadalice slim-san slim_san slim san
BeatmapID:4297025
BeatmapSetID:2056351

[Difficulty]
HPDrainRate:8
CircleSize:5
OverallDifficulty:6.5
ApproachRate:5
SliderMultiplier:1.45
SliderTickRate:1

[Events]
//Background and Video events
0,0,"poyo.jpg",0,0
//Break Periods
//Storyboard Layer 0 (Background)
//Storyboard Layer 1 (Fail)
//Storyboard Layer 2 (Pass)
//Storyboard Layer 3 (Foreground)
//Storyboard Layer 4 (Overlay)
//Storyboard Sound Samples

[TimingPoints]
528,273.972602739726,4,1,0,80,1,0
528,-125,4,1,0,80,0,0
1620,-123.456790123457,4,1,0,80,0,0
1757,-121.951219512195,4,1,0,80,0,0
1894,-120.481927710843,4,1,0,80,0,0
2031,-119.047619047619,4,1,0,80,0,0
2100,-118.338084132331,4,1,0,80,0,0
2168,-117.647058823529,4,1,0,80,0,0
2305,-116.279069767442,4,1,0,80,0,0
2442,-100,4,1,0,80,0,0
2511,-102.583302134032,4,1,0,80,0,0
2579,-105.263157894737,4,1,0,80,0,0
2648,-108.129439621152,4,1,0,80,0,0
2716,-111.111111111111,4,1,0,80,0,0
2788,-116.279069767442,4,1,0,80,0,0
8605,-116.279069767442,4,1,0,80,0,0
8742,-113.314447592068,4,1,0,80,0,0
8879,-111.731843575419,4,1,0,80,0,0
9016,-110.192837465565,4,1,0,80,0,0
9153,-108.695652173913,4,1,0,80,0,0
9290,-100,4,1,0,80,0,0
9564,-95.9232613908873,4,1,0,80,0,0
9838,-92.1658986175115,4,1,0,80,0,0
9975,-90.3954802259887,4,1,0,80,0,0
10112,-88.6917960088692,4,1,0,80,0,0
10180,-87.8697987653331,4,1,0,80,0,0
10249,-87.0511425462459,4,1,0,80,0,0
10317,-86.2591394548989,4,1,0,80,0,0
10386,-85.4700854700855,4,1,0,80,0,0
10459,-76.9230769230769,4,1,0,80,0,0
11418,-95.2380952380952,4,1,0,80,0,0
19290,-94.3396226415094,4,1,0,80,0,0
19358,-93.6644916859608,4,1,0,80,0,0
19427,-92.9892383241041,4,1,0,80,0,0
19495,-92.3332295881315,4,1,0,80,0,0
19564,-91.6769674495262,4,1,0,80,0,0
19632,-91.0392798690671,4,1,0,80,0,0
19701,-90.401218892839,4,1,0,80,0,0
19769,-89.7810955311208,4,1,0,80,0,0
19838,-89.160488879984,4,1,0,80,0,0
19906,-88.5572139303483,4,1,0,80,0,0
19975,-87.9533550746121,4,1,0,80,0,0
20043,-87.3662511043487,4,1,0,80,0,0
20112,-86.7784711388456,4,1,0,80,0,0
20180,-86.2068965517241,4,1,0,80,0,0
20236,-85.8369835510588,4,1,0,80,0,0
20254,-85.8369835510588,4,1,0,100,0,1
25865,-86.9565217391304,4,1,0,100,0,1
25933,-87.4960083937777,4,1,0,100,0,1
26002,-88.0503144654088,4,1,0,100,0,1
26139,-89.171974522293,4,1,0,100,0,1
26207,-89.7393908201937,4,1,0,100,0,1
26276,-90.3225806451613,4,1,0,100,0,1
26344,-90.9047822171667,4,1,0,100,0,1
26413,-91.5032679738562,4,1,0,100,0,1
26481,-92.1008403361345,4,1,0,100,0,1
26550,-92.7152317880795,4,1,0,100,0,1
26687,-93.9597315436242,4,1,0,100,0,1
26824,-95.2380952380952,4,1,0,100,0,1
26961,-94.3396226415094,4,1,0,100,0,1
27029,-93.7833718202645,4,1,0,100,0,1
27098,-93.2256059664388,4,1,0,100,0,1
27166,-92.6823768181306,4,1,0,100,0,1
27235,-92.1375921375921,4,1,0,100,0,1
27303,-91.606932705681,4,1,0,100,0,1
27372,-91.0746812386157,4,1,0,100,0,1
27440,-90.5561602425407,4,1,0,100,0,1
27509,-90.0360144057623,4,1,0,100,0,1
27577,-89.5292200719719,4,1,0,100,0,1
27646,-89.0207715133531,4,1,0,100,0,1
27714,-88.5253104847568,4,1,0,100,0,1
27783,-88.0281690140845,4,1,0,100,0,1
27851,-87.5436653318565,4,1,0,100,0,1
27920,-87.0574579222287,4,1,0,100,0,1
27988,-86.5835520744239,4,1,0,100,0,1
28057,-86.1079219288174,4,1,0,100,0,1
28125,-85.6442699607412,4,1,0,100,0,1
28194,-85.1788756388416,4,1,0,100,0,1
28262,-84.7251483205455,4,1,0,100,0,1
28331,-84.2696629213483,4,1,0,100,0,1
28399,-83.8255449680198,4,1,0,100,0,1
28468,-83.3796553640912,4,1,0,100,0,1
28536,-82.944844705455,4,1,0,100,0,1
28605,-82.5082508250825,4,1,0,100,0,1
28673,-82.0824579202582,4,1,0,100,0,1
28742,-81.6548720740337,4,1,0,100,0,1
28810,-81.2378192685829,4,1,0,100,0,1
28879,-80.8189655172414,4,1,0,100,0,1
28947,-80.4103864394046,4,1,0,100,0,1
29016,-80,4,1,0,100,0,1
29021,-80,4,1,0,80,0,0
29153,-80.6451612903226,4,1,0,80,0,0
29290,-81.3611864205399,4,1,0,80,0,0
29427,-82.090040214039,4,1,0,80,0,0
29701,-83.587638018088,4,1,0,80,0,0
29838,-84.3571164592969,4,1,0,80,0,0
29975,-85.14089362616,4,1,0,80,0,0
30112,-85.9393718125706,4,1,0,80,0,0
30249,-86.7529685466502,4,1,0,80,0,0
30523,-88.4272683516664,4,1,0,80,0,0
30659,-89.2825393815117,4,1,0,80,0,0
30796,-90.1609910826501,4,1,0,80,0,0
30933,-91.0569007410273,4,1,0,80,0,0
31002,-91.5149011651217,4,1,0,80,0,0
31070,-91.9707940073992,4,1,0,80,0,0
31139,-92.4380576042804,4,1,0,80,0,0
31207,-92.9032178492581,4,1,0,80,0,0
31344,-93.8547416424735,4,1,0,80,0,0
31618,-95.8174856575884,4,1,0,80,0,0
31755,-96.8299674769575,4,1,0,80,0,0
31892,-97.8640751471371,4,1,0,80,0,0
32029,-98.9205090154569,4,1,0,80,0,0
32166,-100,4,1,0,80,0,0
32303,-99.009900990099,4,1,0,80,0,0
32440,-98.4682713347921,4,1,0,80,0,0
32577,-97.9325353645267,4,1,0,80,0,0
32714,-97.4025974025974,4,1,0,80,0,0
32783,-97.1378601309352,4,1,0,80,0,0
32851,-96.8783638320775,4,1,0,80,0,0
32920,-96.6164647620242,4,1,0,80,0,0
32988,-96.3597430406852,4,1,0,80,0,0
33125,-95.8466453674121,4,1,0,80,0,0
33262,-95.3389830508474,4,1,0,80,0,0
33399,-94.8366701791359,4,1,0,80,0,0
33536,-94.3396226415094,4,1,0,80,0,0
33747,-92.5925925925926,4,1,0,80,0,0
33947,-80.6451612903226,4,1,0,80,0,0
34016,-81.4167706661913,4,1,0,80,0,0
34084,-82.1917808219178,4,1,0,80,0,0
34153,-82.9934170671621,4,1,0,80,0,0
34221,-83.7988826815643,4,1,0,80,0,0
34290,-84.63233325783,4,1,0,80,0,0
34358,-85.4700854700855,4,1,0,80,0,0
34427,-86.3372825812957,4,1,0,80,0,0
34495,-87.2093023255814,4,1,0,80,0,0
34564,-88.1123378711545,4,1,0,80,0,0
34632,-89.0207715133531,4,1,0,80,0,0
34701,-89.9619139342468,4,1,0,80,0,0
34769,-90.9090909090909,4,1,0,80,0,0
34838,-91.8908042122208,4,1,0,80,0,0
34906,-92.8792569659443,4,1,0,80,0,0
34975,-93.9042222628404,4,1,0,80,0,0
35043,-94.9367088607595,4,1,0,80,0,0
35112,-96.0078488168376,4,1,0,80,0,0
35180,-97.0873786407767,4,1,0,80,0,0
35249,-98.2078853046595,4,1,0,80,0,0
35317,-99.3377483443709,4,1,0,80,0,0
35454,-101.694915254237,4,1,0,80,0,0
35523,-102.92497245317,4,1,0,80,0,0
35591,-104.166666666667,4,1,0,80,0,0
36829,-104.180774479877,4,1,0,80,0,0
37096,-104.529616724739,4,1,0,80,0,0
37164,-104.710708007439,4,1,0,80,0,0
37233,-104.895104895105,4,1,0,80,0,0
37301,-105.077465868998,4,1,0,80,0,0
37370,-105.263157894737,4,1,0,80,0,0
37438,-105.44680196013,4,1,0,80,0,0
37507,-105.633802816901,4,1,0,80,0,0
37644,-106.007067137809,4,1,0,80,0,0
37781,-106.382978723404,4,1,0,80,0,0
38740,-103.092783505155,4,1,0,80,0,0
38808,-103.534272111243,4,1,0,80,0,0
38877,-103.986135181976,4,1,0,80,0,0
39014,-104.895104895105,4,1,0,80,0,0
39151,-105.820105820106,4,1,0,80,0,0
39288,-106.761565836299,4,1,0,80,0,0
39425,-107.719928186715,4,1,0,80,0,0
39562,-108.695652173913,4,1,0,80,0,0
39701,-88.495575221239,4,1,0,80,0,0
39769,-90.1790416008426,4,1,0,80,0,0
39838,-91.9540229885058,4,1,0,80,0,0
39906,-93.7729940621845,4,1,0,80,0,0
39975,-95.6937799043062,4,1,0,80,0,0
40043,-97.6653003029763,4,1,0,80,0,0
40112,-99.7506234413965,4,1,0,80,0,0
40180,-101.894721184061,4,1,0,80,0,0
40249,-104.166666666667,4,1,0,80,0,0
43262,-103.092783505155,4,1,0,80,0,0
43399,-100.430416068867,4,1,0,80,0,0
43468,-99.1409165624257,4,1,0,80,0,0
43536,-97.9020979020979,4,1,0,80,0,0
43673,-95.4979536152797,4,1,0,80,0,0
43742,-94.3312709638708,4,1,0,80,0,0
43810,-93.2090545938748,4,1,0,80,0,0
43879,-92.0973023845422,4,1,0,80,0,0
43947,-91.0273081924577,4,1,0,80,0,0
44016,-89.9666963741264,4,1,0,80,0,0
44084,-88.9453621346887,4,1,0,80,0,0
44221,-86.9565217391304,4,1,0,80,0,0
44358,-86.2068965517241,4,1,0,80,0,0
44632,-88.339222614841,4,1,0,80,0,0
44769,-89.4454382826476,4,1,0,80,0,0
45043,-91.7431192660551,4,1,0,80,0,0
45180,-92.9368029739777,4,1,0,80,0,0
45317,-94.1619585687382,4,1,0,80,0,0
45454,-95.4198473282443,4,1,0,80,0,0
45591,-96.7117988394584,4,1,0,80,0,0
45728,-98.0392156862745,4,1,0,80,0,0
45865,-95.2380952380952,4,1,0,80,0,0
45933,-93.4706965954834,4,1,0,80,0,0
46002,-91.743119266055,4,1,0,80,0,0
46139,-88.495575221239,4,1,0,80,0,0
46276,-85.4700854700855,4,1,0,80,0,0
46413,-82.6446280991736,4,1,0,80,0,0
46486,-64.9350649350649,4,1,0,80,0,0

[HitObjects]
256,192,528,5,8,0:0:0:0:
256,192,664,1,0,0:0:0:0:
256,192,938,1,0,0:0:0:0:
256,192,1075,1,8,0:0:0:0:
256,192,1349,1,0,0:0:0:0:
256,192,1486,1,0,0:0:0:0:
256,192,1623,1,8,0:0:0:0:
256,192,1760,1,8,0:0:0:0:
256,192,1897,1,0,0:0:0:0:
256,192,2034,1,8,0:0:0:0:
256,192,2103,1,8,0:0:0:0:
256,192,2171,1,0,0:0:0:0:
256,192,2308,1,0,0:0:0:0:
256,192,2445,1,8,0:0:0:0:
256,192,2514,1,8,0:0:0:0:
256,192,2582,1,8,0:0:0:0:
256,192,2651,1,8,0:0:0:0:
256,192,2719,1,0,0:0:0:0:
256,192,2993,1,8,0:0:0:0:
256,192,3130,1,0,0:0:0:0:
256,192,3267,1,8,0:0:0:0:
256,192,3541,1,8,0:0:0:0:
256,192,3678,1,8,0:0:0:0:
256,192,3815,1,0,0:0:0:0:
256,192,4089,1,0,0:0:0:0:
256,192,4226,1,8,0:0:0:0:
256,192,4363,1,0,0:0:0:0:
256,192,4637,1,8,0:0:0:0:
256,192,4774,1,8,0:0:0:0:
256,192,4911,1,8,0:0:0:0:
256,192,5185,1,0,0:0:0:0:
256,192,5322,1,8,0:0:0:0:
256,192,5459,1,0,0:0:0:0:
256,192,5596,1,0,0:0:0:0:
256,192,5733,1,8,0:0:0:0:
256,192,5870,1,0,0:0:0:0:
256,192,6007,1,8,0:0:0:0:
256,192,6281,1,8,0:0:0:0:
256,192,6418,1,8,0:0:0:0:
256,192,6555,1,0,0:0:0:0:
256,192,6829,1,8,0:0:0:0:
256,192,6966,1,0,0:0:0:0:
256,192,7103,1,8,0:0:0:0:
256,192,7377,1,0,0:0:0:0:
256,192,7514,1,8,0:0:0:0:
256,192,7651,5,8,0:0:0:0:
256,192,7925,1,8,0:0:0:0:
256,192,8062,1,0,0:0:0:0:
256,192,8199,1,0,0:0:0:0:
256,192,8336,1,8,0:0:0:0:
256,192,8610,1,0,0:0:0:0:
256,192,8747,1,8,0:0:0:0:
256,192,8884,5,0,0:0:0:0:
256,192,9021,5,8,0:0:0:0:
256,192,9158,1,8,0:0:0:0:
256,192,9295,1,0,0:0:0:0:
256,192,9569,1,0,0:0:0:0:
256,192,9843,1,0,0:0:0:0:
256,192,9980,1,0,0:0:0:0:
256,192,10117,1,0,0:0:0:0:
256,192,10185,1,0,0:0:0:0:
256,192,10254,1,0,0:0:0:0:
256,192,10322,1,0,0:0:0:0:
256,192,10391,1,8,0:0:0:0:
256,192,10528,12,0,11349,0:0:0:0:
256,192,11486,5,8,0:0:0:0:
256,192,11623,1,0,0:0:0:0:
256,192,11692,1,8,0:0:0:0:
256,192,11760,1,8,0:0:0:0:
256,192,11897,1,0,0:0:0:0:
256,192,12034,1,8,0:0:0:0:
256,192,12171,1,0,0:0:0:0:
256,192,12240,1,0,0:0:0:0:
256,192,12308,1,8,0:0:0:0:
256,192,12445,1,0,0:0:0:0:
256,192,12582,1,8,0:0:0:0:
256,192,12651,1,0,0:0:0:0:
256,192,12719,1,8,0:0:0:0:
256,192,12856,1,8,0:0:0:0:
256,192,12993,1,0,0:0:0:0:
256,192,13062,1,8,0:0:0:0:
256,192,13130,1,0,0:0:0:0:
256,192,13199,1,0,0:0:0:0:
256,192,13267,1,8,0:0:0:0:
256,192,13336,1,8,0:0:0:0:
256,192,13404,1,0,0:0:0:0:
256,192,13541,1,8,0:0:0:0:
256,192,13678,1,0,0:0:0:0:
256,192,13747,1,0,0:0:0:0:
256,192,13815,1,8,0:0:0:0:
256,192,13952,1,0,0:0:0:0:
256,192,14089,1,8,0:0:0:0:
256,192,14158,1,8,0:0:0:0:
256,192,14226,1,0,0:0:0:0:
256,192,14295,1,0,0:0:0:0:
256,192,14363,1,8,0:0:0:0:
256,192,14500,1,8,0:0:0:0:
256,192,14637,1,0,0:0:0:0:
256,192,14774,1,8,0:0:0:0:
256,192,14843,1,0,0:0:0:0:
256,192,14911,1,0,0:0:0:0:
256,192,15048,1,8,0:0:0:0:
256,192,15185,1,8,0:0:0:0:
256,192,15254,1,0,0:0:0:0:
256,192,15322,1,8,0:0:0:0:
256,192,15391,1,8,0:0:0:0:
256,192,15459,1,0,0:0:0:0:
256,192,15528,1,0,0:0:0:0:
256,192,15596,1,8,0:0:0:0:
256,192,15733,1,0,0:0:0:0:
256,192,15801,1,0,0:0:0:0:
256,192,15870,1,8,0:0:0:0:
256,192,16007,1,0,0:0:0:0:
256,192,16075,1,0,0:0:0:0:
256,192,16144,1,0,0:0:0:0:
256,192,16281,1,8,0:0:0:0:
256,192,16418,1,0,0:0:0:0:
256,192,16486,1,0,0:0:0:0:
256,192,16555,1,8,0:0:0:0:
256,192,16692,1,8,0:0:0:0:
256,192,16829,1,0,0:0:0:0:
256,192,16897,1,8,0:0:0:0:
256,192,16966,1,8,0:0:0:0:
256,192,17103,1,0,0:0:0:0:
256,192,17171,1,0,0:0:0:0:
256,192,17240,1,8,0:0:0:0:
256,192,17308,1,8,0:0:0:0:
256,192,17377,1,0,0:0:0:0:
256,192,17514,1,8,0:0:0:0:
256,192,17582,1,8,0:0:0:0:
256,192,17651,1,0,0:0:0:0:
256,192,17719,1,0,0:0:0:0:
256,192,17788,1,8,0:0:0:0:
256,192,17833,1,0,0:0:0:0:
256,192,17879,1,0,0:0:0:0:
256,192,17925,1,8,0:0:0:0:
256,192,17993,1,0,0:0:0:0:
256,192,18062,1,8,0:0:0:0:
256,192,18199,1,8,0:0:0:0:
256,192,18336,1,0,0:0:0:0:
256,192,18473,1,8,0:0:0:0:
256,192,18541,1,8,0:0:0:0:
256,192,18610,1,8,0:0:0:0:
256,192,18747,1,0,0:0:0:0:
256,192,18792,1,0,0:0:0:0:
256,192,18838,1,0,0:0:0:0:
256,192,18884,1,8,0:0:0:0:
256,192,19021,1,0,0:0:0:0:
256,192,19158,1,8,0:0:0:0:
256,192,19295,1,0,0:0:0:0:
256,192,19363,1,0,0:0:0:0:
256,192,19432,1,8,0:0:0:0:
256,192,19500,1,0,0:0:0:0:
256,192,19569,1,8,0:0:0:0:
256,192,19637,1,8,0:0:0:0:
256,192,19706,1,0,0:0:0:0:
256,192,19774,1,0,0:0:0:0:
256,192,19843,1,8,0:0:0:0:
256,192,19911,1,8,0:0:0:0:
256,192,19980,1,0,0:0:0:0:
256,192,20048,1,0,0:0:0:0:
256,192,20117,1,8,0:0:0:0:
256,192,20185,1,0,0:0:0:0:
256,192,20254,1,8,0:0:0:0:
256,192,20391,1,0,0:0:0:0:
256,192,20459,1,0,0:0:0:0:
256,192,20528,1,8,0:0:0:0:
256,192,20664,1,0,0:0:0:0:
256,192,20801,1,8,0:0:0:0:
256,192,20870,1,0,0:0:0:0:
256,192,20938,1,0,0:0:0:0:
256,192,21007,1,0,0:0:0:0:
256,192,21075,1,8,0:0:0:0:
256,192,21212,1,0,0:0:0:0:
256,192,21281,1,8,0:0:0:0:
256,192,21349,1,8,0:0:0:0:
256,192,21486,1,8,0:0:0:0:
256,192,21623,1,0,0:0:0:0:
256,192,21692,1,0,0:0:0:0:
256,192,21760,1,8,0:0:0:0:
256,192,21829,1,8,0:0:0:0:
256,192,21897,1,0,0:0:0:0:
256,192,22034,1,8,0:0:0:0:
256,192,22103,1,0,0:0:0:0:
256,192,22171,1,8,0:0:0:0:
256,192,22308,1,0,0:0:0:0:
256,192,22377,1,0,0:0:0:0:
256,192,22445,1,8,0:0:0:0:
256,192,22514,1,0,0:0:0:0:
256,192,22582,1,8,0:0:0:0:
256,192,22651,1,8,0:0:0:0:
256,192,22719,1,0,0:0:0:0:
256,192,22856,1,0,0:0:0:0:
256,192,22993,1,8,0:0:0:0:
256,192,23062,1,8,0:0:0:0:
256,192,23130,1,0,0:0:0:0:
256,192,23199,1,0,0:0:0:0:
256,192,23267,1,8,0:0:0:0:
256,192,23404,1,8,0:0:0:0:
256,192,23473,1,0,0:0:0:0:
256,192,23541,1,8,0:0:0:0:
256,192,23678,1,0,0:0:0:0:
256,192,23815,1,8,0:0:0:0:
256,192,23952,1,8,0:0:0:0:
256,192,24021,1,0,0:0:0:0:
256,192,24089,1,8,0:0:0:0:
256,192,24158,1,8,0:0:0:0:
256,192,24226,1,0,0:0:0:0:
256,192,24295,1,0,0:0:0:0:
256,192,24363,1,8,0:0:0:0:
256,192,24500,1,0,0:0:0:0:
256,192,24569,1,8,0:0:0:0:
256,192,24637,1,0,0:0:0:0:
256,192,24706,1,0,0:0:0:0:
256,192,24774,1,8,0:0:0:0:
256,192,24911,1,0,0:0:0:0:
256,192,25048,1,8,0:0:0:0:
256,192,25185,1,0,0:0:0:0:
256,192,25254,1,0,0:0:0:0:
256,192,25322,1,8,0:0:0:0:
256,192,25391,1,8,0:0:0:0:
256,192,25459,1,0,0:0:0:0:
256,192,25596,1,8,0:0:0:0:
256,192,25733,1,8,0:0:0:0:
256,192,25870,1,0,0:0:0:0:
256,192,25938,1,0,0:0:0:0:
256,192,26007,1,8,0:0:0:0:
256,192,26144,1,0,0:0:0:0:
256,192,26212,1,0,0:0:0:0:
256,192,26281,1,8,0:0:0:0:
256,192,26349,1,8,0:0:0:0:
256,192,26418,1,8,0:0:0:0:
256,192,26486,1,8,0:0:0:0:
256,192,26555,1,0,0:0:0:0:
256,192,26692,1,8,0:0:0:0:
256,192,26829,1,0,0:0:0:0:
256,192,26966,1,8,0:0:0:0:
256,192,27034,1,0,0:0:0:0:
256,192,27103,1,8,0:0:0:0:
256,192,27171,1,8,0:0:0:0:
256,192,27240,1,0,0:0:0:0:
256,192,27308,1,0,0:0:0:0:
256,192,27377,1,8,0:0:0:0:
256,192,27445,1,8,0:0:0:0:
256,192,27514,1,0,0:0:0:0:
256,192,27582,1,0,0:0:0:0:
256,192,27651,1,8,0:0:0:0:
256,192,27719,1,0,0:0:0:0:
256,192,27788,1,0,0:0:0:0:
256,192,27856,1,0,0:0:0:0:
256,192,27925,1,8,0:0:0:0:
256,192,27993,1,8,0:0:0:0:
256,192,28062,1,8,0:0:0:0:
256,192,28130,1,8,0:0:0:0:
256,192,28199,1,0,0:0:0:0:
256,192,28267,1,0,0:0:0:0:
256,192,28336,1,8,0:0:0:0:
256,192,28404,1,8,0:0:0:0:
256,192,28473,1,0,0:0:0:0:
256,192,28541,1,0,0:0:0:0:
256,192,28610,1,8,0:0:0:0:
256,192,28678,1,0,0:0:0:0:
256,192,28747,1,8,0:0:0:0:
256,192,28815,1,8,0:0:0:0:
256,192,28884,1,8,0:0:0:0:
256,192,28952,1,8,0:0:0:0:
256,192,29021,1,0,0:0:0:0:
256,192,29158,1,8,0:0:0:0:
256,192,29295,1,8,0:0:0:0:
256,192,29432,1,0,0:0:0:0:
256,192,29706,1,8,0:0:0:0:
256,192,29843,1,0,0:0:0:0:
256,192,29980,1,0,0:0:0:0:
256,192,30117,1,8,0:0:0:0:
256,192,30254,1,0,0:0:0:0:
256,192,30528,1,8,0:0:0:0:
256,192,30664,1,8,0:0:0:0:
256,192,30801,1,0,0:0:0:0:
256,192,30938,1,8,0:0:0:0:
256,192,31007,1,8,0:0:0:0:
256,192,31075,1,0,0:0:0:0:
256,192,31144,1,0,0:0:0:0:
256,192,31212,1,8,0:0:0:0:
256,192,31349,1,0,0:0:0:0:
256,192,31623,1,8,0:0:0:0:
256,192,31760,1,8,0:0:0:0:
256,192,31897,1,0,0:0:0:0:
256,192,32034,1,8,0:0:0:0:
256,192,32171,1,8,0:0:0:0:
256,192,32308,1,0,0:0:0:0:
256,192,32445,1,8,0:0:0:0:
256,192,32582,1,0,0:0:0:0:
256,192,32719,1,0,0:0:0:0:
256,192,32788,1,0,0:0:0:0:
256,192,32856,1,8,0:0:0:0:
256,192,32925,1,0,0:0:0:0:
256,192,32993,1,8,0:0:0:0:
256,192,33130,1,0,0:0:0:0:
256,192,33267,1,8,0:0:0:0:
256,192,33404,1,0,0:0:0:0:
256,192,33541,1,8,0:0:0:0:
256,192,33815,1,0,0:0:0:0:
256,192,33952,1,8,0:0:0:0:
256,192,34021,1,0,0:0:0:0:
256,192,34089,1,8,0:0:0:0:
256,192,34158,1,8,0:0:0:0:
256,192,34226,1,0,0:0:0:0:
256,192,34295,1,0,0:0:0:0:
256,192,34363,1,0,0:0:0:0:
256,192,34432,1,0,0:0:0:0:
256,192,34500,1,8,0:0:0:0:
256,192,34569,1,8,0:0:0:0:
256,192,34637,1,0,0:0:0:0:
256,192,34706,1,0,0:0:0:0:
256,192,34774,1,8,0:0:0:0:
256,192,34843,1,8,0:0:0:0:
256,192,34911,1,0,0:0:0:0:
256,192,34980,1,0,0:0:0:0:
256,192,35048,1,8,0:0:0:0:
256,192,35117,1,0,0:0:0:0:
256,192,35185,1,0,0:0:0:0:
256,192,35254,1,0,0:0:0:0:
256,192,35322,1,8,0:0:0:0:
256,192,35459,1,0,0:0:0:0:
256,192,35528,1,0,0:0:0:0:
256,192,35596,1,8,0:0:0:0:
256,192,35870,1,8,0:0:0:0:
256,192,36007,1,0,0:0:0:0:
256,192,36144,1,8,0:0:0:0:
256,192,36281,1,8,0:0:0:0:
256,192,36418,1,0,0:0:0:0:
256,192,36555,1,8,0:0:0:0:
256,192,36692,1,0,0:0:0:0:
256,192,36966,1,8,0:0:0:0:
256,192,37103,1,0,0:0:0:0:
256,192,37171,1,0,0:0:0:0:
256,192,37240,1,8,0:0:0:0:
256,192,37308,1,8,0:0:0:0:
256,192,37377,1,8,0:0:0:0:
256,192,37445,1,8,0:0:0:0:
256,192,37514,1,0,0:0:0:0:
256,192,37651,1,0,0:0:0:0:
256,192,37788,1,8,0:0:0:0:
256,192,38062,1,8,0:0:0:0:
256,192,38199,1,0,0:0:0:0:
256,192,38336,1,0,0:0:0:0:
256,192,38473,1,0,0:0:0:0:
256,192,38610,1,8,0:0:0:0:
256,192,38747,1,0,0:0:0:0:
256,192,38815,1,0,0:0:0:0:
256,192,38884,1,8,0:0:0:0:
256,192,39021,1,0,0:0:0:0:
256,192,39158,1,8,0:0:0:0:
256,192,39295,1,0,0:0:0:0:
256,192,39432,1,8,0:0:0:0:
256,192,39569,1,0,0:0:0:0:
256,192,39706,1,8,0:0:0:0:
256,192,39774,1,8,0:0:0:0:
256,192,39843,1,8,0:0:0:0:
256,192,39911,1,8,0:0:0:0:
256,192,39980,1,0,0:0:0:0:
256,192,40048,1,8,0:0:0:0:
256,192,40117,1,0,0:0:0:0:
256,192,40185,1,0,0:0:0:0:
256,192,40254,1,8,0:0:0:0:
256,192,40528,1,8,0:0:0:0:
256,192,40664,1,0,0:0:0:0:
256,192,40801,1,8,0:0:0:0:
256,192,40938,1,8,0:0:0:0:
256,192,41075,1,0,0:0:0:0:
256,192,41212,1,8,0:0:0:0:
256,192,41349,1,0,0:0:0:0:
256,192,41486,1,8,0:0:0:0:
256,192,41555,1,0,0:0:0:0:
256,192,41623,1,8,0:0:0:0:
256,192,41692,1,8,0:0:0:0:
256,192,41760,1,0,0:0:0:0:
256,192,41829,1,0,0:0:0:0:
256,192,41897,1,8,0:0:0:0:
256,192,42034,1,0,0:0:0:0:
256,192,42171,1,8,0:0:0:0:
256,192,42445,1,8,0:0:0:0:
256,192,42582,1,0,0:0:0:0:
256,192,42719,1,8,0:0:0:0:
256,192,42856,1,8,0:0:0:0:
256,192,42993,1,0,0:0:0:0:
256,192,43130,1,0,0:0:0:0:
256,192,43267,1,8,0:0:0:0:
256,192,43404,1,0,0:0:0:0:
256,192,43473,1,0,0:0:0:0:
256,192,43541,1,8,0:0:0:0:
256,192,43678,1,0,0:0:0:0:
256,192,43747,1,8,0:0:0:0:
256,192,43815,1,0,0:0:0:0:
256,192,43884,1,0,0:0:0:0:
256,192,43952,1,8,0:0:0:0:
256,192,44021,1,8,0:0:0:0:
256,192,44089,1,0,0:0:0:0:
256,192,44226,1,0,0:0:0:0:
256,192,44363,1,8,0:0:0:0:
256,192,44637,1,8,0:0:0:0:
256,192,44774,1,0,0:0:0:0:
256,192,45048,5,8,0:0:0:0:
256,192,45185,1,0,0:0:0:0:
256,192,45322,1,0,0:0:0:0:
256,192,45459,1,8,0:0:0:0:
256,192,45596,1,0,0:0:0:0:
256,192,45733,1,8,0:0:0:0:
256,192,45870,1,0,0:0:0:0:
256,192,45938,1,0,0:0:0:0:
256,192,46007,5,8,0:0:0:0:
256,192,46144,1,8,0:0:0:0:
256,192,46281,1,8,0:0:0:0:
256,192,46418,1,8,0:0:0:0:
256,192,46555,5,4,0:0:0:0:
