osu file format v14

[General]
AudioFilename: audio.mp3
AudioLeadIn: 0
PreviewTime: 11408
Countdown: 0
SampleSet: Normal
StackLeniency: 0.7
Mode: 1
LetterboxInBreaks: 0
WidescreenStoryboard: 1

[Editor]
DistanceSpacing: 1
BeatDivisor: 4
GridSize: 32
TimelineZoom: 2.2

[Metadata]
Title:kirby's dreamland 3 stage 1-4 remix
TitleUnicode:kirby's dreamland 3 stage 1-4 remix
Artist:kohu
ArtistUnicode:こふ
Creator:Erowdi
Version:muzukashii
Source:星のカービィ3
Tags:meiqth instrumental video game vgm videogame electronic chiptune breakbeat bitpop 8-bit 8 bit 8bit hoshi no kirby kirby's kirbys dream land nintendo snes カービィ undead alice undeadalice slim-san slim_san slim san
BeatmapID:4297024
BeatmapSetID:2056351

[Difficulty]
HPDrainRate:9
CircleSize:5
OverallDifficulty:5
ApproachRate:5
SliderMultiplier:1.35
SliderTickRate:1

[Events]
//Background and Video events
0,0,"poyo.jpg",0,0
//Break Periods
//Storyboard Layer 0 (Background)
//Storyboard Layer 1 (Fail)
//Storyboard Layer 2 (Pass)
//Storyboard Layer 3 (Foreground)
//Storyboard Layer 4 (Overlay)
//Storyboard Sound Samples

[TimingPoints]
528,273.972602739726,4,1,0,80,1,0
528,-100,4,1,0,80,0,0
1620,-100,4,1,0,80,0,0
1757,-100,4,1,0,80,0,0
1894,-100,4,1,0,80,0,0
2031,-100,4,1,0,80,0,0
2100,-100,4,1,0,80,0,0
2168,-100,4,1,0,80,0,0
2305,-100,4,1,0,80,0,0
2442,-100,4,1,0,80,0,0
2511,-100,4,1,0,80,0,0
2579,-100,4,1,0,80,0,0
2648,-100,4,1,0,80,0,0
2716,-100,4,1,0,80,0,0
2788,-100,4,1,0,80,0,0
8605,-100,4,1,0,80,0,0
8742,-100,4,1,0,80,0,0
8879,-100,4,1,0,80,0,0
9016,-100,4,1,0,80,0,0
9153,-100,4,1,0,80,0,0
9290,-100,4,1,0,80,0,0
9564,-100,4,1,0,80,0,0
9838,-100,4,1,0,80,0,0
9975,-100,4,1,0,80,0,0
10112,-100,4,1,0,80,0,0
10180,-100,4,1,0,80,0,0
10249,-100,4,1,0,80,0,0
10317,-100,4,1,0,80,0,0
10386,-100,4,1,0,80,0,0
10459,-100,4,1,0,80,0,0
11418,-100,4,1,0,80,0,0
19226,-99.9987600153758,4,1,0,80,0,0
19356,-99.8348231636222,4,1,0,80,0,0
19425,-99.6677740863787,4,1,0,80,0,0
19562,-99.3377483443709,4,1,0,80,0,0
19699,-99.009900990099,4,1,0,80,0,0
19836,-98.6842105263158,4,1,0,80,0,0
19904,-98.523348355547,4,1,0,80,0,0
19973,-98.3606557377049,4,1,0,80,0,0
20110,-98.0392156862745,4,1,0,80,0,0
20254,-95.2380952380952,4,1,0,100,0,1
25865,-95.2380952380952,4,1,0,100,0,1
25933,-95.2380952380952,4,1,0,100,0,1
26002,-95.2380952380952,4,1,0,100,0,1
26139,-95.2380952380952,4,1,0,100,0,1
26207,-95.2380952380952,4,1,0,100,0,1
26276,-95.2380952380952,4,1,0,100,0,1
26344,-95.2380952380952,4,1,0,100,0,1
26413,-95.2380952380952,4,1,0,100,0,1
26481,-95.2380952380952,4,1,0,100,0,1
26550,-95.2380952380952,4,1,0,100,0,1
26687,-95.2380952380952,4,1,0,100,0,1
26824,-95.2380952380952,4,1,0,100,0,1
26961,-95.2380952380952,4,1,0,100,0,1
27029,-95.2380952380952,4,1,0,100,0,1
27098,-95.2380952380952,4,1,0,100,0,1
27166,-95.2380952380952,4,1,0,100,0,1
27235,-95.2380952380952,4,1,0,100,0,1
27303,-95.2380952380952,4,1,0,100,0,1
27372,-95.2380952380952,4,1,0,100,0,1
27440,-95.2380952380952,4,1,0,100,0,1
27509,-95.2380952380952,4,1,0,100,0,1
27577,-95.2380952380952,4,1,0,100,0,1
27646,-95.2380952380952,4,1,0,100,0,1
27714,-95.2380952380952,4,1,0,100,0,1
27783,-95.2380952380952,4,1,0,100,0,1
27851,-95.2380952380952,4,1,0,100,0,1
27920,-95.2380952380952,4,1,0,100,0,1
27988,-95.2380952380952,4,1,0,100,0,1
28057,-95.2380952380952,4,1,0,100,0,1
28125,-95.2380952380952,4,1,0,100,0,1
28194,-95.2380952380952,4,1,0,100,0,1
28262,-95.2380952380952,4,1,0,100,0,1
28331,-95.2380952380952,4,1,0,100,0,1
28399,-95.2380952380952,4,1,0,100,0,1
28468,-95.2380952380952,4,1,0,100,0,1
28536,-95.2380952380952,4,1,0,100,0,1
28605,-95.2380952380952,4,1,0,100,0,1
28673,-95.2380952380952,4,1,0,100,0,1
28742,-95.2380952380952,4,1,0,100,0,1
28810,-95.2380952380952,4,1,0,100,0,1
28879,-95.2380952380952,4,1,0,100,0,1
28947,-95.2380952380952,4,1,0,100,0,1
29016,-100,4,1,0,100,0,1
29021,-100,4,1,0,80,0,0
29153,-100,4,1,0,80,0,0
29290,-100,4,1,0,80,0,0
29427,-100,4,1,0,80,0,0
29701,-100,4,1,0,80,0,0
29838,-100,4,1,0,80,0,0
29975,-100,4,1,0,80,0,0
30112,-100,4,1,0,80,0,0
30249,-100,4,1,0,80,0,0
30523,-100,4,1,0,80,0,0
30659,-100,4,1,0,80,0,0
30796,-100,4,1,0,80,0,0
30933,-100,4,1,0,80,0,0
31002,-100,4,1,0,80,0,0
31070,-100,4,1,0,80,0,0
31139,-100,4,1,0,80,0,0
31207,-100,4,1,0,80,0,0
31344,-100,4,1,0,80,0,0
31618,-100,4,1,0,80,0,0
31755,-100,4,1,0,80,0,0
31892,-100,4,1,0,80,0,0
32029,-100,4,1,0,80,0,0
32166,-100,4,1,0,80,0,0
32303,-100,4,1,0,80,0,0
32440,-100,4,1,0,80,0,0
32577,-100,4,1,0,80,0,0
32714,-100,4,1,0,80,0,0
32783,-100,4,1,0,80,0,0
32851,-100,4,1,0,80,0,0
32920,-100,4,1,0,80,0,0
32988,-100,4,1,0,80,0,0
33125,-100,4,1,0,80,0,0
33262,-100,4,1,0,80,0,0
33399,-100,4,1,0,80,0,0
33536,-100,4,1,0,80,0,0
33747,-100,4,1,0,80,0,0
33947,-100,4,1,0,80,0,0
34016,-100,4,1,0,80,0,0
34084,-100,4,1,0,80,0,0
34153,-100,4,1,0,80,0,0
34221,-100,4,1,0,80,0,0
34290,-100,4,1,0,80,0,0
34358,-100,4,1,0,80,0,0
34427,-100,4,1,0,80,0,0
34495,-100,4,1,0,80,0,0
34564,-100,4,1,0,80,0,0
34632,-100,4,1,0,80,0,0
34701,-100,4,1,0,80,0,0
34769,-100,4,1,0,80,0,0
34838,-100,4,1,0,80,0,0
34906,-100,4,1,0,80,0,0
34975,-100,4,1,0,80,0,0
35043,-100,4,1,0,80,0,0
35112,-100,4,1,0,80,0,0
35180,-100,4,1,0,80,0,0
35249,-100,4,1,0,80,0,0
35317,-100,4,1,0,80,0,0
35454,-100,4,1,0,80,0,0
35523,-100,4,1,0,80,0,0
35591,-100,4,1,0,80,0,0
36961,-100,4,1,0,80,0,0
37098,-100,4,1,0,80,0,0
37166,-100,4,1,0,80,0,0
37235,-100,4,1,0,80,0,0
37303,-100,4,1,0,80,0,0
37372,-100,4,1,0,80,0,0
37440,-100,4,1,0,80,0,0
37509,-100,4,1,0,80,0,0
37646,-100,4,1,0,80,0,0
37783,-100,4,1,0,80,0,0
38742,-100,4,1,0,80,0,0
38810,-100,4,1,0,80,0,0
38879,-100,4,1,0,80,0,0
39016,-100,4,1,0,80,0,0
39153,-100,4,1,0,80,0,0
39290,-100,4,1,0,80,0,0
39427,-100,4,1,0,80,0,0
39564,-100,4,1,0,80,0,0
39701,-100,4,1,0,80,0,0
39769,-100,4,1,0,80,0,0
39838,-100,4,1,0,80,0,0
39906,-100,4,1,0,80,0,0
39975,-100,4,1,0,80,0,0
40043,-100,4,1,0,80,0,0
40112,-100,4,1,0,80,0,0
40180,-100,4,1,0,80,0,0
40249,-100,4,1,0,80,0,0
43262,-100,4,1,0,80,0,0
43399,-100,4,1,0,80,0,0
43468,-100,4,1,0,80,0,0
43536,-100,4,1,0,80,0,0
43673,-100,4,1,0,80,0,0
43742,-100,4,1,0,80,0,0
43810,-100,4,1,0,80,0,0
43879,-100,4,1,0,80,0,0
43947,-100,4,1,0,80,0,0
44016,-100,4,1,0,80,0,0
44084,-100,4,1,0,80,0,0
44221,-100,4,1,0,80,0,0
44358,-100,4,1,0,80,0,0
44632,-100,4,1,0,80,0,0
44769,-100,4,1,0,80,0,0
45043,-100,4,1,0,80,0,0
45180,-100,4,1,0,80,0,0
45317,-100,4,1,0,80,0,0
45454,-100,4,1,0,80,0,0
45591,-100,4,1,0,80,0,0
45728,-100,4,1,0,80,0,0
45865,-100,4,1,0,80,0,0
45933,-100,4,1,0,80,0,0
46002,-100,4,1,0,80,0,0
46139,-100,4,1,0,80,0,0
46276,-100,4,1,0,80,0,0
46413,-100,4,1,0,80,0,0
46486,-90.9090909090909,4,1,0,80,0,0

[HitObjects]
256,192,528,5,8,0:0:0:0:
256,192,1349,1,0,0:0:0:0:
256,192,1486,1,8,0:0:0:0:
256,192,1623,1,0,0:0:0:0:
256,192,1897,1,8,0:0:0:0:
256,192,2034,1,0,0:0:0:0:
256,192,2171,1,8,0:0:0:0:
256,192,2308,1,8,0:0:0:0:
256,192,2445,1,0,0:0:0:0:
256,192,2514,1,0,0:0:0:0:
256,192,2582,1,0,0:0:0:0:
256,192,2719,1,8,0:0:0:0:
256,192,2993,1,0,0:0:0:0:
256,192,3130,1,8,0:0:0:0:
256,192,3267,1,0,0:0:0:0:
256,192,3541,1,8,0:0:0:0:
256,192,3815,1,0,0:0:0:0:
256,192,4089,5,8,0:0:0:0:
256,192,4226,1,0,0:0:0:0:
256,192,4363,1,8,0:0:0:0:
256,192,4637,1,8,0:0:0:0:
256,192,4774,1,8,0:0:0:0:
256,192,4911,1,0,0:0:0:0:
256,192,5185,1,0,0:0:0:0:
256,192,5322,1,0,0:0:0:0:
256,192,5459,1,8,0:0:0:0:
256,192,5733,1,0,0:0:0:0:
256,192,6007,1,8,0:0:0:0:
256,192,6281,1,8,0:0:0:0:
256,192,6418,1,8,0:0:0:0:
256,192,6555,1,0,0:0:0:0:
256,192,6829,1,8,0:0:0:0:
256,192,7103,1,0,0:0:0:0:
256,192,7377,1,8,0:0:0:0:
256,192,7514,1,0,0:0:0:0:
256,192,7651,1,0,0:0:0:0:
256,192,7925,1,8,0:0:0:0:
256,192,8199,1,0,0:0:0:0:
256,192,8336,1,8,0:0:0:0:
256,192,8610,1,0,0:0:0:0:
256,192,8747,1,0,0:0:0:0:
256,192,8884,1,8,0:0:0:0:
256,192,9021,1,8,0:0:0:0:
256,192,9158,1,0,0:0:0:0:
256,192,9295,1,0,0:0:0:0:
256,192,9569,1,0,0:0:0:0:
256,192,9843,1,0,0:0:0:0:
256,192,9980,1,0,0:0:0:0:
256,192,10117,1,0,0:0:0:0:
256,192,10185,1,0,0:0:0:0:
256,192,10254,1,0,0:0:0:0:
256,192,10391,1,8,0:0:0:0:
256,192,11486,1,8,0:0:0:0:
256,192,11623,1,0,0:0:0:0:
256,192,11897,1,8,0:0:0:0:
256,192,12171,1,0,0:0:0:0:
256,192,12308,1,8,0:0:0:0:
256,192,12445,1,8,0:0:0:0:
256,192,12582,1,0,0:0:0:0:
256,192,12651,1,0,0:0:0:0:
256,192,12719,1,0,0:0:0:0:
256,192,12856,1,8,0:0:0:0:
256,192,12993,1,0,0:0:0:0:
256,192,13267,1,8,0:0:0:0:
256,192,13336,1,8,0:0:0:0:
256,192,13404,1,8,0:0:0:0:
256,192,13541,1,0,0:0:0:0:
256,192,13678,1,8,0:0:0:0:
256,192,13815,1,0,0:0:0:0:
256,192,14089,1,8,0:0:0:0:
256,192,14363,1,0,0:0:0:0:
256,192,14500,1,0,0:0:0:0:
256,192,14637,1,0,0:0:0:0:
256,192,14774,1,8,0:0:0:0:
256,192,14911,1,0,0:0:0:0:
256,192,15185,1,0,0:0:0:0:
256,192,15322,1,8,0:0:0:0:
256,192,15391,1,8,0:0:0:0:
256,192,15459,1,8,0:0:0:0:
256,192,15596,1,0,0:0:0:0:
256,192,15733,1,0,0:0:0:0:
256,192,15870,1,0,0:0:0:0:
256,192,16007,1,8,0:0:0:0:
256,192,16281,1,0,0:0:0:0:
256,192,16418,1,8,0:0:0:0:
256,192,16692,1,0,0:0:0:0:
256,192,16829,1,8,0:0:0:0:
256,192,17103,1,0,0:0:0:0:
256,192,17240,1,8,0:0:0:0:
256,192,17308,1,8,0:0:0:0:
256,192,17377,1,8,0:0:0:0:
256,192,17514,1,0,0:0:0:0:
256,192,17651,1,8,0:0:0:0:
256,192,17788,1,0,0:0:0:0:
256,192,17856,1,0,0:0:0:0:
256,192,17925,1,0,0:0:0:0:
256,192,18062,5,8,0:0:0:0:
256,192,18473,1,8,0:0:0:0:
256,192,18747,1,0,0:0:0:0:
256,192,18815,1,0,0:0:0:0:
256,192,18884,1,0,0:0:0:0:
256,192,19021,1,8,0:0:0:0:
256,192,19295,1,0,0:0:0:0:
256,192,19363,1,0,0:0:0:0:
256,192,19432,1,0,0:0:0:0:
256,192,19569,1,8,0:0:0:0:
256,192,19706,1,0,0:0:0:0:
256,192,19843,1,8,0:0:0:0:
256,192,19911,1,8,0:0:0:0:
256,192,19980,1,8,0:0:0:0:
256,192,20117,1,0,0:0:0:0:
256,192,20254,1,8,0:0:0:0:
256,192,20528,5,0,0:0:0:0:
256,192,20801,1,8,0:0:0:0:
256,192,20938,1,0,0:0:0:0:
256,192,21075,1,8,0:0:0:0:
256,192,21349,1,0,0:0:0:0:
256,192,21486,1,8,0:0:0:0:
256,192,21623,5,0,0:0:0:0:
256,192,21692,1,0,0:0:0:0:
256,192,21760,1,0,0:0:0:0:
256,192,21897,1,8,0:0:0:0:
256,192,22034,1,0,0:0:0:0:
256,192,22171,1,8,0:0:0:0:
256,192,22308,1,8,0:0:0:0:
256,192,22445,1,0,0:0:0:0:
256,192,22719,1,8,0:0:0:0:
256,192,22993,1,0,0:0:0:0:
256,192,23130,1,8,0:0:0:0:
256,192,23267,1,0,0:0:0:0:
256,192,23541,1,8,0:0:0:0:
256,192,23678,1,0,0:0:0:0:
256,192,23815,1,8,0:0:0:0:
256,192,23884,1,8,0:0:0:0:
256,192,23952,1,8,0:0:0:0:
256,192,24089,1,0,0:0:0:0:
256,192,24226,1,0,0:0:0:0:
256,192,24363,1,8,0:0:0:0:
256,192,24500,1,0,0:0:0:0:
256,192,24637,1,8,0:0:0:0:
256,192,24911,1,0,0:0:0:0:
256,192,25185,1,8,0:0:0:0:
256,192,25322,1,0,0:0:0:0:
256,192,25596,1,0,0:0:0:0:
256,192,25733,1,8,0:0:0:0:
256,192,25870,1,8,0:0:0:0:
256,192,26007,1,0,0:0:0:0:
256,192,26144,1,8,0:0:0:0:
256,192,26212,1,8,0:0:0:0:
256,192,26281,1,8,0:0:0:0:
256,192,26418,1,0,0:0:0:0:
256,192,26555,1,0,0:0:0:0:
256,192,26692,1,0,0:0:0:0:
256,192,26829,1,8,0:0:0:0:
256,192,27240,1,8,0:0:0:0:
256,192,27377,1,0,0:0:0:0:
256,192,27514,1,0,0:0:0:0:
256,192,27651,1,8,0:0:0:0:
256,192,27788,1,8,0:0:0:0:
256,192,27925,1,0,0:0:0:0:
256,192,27993,1,0,0:0:0:0:
256,192,28062,1,0,0:0:0:0:
256,192,28336,1,8,0:0:0:0:
256,192,28473,1,0,0:0:0:0:
256,192,28747,1,8,0:0:0:0:
256,192,29021,1,0,0:0:0:0:
256,192,29432,1,0,0:0:0:0:
256,192,29706,1,8,0:0:0:0:
256,192,29843,1,0,0:0:0:0:
256,192,29980,1,0,0:0:0:0:
256,192,30117,1,8,0:0:0:0:
256,192,30254,1,0,0:0:0:0:
256,192,30528,1,8,0:0:0:0:
256,192,30801,1,0,0:0:0:0:
256,192,30938,1,8,0:0:0:0:
256,192,31075,5,0,0:0:0:0:
256,192,31212,1,8,0:0:0:0:
256,192,31349,1,0,0:0:0:0:
256,192,31623,1,8,0:0:0:0:
256,192,31897,1,8,0:0:0:0:
256,192,32034,1,8,0:0:0:0:
256,192,32171,1,8,0:0:0:0:
256,192,32308,1,8,0:0:0:0:
256,192,32445,1,0,0:0:0:0:
256,192,32719,1,8,0:0:0:0:
256,192,32993,1,0,0:0:0:0:
256,192,33130,1,8,0:0:0:0:
256,192,33267,1,0,0:0:0:0:
256,192,33404,1,8,0:0:0:0:
256,192,33541,1,8,0:0:0:0:
256,192,33815,1,8,0:0:0:0:
256,192,34226,1,0,0:0:0:0:
256,192,34363,1,0,0:0:0:0:
256,192,34500,1,8,0:0:0:0:
256,192,34774,1,0,0:0:0:0:
256,192,34911,1,8,0:0:0:0:
256,192,35048,1,0,0:0:0:0:
256,192,35117,1,0,0:0:0:0:
256,192,35185,1,0,0:0:0:0:
256,192,35322,1,8,0:0:0:0:
256,192,35459,1,0,0:0:0:0:
256,192,35596,1,8,0:0:0:0:
256,192,35870,1,8,0:0:0:0:
256,192,36144,1,0,0:0:0:0:
256,192,36281,1,0,0:0:0:0:
256,192,36418,1,8,0:0:0:0:
256,192,36555,1,0,0:0:0:0:
256,192,36692,1,0,0:0:0:0:
256,192,36966,1,8,0:0:0:0:
256,192,37103,1,0,0:0:0:0:
256,192,37171,1,0,0:0:0:0:
256,192,37240,1,0,0:0:0:0:
256,192,37377,1,0,0:0:0:0:
256,192,37514,1,8,0:0:0:0:
256,192,37651,1,0,0:0:0:0:
256,192,37788,1,8,0:0:0:0:
256,192,38062,1,0,0:0:0:0:
256,192,38199,1,8,0:0:0:0:
256,192,38473,1,0,0:0:0:0:
256,192,38610,1,0,0:0:0:0:
256,192,38884,1,8,0:0:0:0:
256,192,39158,1,8,0:0:0:0:
256,192,39432,1,8,0:0:0:0:
256,192,39706,1,0,0:0:0:0:
256,192,39843,1,0,0:0:0:0:
256,192,39980,1,8,0:0:0:0:
256,192,40048,1,8,0:0:0:0:
256,192,40117,1,8,0:0:0:0:
256,192,40254,1,0,0:0:0:0:
256,192,40528,1,8,0:0:0:0:
256,192,40664,1,0,0:0:0:0:
256,192,40801,1,8,0:0:0:0:
256,192,41075,1,0,0:0:0:0:
256,192,41349,1,8,0:0:0:0:
256,192,41486,1,0,0:0:0:0:
256,192,41555,1,0,0:0:0:0:
256,192,41623,1,0,0:0:0:0:
256,192,41760,1,8,0:0:0:0:
256,192,41897,1,8,0:0:0:0:
256,192,42034,1,0,0:0:0:0:
256,192,42171,1,8,0:0:0:0:
256,192,42445,1,0,0:0:0:0:
256,192,42719,1,8,0:0:0:0:
256,192,42993,1,8,0:0:0:0:
256,192,43130,1,0,0:0:0:0:
256,192,43267,1,8,0:0:0:0:
256,192,43541,1,0,0:0:0:0:
256,192,43678,1,8,0:0:0:0:
256,192,43747,1,8,0:0:0:0:
256,192,43815,1,8,0:0:0:0:
256,192,43952,1,0,0:0:0:0:
256,192,44089,1,8,0:0:0:0:
256,192,44226,1,8,0:0:0:0:
256,192,44363,5,0,0:0:0:0:
256,192,44637,1,0,0:0:0:0:
256,192,44774,1,8,0:0:0:0:
256,192,44911,1,8,0:0:0:0:
256,192,45185,1,8,0:0:0:0:
256,192,45322,1,0,0:0:0:0:
256,192,45459,5,8,0:0:0:0:
256,192,45596,1,0,0:0:0:0:
256,192,45870,1,0,0:0:0:0:
256,192,46007,5,8,0:0:0:0:
256,192,46144,1,8,0:0:0:0:
256,192,46281,5,8,0:0:0:0:
256,192,46418,1,8,0:0:0:0:
256,192,46555,1,4,0:0:0:0:
