osu file format v14

[General]
AudioFilename: audio.mp3
AudioLeadIn: 0
PreviewTime: 11408
Countdown: 0
SampleSet: Normal
StackLeniency: 0.7
Mode: 1
LetterboxInBreaks: 0
WidescreenStoryboard: 1

[Editor]
DistanceSpacing: 1
BeatDivisor: 4
GridSize: 32
TimelineZoom: 1.65

[Metadata]
Title:kirby's dreamland 3 stage 1-4 remix
TitleUnicode:kirby's dreamland 3 stage 1-4 remix
Artist:kohu
ArtistUnicode:こふ
Creator:Erowdi
Version:meiqth's kantan
Source:星のカービィ3
Tags:meiqth instrumental video game vgm videogame electronic chiptune breakbeat bitpop 8-bit 8 bit 8bit hoshi no kirby kirby's kirbys dream land nintendo snes カービィ undead alice undeadalice slim-san slim_san slim san
BeatmapID:4297023
BeatmapSetID:2056351

[Difficulty]
HPDrainRate:10
CircleSize:5
OverallDifficulty:3
ApproachRate:5
SliderMultiplier:1.25
SliderTickRate:1

[Events]
//Background and Video events
0,0,"poyo.jpg",0,0
//Break Periods
//Storyboard Layer 0 (Background)
//Storyboard Layer 1 (Fail)
//Storyboard Layer 2 (Pass)
//Storyboard Layer 3 (Foreground)
//Storyboard Layer 4 (Overlay)
//Storyboard Sound Samples

[TimingPoints]
528,273.972602739726,4,1,0,70,1,0
20254,-100,4,1,0,80,0,1
29021,-100,4,1,0,70,0,0

[HitObjects]
256,192,2719,5,8,0:0:0:0:
256,192,3130,1,8,0:0:0:0:
256,192,3541,1,8,0:0:0:0:
256,192,3815,1,0,0:0:0:0:
256,192,4226,1,8,0:0:0:0:
256,192,4637,1,8,0:0:0:0:
256,192,4911,1,0,0:0:0:0:
256,192,5459,1,8,0:0:0:0:
256,192,6007,1,0,0:0:0:0:
256,192,7103,1,0,0:0:0:0:
256,192,7514,1,0,0:0:0:0:
256,192,7925,1,8,0:0:0:0:
256,192,8199,1,0,0:0:0:0:
256,192,8610,1,8,0:0:0:0:
256,192,9021,1,8,0:0:0:0:
256,192,9295,1,0,0:0:0:0:
256,192,9843,1,8,0:0:0:0:
256,192,10391,1,4,0:0:0:0:
256,192,11486,1,12,0:0:0:0:
256,192,11897,1,0,0:0:0:0:
256,192,12308,1,0,0:0:0:0:
256,192,12582,1,8,0:0:0:0:
256,192,13130,1,0,0:0:0:0:
256,192,13404,1,8,0:0:0:0:
256,192,13678,1,0,0:0:0:0:
256,192,14089,1,8,0:0:0:0:
256,192,14500,1,8,0:0:0:0:
256,192,14774,1,0,0:0:0:0:
256,192,15322,1,8,0:0:0:0:
256,192,15596,1,0,0:0:0:0:
256,192,15870,1,8,0:0:0:0:
256,192,16418,1,8,0:0:0:0:
256,192,16829,1,8,0:0:0:0:
256,192,17240,1,8,0:0:0:0:
256,192,17788,1,0,0:0:0:0:
256,192,18062,1,0,0:0:0:0:
256,192,18473,1,8,0:0:0:0:
256,192,18884,1,0,0:0:0:0:
256,192,19158,1,8,0:0:0:0:
256,192,19706,1,8,0:0:0:0:
256,192,20254,1,4,0:0:0:0:
256,192,20664,1,8,0:0:0:0:
256,192,21623,1,8,0:0:0:0:
256,192,21897,1,8,0:0:0:0:
256,192,22171,1,0,0:0:0:0:
256,192,22445,1,8,0:0:0:0:
256,192,22856,1,0,0:0:0:0:
256,192,23815,1,0,0:0:0:0:
256,192,24089,1,8,0:0:0:0:
256,192,24363,1,0,0:0:0:0:
256,192,24637,1,8,0:0:0:0:
256,192,25185,1,0,0:0:0:0:
256,192,26007,1,8,0:0:0:0:
256,192,26281,1,0,0:0:0:0:
256,192,26555,1,0,0:0:0:0:
256,192,26829,1,8,0:0:0:0:
256,192,27377,1,0,0:0:0:0:
256,192,27925,1,8,0:0:0:0:
256,192,29021,1,4,0:0:0:0:
256,192,29432,1,0,0:0:0:0:
256,192,29843,1,0,0:0:0:0:
256,192,30117,1,8,0:0:0:0:
256,192,30528,1,8,0:0:0:0:
256,192,30938,1,8,0:0:0:0:
256,192,31212,1,0,0:0:0:0:
256,192,31623,1,8,0:0:0:0:
256,192,32034,1,8,0:0:0:0:
256,192,32308,1,0,0:0:0:0:
256,192,32719,1,0,0:0:0:0:
256,192,33130,1,0,0:0:0:0:
256,192,33404,1,8,0:0:0:0:
256,192,33815,1,8,0:0:0:0:
256,192,34500,1,0,0:0:0:0:
256,192,35048,1,8,0:0:0:0:
256,192,35596,1,0,0:0:0:0:
256,192,36418,1,8,0:0:0:0:
256,192,36692,1,0,0:0:0:0:
256,192,37240,1,8,0:0:0:0:
256,192,37788,1,0,0:0:0:0:
256,192,38884,1,8,0:0:0:0:
256,192,39706,1,8,0:0:0:0:
256,192,39980,1,0,0:0:0:0:
256,192,40254,1,8,0:0:0:0:
256,192,40801,1,8,0:0:0:0:
256,192,41075,1,0,0:0:0:0:
256,192,41486,1,0,0:0:0:0:
256,192,41897,1,8,0:0:0:0:
256,192,42171,1,0,0:0:0:0:
256,192,43267,1,8,0:0:0:0:
256,192,44363,1,0,0:0:0:0:
256,192,44774,1,0,0:0:0:0:
256,192,45185,1,0,0:0:0:0:
256,192,45459,1,8,0:0:0:0:
256,192,46007,1,8,0:0:0:0:
256,192,46281,1,8,0:0:0:0:
256,192,46555,1,4,0:0:0:0:
