osu file format v14

[General]
AudioFilename: audio.mp3
AudioLeadIn: 0
PreviewTime: 11408
Countdown: 0
SampleSet: Normal
StackLeniency: 0.7
Mode: 1
LetterboxInBreaks: 0
WidescreenStoryboard: 1

[Editor]
DistanceSpacing: 1
BeatDivisor: 4
GridSize: 32
TimelineZoom: 2.2

[Metadata]
Title:kirby's dreamland 3 stage 1-4 remix
TitleUnicode:kirby's dreamland 3 stage 1-4 remix
Artist:kohu
ArtistUnicode:こふ
Creator:Erowdi
Version:futsuu
Source:星のカービィ3
Tags:meiqth instrumental video game vgm videogame electronic chiptune breakbeat bitpop 8-bit 8 bit 8bit hoshi no kirby kirby's kirbys dream land nintendo snes カービィ undead alice undeadalice slim-san slim_san slim san
BeatmapID:4297022
BeatmapSetID:2056351

[Difficulty]
HPDrainRate:9.5
CircleSize:5
OverallDifficulty:4
ApproachRate:5
SliderMultiplier:1.3
SliderTickRate:1

[Events]
//Background and Video events
0,0,"poyo.jpg",0,0
//Break Periods
//Storyboard Layer 0 (Background)
//Storyboard Layer 1 (Fail)
//Storyboard Layer 2 (Pass)
//Storyboard Layer 3 (Foreground)
//Storyboard Layer 4 (Overlay)
//Storyboard Sound Samples

[TimingPoints]
528,273.972602739726,4,1,0,80,1,0
528,-102.040816326531,4,1,0,80,0,0
1620,-102.040816326531,4,1,0,80,0,0
1757,-102.040816326531,4,1,0,80,0,0
1894,-102.040816326531,4,1,0,80,0,0
2031,-102.040816326531,4,1,0,80,0,0
2100,-102.040816326531,4,1,0,80,0,0
2168,-102.040816326531,4,1,0,80,0,0
2305,-102.040816326531,4,1,0,80,0,0
2442,-102.040816326531,4,1,0,80,0,0
2511,-102.040816326531,4,1,0,80,0,0
2579,-102.040816326531,4,1,0,80,0,0
2648,-102.040816326531,4,1,0,80,0,0
2716,-102.040816326531,4,1,0,80,0,0
2788,-102.040816326531,4,1,0,80,0,0
8605,-102.040816326531,4,1,0,80,0,0
8742,-102.040816326531,4,1,0,80,0,0
8879,-102.040816326531,4,1,0,80,0,0
9016,-102.040816326531,4,1,0,80,0,0
9153,-102.040816326531,4,1,0,80,0,0
9290,-102.040816326531,4,1,0,80,0,0
9564,-102.040816326531,4,1,0,80,0,0
9838,-102.040816326531,4,1,0,80,0,0
9975,-102.040816326531,4,1,0,80,0,0
10112,-102.040816326531,4,1,0,80,0,0
10180,-102.040816326531,4,1,0,80,0,0
10249,-102.040816326531,4,1,0,80,0,0
10317,-102.040816326531,4,1,0,80,0,0
10386,-102.040816326531,4,1,0,80,0,0
10459,-102.040816326531,4,1,0,80,0,0
11418,-102.040816326531,4,1,0,80,0,0
19290,-102.040816326531,4,1,0,80,0,0
19358,-102.040816326531,4,1,0,80,0,0
19427,-102.040816326531,4,1,0,80,0,0
19495,-102.040816326531,4,1,0,80,0,0
19564,-102.040816326531,4,1,0,80,0,0
19632,-102.040816326531,4,1,0,80,0,0
19701,-101.010101010101,4,1,0,80,0,0
19769,-101.010101010101,4,1,0,80,0,0
19838,-100.502613570466,4,1,0,80,0,0
19906,-100.502613570466,4,1,0,80,0,0
19975,-100,4,1,0,80,0,0
20043,-100,4,1,0,80,0,0
20112,-99.009900990099,4,1,0,80,0,0
20180,-99.009900990099,4,1,0,80,0,0
20236,-99.009900990099,4,1,0,80,0,0
20254,-97.0873786407767,4,1,0,100,0,1
25865,-97.0873786407767,4,1,0,100,0,1
25933,-97.0873786407767,4,1,0,100,0,1
26002,-97.0873786407767,4,1,0,100,0,1
26139,-97.0873786407767,4,1,0,100,0,1
26207,-97.0873786407767,4,1,0,100,0,1
26276,-97.0873786407767,4,1,0,100,0,1
26344,-97.0873786407767,4,1,0,100,0,1
26413,-97.0873786407767,4,1,0,100,0,1
26481,-97.0873786407767,4,1,0,100,0,1
26550,-97.0873786407767,4,1,0,100,0,1
26687,-97.0873786407767,4,1,0,100,0,1
26824,-97.0873786407767,4,1,0,100,0,1
26961,-97.0873786407767,4,1,0,100,0,1
27029,-97.0873786407767,4,1,0,100,0,1
27098,-97.0873786407767,4,1,0,100,0,1
27166,-97.0873786407767,4,1,0,100,0,1
27235,-97.0873786407767,4,1,0,100,0,1
27303,-97.0873786407767,4,1,0,100,0,1
27372,-97.0873786407767,4,1,0,100,0,1
27440,-97.0873786407767,4,1,0,100,0,1
27509,-97.0873786407767,4,1,0,100,0,1
27577,-97.0873786407767,4,1,0,100,0,1
27646,-97.0873786407767,4,1,0,100,0,1
27714,-97.0873786407767,4,1,0,100,0,1
27783,-97.0873786407767,4,1,0,100,0,1
27851,-97.0873786407767,4,1,0,100,0,1
27920,-97.0873786407767,4,1,0,100,0,1
27988,-97.0873786407767,4,1,0,100,0,1
28057,-97.0873786407767,4,1,0,100,0,1
28125,-97.0873786407767,4,1,0,100,0,1
28194,-97.0873786407767,4,1,0,100,0,1
28262,-97.0873786407767,4,1,0,100,0,1
28331,-97.0873786407767,4,1,0,100,0,1
28399,-97.0873786407767,4,1,0,100,0,1
28468,-97.0873786407767,4,1,0,100,0,1
28536,-97.0873786407767,4,1,0,100,0,1
28605,-97.0873786407767,4,1,0,100,0,1
28673,-97.0873786407767,4,1,0,100,0,1
28742,-97.0873786407767,4,1,0,100,0,1
28810,-97.0873786407767,4,1,0,100,0,1
28879,-97.0873786407767,4,1,0,100,0,1
28947,-97.0873786407767,4,1,0,100,0,1
29016,-97.0873786407767,4,1,0,100,0,1
29021,-102.040816326531,4,1,0,80,0,0
29153,-102.040816326531,4,1,0,80,0,0
29290,-102.040816326531,4,1,0,80,0,0
29427,-102.040816326531,4,1,0,80,0,0
29701,-102.040816326531,4,1,0,80,0,0
29838,-102.040816326531,4,1,0,80,0,0
29975,-102.040816326531,4,1,0,80,0,0
30112,-102.040816326531,4,1,0,80,0,0
30249,-102.040816326531,4,1,0,80,0,0
30523,-102.040816326531,4,1,0,80,0,0
30659,-102.040816326531,4,1,0,80,0,0
30796,-102.040816326531,4,1,0,80,0,0
30933,-102.040816326531,4,1,0,80,0,0
31002,-102.040816326531,4,1,0,80,0,0
31070,-102.040816326531,4,1,0,80,0,0
31139,-102.040816326531,4,1,0,80,0,0
31207,-102.040816326531,4,1,0,80,0,0
31344,-102.040816326531,4,1,0,80,0,0
31618,-102.040816326531,4,1,0,80,0,0
31755,-102.040816326531,4,1,0,80,0,0
31892,-102.040816326531,4,1,0,80,0,0
32029,-102.040816326531,4,1,0,80,0,0
32166,-102.040816326531,4,1,0,80,0,0
32303,-102.040816326531,4,1,0,80,0,0
32440,-102.040816326531,4,1,0,80,0,0
32577,-102.040816326531,4,1,0,80,0,0
32714,-102.040816326531,4,1,0,80,0,0
32783,-102.040816326531,4,1,0,80,0,0
32851,-102.040816326531,4,1,0,80,0,0
32920,-102.040816326531,4,1,0,80,0,0
32988,-102.040816326531,4,1,0,80,0,0
33125,-102.040816326531,4,1,0,80,0,0
33262,-102.040816326531,4,1,0,80,0,0
33399,-102.040816326531,4,1,0,80,0,0
33536,-102.040816326531,4,1,0,80,0,0
33747,-102.040816326531,4,1,0,80,0,0
33947,-102.040816326531,4,1,0,80,0,0
34016,-102.040816326531,4,1,0,80,0,0
34084,-102.040816326531,4,1,0,80,0,0
34153,-102.040816326531,4,1,0,80,0,0
34221,-102.040816326531,4,1,0,80,0,0
34290,-102.040816326531,4,1,0,80,0,0
34358,-102.040816326531,4,1,0,80,0,0
34427,-102.040816326531,4,1,0,80,0,0
34495,-102.040816326531,4,1,0,80,0,0
34564,-102.040816326531,4,1,0,80,0,0
34632,-102.040816326531,4,1,0,80,0,0
34701,-102.040816326531,4,1,0,80,0,0
34769,-102.040816326531,4,1,0,80,0,0
34838,-102.040816326531,4,1,0,80,0,0
34906,-102.040816326531,4,1,0,80,0,0
34975,-102.040816326531,4,1,0,80,0,0
35043,-102.040816326531,4,1,0,80,0,0
35112,-102.040816326531,4,1,0,80,0,0
35180,-102.040816326531,4,1,0,80,0,0
35249,-102.040816326531,4,1,0,80,0,0
35317,-102.040816326531,4,1,0,80,0,0
35454,-102.040816326531,4,1,0,80,0,0
35523,-102.040816326531,4,1,0,80,0,0
35591,-102.040816326531,4,1,0,80,0,0
36961,-102.040816326531,4,1,0,80,0,0
37098,-102.040816326531,4,1,0,80,0,0
37166,-102.040816326531,4,1,0,80,0,0
37235,-102.040816326531,4,1,0,80,0,0
37303,-102.040816326531,4,1,0,80,0,0
37372,-102.040816326531,4,1,0,80,0,0
37440,-102.040816326531,4,1,0,80,0,0
37509,-102.040816326531,4,1,0,80,0,0
37646,-102.040816326531,4,1,0,80,0,0
37783,-102.040816326531,4,1,0,80,0,0
38742,-102.040816326531,4,1,0,80,0,0
38810,-102.040816326531,4,1,0,80,0,0
38879,-102.040816326531,4,1,0,80,0,0
39016,-102.040816326531,4,1,0,80,0,0
39153,-102.040816326531,4,1,0,80,0,0
39290,-102.040816326531,4,1,0,80,0,0
39427,-102.040816326531,4,1,0,80,0,0
39564,-102.040816326531,4,1,0,80,0,0
39701,-102.040816326531,4,1,0,80,0,0
39769,-102.040816326531,4,1,0,80,0,0
39838,-102.040816326531,4,1,0,80,0,0
39906,-102.040816326531,4,1,0,80,0,0
39975,-102.040816326531,4,1,0,80,0,0
40043,-102.040816326531,4,1,0,80,0,0
40112,-102.040816326531,4,1,0,80,0,0
40180,-102.040816326531,4,1,0,80,0,0
40249,-102.040816326531,4,1,0,80,0,0
43262,-102.040816326531,4,1,0,80,0,0
43399,-102.040816326531,4,1,0,80,0,0
43468,-102.040816326531,4,1,0,80,0,0
43536,-102.040816326531,4,1,0,80,0,0
43673,-102.040816326531,4,1,0,80,0,0
43742,-102.040816326531,4,1,0,80,0,0
43810,-102.040816326531,4,1,0,80,0,0
43879,-102.040816326531,4,1,0,80,0,0
43947,-102.040816326531,4,1,0,80,0,0
44016,-102.040816326531,4,1,0,80,0,0
44084,-102.040816326531,4,1,0,80,0,0
44221,-102.040816326531,4,1,0,80,0,0
44358,-102.040816326531,4,1,0,80,0,0
44632,-102.040816326531,4,1,0,80,0,0
44769,-102.040816326531,4,1,0,80,0,0
45043,-102.040816326531,4,1,0,80,0,0
45180,-102.040816326531,4,1,0,80,0,0
45317,-102.040816326531,4,1,0,80,0,0
45454,-102.040816326531,4,1,0,80,0,0
45591,-102.040816326531,4,1,0,80,0,0
45728,-102.040816326531,4,1,0,80,0,0
45865,-101.522945708574,4,1,0,80,0,0
45933,-101.522945708574,4,1,0,80,0,0
46002,-102.040816326531,4,1,0,80,0,0
46139,-102.040816326531,4,1,0,80,0,0
46276,-102.040816326531,4,1,0,80,0,0
46413,-102.040816326531,4,1,0,80,0,0
46486,-97.0873786407767,4,1,0,80,0,0

[HitObjects]
256,192,528,5,8,0:0:0:0:
256,192,1349,1,0,0:0:0:0:
256,192,1486,1,8,0:0:0:0:
256,192,1623,1,0,0:0:0:0:
256,192,2171,1,8,0:0:0:0:
256,192,2445,1,0,0:0:0:0:
256,192,2582,1,0,0:0:0:0:
256,192,2719,1,8,0:0:0:0:
256,192,3130,1,0,0:0:0:0:
256,192,3267,1,8,0:0:0:0:
256,192,3541,1,8,0:0:0:0:
256,192,3815,1,0,0:0:0:0:
256,192,4226,1,8,0:0:0:0:
256,192,4363,1,0,0:0:0:0:
256,192,4637,1,0,0:0:0:0:
256,192,4774,1,0,0:0:0:0:
256,192,4911,1,8,0:0:0:0:
256,192,5322,1,8,0:0:0:0:
256,192,5459,1,8,0:0:0:0:
256,192,5733,1,0,0:0:0:0:
256,192,6007,1,8,0:0:0:0:
256,192,6418,1,0,0:0:0:0:
256,192,6555,1,0,0:0:0:0:
256,192,6829,1,8,0:0:0:0:
256,192,7103,1,8,0:0:0:0:
256,192,7514,1,0,0:0:0:0:
256,192,7651,1,8,0:0:0:0:
256,192,7925,1,0,0:0:0:0:
256,192,8199,1,8,0:0:0:0:
256,192,8336,1,8,0:0:0:0:
256,192,8610,1,0,0:0:0:0:
256,192,8884,1,0,0:0:0:0:
256,192,9021,1,8,0:0:0:0:
256,192,9295,1,0,0:0:0:0:
256,192,9569,1,0,0:0:0:0:
256,192,9843,1,0,0:0:0:0:
256,192,9980,1,0,0:0:0:0:
256,192,10117,1,0,0:0:0:0:
256,192,10254,1,0,0:0:0:0:
256,192,10391,1,8,0:0:0:0:
256,192,11486,1,0,0:0:0:0:
256,192,11623,1,8,0:0:0:0:
256,192,11897,1,0,0:0:0:0:
256,192,12171,1,8,0:0:0:0:
256,192,12308,1,0,0:0:0:0:
256,192,12582,1,8,0:0:0:0:
256,192,12856,5,0,0:0:0:0:
256,192,12993,1,8,0:0:0:0:
256,192,13267,1,8,0:0:0:0:
256,192,13404,1,0,0:0:0:0:
256,192,13678,1,8,0:0:0:0:
256,192,14089,1,0,0:0:0:0:
256,192,14363,1,8,0:0:0:0:
256,192,14500,1,8,0:0:0:0:
256,192,14774,1,8,0:0:0:0:
256,192,14911,1,0,0:0:0:0:
256,192,15185,1,0,0:0:0:0:
256,192,15870,1,0,0:0:0:0:
256,192,16007,1,8,0:0:0:0:
256,192,16281,1,0,0:0:0:0:
256,192,16418,1,8,0:0:0:0:
256,192,16692,1,0,0:0:0:0:
256,192,16829,1,8,0:0:0:0:
256,192,17103,1,8,0:0:0:0:
256,192,17240,1,8,0:0:0:0:
256,192,17514,1,8,0:0:0:0:
256,192,17651,1,0,0:0:0:0:
256,192,17788,1,8,0:0:0:0:
256,192,18062,1,0,0:0:0:0:
256,192,18473,1,8,0:0:0:0:
256,192,18884,1,0,0:0:0:0:
256,192,19021,1,0,0:0:0:0:
256,192,19295,5,0,0:0:0:0:
256,192,19432,1,8,0:0:0:0:
256,192,19706,1,0,0:0:0:0:
256,192,19843,1,0,0:0:0:0:
256,192,19980,1,8,0:0:0:0:
256,192,20117,1,0,0:0:0:0:
256,192,20254,1,8,0:0:0:0:
256,192,20528,1,0,0:0:0:0:
256,192,20801,1,8,0:0:0:0:
256,192,20938,1,0,0:0:0:0:
256,192,21075,1,8,0:0:0:0:
256,192,21486,1,0,0:0:0:0:
256,192,21623,1,8,0:0:0:0:
256,192,21897,5,0,0:0:0:0:
256,192,22171,1,8,0:0:0:0:
256,192,22308,1,0,0:0:0:0:
256,192,22445,1,8,0:0:0:0:
256,192,22719,1,0,0:0:0:0:
256,192,22993,1,8,0:0:0:0:
256,192,23130,1,0,0:0:0:0:
256,192,23267,1,0,0:0:0:0:
256,192,23678,1,8,0:0:0:0:
256,192,23815,1,0,0:0:0:0:
256,192,24089,1,8,0:0:0:0:
256,192,24363,1,0,0:0:0:0:
256,192,24500,1,8,0:0:0:0:
256,192,24637,1,0,0:0:0:0:
256,192,24911,1,8,0:0:0:0:
256,192,25185,1,0,0:0:0:0:
256,192,25322,1,8,0:0:0:0:
256,192,25596,1,8,0:0:0:0:
256,192,25870,1,0,0:0:0:0:
256,192,26007,1,0,0:0:0:0:
256,192,26281,1,8,0:0:0:0:
256,192,26829,1,0,0:0:0:0:
256,192,27240,1,0,0:0:0:0:
256,192,27377,1,8,0:0:0:0:
256,192,27651,1,0,0:0:0:0:
256,192,27925,1,8,0:0:0:0:
256,192,28062,1,8,0:0:0:0:
256,192,28336,1,0,0:0:0:0:
256,192,28473,1,8,0:0:0:0:
256,192,29021,1,0,0:0:0:0:
256,192,29432,1,0,0:0:0:0:
256,192,29706,1,8,0:0:0:0:
256,192,29843,1,0,0:0:0:0:
256,192,30117,1,8,0:0:0:0:
256,192,30528,1,8,0:0:0:0:
256,192,30801,1,0,0:0:0:0:
256,192,30938,1,8,0:0:0:0:
256,192,31212,1,0,0:0:0:0:
256,192,31623,1,8,0:0:0:0:
256,192,31897,1,0,0:0:0:0:
256,192,32034,1,0,0:0:0:0:
256,192,32308,1,8,0:0:0:0:
256,192,32719,1,0,0:0:0:0:
256,192,32993,1,8,0:0:0:0:
256,192,33130,1,8,0:0:0:0:
256,192,33267,1,0,0:0:0:0:
256,192,33404,1,8,0:0:0:0:
256,192,33952,1,8,0:0:0:0:
256,192,34226,1,0,0:0:0:0:
256,192,34500,1,8,0:0:0:0:
256,192,34637,1,8,0:0:0:0:
256,192,34774,1,0,0:0:0:0:
256,192,35048,1,8,0:0:0:0:
256,192,35322,1,0,0:0:0:0:
256,192,35459,1,0,0:0:0:0:
256,192,35596,1,8,0:0:0:0:
256,192,35870,1,8,0:0:0:0:
256,192,36144,1,0,0:0:0:0:
256,192,36418,1,8,0:0:0:0:
256,192,36555,1,0,0:0:0:0:
256,192,36692,1,0,0:0:0:0:
256,192,36966,1,8,0:0:0:0:
256,192,37240,1,0,0:0:0:0:
256,192,37788,1,8,0:0:0:0:
256,192,38062,1,0,0:0:0:0:
256,192,38199,1,0,0:0:0:0:
256,192,38473,1,0,0:0:0:0:
256,192,38610,1,8,0:0:0:0:
256,192,38884,1,0,0:0:0:0:
256,192,39706,1,8,0:0:0:0:
256,192,39843,1,8,0:0:0:0:
256,192,39980,1,0,0:0:0:0:
256,192,40117,1,0,0:0:0:0:
256,192,40254,1,8,0:0:0:0:
256,192,40528,1,0,0:0:0:0:
256,192,40801,1,0,0:0:0:0:
256,192,40938,1,8,0:0:0:0:
256,192,41075,1,0,0:0:0:0:
256,192,41349,1,0,0:0:0:0:
256,192,41486,1,8,0:0:0:0:
256,192,41760,1,8,0:0:0:0:
256,192,41897,1,8,0:0:0:0:
256,192,42171,1,0,0:0:0:0:
256,192,42445,1,0,0:0:0:0:
256,192,42719,1,8,0:0:0:0:
256,192,42993,1,0,0:0:0:0:
256,192,43130,1,8,0:0:0:0:
256,192,43267,1,8,0:0:0:0:
256,192,43815,1,0,0:0:0:0:
256,192,44089,1,0,0:0:0:0:
256,192,44226,1,0,0:0:0:0:
256,192,44363,1,8,0:0:0:0:
256,192,44637,1,0,0:0:0:0:
256,192,44774,1,8,0:0:0:0:
256,192,45185,1,0,0:0:0:0:
256,192,45459,1,8,0:0:0:0:
256,192,45596,1,0,0:0:0:0:
256,192,45870,1,0,0:0:0:0:
256,192,46007,5,8,0:0:0:0:
256,192,46281,1,8,0:0:0:0:
256,192,46418,1,8,0:0:0:0:
256,192,46555,1,4,0:0:0:0:
