osu file format v14

[General]
AudioFilename: audio.mp3
AudioLeadIn: 0
PreviewTime: 11408
Countdown: 0
SampleSet: Normal
StackLeniency: 0.7
Mode: 1
LetterboxInBreaks: 0
WidescreenStoryboard: 1

[Editor]
DistanceSpacing: 1
BeatDivisor: 4
GridSize: 32
TimelineZoom: 2.2

[Metadata]
Title:kirby's dreamland 3 stage 1-4 remix
TitleUnicode:kirby's dreamland 3 stage 1-4 remix
Artist:kohu
ArtistUnicode:こふ
Creator:Erowdi
Version:alice's oni
Source:星のカービィ3
Tags:meiqth instrumental video game vgm videogame electronic chiptune breakbeat bitpop 8-bit 8 bit 8bit hoshi no kirby kirby's kirbys dream land nintendo snes カービィ undead alice undeadalice slim-san slim_san slim san
BeatmapID:4299730
BeatmapSetID:2056351

[Difficulty]
HPDrainRate:8.5
CircleSize:5
OverallDifficulty:6
ApproachRate:5
SliderMultiplier:1.4
SliderTickRate:1

[Events]
//Background and Video events
0,0,"poyo.jpg",0,0
//Break Periods
//Storyboard Layer 0 (Background)
//Storyboard Layer 1 (Fail)
//Storyboard Layer 2 (Pass)
//Storyboard Layer 3 (Foreground)
//Storyboard Layer 4 (Overlay)
//Storyboard Sound Samples

[TimingPoints]
528,273.972602739726,4,1,0,80,1,0
528,-117.647058823529,4,1,0,80,0,0
2440,-104.166666666667,4,1,0,80,0,0
2509,-105.83236770954,4,1,0,80,0,0
2577,-107.52688172043,4,1,0,80,0,0
2646,-109.302696665071,4,1,0,80,0,0
2714,-111.111111111111,4,1,0,80,0,0
8605,-109.89010989011,4,1,0,80,0,0
8742,-108.695652173913,4,1,0,80,0,0
8879,-107.52688172043,4,1,0,80,0,0
9016,-106.382978723404,4,1,0,80,0,0
9153,-105.263157894737,4,1,0,80,0,0
9290,-100,4,1,0,80,0,0
9564,-97.5609756097561,4,1,0,80,0,0
9838,-95.2380952380952,4,1,0,80,0,0
9975,-94.1176470588235,4,1,0,80,0,0
10114,-92.5925925925926,4,1,0,80,0,0
10182,-91.9586521680762,4,1,0,80,0,0
10251,-91.324200913242,4,1,0,80,0,0
10319,-90.707451915119,4,1,0,80,0,0
10388,-90.0900900900901,4,1,0,80,0,0
11418,-100,4,1,0,80,0,0
19290,-99.009900990099,4,1,0,80,0,0
19427,-97.7198697068404,4,1,0,80,0,0
19495,-97.0919656988968,4,1,0,80,0,0
19564,-96.4630225080386,4,1,0,80,0,0
19701,-95.2380952380952,4,1,0,80,0,0
19838,-94.0438871473354,4,1,0,80,0,0
19906,-93.4621944286526,4,1,0,80,0,0
19975,-92.8792569659443,4,1,0,80,0,0
20043,-92.311838824877,4,1,0,80,0,0
20112,-91.743119266055,4,1,0,80,0,0
20254,-90.9090909090909,4,1,0,100,0,1
25865,-91.743119266055,4,1,0,100,0,1
25933,-92.2834130428507,4,1,0,100,0,1
26002,-92.8381962864721,4,1,0,100,0,1
26139,-93.9597315436242,4,1,0,100,0,1
26276,-95.1086956521739,4,1,0,100,0,1
26344,-95.6894831370984,4,1,0,100,0,1
26413,-96.2861072902338,4,1,0,100,0,1
26481,-96.8814086698253,4,1,0,100,0,1
26550,-97.4930362116992,4,1,0,100,0,1
26687,-98.7306064880113,4,1,0,100,0,1
26824,-100,4,1,0,100,0,1
27098,-98.0392156862745,4,1,0,100,0,1
27166,-97.564449508617,4,1,0,100,0,1
27235,-97.0873786407767,4,1,0,100,0,1
27303,-96.6217645814232,4,1,0,100,0,1
27372,-96.1538461538461,4,1,0,100,0,1
27509,-95.2380952380952,4,1,0,100,0,1
27646,-94.3396226415094,4,1,0,100,0,1
27783,-93.4579439252336,4,1,0,100,0,1
27920,-92.5925925925926,4,1,0,100,0,1
27988,-92.1689989235737,4,1,0,100,0,1
28057,-91.7431192660551,4,1,0,100,0,1
28125,-91.3272448503433,4,1,0,100,0,1
28194,-90.9090909090909,4,1,0,100,0,1
28331,-90.0900900900901,4,1,0,100,0,1
28468,-89.2857142857143,4,1,0,100,0,1
28536,-88.8917726446925,4,1,0,100,0,1
28605,-88.495575221239,4,1,0,100,0,1
28742,-87.719298245614,4,1,0,100,0,1
28810,-87.3390284329976,4,1,0,100,0,1
28879,-86.9565217391304,4,1,0,100,0,1
28947,-86.5828224736144,4,1,0,100,0,1
29021,-86.2068965517241,4,1,0,80,0,0
29153,-86.9565217391304,4,1,0,80,0,0
29427,-87.6713972816466,4,1,0,80,0,0
29701,-88.3981243382242,4,1,0,80,0,0
29838,-88.7660246673552,4,1,0,80,0,0
29975,-89.1370000915164,4,1,0,80,0,0
30112,-89.5110893272883,4,1,0,80,0,0
30249,-89.8883317439321,4,1,0,80,0,0
30523,-90.6524369435051,4,1,0,80,0,0
30796,-91.4267834793492,4,1,0,80,0,0
30933,-91.8203814850894,4,1,0,80,0,0
31070,-92.217383071388,4,1,0,80,0,0
31139,-92.4186355441693,4,1,0,80,0,0
31207,-92.6178325778947,4,1,0,80,0,0
31344,-93.0217751177894,4,1,0,80,0,0
31618,-93.8403237202132,4,1,0,80,0,0
31892,-94.6734059097978,4,1,0,80,0,0
32029,-95.0955185992775,4,1,0,80,0,0
32166,-95.5214122262177,4,1,0,80,0,0
32303,-95.9511378189341,4,1,0,80,0,0
32440,-96.3847473281435,4,1,0,80,0,0
32714,-97.263830637108,4,1,0,80,0,0
32783,-97.4877389650686,4,1,0,80,0,0
32851,-97.7094131416151,4,1,0,80,0,0
32920,-97.9353800777584,4,1,0,80,0,0
32988,-98.1590970169309,4,1,0,80,0,0
33125,-98.6129391515642,4,1,0,80,0,0
33262,-99.0709974910151,4,1,0,80,0,0
33399,-99.5333310624383,4,1,0,80,0,0
33536,-100,4,1,0,80,0,0
33747,-90.9090909090909,4,1,0,80,0,0
33947,-83.3333333333333,4,1,0,80,0,0
34016,-83.9203675344564,4,1,0,80,0,0
34084,-84.5070422535211,4,1,0,80,0,0
34153,-85.1107889832263,4,1,0,80,0,0
34221,-85.7142857142857,4,1,0,80,0,0
34358,-86.9565217391304,4,1,0,80,0,0
34495,-88.2352941176471,4,1,0,80,0,0
34632,-89.5522388059701,4,1,0,80,0,0
34701,-90.2305159165752,4,1,0,80,0,0
34769,-90.9090909090909,4,1,0,80,0,0
34906,-92.3076923076923,4,1,0,80,0,0
35043,-93.75,4,1,0,80,0,0
35112,-94.4936199563168,4,1,0,80,0,0
35180,-95.2380952380952,4,1,0,80,0,0
35249,-96.0056061667835,4,1,0,80,0,0
35317,-96.7741935483871,4,1,0,80,0,0
35454,-98.3606557377049,4,1,0,80,0,0
35591,-100,4,1,0,80,0,0
36897,-100.124153950899,4,1,0,80,0,0
37100,-100.671140939597,4,1,0,80,0,0
37237,-101.351351351351,4,1,0,80,0,0
37305,-101.692399049881,4,1,0,80,0,0
37374,-102.040816326531,4,1,0,80,0,0
37442,-102.386527826217,4,1,0,80,0,0
37511,-102.739726027397,4,1,0,80,0,0
37648,-103.448275862069,4,1,0,80,0,0
37785,-104.166666666667,4,1,0,80,0,0
38742,-105.263157894737,4,1,0,80,0,0
38810,-105.816019155017,4,1,0,80,0,0
38879,-106.382978723404,4,1,0,80,0,0
39016,-107.52688172043,4,1,0,80,0,0
39153,-108.695652173913,4,1,0,80,0,0
39290,-109.89010989011,4,1,0,80,0,0
39427,-111.111111111111,4,1,0,80,0,0
39564,-112.359550561798,4,1,0,80,0,0
39701,-100,4,1,0,80,0,0
39769,-100.876224136662,4,1,0,80,0,0
39838,-101.781170483461,4,1,0,80,0,0
39975,-103.626943005181,4,1,0,80,0,0
40043,-104.56817921612,4,1,0,80,0,0
40112,-105.540897097625,4,1,0,80,0,0
40180,-106.517386825276,4,1,0,80,0,0
40249,-107.52688172043,4,1,0,80,0,0
45043,-106.382978723404,4,1,0,80,0,0
45180,-105.263157894737,4,1,0,80,0,0
45317,-104.166666666667,4,1,0,80,0,0
45454,-103.092783505155,4,1,0,80,0,0
45591,-102.040816326531,4,1,0,80,0,0
45728,-101.010101010101,4,1,0,80,0,0
45865,-96.1538461538461,4,1,0,80,0,0
45933,-94.529697504968,4,1,0,80,0,0
46002,-92.9368029739777,4,1,0,80,0,0
46139,-89.9280575539568,4,1,0,80,0,0
46276,-87.1080139372822,4,1,0,80,0,0
46413,-84.4594594594595,4,1,0,80,0,0
46550,-81.9672131147541,4,1,0,80,0,0

[HitObjects]
256,192,528,5,8,0:0:0:0:
256,192,1075,1,8,0:0:0:0:
256,192,1349,1,0,0:0:0:0:
256,192,1486,1,0,0:0:0:0:
256,192,1623,1,8,0:0:0:0:
256,192,1760,1,8,0:0:0:0:
256,192,1897,1,0,0:0:0:0:
256,192,2034,1,8,0:0:0:0:
256,192,2171,1,0,0:0:0:0:
256,192,2445,1,8,0:0:0:0:
256,192,2514,1,8,0:0:0:0:
256,192,2582,1,8,0:0:0:0:
256,192,2651,1,8,0:0:0:0:
256,192,2719,1,0,0:0:0:0:
256,192,3130,1,0,0:0:0:0:
256,192,3267,1,8,0:0:0:0:
256,192,3541,1,0,0:0:0:0:
256,192,3815,1,0,0:0:0:0:
256,192,4089,1,8,0:0:0:0:
319,237,4226,1,0,0:0:0:0:
256,192,4363,1,8,0:0:0:0:
256,192,4637,1,0,0:0:0:0:
256,192,4774,1,0,0:0:0:0:
256,192,4911,1,8,0:0:0:0:
256,192,5322,1,0,0:0:0:0:
256,192,5459,1,8,0:0:0:0:
256,192,5733,1,0,0:0:0:0:
256,192,5870,1,8,0:0:0:0:
256,192,6007,1,0,0:0:0:0:
256,192,6418,1,0,0:0:0:0:
256,192,6555,1,8,0:0:0:0:
256,192,6829,1,8,0:0:0:0:
256,192,6966,1,0,0:0:0:0:
256,192,7103,1,8,0:0:0:0:
256,192,7514,1,0,0:0:0:0:
256,192,7651,1,8,0:0:0:0:
256,192,7925,1,0,0:0:0:0:
256,192,8199,1,8,0:0:0:0:
256,192,8336,1,0,0:0:0:0:
256,192,8610,1,0,0:0:0:0:
256,192,8747,1,8,0:0:0:0:
256,192,8884,1,8,0:0:0:0:
256,192,9021,1,0,0:0:0:0:
256,192,9158,1,0,0:0:0:0:
256,192,9295,1,8,0:0:0:0:
256,192,9569,1,0,0:0:0:0:
256,192,9843,1,0,0:0:0:0:
256,192,9980,1,8,0:0:0:0:
256,192,10117,1,0,0:0:0:0:
256,192,10185,1,0,0:0:0:0:
256,192,10254,1,0,0:0:0:0:
256,192,10322,1,0,0:0:0:0:
256,192,10391,1,8,0:0:0:0:
256,192,11486,1,8,0:0:0:0:
256,192,11623,1,0,0:0:0:0:
256,192,11692,1,0,0:0:0:0:
256,192,11760,1,0,0:0:0:0:
256,192,11897,1,8,0:0:0:0:
256,192,12171,1,0,0:0:0:0:
256,192,12308,1,8,0:0:0:0:
256,192,12445,1,0,0:0:0:0:
256,192,12582,1,8,0:0:0:0:
256,192,12651,1,0,0:0:0:0:
256,192,12719,1,8,0:0:0:0:
256,192,12856,1,0,0:0:0:0:
256,192,12993,1,8,0:0:0:0:
256,192,13062,1,0,0:0:0:0:
256,192,13130,1,8,0:0:0:0:
238,246,13199,1,8,0:0:0:0:
256,192,13267,1,0,0:0:0:0:
256,192,13404,1,8,0:0:0:0:
256,192,13541,1,0,0:0:0:0:
256,192,13678,1,8,0:0:0:0:
256,192,13815,1,0,0:0:0:0:
256,192,14089,1,0,0:0:0:0:
256,192,14363,1,8,0:0:0:0:
256,192,14500,1,8,0:0:0:0:
256,192,14637,1,0,0:0:0:0:
256,192,14774,1,8,0:0:0:0:
256,192,14843,1,8,0:0:0:0:
256,192,14911,1,8,0:0:0:0:
256,192,15048,1,0,0:0:0:0:
256,192,15185,1,8,0:0:0:0:
256,192,15254,1,8,0:0:0:0:
256,192,15322,1,0,0:0:0:0:
286,229,15391,1,0,0:0:0:0:
282,217,15459,1,8,0:0:0:0:
256,192,15596,1,0,0:0:0:0:
256,192,15733,1,8,0:0:0:0:
256,192,15870,1,0,0:0:0:0:
256,192,15939,1,0,0:0:0:0:
256,192,16007,1,8,0:0:0:0:
256,192,16281,1,0,0:0:0:0:
256,192,16350,1,0,0:0:0:0:
256,192,16418,1,8,0:0:0:0:
256,192,16692,1,0,0:0:0:0:
256,192,16761,1,0,0:0:0:0:
256,192,16829,1,8,0:0:0:0:
256,192,17103,1,0,0:0:0:0:
256,192,17171,1,0,0:0:0:0:
256,192,17240,1,8,0:0:0:0:
256,192,17514,1,0,0:0:0:0:
256,192,17582,1,0,0:0:0:0:
256,192,17651,1,8,0:0:0:0:
256,192,17788,1,0,0:0:0:0:
256,192,17856,1,0,0:0:0:0:
256,192,17925,1,8,0:0:0:0:
256,192,17993,1,8,0:0:0:0:
256,192,18062,1,8,0:0:0:0:
256,192,18199,1,0,0:0:0:0:
256,192,18473,1,8,0:0:0:0:
256,192,18747,1,8,0:0:0:0:
256,192,18815,1,8,0:0:0:0:
256,192,18884,1,0,0:0:0:0:
256,192,19021,1,0,0:0:0:0:
256,192,19295,1,0,0:0:0:0:
256,192,19432,1,8,0:0:0:0:
256,192,19500,1,0,0:0:0:0:
256,192,19569,1,8,0:0:0:0:
256,192,19706,1,0,0:0:0:0:
256,192,19843,1,8,0:0:0:0:
256,192,19911,1,8,0:0:0:0:
256,192,19980,1,0,0:0:0:0:
256,192,20048,1,0,0:0:0:0:
256,192,20117,1,8,0:0:0:0:
256,192,20254,1,0,0:0:0:0:
256,192,20322,1,0,0:0:0:0:
256,192,20391,1,8,0:0:0:0:
256,192,20528,1,0,0:0:0:0:
256,192,20664,1,8,0:0:0:0:
256,192,20938,1,0,0:0:0:0:
256,192,21075,1,8,0:0:0:0:
228,207,21144,1,8,0:0:0:0:
256,192,21212,1,8,0:0:0:0:
256,192,21349,1,0,0:0:0:0:
256,192,21486,1,8,0:0:0:0:
256,192,21623,1,0,0:0:0:0:
256,192,21692,1,0,0:0:0:0:
256,192,21760,1,8,0:0:0:0:
256,192,21829,1,8,0:0:0:0:
256,192,21897,1,0,0:0:0:0:
256,192,22034,1,8,0:0:0:0:
256,192,22171,1,8,0:0:0:0:
256,192,22308,1,0,0:0:0:0:
258,207,22377,1,0,0:0:0:0:
256,192,22445,1,8,0:0:0:0:
256,192,22514,1,0,0:0:0:0:
256,192,22582,1,8,0:0:0:0:
256,192,22719,1,0,0:0:0:0:
256,192,22856,1,8,0:0:0:0:
256,192,23130,1,0,0:0:0:0:
256,192,23267,1,8,0:0:0:0:
418,255,23336,1,8,0:0:0:0:
256,192,23404,1,0,0:0:0:0:
256,192,23541,1,8,0:0:0:0:
256,192,23678,1,8,0:0:0:0:
256,192,23815,1,0,0:0:0:0:
256,192,23952,1,8,0:0:0:0:
256,192,24021,1,8,0:0:0:0:
256,192,24089,1,0,0:0:0:0:
256,192,24158,1,0,0:0:0:0:
256,192,24226,1,8,0:0:0:0:
256,192,24363,1,8,0:0:0:0:
256,192,24500,1,0,0:0:0:0:
256,192,24569,1,8,0:0:0:0:
256,192,24637,1,0,0:0:0:0:
256,192,24706,1,0,0:0:0:0:
256,192,24774,1,8,0:0:0:0:
256,192,24911,1,0,0:0:0:0:
256,192,25048,1,8,0:0:0:0:
256,192,25322,1,8,0:0:0:0:
256,192,25391,1,8,0:0:0:0:
256,192,25459,1,0,0:0:0:0:
256,192,25596,1,8,0:0:0:0:
256,192,25870,1,0,0:0:0:0:
256,192,25938,1,0,0:0:0:0:
256,192,26007,1,8,0:0:0:0:
256,192,26144,1,0,0:0:0:0:
256,192,26281,1,8,0:0:0:0:
256,192,26349,1,8,0:0:0:0:
256,192,26418,1,8,0:0:0:0:
256,192,26486,1,8,0:0:0:0:
256,192,26555,1,0,0:0:0:0:
256,192,26692,1,8,0:0:0:0:
256,192,26829,1,0,0:0:0:0:
256,192,27103,1,8,0:0:0:0:
256,192,27171,1,0,0:0:0:0:
256,192,27240,1,0,0:0:0:0:
256,192,27308,1,0,0:0:0:0:
256,192,27377,1,8,0:0:0:0:
256,192,27514,1,0,0:0:0:0:
256,192,27651,1,8,0:0:0:0:
256,192,27788,1,0,0:0:0:0:
256,192,27925,1,8,0:0:0:0:
256,192,27993,1,8,0:0:0:0:
256,192,28062,1,0,0:0:0:0:
256,192,28130,1,0,0:0:0:0:
256,192,28199,1,8,0:0:0:0:
256,192,28336,1,0,0:0:0:0:
256,192,28473,1,8,0:0:0:0:
178,227,28541,1,0,0:0:0:0:
256,192,28610,1,0,0:0:0:0:
256,192,28747,1,8,0:0:0:0:
256,192,28815,1,8,0:0:0:0:
256,192,28884,1,8,0:0:0:0:
256,192,28952,1,8,0:0:0:0:
256,192,29021,1,0,0:0:0:0:
256,192,29158,1,8,0:0:0:0:
256,192,29432,1,0,0:0:0:0:
256,192,29706,1,8,0:0:0:0:
256,192,29843,1,8,0:0:0:0:
256,192,29980,1,0,0:0:0:0:
256,192,30117,1,8,0:0:0:0:
256,192,30254,1,0,0:0:0:0:
256,192,30528,1,8,0:0:0:0:
256,192,30801,1,0,0:0:0:0:
256,192,30938,1,8,0:0:0:0:
256,192,31075,1,0,0:0:0:0:
256,192,31144,1,0,0:0:0:0:
256,192,31212,1,8,0:0:0:0:
256,192,31349,1,0,0:0:0:0:
256,192,31623,1,8,0:0:0:0:
256,192,31897,1,0,0:0:0:0:
256,192,32034,1,8,0:0:0:0:
256,192,32171,1,8,0:0:0:0:
256,192,32308,1,0,0:0:0:0:
256,192,32445,1,8,0:0:0:0:
256,192,32719,1,0,0:0:0:0:
256,192,32788,1,0,0:0:0:0:
256,192,32856,1,0,0:0:0:0:
256,192,32925,1,0,0:0:0:0:
256,192,32993,1,8,0:0:0:0:
256,192,33130,1,0,0:0:0:0:
256,192,33267,1,8,0:0:0:0:
256,192,33404,1,0,0:0:0:0:
256,192,33541,1,8,0:0:0:0:
256,192,33815,1,0,0:0:0:0:
256,192,33952,1,8,0:0:0:0:
256,192,34021,1,8,0:0:0:0:
256,192,34089,1,0,0:0:0:0:
256,192,34158,1,0,0:0:0:0:
256,192,34226,1,8,0:0:0:0:
256,192,34363,1,0,0:0:0:0:
256,192,34500,1,8,0:0:0:0:
256,192,34637,1,0,0:0:0:0:
256,192,34706,1,0,0:0:0:0:
256,192,34774,1,8,0:0:0:0:
256,192,34911,1,0,0:0:0:0:
256,192,35048,1,8,0:0:0:0:
256,192,35117,1,0,0:0:0:0:
256,192,35185,1,8,0:0:0:0:
256,192,35254,1,0,0:0:0:0:
256,192,35322,1,8,0:0:0:0:
256,192,35459,1,0,0:0:0:0:
256,192,35596,1,8,0:0:0:0:
256,192,35870,1,8,0:0:0:0:
256,192,36007,1,0,0:0:0:0:
256,192,36144,1,8,0:0:0:0:
256,192,36281,1,0,0:0:0:0:
256,192,36418,1,8,0:0:0:0:
256,192,36555,1,8,0:0:0:0:
256,192,36692,1,0,0:0:0:0:
256,192,36966,1,8,0:0:0:0:
256,192,37103,1,0,0:0:0:0:
256,192,37240,1,8,0:0:0:0:
256,192,37308,1,8,0:0:0:0:
256,192,37377,1,8,0:0:0:0:
256,192,37445,1,8,0:0:0:0:
256,192,37514,1,0,0:0:0:0:
256,192,37651,1,0,0:0:0:0:
256,192,37788,1,8,0:0:0:0:
256,192,38062,1,0,0:0:0:0:
256,192,38199,1,8,0:0:0:0:
256,192,38473,1,0,0:0:0:0:
256,192,38610,1,8,0:0:0:0:
256,192,38747,1,0,0:0:0:0:
256,192,38815,1,0,0:0:0:0:
256,192,38884,1,8,0:0:0:0:
256,192,39021,1,0,0:0:0:0:
256,192,39158,1,8,0:0:0:0:
256,192,39295,1,0,0:0:0:0:
256,192,39432,1,8,0:0:0:0:
256,192,39569,1,0,0:0:0:0:
256,192,39706,1,8,0:0:0:0:
301,216,39774,1,8,0:0:0:0:
256,192,39843,1,8,0:0:0:0:
256,192,39980,1,0,0:0:0:0:
256,192,40048,1,0,0:0:0:0:
256,192,40117,1,0,0:0:0:0:
193,202,40185,1,0,0:0:0:0:
256,192,40254,1,8,0:0:0:0:
256,192,40528,1,8,0:0:0:0:
256,192,40664,1,0,0:0:0:0:
256,192,40801,1,8,0:0:0:0:
256,192,40938,1,8,0:0:0:0:
256,192,41075,1,0,0:0:0:0:
256,192,41212,1,0,0:0:0:0:
256,192,41349,1,8,0:0:0:0:
256,192,41486,1,0,0:0:0:0:
256,192,41623,1,8,0:0:0:0:
256,192,41692,1,8,0:0:0:0:
256,192,41760,1,0,0:0:0:0:
256,192,41829,1,8,0:0:0:0:
256,192,41897,1,0,0:0:0:0:
256,192,42034,1,8,0:0:0:0:
281,244,42171,1,0,0:0:0:0:
256,192,42445,1,8,0:0:0:0:
256,192,42582,1,0,0:0:0:0:
256,192,42719,1,8,0:0:0:0:
256,192,42856,1,8,0:0:0:0:
256,192,42993,1,8,0:0:0:0:
256,192,43130,1,0,0:0:0:0:
256,192,43267,1,8,0:0:0:0:
256,192,43404,1,0,0:0:0:0:
256,192,43473,1,0,0:0:0:0:
256,192,43541,1,8,0:0:0:0:
256,192,43678,1,8,0:0:0:0:
256,192,43815,1,0,0:0:0:0:
256,192,43884,1,8,0:0:0:0:
256,192,43952,1,0,0:0:0:0:
256,192,44021,1,0,0:0:0:0:
256,192,44089,1,8,0:0:0:0:
256,192,44226,1,0,0:0:0:0:
256,192,44363,1,8,0:0:0:0:
256,192,44637,1,8,0:0:0:0:
256,192,44774,1,0,0:0:0:0:
256,192,45048,1,8,0:0:0:0:
256,192,45185,1,8,0:0:0:0:
256,192,45322,1,0,0:0:0:0:
256,192,45459,1,8,0:0:0:0:
256,192,45596,1,0,0:0:0:0:
288,252,45733,1,8,0:0:0:0:
256,192,45870,1,0,0:0:0:0:
256,192,45938,1,0,0:0:0:0:
256,192,46007,1,12,0:0:0:0:
256,192,46144,1,12,0:0:0:0:
256,192,46281,1,12,0:0:0:0:
256,192,46418,1,12,0:0:0:0:
256,192,46555,1,4,0:0:0:0:
