osu file format v14

[General]
AudioFilename: audio.mp3
AudioLeadIn: 0
PreviewTime: 101538
Countdown: 1
SampleSet: None
StackLeniency: 0.7
Mode: 0
LetterboxInBreaks: 0
WidescreenStoryboard: 0

[Editor]
Bookmarks: 115593
DistanceSpacing: 0.5
BeatDivisor: 4
GridSize: 4
TimelineZoom: 1

[Metadata]
Title:Return to Cookie County
TitleUnicode:クッキーカントリーアレンジ
Artist:kohu
ArtistUnicode:kohu
Creator:ANuko
Version:Cookie
Source:
Tags:
BeatmapID:1604921
BeatmapSetID:763273

[Difficulty]
HPDrainRate:4
CircleSize:4
OverallDifficulty:8.8
ApproachRate:9.6
SliderMultiplier:2.8
SliderTickRate:1

[Events]
//Background and Video events
0,0,"__kirby_and_waddle_dee_kirby_series_drawn_by_kinuyo_kinuxi__11a07972c5504f88bf3f630aad26d8f0.png",0,0
//Break Periods
//Storyboard Layer 0 (Background)
//Storyboard Layer 1 (Fail)
//Storyboard Layer 2 (Pass)
//Storyboard Layer 3 (Foreground)
//Storyboard Sound Samples

[TimingPoints]
1087.46816282275,348.837209302326,4,2,0,60,1,0
12250,-400,4,2,0,60,0,0
23413,-133.333333333333,4,2,0,60,0,0
34575,-66.6666666666667,4,2,0,60,0,0
78878,-100,4,2,0,60,0,0
79227,-66.6666666666667,4,2,0,60,0,0
89343,-79.9999999999999,4,2,0,60,0,0
90389,-100,4,2,0,60,0,0
92657,-200,4,2,0,60,0,0
93180,-100,4,2,0,60,0,0
95447,-200,4,2,0,60,0,0
95970,-100,4,2,0,60,0,0
98238,-200,4,2,0,60,0,0
98761,-100,4,2,0,60,0,0
101029,-200,4,2,0,60,0,0
101552,-100,4,2,0,60,0,0
114982,-200,4,2,0,60,0,0
115506,-100,4,2,0,60,0,0
117773,-200,4,2,0,60,0,0
118296,-100,4,2,0,60,0,0
120564,-200,4,2,0,60,0,0
121087,-100,4,2,0,60,0,0
123354,-200,4,2,0,60,0,0
123878,-79.9999999999999,4,2,0,60,0,0
135040,-57.1428571428571,4,2,0,60,0,0
136436,-50,4,2,0,60,0,0
137831,-57.1428571428571,4,2,0,60,0,0
139227,-50,4,2,0,60,0,0
140622,-57.1428571428571,4,2,0,60,0,0
142018,-50,4,2,0,60,0,0
143413,-57.1428571428571,4,2,0,60,0,0
144809,-50,4,2,0,60,0,0
146203,-100,4,2,0,60,0,0
146378,-79.9999999999999,4,2,0,60,0,0
146552,-66.6666666666667,4,2,0,60,0,0
146727,-57.1428571428571,4,2,0,60,0,0
147599,-50,4,2,0,60,0,0
148994,-57.1428571428571,4,2,0,60,0,0
150390,-50,4,2,0,60,0,0
151785,-57.1428571428571,4,2,0,60,0,0
153181,-50,4,2,0,60,0,0
154575,-57.1428571428571,4,2,0,60,0,0
155971,-50,4,2,0,60,0,0
157366,-57.1428571428571,4,2,0,60,0,0
158762,-50,4,2,0,60,0,0
160157,-57.1428571428571,4,2,0,60,0,0
161553,-50,4,2,0,60,0,0
162947,-57.1428571428571,4,2,0,60,0,0
164343,-50,4,2,0,60,0,0
165738,-57.1428571428571,4,2,0,60,0,0
167134,-50,4,2,0,60,0,0
168529,-133.333333333333,4,2,0,60,0,0
168703,-100,4,2,0,60,0,0
168878,-79.9999999999999,4,2,0,60,0,0
169052,-66.6666666666667,4,2,0,60,0,0
169227,-57.1428571428571,4,2,0,60,0,0
169575,-200,4,2,0,60,0,0
169925,-50,4,2,0,60,0,0
171320,-57.1428571428571,4,2,0,60,0,0
172716,-50,4,2,0,60,0,0
174110,-57.1428571428571,4,2,0,60,0,0
175506,-50,4,2,0,60,0,0
179692,-66.6666666666667,4,2,0,60,0,0
185622,-58.8235294117647,4,2,0,60,0,0
185971,-55.5555555555556,4,2,0,60,0,0
186320,-52.6315789473684,4,2,0,60,0,0
186668,-50,4,2,0,60,0,0
187017,-47.6190476190476,4,2,0,60,0,0
187366,-45.4545454545455,4,2,0,60,0,0
187715,-43.4782608695652,4,2,0,60,0,0
188064,-40,4,2,0,60,0,0
190506,-66.6666666666667,4,2,0,60,0,0

[HitObjects]
63,232,1087,5,0,0:0:0:0:
151,288,1261,1,0,0:0:0:0:
109,191,1436,1,0,0:0:0:0:
134,292,1610,1,0,0:0:0:0:
166,191,1785,1,0,0:0:0:0:
122,286,1959,1,0,0:0:0:0:
209,228,2133,1,0,0:0:0:0:
114,273,2308,1,0,0:0:0:0:
321,207,2482,5,0,0:0:0:0:
215,208,2657,1,0,0:0:0:0:
318,192,2831,1,0,0:0:0:0:
231,252,3006,1,0,0:0:0:0:
304,177,3180,1,0,0:0:0:0:
285,280,3354,1,0,0:0:0:0:
287,174,3529,1,0,0:0:0:0:
338,265,3703,1,0,0:0:0:0:
188,165,3878,5,0,0:0:0:0:
250,248,4052,1,0,0:0:0:0:
153,211,4227,1,0,0:0:0:0:
255,234,4401,1,0,0:0:0:0:
155,265,4575,1,0,0:0:0:0:
251,222,4750,1,0,0:0:0:0:
192,308,4924,1,0,0:0:0:0:
244,216,5099,1,0,0:0:0:0:
97,282,5273,5,0,0:0:0:0:
67,382,5447,1,0,0:0:0:0:
112,287,5622,1,0,0:0:0:0:
21,339,5796,1,0,0:0:0:0:
119,302,5971,1,0,0:0:0:0:
15,284,6145,1,0,0:0:0:0:
113,320,6320,1,0,0:0:0:0:
49,236,6494,1,0,0:0:0:0:
197,353,6668,5,0,0:0:0:0:
228,253,6843,1,0,0:0:0:0:
254,355,7017,1,0,0:0:0:0:
205,262,7192,1,0,0:0:0:0:
295,316,7366,1,0,0:0:0:0:
199,274,7540,1,0,0:0:0:0:
303,262,7715,1,0,0:0:0:0:
202,292,7889,1,0,0:0:0:0:
281,182,8064,5,0,0:0:0:0:
339,95,8238,1,0,0:0:0:0:
299,192,8413,1,0,0:0:0:0:
279,89,8587,1,0,0:0:0:0:
316,187,8761,1,0,0:0:0:0:
229,127,8936,1,0,0:0:0:0:
322,175,9110,1,0,0:0:0:0:
216,183,9285,1,0,0:0:0:0:
365,253,9459,5,0,0:0:0:0:
272,302,9633,1,0,0:0:0:0:
324,210,9808,1,0,0:0:0:0:
294,310,9982,1,0,0:0:0:0:
264,208,10157,1,0,0:0:0:0:
315,299,10331,1,0,0:0:0:0:
221,250,10506,1,0,0:0:0:0:
320,283,10680,1,0,0:0:0:0:
174,188,10854,5,0,0:0:0:0:
115,275,11029,1,0,0:0:0:0:
157,179,11203,1,0,0:0:0:0:
174,282,11378,1,0,0:0:0:0:
141,182,11552,1,0,0:0:0:0:
221,250,11727,1,0,0:0:0:0:
130,196,11901,1,0,0:0:0:0:
234,193,12075,1,0,0:0:0:0:
99,120,12250,6,0,P|75:169|84:230,2,105
35,293,13645,6,0,P|105:298|147:281,2,105
281,240,15040,6,0,P|226:295|222:328,2,105
302,318,16436,1,0,0:0:0:0:
356,229,16610,1,0,0:0:0:0:
356,229,16959,6,0,L|389:167,1,70
292,129,17482,1,0,0:0:0:0:
278,140,17570,1,0,0:0:0:0:
261,144,17657,1,0,0:0:0:0:
243,146,17744,1,0,0:0:0:0:
225,144,17831,6,0,P|200:98|154:76,2,105
134,159,19227,6,0,P|139:209|109:264,2,105
227,266,20622,6,0,L|239:384,2,105
216,161,22017,5,0,0:0:0:0:
216,161,22192,1,0,0:0:0:0:
216,161,22540,2,0,L|228:279,1,105
236,366,23413,5,0,0:0:0:0:
339,323,23587,1,0,0:0:0:0:
370,215,23761,1,0,0:0:0:0:
370,215,23849,1,0,0:0:0:0:
370,215,23936,1,0,0:0:0:0:
276,275,24110,5,0,0:0:0:0:
276,275,24197,1,0,0:0:0:0:
276,275,24285,1,0,0:0:0:0:
175,226,24459,1,0,0:0:0:0:
155,115,24633,1,0,0:0:0:0:
213,19,24808,5,0,0:0:0:0:
138,102,24982,1,0,0:0:0:0:
220,25,25157,1,0,0:0:0:0:
220,136,25331,1,0,0:0:0:0:
231,24,25506,5,0,0:0:0:0:
300,111,25680,2,0,P|338:124|464:8,1,210.000008010865
439,180,26203,5,0,0:0:0:0:
344,247,26378,1,0,0:0:0:0:
344,247,26465,1,0,0:0:0:0:
344,247,26552,1,0,0:0:0:0:
233,211,26727,1,0,0:0:0:0:
126,243,26901,5,0,0:0:0:0:
126,243,26988,1,0,0:0:0:0:
126,243,27075,1,0,0:0:0:0:
171,140,27250,1,0,0:0:0:0:
258,70,27424,1,0,0:0:0:0:
369,54,27599,5,0,0:0:0:0:
327,157,27773,1,0,0:0:0:0:
433,122,27947,1,0,0:0:0:0:
333,173,28122,1,0,0:0:0:0:
430,227,28296,5,0,0:0:0:0:
319,199,28471,2,0,P|257:154|243:114,1,105.000004005432
189,223,28820,1,0,0:0:0:0:
189,223,28907,1,0,0:0:0:0:
189,223,28994,5,0,0:0:0:0:
88,140,29168,1,0,0:0:0:0:
80,236,29343,1,0,0:0:0:0:
168,117,29517,1,0,0:0:0:0:
158,229,29692,5,0,0:0:0:0:
158,229,29779,1,0,0:0:0:0:
158,229,29866,1,0,0:0:0:0:
255,129,30040,1,0,0:0:0:0:
394,112,30215,1,0,0:0:0:0:
345,243,30389,5,0,0:0:0:0:
255,129,30564,1,0,0:0:0:0:
239,245,30738,1,0,0:0:0:0:
335,77,30913,1,0,0:0:0:0:
319,178,31087,5,0,0:0:0:0:
268,322,31261,2,0,B|322:375|322:375|347:229,1,210.000008010865
250,304,31785,5,0,0:0:0:0:
148,199,31959,1,0,0:0:0:0:
141,291,32133,1,0,0:0:0:0:
211,151,32308,1,0,0:0:0:0:
59,164,32482,5,0,0:0:0:0:
59,164,32570,1,0,0:0:0:0:
59,164,32657,1,0,0:0:0:0:
152,62,32831,1,0,0:0:0:0:
94,232,33006,1,0,0:0:0:0:
73,102,33180,5,0,0:0:0:0:
175,186,33354,1,0,0:0:0:0:
138,127,33529,1,0,0:0:0:0:
196,259,33703,1,0,0:0:0:0:
239,93,33878,5,0,0:0:0:0:
196,259,34052,1,0,0:0:0:0:
253,56,34227,5,0,0:0:0:0:
319,183,34401,1,0,0:0:0:0:
319,183,34488,1,0,0:0:0:0:
319,183,34575,6,0,B|262:156|262:156|437:148,1,210.000008010865
344,271,34924,2,0,B|235:386|235:386|224:292,1,210.000008010865
215,220,35273,6,0,B|227:162|227:162|99:272,1,210.000008010865
79,149,35622,2,0,B|66:206|66:206|194:96,1,210.000008010865
355,80,35971,6,0,B|325:218|325:218|302:140,1,210.000008010865
417,199,36320,2,0,B|439:351|439:351|474:279,1,210.000008010865
332,297,36668,6,0,B|187:356|187:356|220:288,1,210.000008010865
91,242,37017,2,0,B|102:163|102:163|142:346,1,210.000008010865
196,225,37366,6,0,B|278:109|278:109|271:223,1,210.000008010865
401,103,37715,2,0,B|329:230|329:230|395:191,1,210.000008010865
325,45,38064,6,0,B|171:43|171:43|216:78,1,210.000008010865
103,164,38413,2,0,B|146:118|146:118|83:288,1,210.000008010865
207,288,38761,6,0,B|183:220|183:220|323:337,1,210.000008010865
336,186,39110,2,0,B|344:244|344:244|242:131,1,210.000008010865
349,43,39459,6,0,P|228:16|151:280,1,420.000016021729
175,335,40157,6,0,B|308:308|308:308|194:245,1,210.000008010865
312,88,40506,2,0,B|343:230|343:230|369:170,1,210.000008010865
238,128,40854,6,0,B|101:185|101:185|183:185,1,210.000008010865
5,225,41203,2,0,B|111:326|111:326|107:201,1,210.000008010865
73,117,41552,6,0,B|125:11|125:11|19:77,1,210.000008010865
201,102,41901,2,0,B|237:237|237:237|255:165,1,210.000008010865
360,189,42250,6,0,B|339:333|339:333|305:222,1,210.000008010865
131,260,42599,2,0,B|254:349|254:349|116:305,1,210.000008010865
244,210,42947,6,0,B|277:79|277:79|211:142,1,210.000008010865
126,117,43296,2,0,B|215:34|215:34|115:53,1,210.000008010865
390,58,43645,6,0,B|356:199|356:199|417:122,1,210.000008010865
245,210,43994,2,0,B|93:188|93:188|131:247,1,210.000008010865
328,235,44343,6,0,B|282:277|282:277|239:282,3,105.000004005432
245,210,44692,2,0,B|178:205|178:205|148:168,3,105.000004005432
219,137,45040,6,0,B|176:90|176:90|180:33,3,105.000004005432
255,68,45389,6,0,P|367:102|210:295,1,420.000016021729
299,187,45913,1,0,0:0:0:0:
169,336,46087,1,0,0:0:0:0:
198,216,46261,1,0,0:0:0:0:
80,363,46436,5,0,0:0:0:0:
80,363,46523,1,0,0:0:0:0:
80,363,46610,1,0,0:0:0:0:
40,227,46785,1,0,0:0:0:0:
119,280,46959,1,0,0:0:0:0:
126,124,47133,5,0,0:0:0:0:
119,280,47308,1,0,0:0:0:0:
69,182,47482,1,0,0:0:0:0:
200,242,47657,1,0,0:0:0:0:
167,79,47831,5,0,0:0:0:0:
281,154,48006,2,0,B|199:246|199:246|337:205,1,210.000008010865
299,304,48354,1,0,0:0:0:0:
345,214,48529,5,0,0:0:0:0:
319,360,48703,1,0,0:0:0:0:
398,254,48878,1,0,0:0:0:0:
228,314,49052,1,0,0:0:0:0:
298,229,49227,5,0,0:0:0:0:
298,229,49314,1,0,0:0:0:0:
298,229,49401,1,0,0:0:0:0:
273,361,49575,1,0,0:0:0:0:
209,209,49750,1,0,0:0:0:0:
155,305,49924,5,0,0:0:0:0:
197,155,50099,1,0,0:0:0:0:
236,254,50273,1,0,0:0:0:0:
121,170,50447,1,0,0:0:0:0:
267,172,50622,5,0,0:0:0:0:
123,248,50796,1,0,0:0:0:0:
123,248,50883,1,0,0:0:0:0:
123,248,50971,1,0,0:0:0:0:
173,163,51145,1,0,0:0:0:0:
197,183,51232,1,0,0:0:0:0:
226,193,51320,5,0,0:0:0:0:
249,107,51494,1,0,0:0:0:0:
291,241,51668,1,0,0:0:0:0:
327,148,51843,1,0,0:0:0:0:
368,267,52017,5,0,0:0:0:0:
368,267,52104,1,0,0:0:0:0:
368,267,52192,1,0,0:0:0:0:
401,164,52366,1,0,0:0:0:0:
432,296,52540,1,0,0:0:0:0:
334,215,52715,5,0,0:0:0:0:
451,191,52889,1,0,0:0:0:0:
349,292,53064,1,0,0:0:0:0:
393,139,53238,1,0,0:0:0:0:
261,204,53413,5,0,0:0:0:0:
247,76,53587,2,0,B|261:205|261:205|198:145,1,210.000008010865
158,267,53936,1,0,0:0:0:0:
261,203,54110,6,0,B|296:241|296:241|354:237,3,105.000004005432
334,162,54459,2,0,B|398:161|398:161|439:131,3,105.000004005432
372,80,54808,6,0,B|426:43|426:43|426:1,7,105.000004005432
339,3,55506,5,0,0:0:0:0:
63,327,56901,6,0,B|332:277|332:277|163:231|163:231|160:192,1,420.000016021729
314,124,57424,1,0,0:0:0:0:
285,138,57511,1,0,0:0:0:0:
257,154,57599,6,0,B|361:176|361:176|447:70,1,210.000008010865
322,267,57947,2,0,B|218:245|218:245|132:351,1,210.000008010865
63,135,58296,6,0,L|188:402,1,210.000008010865
347,248,58645,2,0,L|222:-19,1,210.000008010865
152,325,58994,6,0,L|432:213,1,210.000008010865
257,57,59343,2,0,L|-14:165,1,210.000008010865
207,186,59692,6,0,B|320:139|419:222|396:345|396:345|487:251,1,420.000016021729
274,298,60215,1,0,0:0:0:0:
274,298,60302,1,0,0:0:0:0:
274,298,60389,6,0,L|153:337,1,105.000004005432
96,280,60564,2,0,L|195:247,1,105.000004005432
230,161,60738,2,0,L|109:200,1,105.000004005432
7,157,60913,2,0,L|106:124,1,105.000004005432
191,59,61087,6,0,B|129:195|129:195|187:197|187:197|162:273|162:273|203:246|203:246|293:316,1,420.000016021729
339,357,61610,1,0,0:0:0:0:
441,201,61785,6,0,P|267:300|253:396,1,210.000008010865
323,133,62133,2,0,P|453:54|460:-12,1,210.000008010865
493,154,62482,6,0,P|397:332|180:338,1,420.000016021729
90,223,63006,1,0,0:0:0:0:
121,223,63093,1,0,0:0:0:0:
148,208,63180,6,0,P|243:215|305:331,1,210.000008010865
326,168,63529,2,0,P|456:157|502:18,1,210.000008010865
377,66,63878,6,0,P|273:79|185:134,1,210.000008010865
89,298,64227,2,0,B|163:315|163:315|329:242,1,210.000008010865
476,298,64575,2,0,B|406:194|406:194|325:167,1,210.000008010865
164,316,64924,2,0,L|417:288,1,210.000008010865
439,168,65273,6,0,B|456:137|443:104|443:104|381:144|381:144|382:106|382:106|329:162|329:162|324:115|324:115|295:241|194:226,1,420.000016021729
211,291,65796,1,0,0:0:0:0:
238,306,65883,1,0,0:0:0:0:
269,307,65971,6,0,P|305:297|347:162,1,105.000004005432
350,169,66145,2,0,P|310:175|268:310,1,105.000004005432
250,334,66320,2,0,P|286:324|335:188,1,105.000004005432
350,169,66494,2,0,P|314:179|272:314,1,105.000004005432
234,362,66668,6,0,P|107:298|213:95,1,420.000016021729
255,200,67192,1,0,0:0:0:0:
366,137,67366,6,0,B|444:110|444:110|509:238,1,210.000008010865
368,256,67715,2,0,B|248:256|248:256|165:202,1,210.000008010865
53,95,68064,6,0,B|127:171|203:102|203:102|298:14|400:59|458:185,1,420.000016021729
284,234,68587,1,0,0:0:0:0:
305,211,68674,1,0,0:0:0:0:
311,180,68761,6,0,P|231:157|123:242,1,210.000008010865
233,320,69110,2,0,B|347:303|347:303|406:203,1,210.000008010865
363,79,69459,6,0,B|291:49|291:49|318:226,1,210.000008010865
215,107,69808,1,0,0:0:0:0:
183,250,69982,1,0,0:0:0:0:
163,225,70070,1,0,0:0:0:0:
161,193,70157,6,0,P|188:322|261:351,1,210.000008010865
286,211,70506,2,0,P|239:213|290:215,1,210.000008010865
324,330,70854,6,0,P|359:183|155:259,1,420.000016021729
150,27,71378,1,0,0:0:0:0:
159,56,71465,1,0,0:0:0:0:
164,86,71552,6,0,L|120:181,1,105.000004005432
165,251,71727,2,0,L|208:155,1,105.000004005432
287,149,71901,2,0,L|243:244,1,105.000004005432
276,344,72076,2,0,L|319:248,1,105.000004005432
422,168,72250,6,0,B|388:267|388:267|448:296|493:234|493:234|376:244|299:161|299:161,1,420.000016021729
395,74,72773,1,0,0:0:0:0:
271,94,72947,6,0,B|296:232|296:232|318:139,1,210.000008010865
217,270,73296,2,0,B|209:327|209:327|155:176,1,210.000008010865
52,309,73645,6,0,P|207:331|344:101,1,420.000016021729
403,310,74168,1,0,0:0:0:0:
374,324,74256,1,0,0:0:0:0:
342,321,74343,6,0,P|240:236|236:165,1,210.000008010865
124,301,74692,2,0,P|308:237|326:158,1,210.000008010865
160,139,75040,6,0,P|231:166|133:176,1,210.000008010865
108,65,75389,1,0,0:0:0:0:
64,205,75564,1,0,0:0:0:0:
64,205,75651,1,0,0:0:0:0:
64,205,75738,6,0,P|159:139|254:146,1,210.000008010865
360,193,76087,2,0,P|265:259|170:252,1,210.000008010865
207,337,76436,6,0,P|408:251|449:50,1,420.000016021729
301,162,76959,1,0,0:0:0:0:
320,137,77046,1,0,0:0:0:0:
336,110,77133,6,0,L|216:155,1,105.000004005432
161,254,77308,2,0,L|273:201,1,105.000004005432
347,81,77482,2,0,L|227:126,1,105.000004005432
161,254,77657,2,0,L|277:205,1,105.000004005432
161,254,77831,6,0,B|399:165|399:165|212:343,1,420.000016021729
133,268,78354,1,0,0:0:0:0:
179,94,78529,2,0,L|300:318,1,210.000008010865
298,145,78878,2,0,L|377:295,1,140
499,292,79227,6,0,L|272:382,1,210.000008010865
150,322,79575,2,0,B|278:272|278:272|186:258,1,210.000008010865
286,162,79924,2,0,B|343:202|343:202|181:177,1,210.000008010865
76,163,80273,2,0,B|143:50|143:50|129:177,1,210.000008010865
106,244,80622,6,0,L|281:128,1,210.000008010865
271,279,80971,2,0,B|282:125|282:125|343:240,1,210.000008010865
358,309,81320,2,0,B|455:240|455:240|444:142,1,210.000008010865
307,201,81668,2,0,B|374:201|374:201|188:329,1,210.000008010865
84,228,82017,6,0,L|246:94,1,210.000008010865
428,156,82366,2,0,L|265:289,1,210.000008010865
79,182,82715,2,0,L|241:48,1,210.000008010865
433,202,83064,2,0,L|270:335,1,210.000008010865
297,94,83413,6,0,B|205:143|205:143|133:251,1,210.000008010865
215,290,83761,2,0,B|306:240|306:240|379:133,1,210.000008010865
190,141,84110,2,0,L|241:429,1,210.000008010865
415,233,84459,1,0,0:0:0:0:
387,248,84546,1,0,0:0:0:0:
355,248,84633,1,0,0:0:0:0:
327,232,84721,1,0,0:0:0:0:
319,201,84808,5,0,0:0:0:0:
353,326,84982,1,0,0:0:0:0:
259,278,85157,1,0,0:0:0:0:
405,188,85331,1,0,0:0:0:0:
359,269,85506,1,0,0:0:0:0:
344,124,85680,1,0,0:0:0:0:
439,213,85854,1,0,0:0:0:0:
431,118,86029,1,0,0:0:0:0:
301,190,86203,5,0,0:0:0:0:
355,81,86378,1,0,0:0:0:0:
229,182,86552,1,0,0:0:0:0:
264,90,86727,1,0,0:0:0:0:
300,232,86901,1,0,0:0:0:0:
234,146,87075,1,0,0:0:0:0:
368,117,87250,1,0,0:0:0:0:
300,187,87424,1,0,0:0:0:0:
223,269,87599,6,0,B|284:293|284:293|338:281,3,105.000004005432
309,356,87947,2,0,B|369:335|369:335|418:242,3,105.000004005432
457,310,88296,6,0,B|436:243|436:243|380:225,7,105.000004005432
434,242,88994,6,0,L|374:38,1,210.000008010865
280,22,89343,2,0,L|332:190,1,175
229,133,89692,1,0,0:0:0:0:
337,223,89866,1,0,0:0:0:0:
156,213,90040,1,0,0:0:0:0:
150,256,90128,1,0,0:0:0:0:
173,292,90215,1,0,0:0:0:0:
213,307,90302,1,0,0:0:0:0:
252,294,90389,5,0,0:0:0:0:
304,247,90564,1,0,0:0:0:0:
372,233,90738,1,0,0:0:0:0:
438,254,90913,1,0,0:0:0:0:
474,313,91087,5,0,0:0:0:0:
500,290,91174,1,0,0:0:0:0:
508,256,91261,1,0,0:0:0:0:
438,254,91436,1,0,0:0:0:0:
372,233,91610,1,0,0:0:0:0:
329,176,91785,5,0,0:0:0:0:
288,232,91959,1,0,0:0:0:0:
219,247,92133,1,0,0:0:0:0:
156,215,92308,1,0,0:0:0:0:
143,146,92482,1,0,0:0:0:0:
101,280,92657,2,0,L|58:125,1,140
25,9,93180,5,0,0:0:0:0:
67,64,93354,1,0,0:0:0:0:
134,81,93529,1,0,0:0:0:0:
202,69,93703,1,0,0:0:0:0:
258,27,93878,5,0,0:0:0:0:
273,58,93965,1,0,0:0:0:0:
287,89,94052,1,0,0:0:0:0:
216,85,94227,1,0,0:0:0:0:
169,137,94401,1,0,0:0:0:0:
175,206,94575,5,0,0:0:0:0:
240,181,94750,1,0,0:0:0:0:
305,205,94924,1,0,0:0:0:0:
324,272,95099,1,0,0:0:0:0:
365,216,95273,1,0,0:0:0:0:
290,333,95447,6,0,P|421:310|431:296,1,140
437,283,95883,1,0,0:0:0:0:
438,247,95971,5,0,0:0:0:0:
340,253,96145,1,0,0:0:0:0:
252,208,96320,1,0,0:0:0:0:
214,117,96494,1,0,0:0:0:0:
228,20,96668,5,0,0:0:0:0:
185,45,96756,1,0,0:0:0:0:
145,73,96843,1,0,0:0:0:0:
112,165,97017,1,0,0:0:0:0:
148,256,97192,1,0,0:0:0:0:
240,287,97366,5,0,0:0:0:0:
274,195,97540,1,0,0:0:0:0:
361,150,97715,1,0,0:0:0:0:
455,174,97889,1,0,0:0:0:0:
505,258,98064,1,0,0:0:0:0:
346,144,98238,2,0,L|365:5,1,140
221,138,98761,5,0,0:0:0:0:
234,235,98936,1,0,0:0:0:0:
312,293,99110,1,0,0:0:0:0:
410,294,99285,1,0,0:0:0:0:
484,231,99459,5,0,0:0:0:0:
438,213,99546,1,0,0:0:0:0:
421,166,99633,1,0,0:0:0:0:
342,224,99808,1,0,0:0:0:0:
244,219,99982,1,0,0:0:0:0:
189,136,100157,5,0,0:0:0:0:
214,230,100331,1,0,0:0:0:0:
305,266,100506,1,0,0:0:0:0:
399,241,100680,1,0,0:0:0:0:
446,155,100854,1,0,0:0:0:0:
305,266,101029,2,0,L|187:366,1,140
165,342,101465,5,0,0:0:0:0:
152,309,101552,5,0,0:0:0:0:
17,349,101727,1,0,0:0:0:0:
51,213,101901,1,0,0:0:0:0:
152,309,102075,1,0,0:0:0:0:
184,172,102250,5,0,0:0:0:0:
195,138,102337,1,0,0:0:0:0:
220,114,102424,1,0,0:0:0:0:
268,230,102599,1,0,0:0:0:0:
347,132,102773,1,0,0:0:0:0:
356,194,102860,1,0,0:0:0:0:
366,255,102947,5,0,0:0:0:0:
437,150,103122,1,0,0:0:0:0:
494,261,103296,1,0,0:0:0:0:
389,189,103471,1,0,0:0:0:0:
456,82,103645,1,0,0:0:0:0:
329,74,103820,5,0,0:0:0:0:
309,212,103994,1,0,0:0:0:0:
261,80,104168,1,0,0:0:0:0:
250,149,104256,1,0,0:0:0:0:
241,219,104343,5,0,0:0:0:0:
101,211,104517,1,0,0:0:0:0:
179,94,104692,1,0,0:0:0:0:
241,219,104866,1,0,0:0:0:0:
365,154,105040,5,0,0:0:0:0:
387,126,105128,1,0,0:0:0:0:
390,91,105215,1,0,0:0:0:0:
500,176,105389,1,0,0:0:0:0:
368,225,105564,1,0,0:0:0:0:
327,282,105651,1,0,0:0:0:0:
285,338,105738,5,0,0:0:0:0:
265,198,105913,1,0,0:0:0:0:
156,286,106087,1,0,0:0:0:0:
285,338,106261,1,0,0:0:0:0:
265,198,106436,5,0,0:0:0:0:
175,369,106610,1,0,0:0:0:0:
262,173,106785,1,0,0:0:0:0:
126,207,106959,1,0,0:0:0:0:
148,140,107046,1,0,0:0:0:0:
202,96,107133,5,0,0:0:0:0:
67,137,107308,1,0,0:0:0:0:
114,5,107482,1,0,0:0:0:0:
223,93,107656,1,0,0:0:0:0:
35,72,107831,5,0,0:0:0:0:
11,98,107918,1,0,0:0:0:0:
0,131,108005,1,0,0:0:0:0:
127,125,108180,1,0,0:0:0:0:
42,254,108354,1,0,0:0:0:0:
103,287,108441,1,0,0:0:0:0:
170,304,108528,5,0,0:0:0:0:
173,184,108703,1,0,0:0:0:0:
260,302,108877,1,0,0:0:0:0:
185,212,109052,1,0,0:0:0:0:
356,284,109226,1,0,0:0:0:0:
305,168,109401,5,0,0:0:0:0:
181,103,109575,1,0,0:0:0:0:
290,16,109749,1,0,0:0:0:0:
338,6,109837,1,0,0:0:0:0:
383,24,109924,5,0,0:0:0:0:
268,112,110098,1,0,0:0:0:0:
385,104,110273,1,0,0:0:0:0:
310,231,110447,1,0,0:0:0:0:
426,180,110621,5,0,0:0:0:0:
463,147,110709,1,0,0:0:0:0:
480,101,110796,1,0,0:0:0:0:
512,220,110970,1,0,0:0:0:0:
426,180,111145,1,0,0:0:0:0:
356,174,111232,1,0,0:0:0:0:
290,199,111319,5,0,0:0:0:0:
306,322,111494,1,0,0:0:0:0:
235,249,111668,1,0,0:0:0:0:
382,307,111842,1,0,0:0:0:0:
253,267,112017,5,0,0:0:0:0:
356,174,112191,1,0,0:0:0:0:
306,322,112366,5,0,0:0:0:0:
166,331,112540,1,0,0:0:0:0:
129,288,112627,1,0,0:0:0:0:
123,231,112715,6,0,P|159:199|190:185,1,70
262,187,112889,2,0,P|299:184|350:148,1,70
404,132,113064,2,0,L|387:256,1,70
465,246,113238,2,0,L|480:144,1,70
488,93,113413,5,0,0:0:0:0:
459,62,113500,1,0,0:0:0:0:
417,53,113587,2,0,P|391:66|350:143,1,70
366,220,113761,2,0,L|423:151,1,70
470,225,113936,2,0,L|393:316,1,70
320,281,114110,5,0,0:0:0:0:
293,197,114285,1,0,0:0:0:0:
229,283,114459,1,0,0:0:0:0:
245,156,114633,1,0,0:0:0:0:
184,233,114808,1,0,0:0:0:0:
162,150,114982,2,0,P|99:226|110:281,1,140
216,285,115506,6,0,L|194:352,1,70
289,314,115680,2,0,L|291:384,1,70
365,324,115854,2,0,L|402:384,1,70
457,328,116029,2,0,L|512:372,1,70
512,274,116203,5,0,0:0:0:0:
482,235,116290,1,0,0:0:0:0:
480,185,116378,2,0,P|432:179|405:201,1,70
323,264,116552,2,0,L|342:177,1,70
253,135,116727,2,0,L|250:233,1,70
189,161,116901,5,0,0:0:0:0:
189,281,117075,1,0,0:0:0:0:
110,193,117250,1,0,0:0:0:0:
250,204,117424,1,0,0:0:0:0:
162,130,117599,1,0,0:0:0:0:
78,222,117773,2,0,L|73:319,1,70
212,323,118122,5,0,0:0:0:0:
252,275,118209,1,0,0:0:0:0:
260,212,118296,6,0,P|248:175|248:144,1,70
336,91,118471,2,0,L|320:208,1,70
406,237,118645,2,0,L|400:147,1,70
479,161,118820,2,0,L|468:65,1,70
402,35,118994,5,0,0:0:0:0:
348,52,119081,1,0,0:0:0:0:
294,36,119168,2,0,P|271:72|269:125,1,70
211,192,119343,2,0,L|199:107,1,70
124,52,119517,2,0,L|126:143,1,70
131,245,119692,5,0,0:0:0:0:
46,131,119866,1,0,0:0:0:0:
45,233,120040,1,0,0:0:0:0:
125,121,120215,1,0,0:0:0:0:
169,213,120389,1,0,0:0:0:0:
245,156,120564,6,0,P|273:219|270:288,1,140
370,337,121087,6,0,L|345:249,1,70
432,259,121261,2,0,L|432:190,1,70
344,245,121436,2,0,L|319:157,1,70
431,165,121610,2,0,L|431:96,1,70
318,154,121785,5,0,0:0:0:0:
265,173,121872,1,0,0:0:0:0:
209,170,121959,2,0,P|206:212|228:252,1,70
138,261,122133,2,0,L|141:330,1,70
61,249,122308,2,0,L|59:179,1,70
59,69,122482,5,0,0:0:0:0:
163,110,122657,1,0,0:0:0:0:
111,29,122831,1,0,0:0:0:0:
127,160,123006,1,0,0:0:0:0:
197,50,123180,1,0,0:0:0:0:
185,199,123354,2,0,L|166:131,1,70
94,197,123703,1,0,0:0:0:0:
81,221,123790,1,0,0:0:0:0:
76,248,123878,6,0,P|150:269|202:219,1,87.5
281,311,124052,2,0,P|195:348|183:419,1,87.5
227,241,124227,2,0,P|249:203|284:178,1,87.5
374,172,124401,2,0,P|476:120|479:98,1,87.5
347,48,124575,5,0,0:0:0:0:
312,83,124663,1,0,0:0:0:0:
263,83,124750,2,0,P|199:48|144:55,1,87.5
217,134,124924,2,0,P|226:160|197:219,1,87.5
141,243,125099,1,0,0:0:0:0:
112,306,125186,1,0,0:0:0:0:
126,374,125273,5,0,0:0:0:0:
58,235,125447,1,0,0:0:0:0:
193,326,125622,1,0,0:0:0:0:
143,153,125796,1,0,0:0:0:0:
211,241,125971,1,0,0:0:0:0:
209,87,126145,1,0,0:0:0:0:
282,221,126320,2,0,P|210:164|214:76,1,175
254,34,126581,1,0,0:0:0:0:
308,77,126668,6,0,P|383:86|396:27,1,87.5
427,17,126842,2,0,P|384:81|441:129,1,87.5
419,175,127017,2,0,P|396:212|348:223,1,87.5
273,228,127191,2,0,P|240:256|226:297,1,87.5
226,372,127365,5,0,0:0:0:0:
182,366,127453,1,0,0:0:0:0:
148,338,127540,2,0,P|123:304|46:284,1,87.5
0,227,127714,2,0,L|99:206,1,87.5
216,191,127889,1,0,0:0:0:0:
208,234,127976,1,0,0:0:0:0:
230,271,128063,5,0,0:0:0:0:
317,199,128237,1,0,0:0:0:0:
324,275,128412,1,0,0:0:0:0:
264,146,128586,1,0,0:0:0:0:
263,232,128761,1,0,0:0:0:0:
337,101,128935,1,0,0:0:0:0:
252,57,129110,2,0,L|263:242,1,175
193,221,129371,1,0,0:0:0:0:
141,269,129459,6,0,P|215:290|267:240,1,87.5
283,255,129633,2,0,P|325:230|362:226,1,87.5
423,262,129808,2,0,P|390:294|351:298,1,87.5
259,242,129982,2,0,P|265:184|323:147,1,87.5
375,113,130156,5,0,0:0:0:0:
345,79,130244,1,0,0:0:0:0:
304,63,130331,2,0,P|252:56|221:35,1,87.5
142,0,130505,2,0,L|120:84,1,87.5
98,185,130680,1,0,0:0:0:0:
141,183,130767,1,0,0:0:0:0:
183,194,130854,5,0,0:0:0:0:
150,284,131028,1,0,0:0:0:0:
275,203,131203,1,0,0:0:0:0:
187,240,131377,1,0,0:0:0:0:
227,143,131552,1,0,0:0:0:0:
270,276,131726,1,0,0:0:0:0:
259,101,131901,2,0,L|270:286,1,175
336,255,132162,1,0,0:0:0:0:
326,325,132250,6,0,P|400:346|452:296,1,87.5
459,247,132424,2,0,P|373:284|361:355,1,87.5
407,177,132599,2,0,P|429:139|464:114,1,87.5
381,165,132773,2,0,P|342:185|299:182,1,87.5
236,152,132947,5,0,0:0:0:0:
246,203,133035,1,0,0:0:0:0:
258,253,133122,2,0,L|233:336,1,87.5
142,364,133296,2,0,L|169:258,1,87.5
145,229,133471,1,0,0:0:0:0:
124,180,133558,1,0,0:0:0:0:
100,133,133645,5,0,0:0:0:0:
217,93,133819,1,0,0:0:0:0:
184,178,133994,1,0,0:0:0:0:
152,57,134168,1,0,0:0:0:0:
238,129,134343,1,0,0:0:0:0:
254,48,134517,1,0,0:0:0:0:
264,222,134692,2,0,L|253:47,1,175
313,82,134953,1,0,0:0:0:0:
382,79,135040,6,0,P|431:119|399:212,1,122.500001168251
336,275,135215,2,0,L|362:125,1,122.500001168251
268,60,135389,2,0,L|270:232,1,122.500001168251
171,240,135564,2,0,L|197:88,1,122.500001168251
94,50,135738,5,0,0:0:0:0:
175,75,135825,1,0,0:0:0:0:
256,60,135913,2,0,L|271:206,1,122.500001168251
281,310,136087,2,0,P|238:351|178:355,1,122.500001168251
73,321,136261,2,0,L|98:201,1,122.500001168251
202,90,136436,6,0,P|229:163|175:306,1,140
333,335,136610,2,0,P|306:262|360:119,1,140
205,37,136785,2,0,L|202:222,1,140
333,384,136959,2,0,L|336:199,1,140
434,38,137133,2,0,L|442:236,1,140
446,317,137308,1,0,0:0:0:0:
434,38,137482,2,0,L|450:389,1,280
396,230,137831,6,0,P|355:279|372:420,1,122.500001168251
251,279,138006,2,0,B|224:250|224:250|244:113,1,122.500001168251
158,78,138180,2,0,L|155:242,1,122.500001168251
65,289,138355,2,0,L|84:136,1,122.500001168251
158,273,138529,5,0,0:0:0:0:
222,217,138616,1,0,0:0:0:0:
285,157,138704,2,0,L|300:303,1,122.500001168251
432,157,138878,2,0,P|462:93|423:28,1,122.500001168251
259,80,139052,2,0,L|395:99,1,122.500001168251
512,174,139227,6,0,P|525:278|403:319,1,140
311,276,139401,2,0,L|503:218,1,140
240,182,139576,2,0,L|237:367,1,140
116,271,139750,2,0,L|121:104,1,140
244,73,139924,2,0,L|236:269,1,140
113,372,140099,1,0,0:0:0:0:
124,92,140273,2,0,L|111:435,1,280
183,301,140535,1,0,0:0:0:0:
247,357,140622,6,0,P|255:267|174:195,1,122.500001168251
341,205,140797,2,0,P|327:144|367:55,1,122.500001168251
490,46,140971,2,0,L|384:186,1,122.500001168251
420,268,141146,2,0,L|521:142,1,122.500001168251
342,87,141320,5,0,0:0:0:0:
257,101,141407,1,0,0:0:0:0:
173,123,141495,2,0,L|188:269,1,122.500001168251
97,334,141669,2,0,L|84:206,1,122.500001168251
184,66,141843,2,0,L|200:217,1,122.500001168251
327,346,142018,6,0,P|342:278|321:212,1,140
423,129,142192,2,0,L|421:268,1,140
347,79,142367,2,0,L|344:264,1,140
261,32,142541,2,0,L|262:171,1,140
174,0,142715,2,0,L|182:198,1,140
192,352,142890,1,0,0:0:0:0:
174,0,143064,2,0,L|191:352,1,280
236,158,143413,6,0,L|190:278,1,122.500001168251
319,128,143588,2,0,L|298:248,1,122.500001168251
395,86,143762,2,0,L|392:250,1,122.500001168251
461,34,143937,2,0,L|483:154,1,122.500001168251
510,267,144111,5,0,0:0:0:0:
430,298,144198,1,0,0:0:0:0:
346,320,144286,2,0,P|321:270|333:198,1,122.500001168251
414,131,144460,2,0,L|216:162,1,122.500001168251
183,163,144634,2,0,P|213:92|189:40,1,122.500001168251
29,178,144809,6,0,P|72:113|148:106,1,140
96,312,144983,2,0,P|122:250|98:152,1,140
229,239,145158,2,0,P|296:229|333:172,1,140
250,26,145332,2,0,L|251:165,1,140
381,285,145506,2,0,P|357:184|304:169,1,140
315,248,145681,1,0,0:0:0:0:
117,109,145855,2,0,P|218:247|387:195,1,280
262,31,146203,6,0,L|248:126,1,70
333,172,146378,2,0,L|334:50,1,87.5
431,21,146552,2,0,L|406:154,1,105.000004005432
510,210,146727,2,0,L|498:53,1,122.500001168251
420,210,146901,5,0,0:0:0:0:
411,112,146988,1,0,0:0:0:0:
407,13,147076,2,0,L|189:23,1,122.500001168251
98,109,147250,2,0,L|257:111,1,122.500001168251
420,210,147424,2,0,L|269:208,1,122.500001168251
305,68,147599,6,0,L|292:287,1,140
229,384,147773,2,0,L|231:224,1,140
178,0,147948,2,0,L|175:185,1,140
95,316,148122,2,0,L|93:148,1,140
9,15,148296,2,0,L|17:213,1,140
21,294,148471,1,0,0:0:0:0:
9,15,148645,2,0,L|25:360,1,280
132,107,148994,6,0,P|183:75|247:88,1,122.500001168251
162,264,149169,2,0,P|198:209|188:114,1,122.500001168251
320,266,149343,2,0,L|451:230,1,122.500001168251
307,165,149518,2,0,P|285:105|333:13,1,122.500001168251
376,96,149692,5,0,0:0:0:0:
307,165,149779,1,0,0:0:0:0:
246,243,149867,2,0,L|261:389,1,122.500001168251
72,329,150041,2,0,P|145:336|212:254,1,122.500001168251
130,139,150215,2,0,L|122:292,1,122.500001168251
217,166,150390,6,0,P|204:78|225:26,1,140
366,225,150564,2,0,P|348:150|248:85,1,140
484,50,150739,2,0,L|429:229,1,140
393,328,150913,2,0,P|294:331|249:258,1,140
120,159,151087,2,0,L|128:357,1,140
129,379,151262,1,0,0:0:0:0:
117,99,151436,2,0,L|130:418,1,280
206,299,151697,1,0,0:0:0:0:
277,213,151785,6,0,L|272:83,1,122.500001168251
372,158,151960,2,0,P|396:213|387:273,1,122.500001168251
318,162,152134,2,0,P|319:101|351:50,1,122.500001168251
427,206,152309,2,0,L|406:326,1,122.500001168251
253,331,152483,5,0,0:0:0:0:
244,233,152570,1,0,0:0:0:0:
234,134,152658,2,0,L|16:184,1,122.500001168251
28,273,152832,2,0,L|214:229,1,122.500001168251
335,205,153006,2,0,P|364:276|327:358,1,122.500001168251
467,250,153181,6,0,P|505:177|475:110,1,140
333,73,153355,2,0,L|424:178,1,140
280,17,153530,2,0,P|223:66|277:202,1,140
228,323,153704,2,0,P|272:270|280:171,1,140
79,201,153878,2,0,P|148:197|207:272,1,140
118,281,154053,1,0,0:0:0:0:
0,28,154227,2,0,L|148:345,1,280
189,131,154575,6,0,P|218:80|283:69,1,122.500001168251
243,261,154750,2,0,L|269:111,1,122.500001168251
344,79,154924,2,0,P|409:134|362:232,1,122.500001168251
319,277,155099,2,0,L|345:127,1,122.500001168251
165,186,155273,5,0,0:0:0:0:
203,275,155360,1,0,0:0:0:0:
242,365,155448,2,0,L|372:312,1,122.500001168251
446,269,155622,2,0,P|462:326|436:380,1,122.500001168251
374,239,155796,2,0,L|380:116,1,122.500001168251
305,25,155971,6,0,P|264:83|297:192,1,140
302,246,156145,2,0,P|353:189|304:86,1,140
217,200,156320,2,0,L|214:385,1,140
133,290,156494,2,0,L|133:123,1,140
120,47,156668,2,0,P|206:85|293:99,1,140
388,76,156843,1,0,0:0:0:0:
120,47,157017,2,0,P|289:96|460:33,1,280
349,166,157279,1,0,0:0:0:0:
324,247,157366,6,0,L|461:222,1,122.500001168251
216,369,157541,2,0,P|197:289|242:219,1,122.500001168251
76,99,157715,2,0,L|125:260,1,122.500001168251
275,307,157890,2,0,P|300:288|301:155,1,122.500001168251
250,95,158064,5,0,0:0:0:0:
333,78,158151,1,0,0:0:0:0:
418,63,158239,2,0,L|433:209,1,122.500001168251
390,365,158413,2,0,P|408:298|381:236,1,122.500001168251
202,332,158587,2,0,L|323:308,1,122.500001168251
289,66,158762,6,0,P|245:131|297:230,1,140
391,249,158936,2,0,P|387:186|300:142,1,140
162,242,159111,2,0,L|164:102,1,140
86,342,159285,2,0,L|71:175,1,140
156,63,159459,2,0,L|164:261,1,140
60,84,159634,1,0,0:0:0:0:
89,363,159808,2,0,L|60:82,1,280
219,29,160157,6,0,P|181:86|195:219,1,122.500001168251
253,320,160332,2,0,P|290:265|279:170,1,122.500001168251
365,50,160506,2,0,L|402:225,1,122.500001168251
462,356,160681,2,0,L|488:204,1,122.500001168251
253,320,160855,5,0,0:0:0:0:
212,244,160942,1,0,0:0:0:0:
172,166,161030,2,0,L|62:250,1,122.500001168251
386,190,161204,2,0,P|308:84|345:14,1,122.500001168251
502,114,161378,2,0,L|477:264,1,122.500001168251
197,57,161553,6,0,P|266:54|267:193,1,140
230,265,161727,2,0,L|232:105,1,140
133,257,161902,2,0,P|85:325|-49:337,1,140
41,122,162076,2,0,P|24:190|42:261,1,140
150,167,162250,2,0,P|175:120|144:27,1,140
156,39,162425,1,0,0:0:0:0:
330,258,162599,2,0,L|155:38,1,280
249,67,162860,1,0,0:0:0:0:
332,47,162947,6,0,P|399:67|467:141,1,122.500001168251
330,258,163122,2,0,L|356:108,1,122.500001168251
421,238,163296,2,0,L|418:402,1,122.500001168251
313,221,163471,2,0,L|339:69,1,122.500001168251
188,40,163645,5,0,0:0:0:0:
207,123,163732,1,0,0:0:0:0:
229,206,163820,2,0,L|259:353,1,122.500001168251
122,337,163994,2,0,P|101:277|113:208,1,122.500001168251
44,46,164168,2,0,P|64:111|36:199,1,122.500001168251
309,68,164343,6,0,L|166:113,1,140
369,182,164517,2,0,L|517:122,1,140
256,183,164692,2,0,L|253:368,1,140
338,384,164866,2,0,L|336:216,1,140
175,110,165040,2,0,L|183:308,1,140
169,28,165215,1,0,0:0:0:0:
185,307,165389,2,0,L|165:-39,1,280
314,107,165738,6,0,P|338:167|290:297,1,122.500001168251
302,358,165913,2,0,L|425:269,1,122.500001168251
487,90,166087,2,0,L|364:211,1,122.500001168251
210,172,166262,2,0,L|332:94,1,122.500001168251
143,48,166436,5,0,0:0:0:0:
125,144,166523,1,0,0:0:0:0:
110,241,166611,2,0,L|240:278,1,122.500001168251
378,367,166785,2,0,P|354:335|369:367,1,122.500001168251
471,262,166959,2,0,P|477:201|469:140,1,122.500001168251
383,25,167134,6,0,P|351:101|435:167,1,140
262,372,167308,2,0,L|264:212,1,140
214,27,167483,2,0,P|225:101|145:153,1,140
72,89,167657,2,0,L|74:229,1,140
292,139,167831,2,0,L|286:0,1,140
286,0,168006,1,0,0:0:0:0:
301,278,168180,2,0,L|285:0,1,280
221,81,168529,6,0,L|139:101,1,52.5000020027161
93,243,168704,2,0,L|131:183,1,70
310,102,168878,2,0,L|237:150,1,87.5
161,350,169053,2,0,L|186:198,1,105.000004005432
367,145,169227,5,0,0:0:0:0:
303,219,169314,1,0,0:0:0:0:
251,303,169402,2,0,L|374:275,1,122.500001168251
483,128,169575,2,0,L|414:143,1,70
211,175,169925,6,0,P|168:231|198:394,1,140
48,136,170099,2,0,P|35:67|51:0,1,140
294,114,170273,2,0,P|306:182|290:250,1,140
48,136,170447,2,0,P|59:67|97:9,1,140
286,199,170621,2,0,P|274:267|236:325,1,140
107,372,170797,1,0,0:0:0:0:
213,113,170971,2,0,L|66:469,1,280
340,150,171320,6,0,P|341:89|317:33,1,122.500001168251
443,306,171495,2,0,P|435:227|469:156,1,122.500001168251
323,266,171669,2,0,L|380:440,1,122.500001168251
196,289,171844,2,0,L|222:137,1,122.500001168251
101,54,172018,5,0,0:0:0:0:
198,59,172105,1,0,0:0:0:0:
296,69,172193,2,0,L|311:215,1,122.500001168251
111,373,172367,2,0,L|102:244,1,122.500001168251
266,113,172541,2,0,L|282:271,1,122.500001168251
452,138,172716,6,0,P|485:211|439:357,1,140
346,254,172890,2,0,P|404:236|348:204,1,140
200,218,173064,2,0,L|201:415,1,140
99,247,173238,2,0,L|98:107,1,140
198,0,173413,2,0,L|199:197,1,140
306,61,173588,1,0,0:0:0:0:
306,341,173761,2,0,L|306:61,1,280
395,130,174023,1,0,0:0:0:0:
471,191,174110,6,0,L|447:381,1,122.500001168251
175,326,174285,2,0,L|201:176,1,122.500001168251
494,27,174459,2,0,L|477:188,1,122.500001168251
208,172,174634,2,0,L|234:20,1,122.500001168251
25,293,174808,5,0,0:0:0:0:
122,293,174895,1,0,0:0:0:0:
220,293,174983,2,0,L|207:171,1,122.500001168251
413,79,175157,2,0,P|396:147|435:199,1,122.500001168251
353,368,175331,2,0,P|397:311|359:245,1,122.500001168251
290,163,175506,6,0,L|332:383,1,140
154,153,175680,2,0,P|103:69|156:-7,1,140
230,237,175855,2,0,L|227:422,1,140
327,73,176029,2,0,L|96:73,1,140
62,198,176203,2,0,L|70:396,1,140
71,375,176378,1,0,0:0:0:0:
54,56,176552,2,0,L|71:398,1,280
166,67,176901,6,0,B|219:25|219:25|291:23,15,140
253,97,178296,6,0,B|325:95|325:95|434:7,15,140
398,152,179692,6,0,B|229:207|229:207|194:157|194:157,1,210.000008010865
398,152,180040,6,0,B|232:210|232:210|197:160|197:160,1,210.000008010865
398,152,180389,6,0,B|236:214|236:214|201:164|201:164,1,210.000008010865
398,152,180738,6,0,B|240:218|240:218|205:168|205:168,1,210.000008010865
398,152,181087,6,0,B|243:221|243:221|208:171|208:171,1,210.000008010865
398,152,181435,6,0,B|247:225|247:225|212:175|212:175,1,210.000008010865
398,152,181784,6,0,B|250:228|250:228|215:178|215:178,1,210.000008010865
398,152,182133,6,0,B|254:232|254:232|219:182|219:182,1,210.000008010865
398,152,182482,6,0,B|258:236|258:236|223:186|223:186,1,210.000008010865
398,152,182831,6,0,B|261:239|261:239|226:189|226:189,1,210.000008010865
398,152,183179,6,0,B|265:243|265:243|230:193|230:193,1,210.000008010865
398,152,183528,6,0,B|269:247|269:247|234:197|234:197,1,210.000008010865
398,152,183878,6,0,B|272:250|272:250|237:200|237:200,1,210.000008010865
398,152,184226,6,0,B|276:254|276:254|241:204|241:204,1,210.000008010865
398,152,184575,6,0,B|280:258|280:258|245:208|245:208,1,210.000008010865
398,152,184924,6,0,B|283:261|283:261|248:211|248:211,1,210.000008010865
398,152,185273,6,0,B|287:265|287:265|247:209|247:209,1,210.000008010865
398,152,185622,6,0,B|291:269|291:269|242:197|242:197,1,238.00000453949
398,152,185971,6,0,B|294:272|294:272|238:191|238:191,1,251.999992309571
398,152,186320,6,0,B|298:276|298:276|234:183|234:183,1,265.999992897034
398,152,186668,6,0,B|302:280|302:280|232:176|232:176,1,280
398,152,187017,6,0,B|305:283|305:283|228:168|228:168,1,293.999991027832
398,152,187366,6,0,B|309:287|309:287|207:137|207:137,1,308.000009399414
398,152,187715,6,0,B|313:291|313:291|205:134|205:134,1,322.000006141663
163,73,188064,5,0,0:0:0:0:
131,87,188151,1,0,0:0:0:0:
109,114,188238,1,0,0:0:0:0:
100,147,188325,1,0,0:0:0:0:
102,182,188413,5,0,0:0:0:0:
150,161,188500,1,0,0:0:0:0:
201,154,188587,1,0,0:0:0:0:
251,166,188674,1,0,0:0:0:0:
294,194,188761,5,0,0:0:0:0:
252,251,188849,1,0,0:0:0:0:
297,303,188936,1,0,0:0:0:0:
364,286,189023,1,0,0:0:0:0:
361,216,189110,5,0,0:0:0:0:
298,155,189197,1,0,0:0:0:0:
307,67,189285,1,0,0:0:0:0:
375,13,189372,1,0,0:0:0:0:
453,52,189459,6,0,L|73:37,1,350
416,129,189808,2,0,L|36:114,1,350
385,206,190157,2,0,L|5:191,1,350
35,192,190418,1,0,0:0:0:0:
31,276,190506,2,0,L|263:287,1,210.000008010865
358,291,190854,1,0,0:0:0:0:
